osu file format v14

[General]
AudioFilename: audio.mp3
AudioLeadIn: 0
PreviewTime: 59960
Countdown: 0
SampleSet: Soft
StackLeniency: 0.7
Mode: 0
LetterboxInBreaks: 0
EpilepsyWarning: 1
WidescreenStoryboard: 1

[Editor]
Bookmarks: 119519,139687
DistanceSpacing: 0.9
BeatDivisor: 4
GridSize: 4
TimelineZoom: 2.3

[Metadata]
Title:this storyends
TitleUnicode:this storyends
Artist:winnie
ArtistUnicode:winnie
Creator:Seto Kousuke
Version:Normal
Source:
Tags:Greatful 15years synchronized Dead English Alternative Rock Indie toybot Trynna Shirahane Suou Peter PeterEU
BeatmapID:1941637
BeatmapSetID:929670

[Difficulty]
HPDrainRate:3
CircleSize:3
OverallDifficulty:3
ApproachRate:4.5
SliderMultiplier:0.6
SliderTickRate:1

[Events]
//Background and Video events
0,0,"winnie.jpg",0,0
//Break Periods
2,20895,35570
2,53164,55759
2,95517,98111
//Storyboard Layer 0 (Background)
//Storyboard Layer 1 (Fail)
//Storyboard Layer 2 (Pass)
//Storyboard Layer 3 (Foreground)
Sprite,Foreground,Centre,"SB\blur.jpg",0,0 M,0,61032,,320,240,319.55,236.325 F,0,61032,,0.9 S,0,61032,,0.4444444 M,0,61032,62040,319.55,236.325,318.1,240.05 M,0,62040,62544,318.1,240.05,320.875,240.5 M,0,62544,62796,320.875,240.5,321.0094,241.9768 M,0,62796,63049,321.0094,241.9768,320.4,243.35 M,0,63049,63805,320.4,243.35 M,0,63805,64057,320.4,243.35,321.775,243.925 M,0,64057,64561,321.775,243.925,324.4516,243.344 M,0,64561,65065,324.4516,243.344,325.65,240.575 M,0,65065,65821,325.65,240.575 M,0,65821,66074,325.65,240.575,324.225,241.075 M,0,66074,66830,324.225,241.075 M,0,66830,67082,324.225,241.075,324.3,242.575 M,0,67082,67460,324.3,242.575,322.8428,244.2894 M,0,67460,68091,322.8428,244.2894,319.1,244.65 M,0,68091,68595,319.1,244.65,318.075,241.825 M,0,68595,69099,318.075,241.825,319.625,239.25 M,0,69099,70107,319.625,239.25,316.304,236.6918 M,0,70107,70612,316.304,236.6918,313.75,238.275 M,0,70612,70864,313.75,238.275,314.3188,239.663 M,0,70864,71116,314.3188,239.663,314.5,241.125 M,0,71116,71872,314.5,241.125 M,0,71872,72124,314.5,241.125,315.875,240.525 M,0,72124,72628,315.875,240.525,318.7772,240.423 M,0,72628,73133,318.7772,240.423,321.225,242.15 M,0,73133,73889,321.225,242.15 M,0,73889,74141,321.225,242.15,321.925,240.825 M,0,74141,74897,321.925,240.825 M,0,74897,75149,321.925,240.825,320.625,240.125 M,0,75149,75527,320.625,240.125,320.1644,238.0166 M,0,75527,76158,320.1644,238.0166,317.325,235.525 M,0,76158,76536,317.325,235.525,317.22,237.7726 M,0,76536,76914,317.22,237.7726,316.825,239.975 M,0,76914,77166,316.825,239.975,320,240
Sprite,Foreground,Centre,"SB\blur.jpg",0,0 M,0,103385,,320,240,319.16,237.72 F,0,103385,,0.9 S,0,103385,,0.4444444 M,0,103385,104393,319.16,237.72,320.197,241.0582 M,0,104393,104897,320.197,241.0582,318.38,242.62 M,0,104897,105149,318.38,242.62,317.2097,242.3547 M,0,105149,105401,317.2097,242.3547,316,242.22 M,0,105401,105779,316,242.22,315.6019,240.6214 M,0,105779,106158,315.6019,240.6214,316.48,239.04 M,0,106158,106410,316.48,239.04,317.64,238.74 M,0,106410,106914,317.64,238.74,320.0388,238.8156 M,0,106914,107418,320.0388,238.8156,322.22,237.84 M,0,107418,108174,322.22,237.84 M,0,108174,108427,322.22,237.84,322.48,239 M,0,108427,109183,322.48,239 M,0,109183,109435,322.48,239,321.42,239.54 M,0,109435,109813,321.42,239.54,321.621,241.2024 M,0,109813,110443,321.621,241.2024,323.26,243.7 M,0,110443,110821,323.26,243.7,321.4659,243.5545 M,0,110821,111200,321.4659,243.5545,319.9,242.64 M,0,111200,111452,319.9,242.64,318.86,243.24 M,0,111452,112460,318.86,243.24,316.8236,240.5716 M,0,112460,112964,316.8236,240.5716,317.58,238.28 M,0,112964,113216,317.58,238.28,318.7742,238.3975 M,0,113216,113469,318.7742,238.3975,319.76,239.06 M,0,113469,113847,319.76,239.06,321.1413,238.0083 M,0,113847,114225,321.1413,238.0083,322.72,237.14 M,0,114225,114477,322.72,237.14,323.5,238.04 M,0,114477,114981,323.5,238.04,323.5,240.44 M,0,114981,115485,323.5,240.44,321.98,242.3 M,0,115485,116241,321.98,242.3 M,0,116241,116494,321.98,242.3,320.78,242.4 M,0,116494,117250,320.78,242.4 M,0,117250,117502,320.78,242.4,321.4,241.38 M,0,117502,117880,321.4,241.38,320.6491,239.8854 M,0,117880,118259,320.6491,239.8854,319.16,238.86 M,0,118259,118511,319.16,238.86,318.14,239.48 M,0,118511,119267,318.14,239.48 M,0,119267,119519,318.14,239.48,320,240
Sprite,Foreground,Centre,"SB\blur.jpg",0,0 M,0,155822,,320,240,323.45,238.975 F,0,155822,,0.9 S,0,155822,,0.4444444 M,0,155822,156830,323.45,238.975,317.791,239.4123 M,0,156830,157334,317.791,239.4123,314.95,240.4 M,0,157334,157586,314.95,240.4,314.6929,241.8389 M,0,157586,157838,314.6929,241.8389,315.225,243.225 M,0,157838,158216,315.225,243.225,317.4741,243.2887 M,0,158216,158595,317.4741,243.2887,319.45,244.325 M,0,158595,159351,319.45,244.325,321.6259,241.5981 M,0,159351,159855,321.6259,241.5981,321.275,238.6 M,0,159855,160611,321.275,238.6 M,0,160611,160864,321.275,238.6,319.95,237.85 M,0,160864,161620,319.95,237.85 M,0,161620,161872,319.95,237.85,318.625,238.6 M,0,161872,162250,318.625,238.6,316.7497,237.6562 M,0,162250,162628,316.7497,237.6562,315.125,236.075 M,0,162628,162880,315.125,236.075,314.1,237.175 M,0,162880,163258,314.1,237.175,314.1194,239.4249 M,0,163258,163637,314.1194,239.4249,315.1,241.425 M,0,163637,163889,315.1,241.425,316.45,242.025 M,0,163889,164897,316.45,242.025,322.2972,242.1327 M,0,164897,165401,322.2972,242.1327,324.975,240.775 M,0,165401,165653,324.975,240.775,325.0149,239.3213 M,0,165653,165906,325.0149,239.3213,324.15,238.075 M,0,165906,166284,324.15,238.075,321.9301,237.7082 M,0,166284,166662,321.9301,237.7082,320.1,236.35 M,0,166662,166914,320.1,236.35,319.2,237.55 M,0,166914,167418,319.2,237.55,318.8587,240.5305 M,0,167418,167922,318.8587,240.5305,316.4,242.275 M,0,167922,168678,316.4,242.275 M,0,168678,168931,316.4,242.275,316.175,240.775 M,0,168931,169687,316.175,240.775 M,0,169687,169939,316.175,240.775,317.675,240.55 M,0,169939,170317,317.675,240.55,318.55,238.575 M,0,170317,170948,318.55,238.575,321.55,236.3 M,0,170948,171326,321.55,236.3,323.7536,236.7544 M,0,171326,171704,323.7536,236.7544,325.425,238.225 M,0,171704,171956,325.425,238.225,326.25,239.45 M,0,171956,172964,326.25,239.45,322.8022,241.699 M,0,172964,173469,322.8022,241.699,320.225,240.25 M,0,173469,173721,320.225,240.25,318.7999,240.718 M,0,173721,173973,318.7999,240.718,317.925,241.925 M,0,173973,174351,317.925,241.925,318.3859,243.975 M,0,174351,174729,318.3859,243.975,320.475,244.8 M,0,174729,174981,320.475,244.8,321.825,244.175 M,0,174981,175485,321.825,244.175,323.7957,241.9131 M,0,175485,175990,323.7957,241.9131,325,239.15 M,0,175990,176746,325,239.15 M,0,176746,176998,325,239.15,323.525,238.775 M,0,176998,177754,323.525,238.775 M,0,177754,178006,323.525,238.775,322.5,239.875 M,0,178006,178384,322.5,239.875,320.3932,239.085 M,0,178384,179015,320.3932,239.085,317.875,236.275 M,0,179015,179393,317.875,236.275,316.1867,237.5705 M,0,179393,179771,316.1867,237.5705,314.95,239.45 M,0,179771,180023,314.95,239.45,314.625,240.9 M,0,180023,181031,314.625,240.9,318.7043,241.995 M,0,181031,181536,318.7043,241.995,320.025,239.3 M,0,181536,181788,320.025,239.3,320.0445,237.8001 M,0,181788,182040,320.0445,237.8001,320.575,236.4 M,0,182040,182418,320.575,236.4,322.6172,236.5343 M,0,182418,182796,322.6172,236.5343,323.825,238.4 M,0,182796,183049,323.825,238.4,323.4,239.825 M,0,183049,183553,323.4,239.825,322.6209,242.7221 M,0,183553,184057,322.6209,242.7221,319.6,242.825 M,0,184057,184813,319.6,242.825 M,0,184813,185065,319.6,242.825,320.3,241.525 M,0,185065,185821,320.3,241.525 M,0,185821,186074,320.3,241.525,318.775,241.575 M,0,186074,186452,318.775,241.575,316.6543,240.8231 M,0,186452,186830,316.6543,240.8231,314.475,240.2 M,0,186830,187082,314.475,240.2,313.875,238.8 M,0,187082,187838,313.875,238.8 M,0,187838,188091,313.875,238.8,320,240
Sprite,Foreground,Centre,"sb\f\0053.png",0,0 S,0,530,,0.5 M,0,530,730,307.6287,408.8787,231.6287,397.8787 F,0,530,730,0,1 M,0,188090,188290,231.6287,397.8787,276.6287,460.8787 F,0,188090,188290,1,0
Sprite,Foreground,Centre,"sb\f\0065.png",0,0 S,0,530,,0.5 M,0,530,730,239.6287,388.3787,249.6287,400.3787 F,0,530,730,0,1 M,0,188090,188290,249.6287,400.3787,190.6287,411.3787 F,0,188090,188290,1,0
Sprite,Foreground,Centre,"sb\f\0074.png",0,0 S,0,530,,0.5 M,0,530,730,292.8787,391.3787,263.8787,398.3787 F,0,530,730,0,1 M,0,188090,188290,263.8787,398.3787,358.8787,352.3787 F,0,188090,188290,1,0
Sprite,Foreground,Centre,"sb\f\006f.png",0,0 S,0,530,,0.5 M,0,530,730,276.3787,306.3787,278.3787,400.3787 F,0,530,730,0,1 M,0,188090,188290,278.3787,400.3787,304.3787,393.3787 F,0,188090,188290,1,0
Sprite,Foreground,Centre,"sb\f\004b.png",0,0 S,0,530,,0.5 M,0,530,730,274.6287,359.8787,307.6287,397.8787 F,0,530,730,0,1 M,0,188090,188290,307.6287,397.8787,379.6287,496.8787 F,0,188090,188290,1,0
Sprite,Foreground,Centre,"sb\f\006f.png",0,0 S,0,530,,0.5 M,0,530,730,423.8787,306.3787,324.8787,400.3787 F,0,530,730,0,1 M,0,188090,188290,324.8787,400.3787,387.8787,469.3787 F,0,188090,188290,1,0
Sprite,Foreground,Centre,"sb\f\0075.png",0,0 S,0,530,,0.5 M,0,530,730,335.1287,437.6287,342.1287,400.6287 F,0,530,730,0,1 M,0,188090,188290,342.1287,400.6287,381.1287,405.6287 F,0,188090,188290,1,0
Sprite,Foreground,Centre,"sb\f\0073.png",0,0 S,0,530,,0.5 M,0,530,730,376.6287,390.3787,358.6287,400.3787 F,0,530,730,0,1 M,0,188090,188290,358.6287,400.3787,367.6287,316.3787 F,0,188090,188290,1,0
Sprite,Foreground,Centre,"sb\f\0075.png",0,0 S,0,530,,0.5 M,0,530,730,339.1287,452.6287,375.1287,400.6287 F,0,530,730,0,1 M,0,188090,188290,375.1287,400.6287,334.1287,497.6287 F,0,188090,188290,1,0
Sprite,Foreground,Centre,"sb\f\006b.png",0,0 S,0,530,,0.5 M,0,530,730,427.6287,488.3787,393.6287,397.3787 F,0,530,730,0,1 M,0,188090,188290,393.6287,397.3787,299.6287,373.3787 F,0,188090,188290,1,0
Sprite,Foreground,Centre,"sb\f\0065.png",0,0 S,0,530,,0.5 M,0,530,730,320.6287,354.3787,409.6287,400.3787 F,0,530,730,0,1 M,0,188090,188290,409.6287,400.3787,410.6287,443.3787 F,0,188090,188290,1,0
//Storyboard Sound Samples

[TimingPoints]
528,252.100840336134,4,2,1,60,1,0
5065,-100,4,2,1,50,0,0
6578,-100,4,2,1,60,0,0
9225,-100,4,2,1,50,0,0
10612,-100,4,2,1,60,0,0
13133,-100,4,2,1,50,0,0
14645,-100,4,2,1,60,0,0
17292,-100,4,2,1,50,0,0
18679,-100,4,2,1,60,0,0
20696,-100,4,2,1,50,0,0
36830,-100,4,2,1,60,0,0
52964,-100,4,2,1,40,0,0
56746,-100,4,2,1,60,0,0
57019,252.100840336134,4,2,1,60,1,0
60044,-100,4,2,1,50,0,0
60800,-100,4,2,1,60,0,0
61032,251.783466219052,4,2,1,70,1,1
61032,-100,4,2,1,70,0,1
77166,252.100840336134,4,2,1,60,1,0
77166,-100,4,2,1,60,0,0
95317,-100,4,2,1,40,0,0
99099,-100,4,2,1,60,0,0
99371,252.100840336134,4,2,1,60,1,0
102396,-100,4,2,1,50,0,0
103384,251.889168765743,4,2,1,70,1,1
103385,-100,4,2,1,70,0,1
119518,252.100840336134,4,2,1,60,1,0
119519,-100,4,2,1,60,0,0
153805,-100,4,2,1,80,0,0
154813,-100,4,2,1,50,0,0
155570,-100,4,2,1,60,0,0
155820,251.836306400839,4,2,1,70,1,1
155822,-100,4,2,1,70,0,1
184027,253.164556962025,4,2,1,70,1,1
188077,-100,4,2,1,70,0,0
192124,-100,4,2,1,5,0,0

[Colours]
Combo1 : 199,143,143
Combo2 : 137,137,197
Combo3 : 179,0,0
Combo4 : 159,70,185

[HitObjects]
142,128,528,6,0,L|240:112,1,90,2|2,1:0|1:0,0:0:0:0:
467,278,2544,6,0,L|369:262,1,90,2|2,1:0|1:0,0:0:0:0:
119,359,4561,6,0,L|135:261,1,90,2|2,1:0|1:0,0:0:0:0:
83,195,5317,2,0,P|73:141|115:80,1,120,8|8,0:0|0:0,0:0:0:0:
215,41,6326,1,8,0:0:0:0:
262,77,6578,2,0,P|308:83|364:64,1,90,6|2,1:0|1:0,0:0:0:0:
471,159,7586,2,0,L|464:268,1,90,6|2,1:0|1:0,0:0:0:0:
350,345,8595,6,0,P|320:321|247:321,1,90,6|2,1:0|1:0,0:0:0:0:
188,351,9351,2,0,L|50:353,1,120,8|8,0:0|0:0,0:0:0:0:
18,243,10359,1,8,0:0:0:0:
61,201,10612,2,0,P|69:152|45:106,1,90,6|2,1:0|1:0,0:0:0:0:
182,39,11620,2,0,L|291:40,1,90,6|2,1:0|1:0,0:0:0:0:
351,167,12628,6,0,L|242:165,1,90,6|2,1:0|1:0,0:0:0:0:
202,234,13385,2,0,P|187:285|232:347,1,120,8|8,0:0|0:0,0:0:0:0:
336,362,14393,1,8,0:0:0:0:
391,338,14645,2,0,L|448:248,1,90,6|2,1:0|1:0,0:0:0:0:
443,111,15654,2,0,L|386:21,1,90,6|2,1:0|1:0,0:0:0:0:
245,28,16662,6,0,L|253:138,1,90,6|2,1:0|1:0,0:0:0:0:
325,169,17418,2,0,P|309:237|256:239,1,120,8|8,0:0|0:0,0:0:0:0:
161,186,18427,1,8,0:0:0:0:
132,238,18679,2,0,L|145:330,1,90,6|2,1:0|1:0,0:0:0:0:
292,351,19687,2,0,L|376:304,1,90,6|2,1:0|1:0,0:0:0:0:
455,277,20443,6,0,L|444:194,1,60,8|4,0:0|0:0,0:0:0:0:
405,76,36830,6,0,P|367:44|310:51,1,90,4|0,3:2|3:0,0:0:0:0:
239,59,37586,1,8,0:0:0:0:
242,119,37838,2,0,L|246:200,1,60,0|8,3:0|0:0,0:0:0:0:
265,235,38343,1,0,0:0:0:0:
188,327,38847,6,0,L|76:309,1,90,0|0,3:0|3:0,0:0:0:0:
20,268,39603,1,8,0:0:0:0:
38,211,39855,2,0,L|44:124,1,60,0|8,3:0|0:0,0:0:0:0:
29,92,40359,1,0,0:0:0:0:
139,139,40864,6,0,P|187:142|236:108,1,90,4|0,3:2|3:0,0:0:0:0:
277,50,41620,1,8,0:0:0:0:
336,46,41872,2,0,L|416:61,1,60,0|8,3:0|0:0,0:0:0:0:
445,88,42376,1,0,0:0:0:0:
505,191,42880,6,0,L|478:299,1,90,0|0,3:0|3:0,0:0:0:0:
426,348,43637,1,8,0:0:0:0:
389,300,43889,2,0,P|343:255|279:258,1,120,0|0,3:0|3:0,0:0:0:0:
199,331,44897,6,0,P|157:348|103:314,1,90,4|0,3:2|3:0,0:0:0:0:
60,262,45654,1,8,0:0:0:0:
93,212,45906,2,0,L|93:135,1,60,0|8,3:0|0:0,0:0:0:0:
55,105,46410,1,0,0:0:0:0:
147,28,46914,6,0,P|200:59|240:56,1,90,0|0,3:0|3:0,0:0:0:0:
314,38,47670,2,0,L|330:97,1,60,8|0,0:0|3:0,0:0:0:0:
437,149,48427,1,0,0:0:0:0:
364,244,48931,6,0,B|300:248|255:292|255:292|214:252|146:237,1,240,4|0,3:2|3:0,0:0:0:0:
68,151,50443,1,0,0:0:0:0:
115,40,50948,2,0,L|181:49,1,60,0|8,3:0|0:0,0:0:0:0:
222,83,51452,2,0,L|288:92,1,60,0|8,0:0|0:0,0:0:0:0:
340,78,51956,1,0,3:0:0:0:
412,167,52460,2,0,B|422:220|422:220|413:245|413:245|416:296,1,120,8|0,3:2|0:0,0:0:0:0:
404,69,57019,6,0,L|440:195,1,120,0|0,3:0|3:0,0:0:0:0:
402,299,58027,2,0,B|371:326|371:326|273:324,1,120,0|0,3:0|3:0,0:0:0:0:
185,265,59035,1,2,3:2:0:0:
297,53,60044,6,0,L|401:56,2,90,2|0|2,0:0|0:0|0:1,0:0:0:0:
238,37,61032,6,0,P|199:35|180:186,1,240,4|0,3:2|3:0,0:0:0:0:
291,204,62542,2,0,P|298:241|289:290,1,60,0|10,0:0|0:0,0:0:0:0:
272,318,63046,2,0,L|172:325,2,90,4|0|10,3:2|3:0|0:0,0:0:0:0:
327,341,64053,2,0,P|395:347|444:301,1,120,0|0,3:0|0:0,0:0:0:0:
482,207,65060,6,0,L|491:102,2,90,4|0|10,3:2|3:0|0:0,0:0:0:0:
425,227,66067,2,0,L|329:182,2,90,0|0|10,3:0|3:0|0:0,0:0:0:0:
428,287,67074,2,0,L|360:367,1,90,4|0,3:2|3:0,0:0:0:0:
220,370,68081,6,0,L|197:260,1,90,8|8,0:0|0:0,0:0:0:0:
194,191,68837,1,8,0:0:0:0:
241,154,69089,6,0,P|227:54|100:60,1,240,4|0,3:2|3:0,0:0:0:0:
6,115,70599,2,0,L|31:176,1,60,0|10,0:0|0:0,0:0:0:0:
36,229,71103,2,0,P|28:269|9:325,2,90,4|0|10,3:2|3:0|0:0,0:0:0:0:
91,205,72110,2,0,P|158:190|222:208,1,120,0|0,3:0|0:0,0:0:0:0:
305,270,73117,6,0,P|325:315|312:378,2,90,4|0|10,3:2|3:0|0:0,0:0:0:0:
333,217,74124,2,0,P|378:197|441:209,2,90,0|0|10,3:0|3:0|0:0,0:0:0:0:
281,189,75131,2,0,P|260:143|273:80,1,90,4|0,3:2|3:0,0:0:0:0:
149,5,76139,6,0,L|144:112,1,90,8|8,0:0|0:0,0:0:0:0:
129,183,76894,1,8,3:2:0:0:
161,234,77166,2,0,B|270:272|269:197|401:236,1,240,4|0,1:0|0:0,0:0:0:0:
490,307,78678,1,0,0:0:0:0:
384,364,79182,6,0,P|332:372|244:362,1,120,4|8,1:0|0:0,0:0:0:0:
214,335,79939,1,0,0:0:0:0:
154,342,80191,2,0,P|130:371|108:386,2,60,0|0|8,0:0|0:0|0:0,0:0:0:0:
103,232,81199,6,0,L|111:107,1,120,0|12,0:0|0:0,0:0:0:0:
184,17,82208,1,0,0:0:0:0:
290,72,82712,2,0,P|324:84|359:88,1,60,8|0,0:0|0:0,0:0:0:0:
406,75,83216,2,0,L|404:182,1,90,4|0,1:0|0:0,0:0:0:0:
419,253,83972,1,0,0:0:0:0:
392,306,84224,2,0,P|368:329|334:339,2,60,0|0|8,0:0|0:0|0:0,0:0:0:0:
298,231,85233,6,0,L|176:244,1,120,0|12,0:0|0:0,0:0:0:0:
62,211,86241,2,0,P|92:158|79:100,1,120,0|8,0:0|0:0,0:0:0:0:
163,16,87250,6,0,L|260:29,1,90,4|0,3:2|3:0,0:0:0:0:
342,29,88006,1,8,0:0:0:0:
379,76,88258,2,0,L|389:143,1,60,0|8,3:0|0:0,0:0:0:0:
374,193,88762,1,0,0:0:0:0:
273,257,89266,6,0,L|163:259,1,90,0|0,3:0|3:0,0:0:0:0:
109,310,90023,1,8,0:0:0:0:
53,286,90275,2,0,P|43:253|54:218,1,60,0|8,3:0|0:0,0:0:0:0:
83,180,90779,1,0,0:0:0:0:
167,95,91283,6,0,B|294:69|281:139|407:104,1,240,4|0,3:2|3:0,0:0:0:0:
492,184,92796,1,0,0:0:0:0:
437,291,93300,2,0,P|376:301|302:282,1,120,0|0,3:0|0:0,0:0:0:0:
269,257,94056,1,8,0:0:0:0:
215,229,94308,2,0,L|149:248,2,60,0|8|8,3:0|0:0|3:2,0:0:0:0:
283,130,95317,1,0,0:0:0:0:
143,63,99371,6,0,P|100:107|115:184,1,120,0|0,3:0|3:0,0:0:0:0:
163,264,100379,2,0,L|304:254,1,120,0|0,3:0|3:0,0:0:0:0:
367,168,101387,1,2,3:2:0:0:
158,49,102396,6,0,L|53:38,2,90,2|0|2,0:0|0:0|0:1,0:0:0:0:
214,70,103384,6,0,P|286:99|243:247,1,240,4|0,3:2|0:0,0:0:0:0:
175,315,104895,2,0,L|100:298,1,60,0|10,0:0|0:0,0:0:0:0:
56,295,105399,2,0,P|32:262|52:194,1,90,4|0,3:2|3:0,0:0:0:0:
80,136,106154,1,10,0:0:0:0:
138,121,106406,2,0,L|265:125,1,120,0|0,3:0|0:0,0:0:0:0:
367,76,107414,6,0,B|405:23|405:23|394:-25,2,90,4|0|10,3:2|3:0|0:0,0:0:0:0:
380,134,108421,2,0,B|440:157|440:157|485:134,2,90,0|0|10,3:0|3:0|0:0,0:0:0:0:
327,161,109429,2,0,B|320:225|320:225|353:262,1,90,4|0,3:2|3:0,0:0:0:0:
419,369,110436,6,0,L|308:360,1,90,8|8,3:2|3:2,0:0:0:0:
251,316,111192,1,8,0:0:0:0:
199,346,111444,6,0,P|158:356|110:201,1,240,4|0,3:2|0:0,0:0:0:0:
135,98,112955,2,0,L|196:104,1,60,0|10,0:0|0:0,0:0:0:0:
244,137,113459,6,0,P|287:117|320:68,1,90,4|0,3:2|3:0,0:0:0:0:
392,41,114215,1,10,0:0:0:0:
431,86,114467,2,0,L|431:215,1,120,0|0,3:0|0:0,0:0:0:0:
355,299,115474,6,0,B|380:336|380:336|438:348,2,90,4|0|10,3:2|3:0|0:0,0:0:0:0:
295,304,116482,2,0,B|270:341|270:341|212:353,2,90,0|0|10,3:0|3:0|0:0,0:0:0:0:
326,253,117489,2,0,B|322:208|322:208|278:169,1,90,4|0,3:2|3:0,0:0:0:0:
214,127,118245,1,10,0:0:0:0:
163,158,118497,2,0,L|54:167,2,90,0|8|8,3:0|3:2|0:0,0:0:0:0:
203,201,119518,1,4,3:2:0:0:
256,192,119770,12,4,121534,0:0:0:0:
485,213,123047,5,0,0:0:0:0:
432,105,123551,6,0,L|334:88,1,90,6|2,1:0|1:0,0:0:0:0:
288,161,124307,2,0,P|280:216|337:279,2,120,8|8|8,0:0|0:0|0:0,0:0:0:0:
269,103,125568,2,0,L|177:96,1,90,6|2,1:0|1:0,0:0:0:0:
62,189,126576,2,0,L|59:296,1,90,6|2,1:0|1:0,0:0:0:0:
184,362,127585,2,0,L|289:336,1,90,6|2,1:0|1:0,0:0:0:0:
361,340,128341,6,0,P|403:316|391:230,1,120,8|8,0:0|0:0,0:0:0:0:
327,160,129349,1,8,0:0:0:0:
269,177,129602,2,0,L|164:163,1,90,6|2,1:0|1:0,0:0:0:0:
73,58,130610,2,0,L|162:46,1,90,6|2,1:0|1:0,0:0:0:0:
311,56,131618,6,0,P|356:76|413:66,1,90,6|2,1:0|1:0,0:0:0:0:
458,137,132375,2,0,L|468:272,1,120,8|8,0:0|0:0,0:0:0:0:
381,341,133383,1,8,0:0:0:0:
321,340,133635,2,0,L|229:332,1,90,6|2,1:0|1:0,0:0:0:0:
105,251,134644,2,0,L|91:150,1,90,6|2,1:0|1:0,0:0:0:0:
185,43,135652,6,0,P|241:44|277:78,1,90,6|2,1:0|1:0,0:0:0:0:
356,75,136408,2,0,L|354:210,1,120,8|8,0:0|0:0,0:0:0:0:
433,285,137417,1,8,0:0:0:0:
482,250,137669,2,0,L|493:159,1,90,6|6,1:0|1:0,0:0:0:0:
405,38,138677,1,6,1:0:0:0:
298,92,139181,1,8,0:0:0:0:
185,51,139686,6,0,P|127:42|80:101,1,120,4|12,1:0|0:0,0:0:0:0:
70,139,140442,1,2,0:0:0:0:
88,196,140694,2,0,L|222:197,1,120,0|8,3:0|0:0,0:0:0:0:
321,235,141702,5,0,3:0:0:0:
279,347,142207,1,12,0:0:0:0:
159,347,142711,2,0,L|44:301,1,120,0|12,3:0|0:0,0:0:0:0:
17,250,143467,1,6,0:0:0:0:
17,190,143719,6,0,P|41:134|111:120,1,120,4|12,1:0|0:0,0:0:0:0:
202,167,144728,2,0,L|326:134,1,120,0|8,3:0|0:0,0:0:0:0:
421,75,145736,1,0,3:0:0:0:
488,174,146240,1,12,0:0:0:0:
454,289,146744,2,0,P|429:333|342:328,1,120,0|12,3:0|0:0,0:0:0:0:
311,314,147501,1,14,0:0:0:0:
254,293,147753,6,0,L|121:301,1,120,4|0,1:0|0:0,0:0:0:0:
23,253,148761,2,0,P|5:195|51:129,1,120,0|12,3:0|0:0,0:0:0:0:
109,54,149770,2,0,L|229:61,1,120,0|12,3:0|0:0,0:0:0:0:
283,86,150526,1,2,0:0:0:0:
322,131,150778,2,0,P|320:183|270:238,1,120,0|8,3:0|3:2,0:0:0:0:
256,192,151786,12,4,153803,3:2:0:0:
440,183,154812,6,0,P|450:224|422:280,2,90,2|0|2,0:0|0:0|0:1,0:0:0:0:
394,143,155820,6,0,B|349:150|311:136|311:136|284:141|264:168|264:168|211:150|142:165,1,240,4|0,3:2|0:0,0:0:0:0:
54,200,157331,2,0,P|43:229|47:270,1,60,0|10,0:0|0:0,0:0:0:0:
65,313,157834,2,0,L|171:316,1,90,4|0,3:2|3:0,0:0:0:0:
235,355,158590,2,0,P|278:374|359:287,1,180,10|0,0:0|0:0,0:0:0:0:
337,174,159849,6,0,P|410:140|419:113,2,90,4|0|10,3:2|3:0|0:0,0:0:0:0:
284,144,160856,2,0,L|280:48,2,90,0|0|10,3:0|3:0|0:0,0:0:0:0:
231,174,161864,2,0,P|158:140|149:113,1,90,4|0,3:2|3:0,0:0:0:0:
20,71,162871,2,0,L|21:187,1,90,8|8,0:0|0:0,0:0:0:0:
60,241,163626,1,8,0:0:0:0:
114,265,163878,6,0,B|226:308|238:223|352:271,1,240,4|0,3:2|3:0,0:0:0:0:
455,215,165389,2,0,P|462:180|450:144,1,60,0|10,0:0|0:0,0:0:0:0:
422,107,165893,2,0,L|307:88,1,90,4|0,3:2|3:0,0:0:0:0:
260,38,166648,1,10,0:0:0:0:
224,86,166900,2,0,L|209:217,1,120,0|0,3:0|0:0,0:0:0:0:
112,275,167908,6,0,P|86:309|77:354,2,90,4|0|10,3:2|3:0|0:0,0:0:0:0:
103,215,168915,2,0,P|68:189|24:180,2,90,0|0|10,3:0|3:0|0:0,0:0:0:0:
163,206,169922,2,0,P|188:171|198:127,1,90,4|0,3:2|3:0,0:0:0:0:
318,36,170930,2,0,L|415:56,1,90,0|8,0:0|0:0,0:0:0:0:
473,113,171685,1,8,0:0:0:0:
506,162,171937,6,0,P|512:218|359:239,1,240,4|0,3:2|3:0,0:0:0:0:
265,194,173448,2,0,L|198:216,1,60,0|10,0:0|0:0,0:0:0:0:
173,261,173952,2,0,P|173:318|209:355,1,90,4|0,3:2|3:0,0:0:0:0:
275,376,174707,1,10,0:0:0:0:
329,351,174959,2,0,L|417:250,1,120,0|0,3:0|0:0,0:0:0:0:
456,150,175966,6,0,L|519:77,2,90,4|0|10,3:2|3:0|0:0,0:0:0:0:
397,135,176974,2,0,L|387:32,2,90,0|0|10,3:0|3:0|0:0,0:0:0:0:
356,179,177981,2,0,L|252:140,1,90,4|0,3:2|3:0,0:0:0:0:
171,35,178988,2,0,P|131:50|98:114,1,90,8|8,0:0|0:0,0:0:0:0:
54,162,179744,1,8,0:0:0:0:
41,220,179996,6,0,P|53:272|211:243,1,240,4|0,3:2|0:0,0:0:0:0:
257,156,181507,2,0,L|258:79,1,60,0|10,0:0|0:0,0:0:0:0:
279,40,182010,2,0,P|342:32|370:58,1,90,4|0,3:2|3:0,0:0:0:0:
409,120,182766,1,10,0:0:0:0:
392,177,183018,2,0,L|360:296,1,120,0|0,3:0|0:0,0:0:0:0:
240,297,184027,6,0,P|212:331|163:352,2,90,4|0|10,3:2|3:0|0:0,0:0:0:0:
268,245,185039,2,0,P|277:201|261:150,2,90,0|0|10,3:0|3:0|0:0,0:0:0:0:
207,247,186052,2,0,L|97:208,1,90,4|0,3:2|3:0,0:0:0:0:
35,192,186811,1,0,3:0:0:0:
11,136,187064,2,0,P|21:83|52:57,2,90,8|0|8,3:2|3:2|3:2,0:0:0:0:
256,192,188077,12,0,193520,0:0:0:0:
