osu file format v14

[General]
AudioFilename: audio.ogg
AudioLeadIn: 0
PreviewTime: 92580
Countdown: 0
SampleSet: Normal
StackLeniency: 0.7
Mode: 3
LetterboxInBreaks: 0
SpecialStyle: 0
WidescreenStoryboard: 1

[Editor]
DistanceSpacing: 0.8
BeatDivisor: 4
GridSize: 8
TimelineZoom: 2

[Metadata]
Title:Goddess Bless you
TitleUnicode:Goddess Bless you
Artist:winddrums
ArtistUnicode:winddrums
Creator:Shima Rin
Version:NOVICE
Source:SOUND VOLTEX IV HEAVENLY HAVEN
Tags:BEMANI KONAMI SDVX 4 III GRAVITY WARS コナステ Tofu1222 Imperial Wolf Asherz007 AWMRone The 6th KAC Original Song Contest オリジナル楽曲コンテスト Video Game Electronic Instrumental
BeatmapID:1740488
BeatmapSetID:823117

[Difficulty]
HPDrainRate:6.5
CircleSize:6
OverallDifficulty:6.8
ApproachRate:5
SliderMultiplier:1.4
SliderTickRate:1

[Events]
//Background and Video events
0,0,"BG_1.jpg",0,0
//Break Periods
//Storyboard Layer 0 (Background)
//Storyboard Layer 1 (Fail)
//Storyboard Layer 2 (Pass)
//Storyboard Layer 3 (Foreground)
//Storyboard Layer 4 (Overlay)
//Storyboard Sound Samples

[TimingPoints]
1030,258.620689655172,4,1,1,70,1,0
36202,258.620689655172,3,1,1,70,1,0
38529,258.620689655172,4,1,1,70,1,0
72279,258.620689655172,4,1,1,70,1,0
92968,-100,4,1,1,70,0,1
94391,-100,4,1,1,70,0,0
95037,-100,4,1,1,70,0,1
113658,-100,4,1,1,70,0,0
114175,-100,4,1,1,70,0,1
117537,-100,4,1,1,70,0,0

[HitObjects]
213,192,771,5,0,0:0:0:0:
298,192,900,1,0,0:0:0:0:
469,192,1030,1,0,0:0:0:0:
42,192,1030,1,0,0:0:0:0:
213,192,1288,1,0,0:0:0:0:
384,192,1547,1,0,0:0:0:0:
128,192,1805,1,0,0:0:0:0:
298,192,2064,1,0,0:0:0:0:
42,192,2323,1,0,0:0:0:0:
128,192,2581,1,0,0:0:0:0:
213,192,2840,1,0,0:0:0:0:
298,192,3098,1,0,0:0:0:0:
469,192,3098,1,0,0:0:0:0:
128,192,3357,1,0,0:0:0:0:
384,192,3616,1,0,0:0:0:0:
213,192,3874,1,0,0:0:0:0:
298,192,4133,1,0,0:0:0:0:
42,192,4392,1,0,0:0:0:0:
213,192,4650,1,0,0:0:0:0:
128,192,4909,1,0,0:0:0:0:
298,192,5167,1,0,0:0:0:0:
469,192,5167,1,0,0:0:0:0:
384,192,5426,1,0,0:0:0:0:
128,192,5685,1,0,0:0:0:0:
213,192,5943,1,0,0:0:0:0:
384,192,5943,1,0,0:0:0:0:
469,192,6202,1,0,0:0:0:0:
298,192,6461,1,0,0:0:0:0:
128,192,6461,1,0,0:0:0:0:
384,192,6719,1,0,0:0:0:0:
128,192,6978,1,0,0:0:0:0:
42,192,7236,1,0,0:0:0:0:
213,192,7236,1,0,0:0:0:0:
298,192,7495,1,0,0:0:0:0:
384,192,7754,1,0,0:0:0:0:
128,192,8012,1,0,0:0:0:0:
213,192,8271,1,0,0:0:0:0:
469,192,8271,1,0,0:0:0:0:
298,192,8529,1,0,0:0:0:0:
384,192,8788,1,0,0:0:0:0:
213,192,9047,1,0,0:0:0:0:
298,192,9305,1,0,0:0:0:0:
42,192,9305,128,0,9693:0:0:0:0:
213,192,9693,128,0,10081:0:0:0:0:
469,192,10081,128,0,10469:0:0:0:0:
298,192,10469,128,0,10857:0:0:0:0:
128,192,10857,128,0,11245:0:0:0:0:
213,192,11245,128,0,12409:0:0:0:0:
384,192,11245,1,0,0:0:0:0:
384,192,11633,1,0,0:0:0:0:
384,192,11892,1,0,0:0:0:0:
384,192,12150,1,0,0:0:0:0:
384,192,12409,1,0,0:0:0:0:
128,192,12667,1,0,0:0:0:0:
213,192,12797,1,0,0:0:0:0:
384,192,12926,1,0,0:0:0:0:
298,192,13055,1,0,0:0:0:0:
128,192,13185,1,0,0:0:0:0:
213,192,13314,1,0,0:0:0:0:
384,192,13443,1,0,0:0:0:0:
298,192,13443,1,0,0:0:0:0:
42,192,13702,1,0,0:0:0:0:
298,192,13961,1,0,0:0:0:0:
128,192,14219,1,0,0:0:0:0:
213,192,14478,1,0,0:0:0:0:
298,192,14736,1,0,0:0:0:0:
384,192,14995,1,0,0:0:0:0:
469,192,15254,1,0,0:0:0:0:
298,192,15512,1,0,0:0:0:0:
213,192,15771,1,0,0:0:0:0:
128,192,16029,1,0,0:0:0:0:
384,192,16288,1,0,0:0:0:0:
42,192,16547,1,0,0:0:0:0:
298,192,16805,1,0,0:0:0:0:
213,192,17064,1,0,0:0:0:0:
128,192,17323,1,0,0:0:0:0:
298,192,17581,1,0,0:0:0:0:
384,192,17840,1,0,0:0:0:0:
469,192,18098,1,0,0:0:0:0:
42,192,18098,1,0,0:0:0:0:
128,192,18357,1,0,0:0:0:0:
384,192,18616,1,0,0:0:0:0:
298,192,18874,1,0,0:0:0:0:
213,192,19133,1,0,0:0:0:0:
128,192,19392,1,0,0:0:0:0:
213,192,19650,1,0,0:0:0:0:
298,192,19909,1,0,0:0:0:0:
384,192,20167,1,0,0:0:0:0:
128,192,20426,1,0,0:0:0:0:
384,192,20685,1,0,0:0:0:0:
128,192,20943,1,0,0:0:0:0:
213,192,21202,1,0,0:0:0:0:
298,192,21461,1,0,0:0:0:0:
384,192,21719,1,0,0:0:0:0:
42,192,21719,1,0,0:0:0:0:
42,192,21978,1,0,0:0:0:0:
213,192,22236,1,0,0:0:0:0:
213,192,22495,1,0,0:0:0:0:
469,192,22754,1,0,0:0:0:0:
128,192,22754,1,0,0:0:0:0:
469,192,23012,1,0,0:0:0:0:
298,192,23271,1,0,0:0:0:0:
298,192,23529,1,0,0:0:0:0:
384,192,23788,1,0,0:0:0:0:
42,192,23788,1,0,0:0:0:0:
384,192,24047,1,0,0:0:0:0:
213,192,24305,1,0,0:0:0:0:
213,192,24564,1,0,0:0:0:0:
128,192,24823,1,0,0:0:0:0:
469,192,24823,1,0,0:0:0:0:
128,192,25081,1,0,0:0:0:0:
298,192,25340,1,0,0:0:0:0:
298,192,25598,1,0,0:0:0:0:
469,192,25857,1,0,0:0:0:0:
42,192,25857,128,0,26892:0:0:0:0:
213,192,26116,1,0,0:0:0:0:
298,192,26374,1,0,0:0:0:0:
384,192,26633,1,0,0:0:0:0:
128,192,26892,1,0,0:0:0:0:
469,192,26892,1,0,0:0:0:0:
213,192,27150,1,0,0:0:0:0:
298,192,27409,1,0,0:0:0:0:
128,192,27667,1,0,0:0:0:0:
213,192,27926,1,0,0:0:0:0:
384,192,27926,128,0,28443:0:0:0:0:
42,192,28185,1,0,0:0:0:0:
128,192,28443,1,0,0:0:0:0:
213,192,28702,128,0,28961:0:0:0:0:
42,192,28961,1,0,0:0:0:0:
469,192,28961,1,0,0:0:0:0:
384,192,29219,1,0,0:0:0:0:
128,192,29478,1,0,0:0:0:0:
213,192,29607,1,0,0:0:0:0:
384,192,29736,1,0,0:0:0:0:
298,192,29736,1,0,0:0:0:0:
42,192,29995,1,0,0:0:0:0:
213,192,29995,1,0,0:0:0:0:
298,192,30254,1,0,0:0:0:0:
469,192,30254,1,0,0:0:0:0:
128,192,30512,1,0,0:0:0:0:
213,192,30771,1,0,0:0:0:0:
384,192,30771,1,0,0:0:0:0:
469,192,31029,1,0,0:0:0:0:
42,192,31029,1,0,0:0:0:0:
128,192,31288,1,0,0:0:0:0:
298,192,31288,1,0,0:0:0:0:
384,192,31547,1,0,0:0:0:0:
213,192,31805,1,0,0:0:0:0:
42,192,31805,1,0,0:0:0:0:
298,192,32064,1,0,0:0:0:0:
128,192,32064,1,0,0:0:0:0:
384,192,32323,1,0,0:0:0:0:
469,192,32323,1,0,0:0:0:0:
213,192,32581,1,0,0:0:0:0:
128,192,32840,1,0,0:0:0:0:
42,192,32840,1,0,0:0:0:0:
298,192,33098,1,0,0:0:0:0:
469,192,33098,1,0,0:0:0:0:
213,192,33357,1,0,0:0:0:0:
128,192,33357,1,0,0:0:0:0:
384,192,33616,1,0,0:0:0:0:
298,192,33874,1,0,0:0:0:0:
213,192,33874,1,0,0:0:0:0:
42,192,34133,1,0,0:0:0:0:
469,192,34133,128,0,34650:0:0:0:0:
128,192,34392,1,0,0:0:0:0:
298,192,34392,1,0,0:0:0:0:
213,192,34650,1,0,0:0:0:0:
298,192,34909,1,0,0:0:0:0:
128,192,34909,1,0,0:0:0:0:
469,192,35167,1,0,0:0:0:0:
42,192,35167,1,0,0:0:0:0:
384,192,35426,1,0,0:0:0:0:
213,192,35426,1,0,0:0:0:0:
298,192,35685,1,0,0:0:0:0:
213,192,35943,1,0,0:0:0:0:
384,192,35943,1,0,0:0:0:0:
128,192,36202,1,0,0:0:0:0:
469,192,36202,1,0,0:0:0:0:
298,192,36460,1,0,0:0:0:0:
42,192,36589,1,0,0:0:0:0:
128,192,36589,1,0,0:0:0:0:
213,192,36848,1,0,0:0:0:0:
469,192,36977,1,0,0:0:0:0:
384,192,36977,1,0,0:0:0:0:
298,192,37236,1,0,0:0:0:0:
42,192,37365,1,0,0:0:0:0:
213,192,37365,1,0,0:0:0:0:
128,192,37624,1,0,0:0:0:0:
213,192,37753,1,0,0:0:0:0:
384,192,37753,1,0,0:0:0:0:
298,192,38012,1,0,0:0:0:0:
42,192,38141,1,0,0:0:0:0:
384,192,38141,1,0,0:0:0:0:
213,192,38400,1,0,0:0:0:0:
128,192,38529,1,0,0:0:0:0:
469,192,38529,1,0,0:0:0:0:
384,192,38787,1,0,0:0:0:0:
42,192,38787,1,0,0:0:0:0:
128,192,39046,1,0,0:0:0:0:
298,192,39046,1,0,0:0:0:0:
213,192,39304,1,0,0:0:0:0:
384,192,39304,1,0,0:0:0:0:
42,192,39563,1,0,0:0:0:0:
469,192,39563,128,0,40597:0:0:0:0:
213,192,40597,128,0,41632:0:0:0:0:
384,192,40597,1,0,0:0:0:0:
384,192,41632,1,0,0:0:0:0:
42,192,41632,128,0,42020:0:0:0:0:
298,192,42020,128,0,42666:0:0:0:0:
213,192,42149,1,0,0:0:0:0:
128,192,42149,1,0,0:0:0:0:
128,192,42537,1,0,0:0:0:0:
384,192,42666,1,0,0:0:0:0:
213,192,42925,1,0,0:0:0:0:
128,192,43184,1,0,0:0:0:0:
469,192,43184,1,0,0:0:0:0:
213,192,43378,1,0,0:0:0:0:
298,192,43572,1,0,0:0:0:0:
384,192,43701,1,0,0:0:0:0:
42,192,43701,128,0,44735:0:0:0:0:
213,192,44089,1,0,0:0:0:0:
298,192,44218,1,0,0:0:0:0:
469,192,44218,1,0,0:0:0:0:
128,192,44606,1,0,0:0:0:0:
298,192,44735,1,0,0:0:0:0:
469,192,44865,1,0,0:0:0:0:
213,192,44865,1,0,0:0:0:0:
298,192,45123,1,0,0:0:0:0:
469,192,45253,1,0,0:0:0:0:
213,192,45253,128,0,45770:0:0:0:0:
469,192,45770,128,0,46158:0:0:0:0:
128,192,45770,1,0,0:0:0:0:
213,192,46158,128,0,46804:0:0:0:0:
298,192,46287,1,0,0:0:0:0:
384,192,46287,1,0,0:0:0:0:
128,192,46675,1,0,0:0:0:0:
384,192,46804,1,0,0:0:0:0:
213,192,47063,1,0,0:0:0:0:
384,192,47322,1,0,0:0:0:0:
42,192,47322,1,0,0:0:0:0:
298,192,47516,1,0,0:0:0:0:
213,192,47710,1,0,0:0:0:0:
128,192,47839,1,0,0:0:0:0:
469,192,47839,128,0,48227:0:0:0:0:
298,192,48227,128,0,48873:0:0:0:0:
42,192,48356,1,0,0:0:0:0:
213,192,48356,1,0,0:0:0:0:
384,192,48744,1,0,0:0:0:0:
128,192,48873,1,0,0:0:0:0:
213,192,49003,1,0,0:0:0:0:
469,192,49003,1,0,0:0:0:0:
128,192,49261,1,0,0:0:0:0:
469,192,49391,1,0,0:0:0:0:
213,192,49391,128,0,49908:0:0:0:0:
384,192,49908,1,0,0:0:0:0:
42,192,49908,1,0,0:0:0:0:
128,192,50166,1,0,0:0:0:0:
469,192,50166,1,0,0:0:0:0:
213,192,50425,1,0,0:0:0:0:
298,192,50554,1,0,0:0:0:0:
128,192,50684,1,0,0:0:0:0:
469,192,50684,1,0,0:0:0:0:
384,192,50813,1,0,0:0:0:0:
213,192,50813,1,0,0:0:0:0:
298,192,51072,1,0,0:0:0:0:
213,192,51201,1,0,0:0:0:0:
42,192,51201,1,0,0:0:0:0:
384,192,51460,1,0,0:0:0:0:
298,192,51589,1,0,0:0:0:0:
42,192,51718,1,0,0:0:0:0:
213,192,51718,1,0,0:0:0:0:
128,192,51977,1,0,0:0:0:0:
469,192,51977,1,0,0:0:0:0:
384,192,52235,1,0,0:0:0:0:
42,192,52235,1,0,0:0:0:0:
298,192,52494,1,0,0:0:0:0:
213,192,52623,1,0,0:0:0:0:
384,192,52753,1,0,0:0:0:0:
42,192,52753,1,0,0:0:0:0:
128,192,52882,1,0,0:0:0:0:
298,192,52882,1,0,0:0:0:0:
213,192,53141,1,0,0:0:0:0:
298,192,53270,1,0,0:0:0:0:
469,192,53270,1,0,0:0:0:0:
128,192,53528,1,0,0:0:0:0:
213,192,53658,1,0,0:0:0:0:
298,192,53787,1,0,0:0:0:0:
469,192,53787,1,0,0:0:0:0:
128,192,53916,1,0,0:0:0:0:
384,192,54046,1,0,0:0:0:0:
213,192,54046,1,0,0:0:0:0:
42,192,54304,1,0,0:0:0:0:
128,192,54434,1,0,0:0:0:0:
298,192,54434,1,0,0:0:0:0:
469,192,54692,1,0,0:0:0:0:
213,192,54822,1,0,0:0:0:0:
42,192,54822,1,0,0:0:0:0:
384,192,55080,1,0,0:0:0:0:
298,192,55210,1,0,0:0:0:0:
128,192,55210,1,0,0:0:0:0:
213,192,55468,1,0,0:0:0:0:
42,192,55597,1,0,0:0:0:0:
384,192,55597,1,0,0:0:0:0:
298,192,55727,1,0,0:0:0:0:
128,192,55856,1,0,0:0:0:0:
469,192,55856,1,0,0:0:0:0:
213,192,55985,1,0,0:0:0:0:
298,192,56115,1,0,0:0:0:0:
42,192,56115,1,0,0:0:0:0:
384,192,56373,1,0,0:0:0:0:
128,192,56503,1,0,0:0:0:0:
42,192,56503,1,0,0:0:0:0:
213,192,56761,1,0,0:0:0:0:
384,192,56891,1,0,0:0:0:0:
469,192,56891,1,0,0:0:0:0:
128,192,57149,1,0,0:0:0:0:
384,192,57278,1,0,0:0:0:0:
298,192,57278,1,0,0:0:0:0:
213,192,57408,1,0,0:0:0:0:
128,192,57408,1,0,0:0:0:0:
298,192,57537,1,0,0:0:0:0:
384,192,57537,1,0,0:0:0:0:
213,192,57796,1,0,0:0:0:0:
469,192,57925,1,0,0:0:0:0:
384,192,58054,1,0,0:0:0:0:
298,192,58184,1,0,0:0:0:0:
213,192,58572,1,0,0:0:0:0:
213,192,58960,1,0,0:0:0:0:
298,192,59089,1,0,0:0:0:0:
384,192,59218,1,0,0:0:0:0:
42,192,59218,1,0,0:0:0:0:
213,192,59477,1,0,0:0:0:0:
469,192,59606,1,0,0:0:0:0:
384,192,59865,1,0,0:0:0:0:
298,192,59994,1,0,0:0:0:0:
384,192,60123,1,0,0:0:0:0:
469,192,60253,1,0,0:0:0:0:
128,192,60253,1,0,0:0:0:0:
298,192,60641,1,0,0:0:0:0:
213,192,60770,1,0,0:0:0:0:
298,192,61028,1,0,0:0:0:0:
298,192,61158,1,0,0:0:0:0:
42,192,61287,1,0,0:0:0:0:
42,192,62063,1,0,0:0:0:0:
128,192,62192,1,0,0:0:0:0:
469,192,62322,1,0,0:0:0:0:
213,192,62322,1,0,0:0:0:0:
298,192,62580,1,0,0:0:0:0:
128,192,62710,1,0,0:0:0:0:
213,192,63227,1,0,0:0:0:0:
42,192,63356,1,0,0:0:0:0:
298,192,63356,1,0,0:0:0:0:
384,192,63744,1,0,0:0:0:0:
128,192,63873,128,0,64391:0:0:0:0:
469,192,64391,1,0,0:0:0:0:
213,192,64391,1,0,0:0:0:0:
384,192,64649,1,0,0:0:0:0:
298,192,64908,1,0,0:0:0:0:
213,192,65166,1,0,0:0:0:0:
42,192,65425,1,0,0:0:0:0:
128,192,65684,1,0,0:0:0:0:
213,192,65942,1,0,0:0:0:0:
298,192,66201,1,0,0:0:0:0:
469,192,66460,1,0,0:0:0:0:
384,192,66718,1,0,0:0:0:0:
298,192,66977,1,0,0:0:0:0:
213,192,67235,1,0,0:0:0:0:
42,192,67494,1,0,0:0:0:0:
298,192,67753,1,0,0:0:0:0:
42,192,68011,1,0,0:0:0:0:
213,192,68270,1,0,0:0:0:0:
298,192,68399,1,0,0:0:0:0:
384,192,68528,1,0,0:0:0:0:
42,192,68658,1,0,0:0:0:0:
213,192,68658,1,0,0:0:0:0:
298,192,68916,1,0,0:0:0:0:
469,192,69175,1,0,0:0:0:0:
298,192,69434,1,0,0:0:0:0:
213,192,69563,1,0,0:0:0:0:
128,192,69692,1,0,0:0:0:0:
42,192,69822,1,0,0:0:0:0:
298,192,69951,1,0,0:0:0:0:
384,192,70080,1,0,0:0:0:0:
213,192,70210,1,0,0:0:0:0:
128,192,70339,1,0,0:0:0:0:
298,192,70468,1,0,0:0:0:0:
42,192,70597,1,0,0:0:0:0:
213,192,70727,1,0,0:0:0:0:
384,192,70856,1,0,0:0:0:0:
128,192,70985,1,0,0:0:0:0:
298,192,71115,1,0,0:0:0:0:
213,192,71373,1,0,0:0:0:0:
128,192,71632,1,0,0:0:0:0:
384,192,71891,1,0,0:0:0:0:
213,192,72279,1,0,0:0:0:0:
298,192,72537,1,0,0:0:0:0:
42,192,72796,1,0,0:0:0:0:
213,192,73054,1,0,0:0:0:0:
469,192,73054,1,0,0:0:0:0:
384,192,73313,1,0,0:0:0:0:
298,192,73572,1,0,0:0:0:0:
128,192,73830,1,0,0:0:0:0:
469,192,73960,1,0,0:0:0:0:
298,192,73960,1,0,0:0:0:0:
213,192,74089,1,0,0:0:0:0:
42,192,74347,1,0,0:0:0:0:
384,192,74347,1,0,0:0:0:0:
213,192,74606,1,0,0:0:0:0:
298,192,74865,1,0,0:0:0:0:
128,192,75123,1,0,0:0:0:0:
384,192,75123,1,0,0:0:0:0:
213,192,75382,1,0,0:0:0:0:
469,192,75511,1,0,0:0:0:0:
298,192,75511,1,0,0:0:0:0:
128,192,75641,1,0,0:0:0:0:
213,192,75899,1,0,0:0:0:0:
384,192,75899,1,0,0:0:0:0:
298,192,76158,1,0,0:0:0:0:
42,192,76416,1,0,0:0:0:0:
469,192,76416,1,0,0:0:0:0:
128,192,76675,1,0,0:0:0:0:
213,192,76934,1,0,0:0:0:0:
298,192,77192,1,0,0:0:0:0:
42,192,77451,1,0,0:0:0:0:
469,192,77451,1,0,0:0:0:0:
384,192,77710,1,0,0:0:0:0:
298,192,77968,1,0,0:0:0:0:
213,192,78227,1,0,0:0:0:0:
128,192,78485,1,0,0:0:0:0:
469,192,78485,1,0,0:0:0:0:
298,192,78744,1,0,0:0:0:0:
384,192,79003,1,0,0:0:0:0:
213,192,79261,1,0,0:0:0:0:
42,192,79520,1,0,0:0:0:0:
384,192,79520,1,0,0:0:0:0:
213,192,79778,1,0,0:0:0:0:
128,192,80037,128,0,80554:0:0:0:0:
298,192,80554,1,0,0:0:0:0:
469,192,80554,1,0,0:0:0:0:
213,192,80684,1,0,0:0:0:0:
384,192,80942,1,0,0:0:0:0:
42,192,81201,1,0,0:0:0:0:
128,192,81330,1,0,0:0:0:0:
213,192,81460,1,0,0:0:0:0:
384,192,81460,1,0,0:0:0:0:
128,192,81847,1,0,0:0:0:0:
298,192,82106,1,0,0:0:0:0:
469,192,82106,1,0,0:0:0:0:
213,192,82365,1,0,0:0:0:0:
384,192,82623,1,0,0:0:0:0:
42,192,82623,1,0,0:0:0:0:
128,192,82753,1,0,0:0:0:0:
469,192,82882,1,0,0:0:0:0:
213,192,83011,1,0,0:0:0:0:
384,192,83141,1,0,0:0:0:0:
298,192,83141,1,0,0:0:0:0:
213,192,83399,1,0,0:0:0:0:
128,192,83528,1,0,0:0:0:0:
42,192,83528,1,0,0:0:0:0:
298,192,83787,1,0,0:0:0:0:
384,192,83916,128,0,84175:0:0:0:0:
128,192,84175,128,0,84434:0:0:0:0:
298,192,84434,128,0,84692:0:0:0:0:
469,192,84692,1,0,0:0:0:0:
42,192,84692,1,0,0:0:0:0:
298,192,84951,1,0,0:0:0:0:
213,192,85080,1,0,0:0:0:0:
469,192,85080,1,0,0:0:0:0:
384,192,85339,1,0,0:0:0:0:
128,192,85468,1,0,0:0:0:0:
298,192,85468,1,0,0:0:0:0:
213,192,85727,1,0,0:0:0:0:
298,192,85856,1,0,0:0:0:0:
42,192,85856,1,0,0:0:0:0:
128,192,86115,1,0,0:0:0:0:
384,192,86244,1,0,0:0:0:0:
213,192,86244,1,0,0:0:0:0:
42,192,86503,1,0,0:0:0:0:
469,192,86503,1,0,0:0:0:0:
213,192,86761,128,0,87149:0:0:0:0:
384,192,87149,1,0,0:0:0:0:
298,192,87537,128,0,87925:0:0:0:0:
128,192,87925,1,0,0:0:0:0:
213,192,88313,1,0,0:0:0:0:
298,192,88572,1,0,0:0:0:0:
42,192,88830,1,0,0:0:0:0:
384,192,88830,1,0,0:0:0:0:
213,192,89089,1,0,0:0:0:0:
298,192,89218,1,0,0:0:0:0:
384,192,89218,1,0,0:0:0:0:
469,192,89477,1,0,0:0:0:0:
42,192,89606,1,0,0:0:0:0:
213,192,89606,1,0,0:0:0:0:
298,192,89865,1,0,0:0:0:0:
213,192,89994,1,0,0:0:0:0:
128,192,89994,1,0,0:0:0:0:
42,192,90253,1,0,0:0:0:0:
298,192,90382,1,0,0:0:0:0:
469,192,90382,1,0,0:0:0:0:
128,192,90641,1,0,0:0:0:0:
384,192,90641,1,0,0:0:0:0:
42,192,90899,1,0,0:0:0:0:
298,192,90899,1,0,0:0:0:0:
213,192,91158,1,0,0:0:0:0:
128,192,91287,1,0,0:0:0:0:
469,192,91287,1,0,0:0:0:0:
298,192,91546,1,0,0:0:0:0:
384,192,91675,1,0,0:0:0:0:
42,192,91675,1,0,0:0:0:0:
213,192,91934,1,0,0:0:0:0:
298,192,92063,1,0,0:0:0:0:
469,192,92063,1,0,0:0:0:0:
213,192,92192,1,0,0:0:0:0:
42,192,92192,1,0,0:0:0:0:
298,192,92322,1,0,0:0:0:0:
469,192,92322,1,0,0:0:0:0:
128,192,92580,1,0,0:0:0:0:
384,192,92710,1,0,0:0:0:0:
298,192,92839,1,0,0:0:0:0:
42,192,92968,1,0,0:0:0:0:
213,192,92968,128,0,93356:0:0:0:0:
384,192,93356,1,0,0:0:0:0:
128,192,93356,128,0,93744:0:0:0:0:
298,192,93744,128,0,94003:0:0:0:0:
469,192,93744,1,0,0:0:0:0:
42,192,94003,1,0,0:0:0:0:
213,192,94003,1,0,0:0:0:0:
384,192,94132,1,0,0:0:0:0:
128,192,94261,1,0,0:0:0:0:
469,192,94391,1,0,0:0:0:0:
213,192,94391,1,0,0:0:0:0:
298,192,94649,1,0,0:0:0:0:
213,192,94778,1,0,0:0:0:0:
298,192,94908,1,0,0:0:0:0:
42,192,95037,1,0,0:0:0:0:
384,192,95037,1,0,0:0:0:0:
128,192,95166,1,0,0:0:0:0:
298,192,95425,1,0,0:0:0:0:
213,192,95554,1,0,0:0:0:0:
128,192,95684,1,0,0:0:0:0:
298,192,95813,1,0,0:0:0:0:
384,192,95942,128,0,96589:0:0:0:0:
42,192,96072,1,0,0:0:0:0:
213,192,96072,1,0,0:0:0:0:
298,192,96201,1,0,0:0:0:0:
128,192,96460,1,0,0:0:0:0:
298,192,96718,1,0,0:0:0:0:
213,192,96847,1,0,0:0:0:0:
128,192,96977,1,0,0:0:0:0:
42,192,97106,1,0,0:0:0:0:
469,192,97106,1,0,0:0:0:0:
384,192,97235,1,0,0:0:0:0:
128,192,97365,1,0,0:0:0:0:
213,192,97494,1,0,0:0:0:0:
298,192,97753,1,0,0:0:0:0:
213,192,97882,1,0,0:0:0:0:
128,192,98011,1,0,0:0:0:0:
298,192,98141,1,0,0:0:0:0:
469,192,98141,1,0,0:0:0:0:
384,192,98270,1,0,0:0:0:0:
42,192,98399,1,0,0:0:0:0:
213,192,98528,1,0,0:0:0:0:
469,192,98658,1,0,0:0:0:0:
298,192,98787,1,0,0:0:0:0:
128,192,98916,1,0,0:0:0:0:
384,192,99046,1,0,0:0:0:0:
298,192,99175,1,0,0:0:0:0:
42,192,99175,1,0,0:0:0:0:
213,192,99304,1,0,0:0:0:0:
469,192,99563,1,0,0:0:0:0:
298,192,99822,1,0,0:0:0:0:
128,192,100080,128,0,100727:0:0:0:0:
298,192,100210,1,0,0:0:0:0:
469,192,100210,1,0,0:0:0:0:
384,192,100339,1,0,0:0:0:0:
298,192,100597,1,0,0:0:0:0:
213,192,100856,1,0,0:0:0:0:
469,192,100985,1,0,0:0:0:0:
384,192,101115,1,0,0:0:0:0:
128,192,101244,1,0,0:0:0:0:
298,192,101244,128,0,101632:0:0:0:0:
42,192,101373,1,0,0:0:0:0:
213,192,101632,1,0,0:0:0:0:
384,192,101891,1,0,0:0:0:0:
128,192,102020,1,0,0:0:0:0:
213,192,102149,1,0,0:0:0:0:
298,192,102278,1,0,0:0:0:0:
469,192,102408,1,0,0:0:0:0:
128,192,102666,1,0,0:0:0:0:
298,192,102796,1,0,0:0:0:0:
213,192,102925,1,0,0:0:0:0:
384,192,103054,1,0,0:0:0:0:
298,192,103184,1,0,0:0:0:0:
213,192,103313,1,0,0:0:0:0:
42,192,103313,1,0,0:0:0:0:
469,192,103442,1,0,0:0:0:0:
128,192,103701,1,0,0:0:0:0:
384,192,103960,1,0,0:0:0:0:
213,192,104089,1,0,0:0:0:0:
298,192,104218,1,0,0:0:0:0:
128,192,104347,1,0,0:0:0:0:
384,192,104477,1,0,0:0:0:0:
213,192,104735,128,0,105123:0:0:0:0:
384,192,104994,1,0,0:0:0:0:
42,192,105123,1,0,0:0:0:0:
128,192,105253,1,0,0:0:0:0:
213,192,105382,1,0,0:0:0:0:
469,192,105382,1,0,0:0:0:0:
384,192,105511,1,0,0:0:0:0:
298,192,105641,1,0,0:0:0:0:
128,192,105770,1,0,0:0:0:0:
298,192,106028,1,0,0:0:0:0:
213,192,106287,128,0,107451:0:0:0:0:
469,192,106416,1,0,0:0:0:0:
298,192,106546,1,0,0:0:0:0:
384,192,106804,1,0,0:0:0:0:
298,192,107063,1,0,0:0:0:0:
384,192,107322,1,0,0:0:0:0:
42,192,107451,1,0,0:0:0:0:
128,192,107451,1,0,0:0:0:0:
384,192,107710,1,0,0:0:0:0:
469,192,107710,1,0,0:0:0:0:
213,192,107968,1,0,0:0:0:0:
128,192,107968,1,0,0:0:0:0:
298,192,108227,1,0,0:0:0:0:
384,192,108227,1,0,0:0:0:0:
128,192,108485,1,0,0:0:0:0:
42,192,108485,1,0,0:0:0:0:
384,192,108744,1,0,0:0:0:0:
469,192,108744,1,0,0:0:0:0:
213,192,109003,1,0,0:0:0:0:
128,192,109003,1,0,0:0:0:0:
384,192,109261,1,0,0:0:0:0:
298,192,109391,1,0,0:0:0:0:
213,192,109520,1,0,0:0:0:0:
42,192,109520,1,0,0:0:0:0:
213,192,109778,1,0,0:0:0:0:
42,192,109778,1,0,0:0:0:0:
213,192,110037,1,0,0:0:0:0:
42,192,110037,1,0,0:0:0:0:
213,192,110296,1,0,0:0:0:0:
42,192,110296,1,0,0:0:0:0:
128,192,110554,1,0,0:0:0:0:
384,192,110554,1,0,0:0:0:0:
298,192,110813,1,0,0:0:0:0:
469,192,110813,1,0,0:0:0:0:
469,192,111072,1,0,0:0:0:0:
298,192,111072,1,0,0:0:0:0:
298,192,111330,1,0,0:0:0:0:
469,192,111330,1,0,0:0:0:0:
213,192,111460,1,0,0:0:0:0:
128,192,111589,128,0,112623:0:0:0:0:
384,192,111847,1,0,0:0:0:0:
298,192,112106,1,0,0:0:0:0:
384,192,112365,1,0,0:0:0:0:
42,192,112623,1,0,0:0:0:0:
298,192,112623,1,0,0:0:0:0:
298,192,112796,1,0,0:0:0:0:
128,192,112968,1,0,0:0:0:0:
469,192,113141,1,0,0:0:0:0:
213,192,113141,1,0,0:0:0:0:
298,192,113313,1,0,0:0:0:0:
384,192,113485,1,0,0:0:0:0:
42,192,114175,1,0,0:0:0:0:
469,192,114175,128,0,116761:0:0:0:0:
213,192,114434,1,0,0:0:0:0:
42,192,114692,1,0,0:0:0:0:
213,192,114951,1,0,0:0:0:0:
42,192,115210,1,0,0:0:0:0:
213,192,115468,1,0,0:0:0:0:
42,192,115727,1,0,0:0:0:0:
213,192,115985,1,0,0:0:0:0:
42,192,116244,1,0,0:0:0:0:
213,192,116503,1,0,0:0:0:0:
42,192,116761,1,0,0:0:0:0:
128,192,116891,1,0,0:0:0:0:
213,192,117020,1,0,0:0:0:0:
298,192,117149,1,0,0:0:0:0:
384,192,117278,1,0,0:0:0:0:
469,192,117408,1,0,0:0:0:0:
128,192,117537,1,0,0:0:0:0:
298,192,117537,1,0,0:0:0:0:
