osu file format v14

[General]
AudioFilename: audio.ogg
AudioLeadIn: 0
PreviewTime: 92580
Countdown: 0
SampleSet: Normal
StackLeniency: 0.7
Mode: 3
LetterboxInBreaks: 0
SpecialStyle: 0
WidescreenStoryboard: 1

[Editor]
DistanceSpacing: 0.8
BeatDivisor: 4
GridSize: 8
TimelineZoom: 1.9

[Metadata]
Title:Goddess Bless you
TitleUnicode:Goddess Bless you
Artist:winddrums
ArtistUnicode:winddrums
Creator:Shima Rin
Version:Ash's INFINITE
Source:SOUND VOLTEX IV HEAVENLY HAVEN
Tags:BEMANI KONAMI SDVX 4 III GRAVITY WARS コナステ Tofu1222 Imperial Wolf Asherz007 AWMRone The 6th KAC Original Song Contest オリジナル楽曲コンテスト Video Game Electronic Instrumental
BeatmapID:2136882
BeatmapSetID:823117

[Difficulty]
HPDrainRate:7.8
CircleSize:6
OverallDifficulty:8.2
ApproachRate:5
SliderMultiplier:1.4
SliderTickRate:1

[Events]
//Background and Video events
0,0,"BG_2.jpg",0,0
//Break Periods
//Storyboard Layer 0 (Background)
//Storyboard Layer 1 (Fail)
//Storyboard Layer 2 (Pass)
//Storyboard Layer 3 (Foreground)
//Storyboard Layer 4 (Overlay)
//Storyboard Sound Samples

[TimingPoints]
1030,258.620689655172,4,1,1,70,1,0
36202,258.620689655172,3,1,1,70,1,0
38529,258.620689655172,4,1,1,70,1,0
72279,258.620689655172,4,1,1,70,1,0
92968,-100,4,1,1,70,0,1
94391,-100,4,1,1,70,0,0
95037,-100,4,1,1,70,0,1
113658,-100,4,1,1,70,0,0
114175,-100,4,1,1,70,0,1
117537,-100,4,1,1,70,0,0

[HitObjects]
128,192,771,5,0,0:0:0:0:
213,192,836,1,0,0:0:0:0:
298,192,900,1,0,0:0:0:0:
384,192,965,1,0,0:0:0:0:
469,192,1030,1,0,0:0:0:0:
128,192,1030,1,0,0:0:0:0:
42,192,1030,1,0,0:0:0:0:
298,192,1159,1,0,0:0:0:0:
384,192,1288,1,0,0:0:0:0:
213,192,1417,1,0,0:0:0:0:
42,192,1547,1,0,0:0:0:0:
128,192,1676,1,0,0:0:0:0:
213,192,1805,1,0,0:0:0:0:
298,192,1935,1,0,0:0:0:0:
213,192,2064,1,0,0:0:0:0:
384,192,2193,1,0,0:0:0:0:
298,192,2323,1,0,0:0:0:0:
213,192,2452,1,0,0:0:0:0:
469,192,2581,1,0,0:0:0:0:
298,192,2711,1,0,0:0:0:0:
384,192,2840,1,0,0:0:0:0:
298,192,2969,1,0,0:0:0:0:
128,192,3098,1,0,0:0:0:0:
42,192,3098,1,0,0:0:0:0:
298,192,3228,1,0,0:0:0:0:
213,192,3357,1,0,0:0:0:0:
42,192,3486,1,0,0:0:0:0:
128,192,3616,1,0,0:0:0:0:
213,192,3745,1,0,0:0:0:0:
298,192,3874,1,0,0:0:0:0:
128,192,4004,1,0,0:0:0:0:
213,192,4133,1,0,0:0:0:0:
298,192,4262,1,0,0:0:0:0:
384,192,4392,1,0,0:0:0:0:
42,192,4521,1,0,0:0:0:0:
213,192,4650,1,0,0:0:0:0:
384,192,4779,1,0,0:0:0:0:
128,192,4909,1,0,0:0:0:0:
298,192,5038,1,0,0:0:0:0:
213,192,5167,1,0,0:0:0:0:
128,192,5167,1,0,0:0:0:0:
42,192,5167,1,0,0:0:0:0:
469,192,5167,1,0,0:0:0:0:
384,192,5254,1,0,0:0:0:0:
213,192,5340,1,0,0:0:0:0:
469,192,5426,1,0,0:0:0:0:
298,192,5512,1,0,0:0:0:0:
213,192,5598,1,0,0:0:0:0:
384,192,5685,1,0,0:0:0:0:
298,192,5771,1,0,0:0:0:0:
128,192,5857,1,0,0:0:0:0:
42,192,5943,1,0,0:0:0:0:
384,192,5943,1,0,0:0:0:0:
298,192,5943,1,0,0:0:0:0:
469,192,5943,1,0,0:0:0:0:
213,192,6029,1,0,0:0:0:0:
469,192,6116,1,0,0:0:0:0:
298,192,6202,1,0,0:0:0:0:
128,192,6288,1,0,0:0:0:0:
384,192,6374,1,0,0:0:0:0:
213,192,6461,1,0,0:0:0:0:
128,192,6461,1,0,0:0:0:0:
42,192,6461,1,0,0:0:0:0:
469,192,6461,1,0,0:0:0:0:
298,192,6547,1,0,0:0:0:0:
384,192,6633,1,0,0:0:0:0:
469,192,6719,1,0,0:0:0:0:
128,192,6805,1,0,0:0:0:0:
213,192,6892,1,0,0:0:0:0:
298,192,6978,1,0,0:0:0:0:
384,192,7064,1,0,0:0:0:0:
42,192,7150,1,0,0:0:0:0:
213,192,7236,1,0,0:0:0:0:
298,192,7236,1,0,0:0:0:0:
384,192,7236,1,0,0:0:0:0:
469,192,7236,1,0,0:0:0:0:
128,192,7323,1,0,0:0:0:0:
298,192,7409,1,0,0:0:0:0:
213,192,7495,1,0,0:0:0:0:
42,192,7581,1,0,0:0:0:0:
298,192,7667,1,0,0:0:0:0:
128,192,7754,1,0,0:0:0:0:
469,192,7754,1,0,0:0:0:0:
42,192,7840,1,0,0:0:0:0:
384,192,7926,1,0,0:0:0:0:
469,192,7926,1,0,0:0:0:0:
213,192,8012,1,0,0:0:0:0:
128,192,8012,1,0,0:0:0:0:
298,192,8098,1,0,0:0:0:0:
384,192,8098,1,0,0:0:0:0:
128,192,8185,1,0,0:0:0:0:
42,192,8185,1,0,0:0:0:0:
213,192,8271,1,0,0:0:0:0:
469,192,8271,1,0,0:0:0:0:
384,192,8271,1,0,0:0:0:0:
298,192,8271,1,0,0:0:0:0:
42,192,8357,1,0,0:0:0:0:
469,192,8443,1,0,0:0:0:0:
42,192,8529,1,0,0:0:0:0:
213,192,8616,1,0,0:0:0:0:
298,192,8702,1,0,0:0:0:0:
384,192,8788,1,0,0:0:0:0:
213,192,8874,1,0,0:0:0:0:
128,192,8961,1,0,0:0:0:0:
213,192,9047,1,0,0:0:0:0:
298,192,9133,1,0,0:0:0:0:
384,192,9219,1,0,0:0:0:0:
469,192,9305,1,0,0:0:0:0:
42,192,9305,128,0,11180:0:0:0:0:
128,192,9305,128,0,9693:0:0:0:0:
213,192,9693,128,0,10081:0:0:0:0:
469,192,10081,128,0,10469:0:0:0:0:
384,192,10469,128,0,10857:0:0:0:0:
213,192,10857,128,0,11180:0:0:0:0:
298,192,11245,128,0,11633:0:0:0:0:
42,192,11245,1,0,0:0:0:0:
213,192,11245,1,0,0:0:0:0:
469,192,11245,1,0,0:0:0:0:
42,192,11633,1,0,0:0:0:0:
128,192,11633,1,0,0:0:0:0:
469,192,11633,1,0,0:0:0:0:
213,192,11762,1,0,0:0:0:0:
42,192,11892,1,0,0:0:0:0:
384,192,11892,1,0,0:0:0:0:
469,192,11892,1,0,0:0:0:0:
298,192,12021,1,0,0:0:0:0:
128,192,12150,1,0,0:0:0:0:
469,192,12150,1,0,0:0:0:0:
42,192,12150,1,0,0:0:0:0:
213,192,12279,1,0,0:0:0:0:
384,192,12409,1,0,0:0:0:0:
42,192,12409,1,0,0:0:0:0:
469,192,12409,1,0,0:0:0:0:
298,192,12538,1,0,0:0:0:0:
213,192,12603,1,0,0:0:0:0:
128,192,12667,1,0,0:0:0:0:
42,192,12667,1,0,0:0:0:0:
384,192,12732,1,0,0:0:0:0:
469,192,12732,1,0,0:0:0:0:
298,192,12797,1,0,0:0:0:0:
213,192,12797,1,0,0:0:0:0:
128,192,12861,1,0,0:0:0:0:
469,192,12926,1,0,0:0:0:0:
42,192,12991,1,0,0:0:0:0:
384,192,12991,1,0,0:0:0:0:
298,192,13055,1,0,0:0:0:0:
128,192,13055,1,0,0:0:0:0:
213,192,13120,1,0,0:0:0:0:
469,192,13185,1,0,0:0:0:0:
384,192,13249,1,0,0:0:0:0:
213,192,13314,1,0,0:0:0:0:
298,192,13314,1,0,0:0:0:0:
128,192,13379,1,0,0:0:0:0:
469,192,13443,1,0,0:0:0:0:
384,192,13443,1,0,0:0:0:0:
42,192,13443,1,0,0:0:0:0:
298,192,13573,1,0,0:0:0:0:
128,192,13702,1,0,0:0:0:0:
384,192,13831,1,0,0:0:0:0:
213,192,13961,1,0,0:0:0:0:
128,192,14090,1,0,0:0:0:0:
42,192,14219,1,0,0:0:0:0:
213,192,14348,1,0,0:0:0:0:
384,192,14478,1,0,0:0:0:0:
128,192,14607,1,0,0:0:0:0:
298,192,14736,1,0,0:0:0:0:
213,192,14866,1,0,0:0:0:0:
384,192,14995,1,0,0:0:0:0:
469,192,15124,1,0,0:0:0:0:
384,192,15254,1,0,0:0:0:0:
213,192,15383,1,0,0:0:0:0:
42,192,15512,1,0,0:0:0:0:
298,192,15642,1,0,0:0:0:0:
128,192,15771,1,0,0:0:0:0:
42,192,15900,1,0,0:0:0:0:
128,192,16029,1,0,0:0:0:0:
213,192,16159,1,0,0:0:0:0:
384,192,16288,1,0,0:0:0:0:
128,192,16417,1,0,0:0:0:0:
298,192,16547,1,0,0:0:0:0:
384,192,16676,1,0,0:0:0:0:
469,192,16805,128,0,16935:0:0:0:0:
298,192,16935,128,0,17064:0:0:0:0:
128,192,17064,128,0,17193:0:0:0:0:
384,192,17193,128,0,17323:0:0:0:0:
213,192,17323,128,0,17452:0:0:0:0:
128,192,17452,128,0,17581:0:0:0:0:
42,192,17581,128,0,17711:0:0:0:0:
128,192,17711,128,0,17840:0:0:0:0:
384,192,17840,128,0,17969:0:0:0:0:
298,192,17969,1,0,0:0:0:0:
213,192,17969,1,0,0:0:0:0:
42,192,18034,1,0,0:0:0:0:
128,192,18034,1,0,0:0:0:0:
469,192,18098,1,0,0:0:0:0:
213,192,18098,128,0,18228:0:0:0:0:
384,192,18098,1,0,0:0:0:0:
298,192,18228,128,0,18357:0:0:0:0:
384,192,18357,128,0,18486:0:0:0:0:
469,192,18486,128,0,18616:0:0:0:0:
384,192,18616,128,0,18745:0:0:0:0:
213,192,18745,128,0,18874:0:0:0:0:
42,192,18874,128,0,19004:0:0:0:0:
469,192,19004,128,0,19133:0:0:0:0:
298,192,19133,128,0,19262:0:0:0:0:
128,192,19262,128,0,19392:0:0:0:0:
42,192,19262,1,0,0:0:0:0:
384,192,19392,1,0,0:0:0:0:
469,192,19392,1,0,0:0:0:0:
42,192,19521,1,0,0:0:0:0:
298,192,19521,1,0,0:0:0:0:
128,192,19521,1,0,0:0:0:0:
213,192,19650,1,0,0:0:0:0:
384,192,19779,1,0,0:0:0:0:
469,192,19779,1,0,0:0:0:0:
42,192,19909,1,0,0:0:0:0:
298,192,19909,1,0,0:0:0:0:
128,192,20038,1,0,0:0:0:0:
469,192,20038,1,0,0:0:0:0:
213,192,20167,1,0,0:0:0:0:
298,192,20167,1,0,0:0:0:0:
384,192,20167,1,0,0:0:0:0:
42,192,20297,1,0,0:0:0:0:
469,192,20297,1,0,0:0:0:0:
213,192,20426,1,0,0:0:0:0:
384,192,20426,1,0,0:0:0:0:
128,192,20555,1,0,0:0:0:0:
298,192,20555,1,0,0:0:0:0:
42,192,20685,1,0,0:0:0:0:
128,192,20814,1,0,0:0:0:0:
213,192,20814,1,0,0:0:0:0:
298,192,20879,1,0,0:0:0:0:
384,192,20879,1,0,0:0:0:0:
469,192,20943,1,0,0:0:0:0:
42,192,20943,1,0,0:0:0:0:
213,192,21008,1,0,0:0:0:0:
298,192,21073,1,0,0:0:0:0:
384,192,21073,1,0,0:0:0:0:
128,192,21137,1,0,0:0:0:0:
42,192,21202,1,0,0:0:0:0:
469,192,21202,1,0,0:0:0:0:
384,192,21267,1,0,0:0:0:0:
298,192,21331,1,0,0:0:0:0:
128,192,21331,1,0,0:0:0:0:
213,192,21396,1,0,0:0:0:0:
384,192,21461,1,0,0:0:0:0:
469,192,21461,1,0,0:0:0:0:
42,192,21525,1,0,0:0:0:0:
213,192,21590,1,0,0:0:0:0:
128,192,21590,1,0,0:0:0:0:
298,192,21654,1,0,0:0:0:0:
384,192,21719,1,0,0:0:0:0:
469,192,21719,1,0,0:0:0:0:
128,192,21719,1,0,0:0:0:0:
42,192,21719,1,0,0:0:0:0:
213,192,21848,1,0,0:0:0:0:
298,192,21848,1,0,0:0:0:0:
128,192,21978,1,0,0:0:0:0:
42,192,21978,1,0,0:0:0:0:
469,192,21978,1,0,0:0:0:0:
384,192,22107,1,0,0:0:0:0:
213,192,22107,1,0,0:0:0:0:
298,192,22236,1,0,0:0:0:0:
469,192,22236,1,0,0:0:0:0:
42,192,22236,1,0,0:0:0:0:
128,192,22366,1,0,0:0:0:0:
213,192,22366,1,0,0:0:0:0:
298,192,22495,1,0,0:0:0:0:
384,192,22495,1,0,0:0:0:0:
469,192,22495,1,0,0:0:0:0:
213,192,22624,1,0,0:0:0:0:
42,192,22624,1,0,0:0:0:0:
42,192,22754,1,0,0:0:0:0:
128,192,22754,1,0,0:0:0:0:
384,192,22754,1,0,0:0:0:0:
298,192,22883,1,0,0:0:0:0:
469,192,22883,1,0,0:0:0:0:
213,192,23012,1,0,0:0:0:0:
42,192,23012,1,0,0:0:0:0:
384,192,23012,1,0,0:0:0:0:
128,192,23142,1,0,0:0:0:0:
298,192,23142,1,0,0:0:0:0:
213,192,23271,1,0,0:0:0:0:
384,192,23271,1,0,0:0:0:0:
469,192,23271,1,0,0:0:0:0:
42,192,23400,1,0,0:0:0:0:
298,192,23529,1,0,0:0:0:0:
469,192,23529,1,0,0:0:0:0:
128,192,23529,1,0,0:0:0:0:
213,192,23659,1,0,0:0:0:0:
384,192,23659,1,0,0:0:0:0:
384,192,23788,1,0,0:0:0:0:
128,192,23788,1,0,0:0:0:0:
42,192,23788,1,0,0:0:0:0:
469,192,23788,1,0,0:0:0:0:
213,192,23917,1,0,0:0:0:0:
298,192,23917,1,0,0:0:0:0:
128,192,24047,1,0,0:0:0:0:
42,192,24047,1,0,0:0:0:0:
469,192,24047,1,0,0:0:0:0:
213,192,24176,1,0,0:0:0:0:
384,192,24176,1,0,0:0:0:0:
298,192,24305,1,0,0:0:0:0:
42,192,24305,1,0,0:0:0:0:
469,192,24305,1,0,0:0:0:0:
128,192,24435,1,0,0:0:0:0:
213,192,24435,1,0,0:0:0:0:
298,192,24564,1,0,0:0:0:0:
384,192,24564,1,0,0:0:0:0:
469,192,24564,1,0,0:0:0:0:
213,192,24693,1,0,0:0:0:0:
42,192,24693,1,0,0:0:0:0:
128,192,24823,1,0,0:0:0:0:
213,192,24823,1,0,0:0:0:0:
469,192,24823,1,0,0:0:0:0:
298,192,24952,1,0,0:0:0:0:
384,192,24952,1,0,0:0:0:0:
42,192,25081,1,0,0:0:0:0:
213,192,25081,1,0,0:0:0:0:
469,192,25081,1,0,0:0:0:0:
128,192,25211,1,0,0:0:0:0:
298,192,25211,1,0,0:0:0:0:
213,192,25340,1,0,0:0:0:0:
384,192,25340,1,0,0:0:0:0:
469,192,25340,1,0,0:0:0:0:
42,192,25469,1,0,0:0:0:0:
298,192,25469,1,0,0:0:0:0:
128,192,25598,1,0,0:0:0:0:
213,192,25598,1,0,0:0:0:0:
469,192,25598,1,0,0:0:0:0:
384,192,25728,1,0,0:0:0:0:
298,192,25728,1,0,0:0:0:0:
213,192,25857,1,0,0:0:0:0:
128,192,25857,1,0,0:0:0:0:
42,192,25857,1,0,0:0:0:0:
469,192,25857,1,0,0:0:0:0:
298,192,25986,1,0,0:0:0:0:
384,192,26051,1,0,0:0:0:0:
469,192,26116,1,0,0:0:0:0:
42,192,26116,1,0,0:0:0:0:
213,192,26180,1,0,0:0:0:0:
298,192,26245,1,0,0:0:0:0:
384,192,26310,1,0,0:0:0:0:
469,192,26374,1,0,0:0:0:0:
42,192,26374,1,0,0:0:0:0:
128,192,26439,1,0,0:0:0:0:
213,192,26504,1,0,0:0:0:0:
298,192,26568,1,0,0:0:0:0:
42,192,26633,1,0,0:0:0:0:
384,192,26633,1,0,0:0:0:0:
128,192,26698,1,0,0:0:0:0:
213,192,26762,1,0,0:0:0:0:
298,192,26762,1,0,0:0:0:0:
384,192,26827,1,0,0:0:0:0:
128,192,26892,1,0,0:0:0:0:
42,192,26892,1,0,0:0:0:0:
469,192,26892,1,0,0:0:0:0:
213,192,26892,1,0,0:0:0:0:
298,192,27021,1,0,0:0:0:0:
128,192,27150,1,0,0:0:0:0:
42,192,27150,1,0,0:0:0:0:
384,192,27279,1,0,0:0:0:0:
469,192,27279,1,0,0:0:0:0:
213,192,27409,1,0,0:0:0:0:
42,192,27409,1,0,0:0:0:0:
298,192,27538,1,0,0:0:0:0:
128,192,27667,1,0,0:0:0:0:
42,192,27667,1,0,0:0:0:0:
384,192,27667,1,0,0:0:0:0:
298,192,27797,1,0,0:0:0:0:
213,192,27926,1,0,0:0:0:0:
42,192,27926,1,0,0:0:0:0:
384,192,27926,1,0,0:0:0:0:
469,192,27926,1,0,0:0:0:0:
128,192,28055,1,0,0:0:0:0:
298,192,28120,1,0,0:0:0:0:
42,192,28185,1,0,0:0:0:0:
469,192,28185,1,0,0:0:0:0:
213,192,28249,1,0,0:0:0:0:
384,192,28314,1,0,0:0:0:0:
128,192,28379,1,0,0:0:0:0:
298,192,28443,1,0,0:0:0:0:
213,192,28443,1,0,0:0:0:0:
42,192,28573,1,0,0:0:0:0:
128,192,28702,1,0,0:0:0:0:
469,192,28702,1,0,0:0:0:0:
213,192,28767,1,0,0:0:0:0:
298,192,28831,1,0,0:0:0:0:
384,192,28896,1,0,0:0:0:0:
469,192,28961,1,0,0:0:0:0:
213,192,28961,1,0,0:0:0:0:
128,192,28961,1,0,0:0:0:0:
42,192,28961,1,0,0:0:0:0:
298,192,29090,1,0,0:0:0:0:
128,192,29219,1,0,0:0:0:0:
384,192,29219,1,0,0:0:0:0:
469,192,29348,1,0,0:0:0:0:
42,192,29348,1,0,0:0:0:0:
298,192,29478,1,0,0:0:0:0:
384,192,29478,1,0,0:0:0:0:
128,192,29542,1,0,0:0:0:0:
469,192,29607,1,0,0:0:0:0:
213,192,29607,1,0,0:0:0:0:
384,192,29672,1,0,0:0:0:0:
42,192,29736,1,0,0:0:0:0:
128,192,29736,1,0,0:0:0:0:
298,192,29736,1,0,0:0:0:0:
213,192,29866,1,0,0:0:0:0:
42,192,29995,1,0,0:0:0:0:
213,192,29995,1,0,0:0:0:0:
469,192,29995,1,0,0:0:0:0:
384,192,29995,1,0,0:0:0:0:
128,192,30124,1,0,0:0:0:0:
298,192,30124,1,0,0:0:0:0:
213,192,30254,1,0,0:0:0:0:
384,192,30254,1,0,0:0:0:0:
469,192,30254,1,0,0:0:0:0:
42,192,30383,1,0,0:0:0:0:
384,192,30383,1,0,0:0:0:0:
128,192,30512,1,0,0:0:0:0:
213,192,30512,1,0,0:0:0:0:
298,192,30512,1,0,0:0:0:0:
469,192,30642,1,0,0:0:0:0:
384,192,30642,1,0,0:0:0:0:
128,192,30771,1,0,0:0:0:0:
298,192,30771,1,0,0:0:0:0:
42,192,30771,1,0,0:0:0:0:
42,192,30900,1,0,0:0:0:0:
469,192,30900,1,0,0:0:0:0:
213,192,31029,1,0,0:0:0:0:
469,192,31029,1,0,0:0:0:0:
384,192,31029,1,0,0:0:0:0:
128,192,31159,1,0,0:0:0:0:
298,192,31159,1,0,0:0:0:0:
42,192,31288,1,0,0:0:0:0:
213,192,31288,1,0,0:0:0:0:
384,192,31288,1,0,0:0:0:0:
469,192,31417,1,0,0:0:0:0:
213,192,31417,1,0,0:0:0:0:
128,192,31547,1,0,0:0:0:0:
42,192,31547,1,0,0:0:0:0:
298,192,31547,1,0,0:0:0:0:
384,192,31676,1,0,0:0:0:0:
469,192,31676,1,0,0:0:0:0:
213,192,31805,1,0,0:0:0:0:
298,192,31805,1,0,0:0:0:0:
42,192,31805,1,0,0:0:0:0:
128,192,31935,1,0,0:0:0:0:
298,192,31935,1,0,0:0:0:0:
128,192,32064,1,0,0:0:0:0:
213,192,32064,1,0,0:0:0:0:
384,192,32064,1,0,0:0:0:0:
469,192,32064,1,0,0:0:0:0:
42,192,32193,1,0,0:0:0:0:
298,192,32193,1,0,0:0:0:0:
213,192,32323,1,0,0:0:0:0:
384,192,32323,1,0,0:0:0:0:
469,192,32323,1,0,0:0:0:0:
384,192,32452,1,0,0:0:0:0:
128,192,32452,1,0,0:0:0:0:
42,192,32581,1,0,0:0:0:0:
213,192,32581,1,0,0:0:0:0:
298,192,32581,1,0,0:0:0:0:
469,192,32711,1,0,0:0:0:0:
384,192,32711,1,0,0:0:0:0:
42,192,32840,1,0,0:0:0:0:
128,192,32840,1,0,0:0:0:0:
298,192,32840,1,0,0:0:0:0:
42,192,32969,1,0,0:0:0:0:
469,192,32969,1,0,0:0:0:0:
213,192,33098,1,0,0:0:0:0:
469,192,33098,1,0,0:0:0:0:
298,192,33098,1,0,0:0:0:0:
128,192,33228,1,0,0:0:0:0:
384,192,33228,1,0,0:0:0:0:
42,192,33357,1,0,0:0:0:0:
213,192,33357,1,0,0:0:0:0:
298,192,33357,1,0,0:0:0:0:
42,192,33486,1,0,0:0:0:0:
469,192,33486,1,0,0:0:0:0:
128,192,33616,1,0,0:0:0:0:
298,192,33616,1,0,0:0:0:0:
384,192,33616,1,0,0:0:0:0:
213,192,33745,1,0,0:0:0:0:
469,192,33745,1,0,0:0:0:0:
42,192,33874,1,0,0:0:0:0:
128,192,33874,1,0,0:0:0:0:
298,192,33874,1,0,0:0:0:0:
213,192,34004,1,0,0:0:0:0:
298,192,34004,1,0,0:0:0:0:
213,192,34133,1,0,0:0:0:0:
128,192,34133,1,0,0:0:0:0:
384,192,34133,1,0,0:0:0:0:
469,192,34133,1,0,0:0:0:0:
42,192,34262,1,0,0:0:0:0:
128,192,34392,1,0,0:0:0:0:
298,192,34392,1,0,0:0:0:0:
469,192,34392,1,0,0:0:0:0:
213,192,34456,1,0,0:0:0:0:
384,192,34521,1,0,0:0:0:0:
128,192,34650,1,0,0:0:0:0:
42,192,34650,1,0,0:0:0:0:
469,192,34779,1,0,0:0:0:0:
213,192,34779,1,0,0:0:0:0:
298,192,34844,1,0,0:0:0:0:
128,192,34909,1,0,0:0:0:0:
42,192,34909,1,0,0:0:0:0:
384,192,34909,1,0,0:0:0:0:
213,192,34973,1,0,0:0:0:0:
298,192,35038,1,0,0:0:0:0:
384,192,35103,1,0,0:0:0:0:
42,192,35167,1,0,0:0:0:0:
469,192,35167,1,0,0:0:0:0:
213,192,35297,1,0,0:0:0:0:
128,192,35426,1,0,0:0:0:0:
298,192,35426,1,0,0:0:0:0:
384,192,35426,1,0,0:0:0:0:
42,192,35555,1,0,0:0:0:0:
469,192,35555,1,0,0:0:0:0:
128,192,35620,1,0,0:0:0:0:
213,192,35620,1,0,0:0:0:0:
298,192,35685,1,0,0:0:0:0:
384,192,35685,1,0,0:0:0:0:
469,192,35685,1,0,0:0:0:0:
298,192,35814,1,0,0:0:0:0:
384,192,35814,1,0,0:0:0:0:
469,192,35814,1,0,0:0:0:0:
213,192,35943,1,0,0:0:0:0:
128,192,35943,1,0,0:0:0:0:
298,192,36073,1,0,0:0:0:0:
384,192,36073,1,0,0:0:0:0:
42,192,36202,1,0,0:0:0:0:
128,192,36202,1,0,0:0:0:0:
469,192,36202,1,0,0:0:0:0:
384,192,36331,1,0,0:0:0:0:
298,192,36331,1,0,0:0:0:0:
213,192,36460,1,0,0:0:0:0:
128,192,36460,1,0,0:0:0:0:
42,192,36589,1,0,0:0:0:0:
469,192,36589,1,0,0:0:0:0:
298,192,36589,1,0,0:0:0:0:
128,192,36719,1,0,0:0:0:0:
213,192,36719,1,0,0:0:0:0:
469,192,36848,1,0,0:0:0:0:
384,192,36848,1,0,0:0:0:0:
213,192,36977,1,0,0:0:0:0:
42,192,36977,1,0,0:0:0:0:
298,192,36977,1,0,0:0:0:0:
128,192,37107,1,0,0:0:0:0:
384,192,37107,1,0,0:0:0:0:
469,192,37236,1,0,0:0:0:0:
213,192,37236,1,0,0:0:0:0:
42,192,37365,1,0,0:0:0:0:
128,192,37365,1,0,0:0:0:0:
298,192,37365,1,0,0:0:0:0:
213,192,37495,1,0,0:0:0:0:
469,192,37495,1,0,0:0:0:0:
384,192,37624,1,0,0:0:0:0:
128,192,37624,1,0,0:0:0:0:
298,192,37753,1,0,0:0:0:0:
469,192,37753,1,0,0:0:0:0:
42,192,37753,1,0,0:0:0:0:
128,192,37883,1,0,0:0:0:0:
213,192,37883,1,0,0:0:0:0:
298,192,38012,1,0,0:0:0:0:
384,192,38012,1,0,0:0:0:0:
42,192,38141,1,0,0:0:0:0:
128,192,38141,1,0,0:0:0:0:
469,192,38141,1,0,0:0:0:0:
213,192,38206,1,0,0:0:0:0:
298,192,38270,1,0,0:0:0:0:
384,192,38270,1,0,0:0:0:0:
213,192,38335,1,0,0:0:0:0:
469,192,38400,1,0,0:0:0:0:
42,192,38400,1,0,0:0:0:0:
128,192,38529,1,0,0:0:0:0:
213,192,38529,1,0,0:0:0:0:
298,192,38529,1,0,0:0:0:0:
384,192,38658,1,0,0:0:0:0:
469,192,38658,1,0,0:0:0:0:
298,192,38787,1,0,0:0:0:0:
213,192,38787,1,0,0:0:0:0:
42,192,38787,1,0,0:0:0:0:
384,192,38916,1,0,0:0:0:0:
469,192,38916,1,0,0:0:0:0:
298,192,39046,1,0,0:0:0:0:
128,192,39046,1,0,0:0:0:0:
42,192,39046,1,0,0:0:0:0:
384,192,39175,1,0,0:0:0:0:
469,192,39175,1,0,0:0:0:0:
213,192,39304,1,0,0:0:0:0:
42,192,39304,1,0,0:0:0:0:
128,192,39304,1,0,0:0:0:0:
384,192,39434,1,0,0:0:0:0:
298,192,39434,1,0,0:0:0:0:
213,192,39563,1,0,0:0:0:0:
42,192,39563,1,0,0:0:0:0:
469,192,39563,1,0,0:0:0:0:
128,192,39563,1,0,0:0:0:0:
384,192,39735,1,0,0:0:0:0:
213,192,39822,1,0,0:0:0:0:
384,192,39908,1,0,0:0:0:0:
213,192,39994,1,0,0:0:0:0:
42,192,40080,1,0,0:0:0:0:
469,192,40080,1,0,0:0:0:0:
298,192,40166,1,0,0:0:0:0:
128,192,40253,1,0,0:0:0:0:
384,192,40339,1,0,0:0:0:0:
213,192,40425,1,0,0:0:0:0:
298,192,40511,1,0,0:0:0:0:
42,192,40597,1,0,0:0:0:0:
128,192,40597,1,0,0:0:0:0:
469,192,40597,1,0,0:0:0:0:
384,192,40684,1,0,0:0:0:0:
213,192,40770,1,0,0:0:0:0:
42,192,40856,1,0,0:0:0:0:
298,192,40856,1,0,0:0:0:0:
128,192,40942,1,0,0:0:0:0:
384,192,40942,1,0,0:0:0:0:
213,192,41028,1,0,0:0:0:0:
469,192,41028,1,0,0:0:0:0:
128,192,41115,1,0,0:0:0:0:
42,192,41115,1,0,0:0:0:0:
298,192,41201,1,0,0:0:0:0:
384,192,41201,1,0,0:0:0:0:
213,192,41287,1,0,0:0:0:0:
42,192,41287,1,0,0:0:0:0:
384,192,41373,1,0,0:0:0:0:
469,192,41373,1,0,0:0:0:0:
128,192,41438,1,0,0:0:0:0:
213,192,41503,1,0,0:0:0:0:
298,192,41567,1,0,0:0:0:0:
128,192,41632,1,0,0:0:0:0:
42,192,41632,1,0,0:0:0:0:
384,192,41632,1,0,0:0:0:0:
469,192,41632,1,0,0:0:0:0:
213,192,41718,1,0,0:0:0:0:
298,192,41804,1,0,0:0:0:0:
42,192,41891,1,0,0:0:0:0:
128,192,41977,1,0,0:0:0:0:
384,192,42020,1,0,0:0:0:0:
469,192,42020,1,0,0:0:0:0:
213,192,42063,1,0,0:0:0:0:
298,192,42149,1,0,0:0:0:0:
384,192,42149,1,0,0:0:0:0:
469,192,42149,1,0,0:0:0:0:
128,192,42235,1,0,0:0:0:0:
213,192,42322,1,0,0:0:0:0:
298,192,42408,1,0,0:0:0:0:
384,192,42494,1,0,0:0:0:0:
128,192,42537,1,0,0:0:0:0:
42,192,42537,1,0,0:0:0:0:
469,192,42580,1,0,0:0:0:0:
213,192,42666,1,0,0:0:0:0:
42,192,42666,1,0,0:0:0:0:
298,192,42731,1,0,0:0:0:0:
128,192,42796,1,0,0:0:0:0:
384,192,42860,1,0,0:0:0:0:
213,192,42925,1,0,0:0:0:0:
298,192,42990,1,0,0:0:0:0:
128,192,43054,1,0,0:0:0:0:
42,192,43054,1,0,0:0:0:0:
384,192,43119,1,0,0:0:0:0:
213,192,43184,1,0,0:0:0:0:
469,192,43184,1,0,0:0:0:0:
42,192,43184,1,0,0:0:0:0:
298,192,43248,1,0,0:0:0:0:
128,192,43313,1,0,0:0:0:0:
384,192,43378,1,0,0:0:0:0:
213,192,43442,1,0,0:0:0:0:
298,192,43507,1,0,0:0:0:0:
128,192,43572,1,0,0:0:0:0:
42,192,43572,1,0,0:0:0:0:
384,192,43636,1,0,0:0:0:0:
213,192,43701,1,0,0:0:0:0:
42,192,43701,1,0,0:0:0:0:
469,192,43787,1,0,0:0:0:0:
298,192,43873,1,0,0:0:0:0:
42,192,43960,1,0,0:0:0:0:
384,192,44046,1,0,0:0:0:0:
213,192,44089,1,0,0:0:0:0:
128,192,44089,1,0,0:0:0:0:
298,192,44132,1,0,0:0:0:0:
42,192,44218,1,0,0:0:0:0:
128,192,44218,1,0,0:0:0:0:
213,192,44218,1,0,0:0:0:0:
384,192,44304,1,0,0:0:0:0:
298,192,44391,1,0,0:0:0:0:
213,192,44477,1,0,0:0:0:0:
128,192,44563,1,0,0:0:0:0:
298,192,44606,1,0,0:0:0:0:
384,192,44606,1,0,0:0:0:0:
42,192,44649,1,0,0:0:0:0:
298,192,44735,1,0,0:0:0:0:
469,192,44735,1,0,0:0:0:0:
213,192,44800,1,0,0:0:0:0:
128,192,44865,1,0,0:0:0:0:
42,192,44865,1,0,0:0:0:0:
469,192,44865,1,0,0:0:0:0:
298,192,44929,1,0,0:0:0:0:
384,192,44994,1,0,0:0:0:0:
213,192,45059,1,0,0:0:0:0:
128,192,45123,1,0,0:0:0:0:
42,192,45123,1,0,0:0:0:0:
298,192,45188,1,0,0:0:0:0:
384,192,45253,1,0,0:0:0:0:
42,192,45253,1,0,0:0:0:0:
469,192,45253,1,0,0:0:0:0:
213,192,45317,1,0,0:0:0:0:
128,192,45382,1,0,0:0:0:0:
298,192,45447,1,0,0:0:0:0:
384,192,45511,1,0,0:0:0:0:
213,192,45576,1,0,0:0:0:0:
128,192,45641,1,0,0:0:0:0:
298,192,45705,1,0,0:0:0:0:
384,192,45770,1,0,0:0:0:0:
42,192,45770,1,0,0:0:0:0:
469,192,45770,1,0,0:0:0:0:
128,192,45770,1,0,0:0:0:0:
213,192,45856,1,0,0:0:0:0:
298,192,45942,1,0,0:0:0:0:
384,192,46028,1,0,0:0:0:0:
128,192,46115,1,0,0:0:0:0:
298,192,46158,1,0,0:0:0:0:
469,192,46158,1,0,0:0:0:0:
213,192,46201,1,0,0:0:0:0:
298,192,46287,1,0,0:0:0:0:
384,192,46287,1,0,0:0:0:0:
469,192,46287,1,0,0:0:0:0:
42,192,46373,1,0,0:0:0:0:
213,192,46460,1,0,0:0:0:0:
298,192,46546,1,0,0:0:0:0:
384,192,46632,1,0,0:0:0:0:
42,192,46675,1,0,0:0:0:0:
213,192,46675,1,0,0:0:0:0:
469,192,46718,1,0,0:0:0:0:
128,192,46804,1,0,0:0:0:0:
42,192,46804,1,0,0:0:0:0:
384,192,46869,1,0,0:0:0:0:
128,192,46934,1,0,0:0:0:0:
298,192,46998,1,0,0:0:0:0:
213,192,47063,1,0,0:0:0:0:
384,192,47128,1,0,0:0:0:0:
128,192,47192,1,0,0:0:0:0:
42,192,47192,1,0,0:0:0:0:
298,192,47257,1,0,0:0:0:0:
213,192,47322,1,0,0:0:0:0:
42,192,47322,1,0,0:0:0:0:
469,192,47322,1,0,0:0:0:0:
384,192,47386,1,0,0:0:0:0:
128,192,47451,1,0,0:0:0:0:
298,192,47516,1,0,0:0:0:0:
213,192,47580,1,0,0:0:0:0:
384,192,47645,1,0,0:0:0:0:
128,192,47710,1,0,0:0:0:0:
42,192,47710,1,0,0:0:0:0:
298,192,47774,1,0,0:0:0:0:
213,192,47839,1,0,0:0:0:0:
42,192,47839,1,0,0:0:0:0:
469,192,47925,1,0,0:0:0:0:
298,192,48011,1,0,0:0:0:0:
128,192,48097,1,0,0:0:0:0:
384,192,48184,1,0,0:0:0:0:
213,192,48227,1,0,0:0:0:0:
42,192,48227,1,0,0:0:0:0:
298,192,48270,1,0,0:0:0:0:
42,192,48356,1,0,0:0:0:0:
128,192,48356,1,0,0:0:0:0:
213,192,48356,1,0,0:0:0:0:
384,192,48442,1,0,0:0:0:0:
298,192,48528,1,0,0:0:0:0:
213,192,48615,1,0,0:0:0:0:
128,192,48701,1,0,0:0:0:0:
298,192,48744,1,0,0:0:0:0:
469,192,48744,1,0,0:0:0:0:
42,192,48787,1,0,0:0:0:0:
298,192,48873,1,0,0:0:0:0:
384,192,48873,1,0,0:0:0:0:
213,192,48938,1,0,0:0:0:0:
128,192,49003,1,0,0:0:0:0:
42,192,49003,1,0,0:0:0:0:
469,192,49003,1,0,0:0:0:0:
298,192,49067,1,0,0:0:0:0:
384,192,49132,1,0,0:0:0:0:
213,192,49197,1,0,0:0:0:0:
128,192,49261,1,0,0:0:0:0:
42,192,49261,1,0,0:0:0:0:
298,192,49326,1,0,0:0:0:0:
384,192,49391,1,0,0:0:0:0:
469,192,49391,1,0,0:0:0:0:
213,192,49391,1,0,0:0:0:0:
128,192,49455,1,0,0:0:0:0:
42,192,49520,1,0,0:0:0:0:
469,192,49520,1,0,0:0:0:0:
298,192,49585,1,0,0:0:0:0:
128,192,49649,1,0,0:0:0:0:
42,192,49649,1,0,0:0:0:0:
384,192,49714,1,0,0:0:0:0:
213,192,49778,1,0,0:0:0:0:
469,192,49778,1,0,0:0:0:0:
298,192,49843,1,0,0:0:0:0:
42,192,49908,1,0,0:0:0:0:
128,192,49908,1,0,0:0:0:0:
384,192,49908,1,0,0:0:0:0:
469,192,49908,1,0,0:0:0:0:
213,192,50037,1,0,0:0:0:0:
128,192,50166,1,0,0:0:0:0:
298,192,50166,1,0,0:0:0:0:
384,192,50166,1,0,0:0:0:0:
384,192,50296,1,0,0:0:0:0:
42,192,50296,1,0,0:0:0:0:
213,192,50425,1,0,0:0:0:0:
128,192,50425,1,0,0:0:0:0:
469,192,50425,1,0,0:0:0:0:
384,192,50554,1,0,0:0:0:0:
298,192,50554,1,0,0:0:0:0:
42,192,50684,1,0,0:0:0:0:
213,192,50684,1,0,0:0:0:0:
469,192,50684,1,0,0:0:0:0:
128,192,50813,1,0,0:0:0:0:
213,192,50813,1,0,0:0:0:0:
384,192,50813,1,0,0:0:0:0:
469,192,50813,1,0,0:0:0:0:
42,192,50942,1,0,0:0:0:0:
213,192,51072,1,0,0:0:0:0:
298,192,51072,1,0,0:0:0:0:
128,192,51201,1,0,0:0:0:0:
469,192,51201,1,0,0:0:0:0:
42,192,51201,1,0,0:0:0:0:
128,192,51330,1,0,0:0:0:0:
298,192,51330,1,0,0:0:0:0:
213,192,51460,1,0,0:0:0:0:
384,192,51460,1,0,0:0:0:0:
469,192,51460,1,0,0:0:0:0:
298,192,51589,1,0,0:0:0:0:
42,192,51589,1,0,0:0:0:0:
128,192,51718,1,0,0:0:0:0:
384,192,51718,1,0,0:0:0:0:
469,192,51718,1,0,0:0:0:0:
213,192,51847,1,0,0:0:0:0:
384,192,51847,1,0,0:0:0:0:
42,192,51977,1,0,0:0:0:0:
213,192,51977,1,0,0:0:0:0:
298,192,51977,1,0,0:0:0:0:
469,192,51977,1,0,0:0:0:0:
128,192,52106,1,0,0:0:0:0:
213,192,52235,1,0,0:0:0:0:
298,192,52235,1,0,0:0:0:0:
384,192,52235,1,0,0:0:0:0:
384,192,52365,1,0,0:0:0:0:
42,192,52365,1,0,0:0:0:0:
128,192,52494,1,0,0:0:0:0:
213,192,52494,1,0,0:0:0:0:
298,192,52494,1,0,0:0:0:0:
384,192,52623,1,0,0:0:0:0:
469,192,52623,1,0,0:0:0:0:
298,192,52753,1,0,0:0:0:0:
213,192,52753,1,0,0:0:0:0:
42,192,52753,1,0,0:0:0:0:
42,192,52882,1,0,0:0:0:0:
128,192,52882,1,0,0:0:0:0:
298,192,52882,1,0,0:0:0:0:
384,192,52882,1,0,0:0:0:0:
213,192,53011,1,0,0:0:0:0:
384,192,53141,1,0,0:0:0:0:
469,192,53141,1,0,0:0:0:0:
298,192,53270,1,0,0:0:0:0:
128,192,53270,1,0,0:0:0:0:
42,192,53270,1,0,0:0:0:0:
128,192,53399,1,0,0:0:0:0:
469,192,53399,1,0,0:0:0:0:
213,192,53528,1,0,0:0:0:0:
298,192,53528,1,0,0:0:0:0:
384,192,53528,1,0,0:0:0:0:
128,192,53658,1,0,0:0:0:0:
42,192,53658,1,0,0:0:0:0:
298,192,53787,1,0,0:0:0:0:
213,192,53787,1,0,0:0:0:0:
469,192,53852,1,0,0:0:0:0:
384,192,53852,1,0,0:0:0:0:
128,192,53916,1,0,0:0:0:0:
42,192,53916,1,0,0:0:0:0:
469,192,53981,1,0,0:0:0:0:
128,192,54046,1,0,0:0:0:0:
213,192,54046,1,0,0:0:0:0:
384,192,54046,1,0,0:0:0:0:
298,192,54046,1,0,0:0:0:0:
42,192,54175,1,0,0:0:0:0:
298,192,54175,1,0,0:0:0:0:
128,192,54240,1,0,0:0:0:0:
384,192,54240,1,0,0:0:0:0:
213,192,54304,1,0,0:0:0:0:
469,192,54304,1,0,0:0:0:0:
128,192,54434,1,0,0:0:0:0:
298,192,54434,1,0,0:0:0:0:
384,192,54434,1,0,0:0:0:0:
42,192,54434,1,0,0:0:0:0:
42,192,54563,1,0,0:0:0:0:
469,192,54563,1,0,0:0:0:0:
128,192,54628,1,0,0:0:0:0:
384,192,54628,1,0,0:0:0:0:
213,192,54692,1,0,0:0:0:0:
298,192,54692,1,0,0:0:0:0:
128,192,54822,1,0,0:0:0:0:
384,192,54822,1,0,0:0:0:0:
469,192,54822,1,0,0:0:0:0:
42,192,54822,1,0,0:0:0:0:
213,192,54951,1,0,0:0:0:0:
469,192,54951,1,0,0:0:0:0:
384,192,55016,1,0,0:0:0:0:
128,192,55016,1,0,0:0:0:0:
298,192,55080,1,0,0:0:0:0:
42,192,55080,1,0,0:0:0:0:
128,192,55210,1,0,0:0:0:0:
213,192,55210,1,0,0:0:0:0:
384,192,55210,1,0,0:0:0:0:
469,192,55210,1,0,0:0:0:0:
213,192,55339,1,0,0:0:0:0:
298,192,55339,1,0,0:0:0:0:
128,192,55403,1,0,0:0:0:0:
384,192,55403,1,0,0:0:0:0:
42,192,55468,1,0,0:0:0:0:
469,192,55468,1,0,0:0:0:0:
42,192,55597,1,0,0:0:0:0:
128,192,55597,1,0,0:0:0:0:
213,192,55597,1,0,0:0:0:0:
298,192,55597,1,0,0:0:0:0:
384,192,55727,1,0,0:0:0:0:
469,192,55727,1,0,0:0:0:0:
128,192,55856,1,0,0:0:0:0:
213,192,55856,1,0,0:0:0:0:
298,192,55856,1,0,0:0:0:0:
384,192,55856,1,0,0:0:0:0:
42,192,55985,1,0,0:0:0:0:
128,192,55985,1,0,0:0:0:0:
213,192,56115,1,0,0:0:0:0:
298,192,56115,1,0,0:0:0:0:
384,192,56115,1,0,0:0:0:0:
469,192,56115,1,0,0:0:0:0:
128,192,56244,1,0,0:0:0:0:
42,192,56244,1,0,0:0:0:0:
213,192,56373,1,0,0:0:0:0:
298,192,56373,1,0,0:0:0:0:
128,192,56503,1,0,0:0:0:0:
42,192,56503,1,0,0:0:0:0:
384,192,56503,1,0,0:0:0:0:
469,192,56503,1,0,0:0:0:0:
298,192,56632,1,0,0:0:0:0:
213,192,56632,1,0,0:0:0:0:
384,192,56761,1,0,0:0:0:0:
469,192,56761,1,0,0:0:0:0:
298,192,56891,1,0,0:0:0:0:
213,192,56891,1,0,0:0:0:0:
128,192,56891,1,0,0:0:0:0:
42,192,56891,1,0,0:0:0:0:
384,192,57020,1,0,0:0:0:0:
469,192,57020,1,0,0:0:0:0:
42,192,57149,1,0,0:0:0:0:
128,192,57149,1,0,0:0:0:0:
213,192,57278,1,0,0:0:0:0:
298,192,57278,1,0,0:0:0:0:
384,192,57278,1,0,0:0:0:0:
128,192,57408,1,0,0:0:0:0:
42,192,57408,1,0,0:0:0:0:
298,192,57408,1,0,0:0:0:0:
128,192,57537,1,0,0:0:0:0:
42,192,57537,1,0,0:0:0:0:
384,192,57537,1,0,0:0:0:0:
469,192,57537,1,0,0:0:0:0:
213,192,57796,128,0,57925:0:0:0:0:
469,192,57925,128,0,58054:0:0:0:0:
384,192,58054,128,0,58184:0:0:0:0:
298,192,58184,128,0,58572:0:0:0:0:
128,192,58184,1,0,0:0:0:0:
42,192,58572,128,0,58895:0:0:0:0:
42,192,58960,128,0,59089:0:0:0:0:
128,192,59089,128,0,59218:0:0:0:0:
213,192,59218,128,0,59477:0:0:0:0:
384,192,59218,1,0,0:0:0:0:
298,192,59477,128,0,59606:0:0:0:0:
384,192,59606,128,0,59865:0:0:0:0:
298,192,59865,128,0,59994:0:0:0:0:
213,192,59994,128,0,60123:0:0:0:0:
298,192,60123,128,0,60253:0:0:0:0:
384,192,60253,128,0,60641:0:0:0:0:
42,192,60253,1,0,0:0:0:0:
213,192,60641,128,0,60770:0:0:0:0:
128,192,60770,128,0,61028:0:0:0:0:
213,192,61028,128,0,61093:0:0:0:0:
213,192,61158,128,0,61998:0:0:0:0:
469,192,61287,1,0,0:0:0:0:
213,192,62063,128,0,62192:0:0:0:0:
298,192,62192,128,0,62322:0:0:0:0:
384,192,62322,128,0,62580:0:0:0:0:
128,192,62322,1,0,0:0:0:0:
469,192,62580,128,0,62710:0:0:0:0:
384,192,62710,128,0,62968:0:0:0:0:
469,192,62968,128,0,63227:0:0:0:0:
213,192,63227,128,0,63679:0:0:0:0:
42,192,63356,1,0,0:0:0:0:
213,192,63744,128,0,63873:0:0:0:0:
298,192,63873,128,0,64197:0:0:0:0:
298,192,64261,128,0,64391:0:0:0:0:
42,192,64391,1,0,0:0:0:0:
469,192,64391,1,0,0:0:0:0:
128,192,64391,1,0,0:0:0:0:
384,192,64520,1,0,0:0:0:0:
298,192,64649,1,0,0:0:0:0:
213,192,64778,1,0,0:0:0:0:
469,192,64908,1,0,0:0:0:0:
298,192,65037,1,0,0:0:0:0:
128,192,65166,1,0,0:0:0:0:
213,192,65296,1,0,0:0:0:0:
298,192,65425,1,0,0:0:0:0:
384,192,65554,1,0,0:0:0:0:
42,192,65684,1,0,0:0:0:0:
213,192,65813,1,0,0:0:0:0:
384,192,65942,1,0,0:0:0:0:
469,192,66072,1,0,0:0:0:0:
384,192,66201,1,0,0:0:0:0:
298,192,66330,1,0,0:0:0:0:
213,192,66460,1,0,0:0:0:0:
384,192,66589,1,0,0:0:0:0:
298,192,66718,1,0,0:0:0:0:
42,192,66847,1,0,0:0:0:0:
213,192,66977,1,0,0:0:0:0:
384,192,67106,1,0,0:0:0:0:
128,192,67235,1,0,0:0:0:0:
298,192,67365,1,0,0:0:0:0:
469,192,67494,128,0,67623:0:0:0:0:
384,192,67623,128,0,67753:0:0:0:0:
298,192,67753,128,0,67882:0:0:0:0:
213,192,67882,128,0,68011:0:0:0:0:
128,192,68011,128,0,68141:0:0:0:0:
42,192,68141,128,0,68270:0:0:0:0:
128,192,68270,128,0,68399:0:0:0:0:
298,192,68399,128,0,68528:0:0:0:0:
469,192,68528,128,0,68658:0:0:0:0:
384,192,68658,1,0,0:0:0:0:
298,192,68658,1,0,0:0:0:0:
128,192,68658,1,0,0:0:0:0:
42,192,68658,128,0,68787:0:0:0:0:
213,192,68787,128,0,68916:0:0:0:0:
384,192,68916,128,0,69046:0:0:0:0:
469,192,69046,128,0,69175:0:0:0:0:
384,192,69175,128,0,69304:0:0:0:0:
298,192,69304,128,0,69434:0:0:0:0:
213,192,69434,128,0,69563:0:0:0:0:
128,192,69563,128,0,69692:0:0:0:0:
42,192,69692,128,0,69822:0:0:0:0:
384,192,69822,1,0,0:0:0:0:
469,192,69822,1,0,0:0:0:0:
128,192,69951,1,0,0:0:0:0:
298,192,69951,1,0,0:0:0:0:
213,192,70080,1,0,0:0:0:0:
469,192,70080,1,0,0:0:0:0:
384,192,70080,1,0,0:0:0:0:
42,192,70210,1,0,0:0:0:0:
384,192,70339,1,0,0:0:0:0:
298,192,70339,1,0,0:0:0:0:
213,192,70339,1,0,0:0:0:0:
469,192,70468,1,0,0:0:0:0:
128,192,70468,1,0,0:0:0:0:
384,192,70597,1,0,0:0:0:0:
42,192,70597,1,0,0:0:0:0:
213,192,70727,1,0,0:0:0:0:
298,192,70727,1,0,0:0:0:0:
128,192,70727,1,0,0:0:0:0:
384,192,70856,1,0,0:0:0:0:
469,192,70856,1,0,0:0:0:0:
128,192,70985,1,0,0:0:0:0:
42,192,70985,1,0,0:0:0:0:
213,192,71115,1,0,0:0:0:0:
298,192,71115,1,0,0:0:0:0:
384,192,71115,1,0,0:0:0:0:
128,192,71244,1,0,0:0:0:0:
469,192,71244,1,0,0:0:0:0:
298,192,71373,1,0,0:0:0:0:
384,192,71373,1,0,0:0:0:0:
213,192,71438,1,0,0:0:0:0:
128,192,71503,1,0,0:0:0:0:
469,192,71503,1,0,0:0:0:0:
384,192,71567,1,0,0:0:0:0:
298,192,71632,1,0,0:0:0:0:
42,192,71632,1,0,0:0:0:0:
128,192,71761,1,0,0:0:0:0:
213,192,71761,1,0,0:0:0:0:
298,192,71826,1,0,0:0:0:0:
384,192,71891,1,0,0:0:0:0:
42,192,71891,1,0,0:0:0:0:
128,192,71955,1,0,0:0:0:0:
213,192,72020,1,0,0:0:0:0:
469,192,72020,1,0,0:0:0:0:
384,192,72085,1,0,0:0:0:0:
298,192,72149,1,0,0:0:0:0:
42,192,72149,1,0,0:0:0:0:
213,192,72214,1,0,0:0:0:0:
128,192,72278,1,0,0:0:0:0:
42,192,72278,1,0,0:0:0:0:
384,192,72408,1,0,0:0:0:0:
469,192,72408,1,0,0:0:0:0:
128,192,72537,1,0,0:0:0:0:
42,192,72537,1,0,0:0:0:0:
213,192,72666,1,0,0:0:0:0:
298,192,72666,1,0,0:0:0:0:
128,192,72796,1,0,0:0:0:0:
42,192,72796,1,0,0:0:0:0:
213,192,72925,1,0,0:0:0:0:
298,192,72925,1,0,0:0:0:0:
384,192,72990,1,0,0:0:0:0:
42,192,73054,1,0,0:0:0:0:
128,192,73054,1,0,0:0:0:0:
213,192,73054,1,0,0:0:0:0:
469,192,73054,1,0,0:0:0:0:
384,192,73184,1,0,0:0:0:0:
298,192,73184,1,0,0:0:0:0:
213,192,73313,1,0,0:0:0:0:
128,192,73313,1,0,0:0:0:0:
42,192,73442,1,0,0:0:0:0:
469,192,73442,1,0,0:0:0:0:
384,192,73572,1,0,0:0:0:0:
298,192,73572,1,0,0:0:0:0:
469,192,73701,1,0,0:0:0:0:
42,192,73701,1,0,0:0:0:0:
128,192,73830,1,0,0:0:0:0:
213,192,73830,1,0,0:0:0:0:
42,192,73960,1,0,0:0:0:0:
128,192,73960,1,0,0:0:0:0:
298,192,73960,1,0,0:0:0:0:
384,192,73960,1,0,0:0:0:0:
469,192,74089,1,0,0:0:0:0:
213,192,74089,1,0,0:0:0:0:
298,192,74218,1,0,0:0:0:0:
42,192,74218,1,0,0:0:0:0:
42,192,74347,1,0,0:0:0:0:
384,192,74347,1,0,0:0:0:0:
128,192,74347,1,0,0:0:0:0:
469,192,74347,1,0,0:0:0:0:
213,192,74477,1,0,0:0:0:0:
298,192,74477,1,0,0:0:0:0:
128,192,74606,1,0,0:0:0:0:
42,192,74606,1,0,0:0:0:0:
213,192,74735,1,0,0:0:0:0:
298,192,74735,1,0,0:0:0:0:
384,192,74865,1,0,0:0:0:0:
469,192,74865,1,0,0:0:0:0:
298,192,74994,1,0,0:0:0:0:
213,192,74994,1,0,0:0:0:0:
128,192,75059,1,0,0:0:0:0:
42,192,75123,1,0,0:0:0:0:
298,192,75123,1,0,0:0:0:0:
384,192,75123,1,0,0:0:0:0:
469,192,75123,1,0,0:0:0:0:
213,192,75253,1,0,0:0:0:0:
128,192,75253,1,0,0:0:0:0:
384,192,75382,1,0,0:0:0:0:
298,192,75382,1,0,0:0:0:0:
213,192,75447,1,0,0:0:0:0:
42,192,75511,1,0,0:0:0:0:
128,192,75511,1,0,0:0:0:0:
384,192,75511,1,0,0:0:0:0:
469,192,75511,1,0,0:0:0:0:
298,192,75641,1,0,0:0:0:0:
213,192,75641,1,0,0:0:0:0:
128,192,75770,1,0,0:0:0:0:
42,192,75770,1,0,0:0:0:0:
213,192,75835,1,0,0:0:0:0:
384,192,75899,1,0,0:0:0:0:
298,192,75899,1,0,0:0:0:0:
469,192,75899,1,0,0:0:0:0:
42,192,75899,1,0,0:0:0:0:
128,192,76029,1,0,0:0:0:0:
213,192,76029,1,0,0:0:0:0:
384,192,76158,1,0,0:0:0:0:
42,192,76158,1,0,0:0:0:0:
128,192,76287,1,0,0:0:0:0:
469,192,76287,1,0,0:0:0:0:
213,192,76416,1,0,0:0:0:0:
298,192,76416,1,0,0:0:0:0:
384,192,76416,1,0,0:0:0:0:
469,192,76416,1,0,0:0:0:0:
128,192,76503,1,0,0:0:0:0:
213,192,76589,1,0,0:0:0:0:
42,192,76675,1,0,0:0:0:0:
298,192,76675,1,0,0:0:0:0:
128,192,76761,1,0,0:0:0:0:
384,192,76761,1,0,0:0:0:0:
213,192,76847,1,0,0:0:0:0:
469,192,76847,1,0,0:0:0:0:
298,192,76934,1,0,0:0:0:0:
42,192,76934,1,0,0:0:0:0:
384,192,76934,1,0,0:0:0:0:
128,192,77020,1,0,0:0:0:0:
384,192,77106,1,0,0:0:0:0:
298,192,77192,1,0,0:0:0:0:
213,192,77192,1,0,0:0:0:0:
128,192,77278,1,0,0:0:0:0:
42,192,77278,1,0,0:0:0:0:
384,192,77365,1,0,0:0:0:0:
469,192,77365,1,0,0:0:0:0:
298,192,77451,1,0,0:0:0:0:
213,192,77451,1,0,0:0:0:0:
128,192,77451,1,0,0:0:0:0:
42,192,77451,1,0,0:0:0:0:
469,192,77537,1,0,0:0:0:0:
298,192,77623,1,0,0:0:0:0:
469,192,77710,1,0,0:0:0:0:
213,192,77710,1,0,0:0:0:0:
384,192,77796,1,0,0:0:0:0:
128,192,77796,1,0,0:0:0:0:
298,192,77882,1,0,0:0:0:0:
42,192,77882,1,0,0:0:0:0:
213,192,77968,1,0,0:0:0:0:
469,192,77968,1,0,0:0:0:0:
128,192,77968,1,0,0:0:0:0:
384,192,78054,1,0,0:0:0:0:
298,192,78141,1,0,0:0:0:0:
128,192,78227,1,0,0:0:0:0:
42,192,78227,1,0,0:0:0:0:
384,192,78313,1,0,0:0:0:0:
469,192,78313,1,0,0:0:0:0:
128,192,78399,1,0,0:0:0:0:
42,192,78399,1,0,0:0:0:0:
298,192,78485,1,0,0:0:0:0:
384,192,78485,1,0,0:0:0:0:
469,192,78485,1,0,0:0:0:0:
213,192,78485,1,0,0:0:0:0:
128,192,78572,1,0,0:0:0:0:
298,192,78658,1,0,0:0:0:0:
42,192,78744,1,0,0:0:0:0:
469,192,78744,1,0,0:0:0:0:
384,192,78830,1,0,0:0:0:0:
128,192,78830,1,0,0:0:0:0:
213,192,78916,1,0,0:0:0:0:
298,192,78916,1,0,0:0:0:0:
384,192,79003,1,0,0:0:0:0:
469,192,79003,1,0,0:0:0:0:
42,192,79003,1,0,0:0:0:0:
128,192,79089,1,0,0:0:0:0:
298,192,79175,1,0,0:0:0:0:
213,192,79261,1,0,0:0:0:0:
42,192,79261,1,0,0:0:0:0:
384,192,79347,1,0,0:0:0:0:
469,192,79347,1,0,0:0:0:0:
298,192,79434,1,0,0:0:0:0:
42,192,79434,1,0,0:0:0:0:
128,192,79520,1,0,0:0:0:0:
213,192,79520,1,0,0:0:0:0:
384,192,79520,1,0,0:0:0:0:
469,192,79520,1,0,0:0:0:0:
42,192,79606,1,0,0:0:0:0:
469,192,79692,1,0,0:0:0:0:
298,192,79778,1,0,0:0:0:0:
213,192,79778,1,0,0:0:0:0:
128,192,79865,1,0,0:0:0:0:
384,192,79865,1,0,0:0:0:0:
469,192,79951,1,0,0:0:0:0:
42,192,79951,1,0,0:0:0:0:
128,192,80037,1,0,0:0:0:0:
213,192,80037,1,0,0:0:0:0:
298,192,80037,1,0,0:0:0:0:
384,192,80123,1,0,0:0:0:0:
469,192,80123,1,0,0:0:0:0:
42,192,80210,1,0,0:0:0:0:
128,192,80210,1,0,0:0:0:0:
213,192,80296,1,0,0:0:0:0:
469,192,80296,1,0,0:0:0:0:
384,192,80382,1,0,0:0:0:0:
128,192,80382,1,0,0:0:0:0:
42,192,80468,1,0,0:0:0:0:
298,192,80468,1,0,0:0:0:0:
384,192,80554,1,0,0:0:0:0:
469,192,80554,1,0,0:0:0:0:
128,192,80554,1,0,0:0:0:0:
213,192,80554,1,0,0:0:0:0:
128,192,80684,1,0,0:0:0:0:
213,192,80684,1,0,0:0:0:0:
384,192,80942,1,0,0:0:0:0:
469,192,80942,1,0,0:0:0:0:
42,192,81072,1,0,0:0:0:0:
298,192,81072,1,0,0:0:0:0:
213,192,81136,1,0,0:0:0:0:
128,192,81201,1,0,0:0:0:0:
469,192,81201,1,0,0:0:0:0:
384,192,81266,1,0,0:0:0:0:
298,192,81330,1,0,0:0:0:0:
213,192,81330,1,0,0:0:0:0:
128,192,81395,1,0,0:0:0:0:
42,192,81460,1,0,0:0:0:0:
298,192,81460,1,0,0:0:0:0:
384,192,81460,1,0,0:0:0:0:
469,192,81460,1,0,0:0:0:0:
213,192,81718,1,0,0:0:0:0:
128,192,81847,1,0,0:0:0:0:
42,192,81977,1,0,0:0:0:0:
469,192,81977,1,0,0:0:0:0:
213,192,82106,1,0,0:0:0:0:
298,192,82106,1,0,0:0:0:0:
384,192,82106,1,0,0:0:0:0:
128,192,82235,1,0,0:0:0:0:
42,192,82235,1,0,0:0:0:0:
213,192,82365,1,0,0:0:0:0:
298,192,82365,1,0,0:0:0:0:
384,192,82494,1,0,0:0:0:0:
469,192,82494,1,0,0:0:0:0:
42,192,82623,1,0,0:0:0:0:
128,192,82623,1,0,0:0:0:0:
298,192,82623,1,0,0:0:0:0:
384,192,82623,1,0,0:0:0:0:
213,192,82753,1,0,0:0:0:0:
469,192,82753,1,0,0:0:0:0:
298,192,82882,1,0,0:0:0:0:
384,192,82882,1,0,0:0:0:0:
128,192,83011,1,0,0:0:0:0:
213,192,83011,1,0,0:0:0:0:
42,192,83141,1,0,0:0:0:0:
384,192,83141,1,0,0:0:0:0:
469,192,83141,1,0,0:0:0:0:
298,192,83270,1,0,0:0:0:0:
213,192,83399,1,0,0:0:0:0:
469,192,83399,1,0,0:0:0:0:
384,192,83528,1,0,0:0:0:0:
298,192,83528,1,0,0:0:0:0:
128,192,83528,128,0,83830:0:0:0:0:
213,192,83528,128,0,83830:0:0:0:0:
384,192,83830,1,0,0:0:0:0:
469,192,83830,1,0,0:0:0:0:
128,192,83916,1,0,0:0:0:0:
213,192,83916,1,0,0:0:0:0:
298,192,84003,1,0,0:0:0:0:
384,192,84003,1,0,0:0:0:0:
42,192,84089,1,0,0:0:0:0:
213,192,84175,1,0,0:0:0:0:
469,192,84175,1,0,0:0:0:0:
384,192,84261,1,0,0:0:0:0:
128,192,84261,1,0,0:0:0:0:
298,192,84347,1,0,0:0:0:0:
213,192,84434,1,0,0:0:0:0:
42,192,84434,1,0,0:0:0:0:
298,192,84520,1,0,0:0:0:0:
384,192,84520,1,0,0:0:0:0:
42,192,84606,1,0,0:0:0:0:
128,192,84692,1,0,0:0:0:0:
213,192,84692,1,0,0:0:0:0:
384,192,84692,1,0,0:0:0:0:
298,192,84692,1,0,0:0:0:0:
42,192,84822,1,0,0:0:0:0:
298,192,84822,1,0,0:0:0:0:
128,192,84886,1,0,0:0:0:0:
384,192,84886,1,0,0:0:0:0:
213,192,84951,1,0,0:0:0:0:
469,192,84951,1,0,0:0:0:0:
128,192,85080,1,0,0:0:0:0:
298,192,85080,1,0,0:0:0:0:
384,192,85080,1,0,0:0:0:0:
42,192,85080,1,0,0:0:0:0:
42,192,85210,1,0,0:0:0:0:
469,192,85210,1,0,0:0:0:0:
128,192,85274,1,0,0:0:0:0:
384,192,85274,1,0,0:0:0:0:
213,192,85339,1,0,0:0:0:0:
298,192,85339,1,0,0:0:0:0:
128,192,85468,1,0,0:0:0:0:
384,192,85468,1,0,0:0:0:0:
469,192,85468,1,0,0:0:0:0:
42,192,85468,1,0,0:0:0:0:
213,192,85597,1,0,0:0:0:0:
469,192,85597,1,0,0:0:0:0:
384,192,85662,1,0,0:0:0:0:
128,192,85662,1,0,0:0:0:0:
298,192,85727,1,0,0:0:0:0:
42,192,85727,1,0,0:0:0:0:
128,192,85856,1,0,0:0:0:0:
213,192,85856,1,0,0:0:0:0:
384,192,85856,1,0,0:0:0:0:
469,192,85856,1,0,0:0:0:0:
213,192,85985,1,0,0:0:0:0:
298,192,85985,1,0,0:0:0:0:
128,192,86050,1,0,0:0:0:0:
384,192,86050,1,0,0:0:0:0:
42,192,86115,1,0,0:0:0:0:
469,192,86115,1,0,0:0:0:0:
213,192,86244,1,0,0:0:0:0:
42,192,86244,1,0,0:0:0:0:
128,192,86244,1,0,0:0:0:0:
298,192,86244,1,0,0:0:0:0:
384,192,86373,1,0,0:0:0:0:
469,192,86373,1,0,0:0:0:0:
298,192,86503,1,0,0:0:0:0:
384,192,86503,1,0,0:0:0:0:
213,192,86503,1,0,0:0:0:0:
128,192,86503,1,0,0:0:0:0:
128,192,86632,1,0,0:0:0:0:
42,192,86632,1,0,0:0:0:0:
213,192,86761,1,0,0:0:0:0:
298,192,86761,1,0,0:0:0:0:
384,192,86761,1,0,0:0:0:0:
469,192,86891,1,0,0:0:0:0:
384,192,87020,1,0,0:0:0:0:
298,192,87149,1,0,0:0:0:0:
128,192,87149,1,0,0:0:0:0:
213,192,87537,1,0,0:0:0:0:
298,192,87537,1,0,0:0:0:0:
384,192,87666,1,0,0:0:0:0:
298,192,87796,1,0,0:0:0:0:
213,192,87925,1,0,0:0:0:0:
42,192,87925,1,0,0:0:0:0:
128,192,88313,1,0,0:0:0:0:
42,192,88313,1,0,0:0:0:0:
42,192,88572,1,0,0:0:0:0:
384,192,88572,1,0,0:0:0:0:
128,192,88636,1,0,0:0:0:0:
213,192,88701,1,0,0:0:0:0:
298,192,88766,1,0,0:0:0:0:
128,192,88830,1,0,0:0:0:0:
213,192,88830,1,0,0:0:0:0:
384,192,88830,1,0,0:0:0:0:
469,192,88830,1,0,0:0:0:0:
42,192,88960,1,0,0:0:0:0:
298,192,88960,1,0,0:0:0:0:
128,192,89024,1,0,0:0:0:0:
384,192,89024,1,0,0:0:0:0:
213,192,89089,1,0,0:0:0:0:
469,192,89089,1,0,0:0:0:0:
128,192,89218,1,0,0:0:0:0:
298,192,89218,1,0,0:0:0:0:
384,192,89218,1,0,0:0:0:0:
42,192,89218,1,0,0:0:0:0:
42,192,89347,1,0,0:0:0:0:
469,192,89347,1,0,0:0:0:0:
128,192,89412,1,0,0:0:0:0:
384,192,89412,1,0,0:0:0:0:
213,192,89477,1,0,0:0:0:0:
298,192,89477,1,0,0:0:0:0:
128,192,89606,1,0,0:0:0:0:
384,192,89606,1,0,0:0:0:0:
469,192,89606,1,0,0:0:0:0:
42,192,89606,1,0,0:0:0:0:
213,192,89735,1,0,0:0:0:0:
469,192,89735,1,0,0:0:0:0:
384,192,89800,1,0,0:0:0:0:
128,192,89800,1,0,0:0:0:0:
298,192,89865,1,0,0:0:0:0:
42,192,89865,1,0,0:0:0:0:
128,192,89994,1,0,0:0:0:0:
213,192,89994,1,0,0:0:0:0:
384,192,89994,1,0,0:0:0:0:
469,192,89994,1,0,0:0:0:0:
213,192,90123,1,0,0:0:0:0:
298,192,90123,1,0,0:0:0:0:
128,192,90188,1,0,0:0:0:0:
384,192,90188,1,0,0:0:0:0:
42,192,90253,1,0,0:0:0:0:
469,192,90253,1,0,0:0:0:0:
42,192,90382,1,0,0:0:0:0:
128,192,90382,1,0,0:0:0:0:
213,192,90382,1,0,0:0:0:0:
298,192,90382,1,0,0:0:0:0:
384,192,90511,1,0,0:0:0:0:
469,192,90511,1,0,0:0:0:0:
128,192,90641,1,0,0:0:0:0:
213,192,90641,1,0,0:0:0:0:
298,192,90641,1,0,0:0:0:0:
384,192,90641,1,0,0:0:0:0:
42,192,90770,1,0,0:0:0:0:
128,192,90770,1,0,0:0:0:0:
213,192,90899,1,0,0:0:0:0:
298,192,90899,1,0,0:0:0:0:
384,192,90899,1,0,0:0:0:0:
469,192,90899,1,0,0:0:0:0:
128,192,91028,1,0,0:0:0:0:
42,192,91028,1,0,0:0:0:0:
213,192,91158,1,0,0:0:0:0:
298,192,91158,1,0,0:0:0:0:
128,192,91287,1,0,0:0:0:0:
42,192,91287,1,0,0:0:0:0:
384,192,91287,1,0,0:0:0:0:
469,192,91287,1,0,0:0:0:0:
298,192,91416,1,0,0:0:0:0:
213,192,91416,1,0,0:0:0:0:
384,192,91546,1,0,0:0:0:0:
469,192,91546,1,0,0:0:0:0:
298,192,91675,1,0,0:0:0:0:
213,192,91675,1,0,0:0:0:0:
128,192,91675,1,0,0:0:0:0:
42,192,91675,1,0,0:0:0:0:
384,192,91804,1,0,0:0:0:0:
469,192,91804,1,0,0:0:0:0:
213,192,91934,1,0,0:0:0:0:
298,192,91934,1,0,0:0:0:0:
42,192,92063,1,0,0:0:0:0:
469,192,92063,1,0,0:0:0:0:
384,192,92063,1,0,0:0:0:0:
128,192,92192,1,0,0:0:0:0:
213,192,92192,1,0,0:0:0:0:
298,192,92192,1,0,0:0:0:0:
128,192,92322,1,0,0:0:0:0:
213,192,92322,1,0,0:0:0:0:
384,192,92322,1,0,0:0:0:0:
298,192,92322,1,0,0:0:0:0:
42,192,92580,128,0,92710:0:0:0:0:
469,192,92710,128,0,92839:0:0:0:0:
298,192,92839,128,0,92968:0:0:0:0:
128,192,92968,1,0,0:0:0:0:
42,192,92968,1,0,0:0:0:0:
384,192,92968,1,0,0:0:0:0:
469,192,92968,1,0,0:0:0:0:
213,192,93033,1,0,0:0:0:0:
298,192,93097,1,0,0:0:0:0:
384,192,93097,1,0,0:0:0:0:
42,192,93162,1,0,0:0:0:0:
469,192,93227,1,0,0:0:0:0:
128,192,93227,1,0,0:0:0:0:
384,192,93291,1,0,0:0:0:0:
298,192,93356,1,0,0:0:0:0:
213,192,93356,1,0,0:0:0:0:
128,192,93356,1,0,0:0:0:0:
42,192,93421,1,0,0:0:0:0:
384,192,93485,1,0,0:0:0:0:
469,192,93485,1,0,0:0:0:0:
213,192,93550,1,0,0:0:0:0:
128,192,93615,1,0,0:0:0:0:
298,192,93615,1,0,0:0:0:0:
384,192,93679,1,0,0:0:0:0:
42,192,93744,1,0,0:0:0:0:
213,192,93744,1,0,0:0:0:0:
469,192,93744,1,0,0:0:0:0:
298,192,93809,1,0,0:0:0:0:
128,192,93873,1,0,0:0:0:0:
384,192,93873,1,0,0:0:0:0:
213,192,93938,1,0,0:0:0:0:
42,192,94003,128,0,94132:0:0:0:0:
298,192,94003,1,0,0:0:0:0:
128,192,94132,128,0,94261:0:0:0:0:
469,192,94132,1,0,0:0:0:0:
213,192,94261,128,0,94391:0:0:0:0:
384,192,94261,1,0,0:0:0:0:
298,192,94391,128,0,94520:0:0:0:0:
42,192,94391,1,0,0:0:0:0:
128,192,94649,1,0,0:0:0:0:
213,192,94649,1,0,0:0:0:0:
298,192,94778,1,0,0:0:0:0:
384,192,94778,1,0,0:0:0:0:
469,192,94778,1,0,0:0:0:0:
213,192,94908,1,0,0:0:0:0:
42,192,95037,1,0,0:0:0:0:
128,192,95037,1,0,0:0:0:0:
384,192,95037,1,0,0:0:0:0:
469,192,95037,1,0,0:0:0:0:
298,192,95102,1,0,0:0:0:0:
213,192,95166,1,0,0:0:0:0:
42,192,95166,1,0,0:0:0:0:
469,192,95231,1,0,0:0:0:0:
384,192,95296,1,0,0:0:0:0:
128,192,95296,1,0,0:0:0:0:
42,192,95360,1,0,0:0:0:0:
298,192,95425,1,0,0:0:0:0:
469,192,95425,1,0,0:0:0:0:
213,192,95490,1,0,0:0:0:0:
128,192,95554,1,0,0:0:0:0:
42,192,95554,1,0,0:0:0:0:
384,192,95619,1,0,0:0:0:0:
298,192,95684,1,0,0:0:0:0:
213,192,95684,1,0,0:0:0:0:
128,192,95748,1,0,0:0:0:0:
42,192,95813,1,0,0:0:0:0:
469,192,95813,1,0,0:0:0:0:
384,192,95878,1,0,0:0:0:0:
298,192,95942,1,0,0:0:0:0:
128,192,95942,1,0,0:0:0:0:
42,192,96007,1,0,0:0:0:0:
213,192,96072,1,0,0:0:0:0:
469,192,96072,1,0,0:0:0:0:
298,192,96136,1,0,0:0:0:0:
384,192,96201,1,0,0:0:0:0:
128,192,96201,1,0,0:0:0:0:
213,192,96266,1,0,0:0:0:0:
298,192,96330,1,0,0:0:0:0:
42,192,96330,1,0,0:0:0:0:
128,192,96395,1,0,0:0:0:0:
213,192,96460,1,0,0:0:0:0:
384,192,96460,1,0,0:0:0:0:
469,192,96524,1,0,0:0:0:0:
298,192,96589,1,0,0:0:0:0:
42,192,96589,1,0,0:0:0:0:
384,192,96653,1,0,0:0:0:0:
469,192,96718,1,0,0:0:0:0:
213,192,96718,1,0,0:0:0:0:
298,192,96783,1,0,0:0:0:0:
384,192,96847,1,0,0:0:0:0:
128,192,96847,1,0,0:0:0:0:
469,192,96912,1,0,0:0:0:0:
213,192,96912,1,0,0:0:0:0:
42,192,96977,1,0,0:0:0:0:
298,192,96977,1,0,0:0:0:0:
128,192,97041,1,0,0:0:0:0:
384,192,97041,1,0,0:0:0:0:
213,192,97106,1,0,0:0:0:0:
469,192,97106,1,0,0:0:0:0:
128,192,97171,1,0,0:0:0:0:
42,192,97235,1,0,0:0:0:0:
298,192,97235,1,0,0:0:0:0:
213,192,97300,1,0,0:0:0:0:
128,192,97365,1,0,0:0:0:0:
469,192,97365,1,0,0:0:0:0:
384,192,97429,1,0,0:0:0:0:
298,192,97494,1,0,0:0:0:0:
213,192,97494,1,0,0:0:0:0:
128,192,97559,1,0,0:0:0:0:
42,192,97623,1,0,0:0:0:0:
469,192,97623,1,0,0:0:0:0:
384,192,97688,1,0,0:0:0:0:
128,192,97753,1,0,0:0:0:0:
298,192,97753,1,0,0:0:0:0:
42,192,97817,1,0,0:0:0:0:
384,192,97882,1,0,0:0:0:0:
469,192,97882,1,0,0:0:0:0:
298,192,97947,1,0,0:0:0:0:
213,192,98011,1,0,0:0:0:0:
469,192,98011,1,0,0:0:0:0:
128,192,98076,1,0,0:0:0:0:
42,192,98141,1,0,0:0:0:0:
298,192,98141,1,0,0:0:0:0:
384,192,98205,1,0,0:0:0:0:
469,192,98270,1,0,0:0:0:0:
128,192,98270,1,0,0:0:0:0:
213,192,98335,1,0,0:0:0:0:
298,192,98399,1,0,0:0:0:0:
42,192,98399,1,0,0:0:0:0:
128,192,98464,1,0,0:0:0:0:
213,192,98528,1,0,0:0:0:0:
469,192,98528,1,0,0:0:0:0:
298,192,98593,1,0,0:0:0:0:
384,192,98658,1,0,0:0:0:0:
42,192,98658,1,0,0:0:0:0:
469,192,98722,1,0,0:0:0:0:
128,192,98787,1,0,0:0:0:0:
213,192,98787,1,0,0:0:0:0:
298,192,98852,1,0,0:0:0:0:
42,192,98916,1,0,0:0:0:0:
384,192,98916,1,0,0:0:0:0:
128,192,98981,1,0,0:0:0:0:
213,192,99046,1,0,0:0:0:0:
298,192,99046,1,0,0:0:0:0:
384,192,99110,1,0,0:0:0:0:
469,192,99175,1,0,0:0:0:0:
128,192,99175,1,0,0:0:0:0:
213,192,99175,1,0,0:0:0:0:
42,192,99240,1,0,0:0:0:0:
298,192,99304,1,0,0:0:0:0:
384,192,99304,1,0,0:0:0:0:
213,192,99369,1,0,0:0:0:0:
128,192,99434,1,0,0:0:0:0:
469,192,99434,1,0,0:0:0:0:
384,192,99498,1,0,0:0:0:0:
298,192,99563,1,0,0:0:0:0:
213,192,99563,1,0,0:0:0:0:
128,192,99628,1,0,0:0:0:0:
42,192,99692,1,0,0:0:0:0:
384,192,99692,1,0,0:0:0:0:
298,192,99757,1,0,0:0:0:0:
213,192,99822,1,0,0:0:0:0:
469,192,99822,1,0,0:0:0:0:
384,192,99886,1,0,0:0:0:0:
298,192,99951,1,0,0:0:0:0:
128,192,99951,1,0,0:0:0:0:
42,192,100016,1,0,0:0:0:0:
469,192,100080,1,0,0:0:0:0:
384,192,100080,1,0,0:0:0:0:
298,192,100145,1,0,0:0:0:0:
128,192,100210,1,0,0:0:0:0:
42,192,100210,1,0,0:0:0:0:
213,192,100274,1,0,0:0:0:0:
298,192,100339,1,0,0:0:0:0:
384,192,100339,1,0,0:0:0:0:
469,192,100403,1,0,0:0:0:0:
128,192,100468,1,0,0:0:0:0:
213,192,100468,1,0,0:0:0:0:
298,192,100533,1,0,0:0:0:0:
384,192,100597,1,0,0:0:0:0:
42,192,100597,1,0,0:0:0:0:
128,192,100662,1,0,0:0:0:0:
213,192,100727,1,0,0:0:0:0:
469,192,100727,1,0,0:0:0:0:
298,192,100791,1,0,0:0:0:0:
384,192,100856,1,0,0:0:0:0:
469,192,100921,1,0,0:0:0:0:
42,192,100985,1,0,0:0:0:0:
213,192,100985,1,0,0:0:0:0:
298,192,101050,1,0,0:0:0:0:
384,192,101115,1,0,0:0:0:0:
128,192,101115,1,0,0:0:0:0:
213,192,101179,1,0,0:0:0:0:
298,192,101244,1,0,0:0:0:0:
469,192,101244,1,0,0:0:0:0:
42,192,101244,1,0,0:0:0:0:
128,192,101309,1,0,0:0:0:0:
213,192,101373,1,0,0:0:0:0:
384,192,101373,1,0,0:0:0:0:
298,192,101438,1,0,0:0:0:0:
128,192,101503,1,0,0:0:0:0:
469,192,101503,1,0,0:0:0:0:
384,192,101567,1,0,0:0:0:0:
42,192,101632,1,0,0:0:0:0:
213,192,101632,1,0,0:0:0:0:
298,192,101697,1,0,0:0:0:0:
128,192,101761,1,0,0:0:0:0:
384,192,101761,1,0,0:0:0:0:
213,192,101826,1,0,0:0:0:0:
298,192,101891,1,0,0:0:0:0:
469,192,101891,1,0,0:0:0:0:
42,192,101955,1,0,0:0:0:0:
128,192,101955,1,0,0:0:0:0:
213,192,102020,1,0,0:0:0:0:
298,192,102020,1,0,0:0:0:0:
384,192,102085,1,0,0:0:0:0:
469,192,102085,1,0,0:0:0:0:
42,192,102149,1,0,0:0:0:0:
128,192,102149,1,0,0:0:0:0:
213,192,102214,1,0,0:0:0:0:
298,192,102214,1,0,0:0:0:0:
384,192,102278,1,0,0:0:0:0:
469,192,102278,1,0,0:0:0:0:
128,192,102343,1,0,0:0:0:0:
42,192,102408,1,0,0:0:0:0:
298,192,102408,1,0,0:0:0:0:
384,192,102472,1,0,0:0:0:0:
213,192,102537,1,0,0:0:0:0:
469,192,102537,1,0,0:0:0:0:
128,192,102602,1,0,0:0:0:0:
298,192,102666,1,0,0:0:0:0:
384,192,102666,1,0,0:0:0:0:
213,192,102731,1,0,0:0:0:0:
42,192,102796,1,0,0:0:0:0:
128,192,102796,1,0,0:0:0:0:
384,192,102860,1,0,0:0:0:0:
469,192,102925,1,0,0:0:0:0:
213,192,102925,1,0,0:0:0:0:
298,192,102990,1,0,0:0:0:0:
128,192,103054,1,0,0:0:0:0:
384,192,103054,1,0,0:0:0:0:
42,192,103119,1,0,0:0:0:0:
298,192,103184,1,0,0:0:0:0:
469,192,103184,1,0,0:0:0:0:
213,192,103248,1,0,0:0:0:0:
128,192,103313,1,0,0:0:0:0:
42,192,103313,1,0,0:0:0:0:
384,192,103313,1,0,0:0:0:0:
298,192,103378,1,0,0:0:0:0:
213,192,103442,1,0,0:0:0:0:
469,192,103442,1,0,0:0:0:0:
384,192,103507,1,0,0:0:0:0:
298,192,103572,1,0,0:0:0:0:
42,192,103572,1,0,0:0:0:0:
128,192,103636,1,0,0:0:0:0:
213,192,103701,1,0,0:0:0:0:
384,192,103701,1,0,0:0:0:0:
469,192,103766,1,0,0:0:0:0:
298,192,103830,1,0,0:0:0:0:
128,192,103830,1,0,0:0:0:0:
42,192,103830,1,0,0:0:0:0:
213,192,103895,1,0,0:0:0:0:
384,192,103960,1,0,0:0:0:0:
469,192,103960,1,0,0:0:0:0:
128,192,104024,1,0,0:0:0:0:
213,192,104089,1,0,0:0:0:0:
298,192,104089,1,0,0:0:0:0:
384,192,104153,1,0,0:0:0:0:
42,192,104218,1,0,0:0:0:0:
128,192,104218,1,0,0:0:0:0:
298,192,104283,1,0,0:0:0:0:
213,192,104347,1,0,0:0:0:0:
384,192,104347,1,0,0:0:0:0:
469,192,104347,1,0,0:0:0:0:
128,192,104412,1,0,0:0:0:0:
42,192,104477,1,0,0:0:0:0:
298,192,104477,1,0,0:0:0:0:
384,192,104541,1,0,0:0:0:0:
213,192,104606,1,0,0:0:0:0:
469,192,104606,1,0,0:0:0:0:
298,192,104671,1,0,0:0:0:0:
128,192,104735,1,0,0:0:0:0:
384,192,104735,1,0,0:0:0:0:
213,192,104800,1,0,0:0:0:0:
42,192,104865,1,0,0:0:0:0:
469,192,104865,1,0,0:0:0:0:
384,192,104929,1,0,0:0:0:0:
298,192,104994,1,0,0:0:0:0:
128,192,104994,1,0,0:0:0:0:
213,192,105059,1,0,0:0:0:0:
298,192,105123,1,0,0:0:0:0:
42,192,105123,1,0,0:0:0:0:
128,192,105188,1,0,0:0:0:0:
384,192,105188,1,0,0:0:0:0:
213,192,105253,1,0,0:0:0:0:
469,192,105253,1,0,0:0:0:0:
42,192,105317,1,0,0:0:0:0:
298,192,105317,1,0,0:0:0:0:
384,192,105382,1,0,0:0:0:0:
469,192,105382,1,0,0:0:0:0:
128,192,105382,1,0,0:0:0:0:
213,192,105447,1,0,0:0:0:0:
298,192,105511,1,0,0:0:0:0:
42,192,105511,1,0,0:0:0:0:
128,192,105576,1,0,0:0:0:0:
213,192,105641,1,0,0:0:0:0:
469,192,105641,1,0,0:0:0:0:
384,192,105705,1,0,0:0:0:0:
298,192,105770,1,0,0:0:0:0:
128,192,105770,1,0,0:0:0:0:
42,192,105835,1,0,0:0:0:0:
384,192,105899,1,0,0:0:0:0:
469,192,105899,1,0,0:0:0:0:
298,192,105964,1,0,0:0:0:0:
128,192,106028,1,0,0:0:0:0:
42,192,106028,1,0,0:0:0:0:
384,192,106093,1,0,0:0:0:0:
213,192,106158,1,0,0:0:0:0:
469,192,106158,1,0,0:0:0:0:
128,192,106222,1,0,0:0:0:0:
384,192,106287,1,0,0:0:0:0:
298,192,106287,1,0,0:0:0:0:
42,192,106352,1,0,0:0:0:0:
213,192,106416,1,0,0:0:0:0:
128,192,106416,1,0,0:0:0:0:
469,192,106481,1,0,0:0:0:0:
298,192,106546,1,0,0:0:0:0:
42,192,106546,1,0,0:0:0:0:
384,192,106610,1,0,0:0:0:0:
128,192,106675,1,0,0:0:0:0:
469,192,106675,1,0,0:0:0:0:
213,192,106740,1,0,0:0:0:0:
384,192,106804,1,0,0:0:0:0:
298,192,106804,1,0,0:0:0:0:
42,192,106869,1,0,0:0:0:0:
213,192,106934,1,0,0:0:0:0:
469,192,106934,1,0,0:0:0:0:
128,192,106998,1,0,0:0:0:0:
298,192,107063,1,0,0:0:0:0:
42,192,107063,1,0,0:0:0:0:
384,192,107128,1,0,0:0:0:0:
213,192,107192,1,0,0:0:0:0:
128,192,107192,1,0,0:0:0:0:
298,192,107257,1,0,0:0:0:0:
42,192,107322,1,0,0:0:0:0:
469,192,107322,1,0,0:0:0:0:
384,192,107386,1,0,0:0:0:0:
298,192,107451,1,0,0:0:0:0:
213,192,107451,1,0,0:0:0:0:
128,192,107451,1,0,0:0:0:0:
42,192,107516,1,0,0:0:0:0:
384,192,107580,1,0,0:0:0:0:
469,192,107580,1,0,0:0:0:0:
128,192,107645,1,0,0:0:0:0:
213,192,107710,1,0,0:0:0:0:
298,192,107710,1,0,0:0:0:0:
384,192,107710,1,0,0:0:0:0:
469,192,107774,1,0,0:0:0:0:
42,192,107839,1,0,0:0:0:0:
128,192,107839,1,0,0:0:0:0:
298,192,107903,1,0,0:0:0:0:
213,192,107968,1,0,0:0:0:0:
128,192,107968,1,0,0:0:0:0:
42,192,107968,1,0,0:0:0:0:
384,192,108033,1,0,0:0:0:0:
469,192,108097,1,0,0:0:0:0:
213,192,108097,1,0,0:0:0:0:
298,192,108162,1,0,0:0:0:0:
384,192,108227,1,0,0:0:0:0:
469,192,108227,1,0,0:0:0:0:
42,192,108227,1,0,0:0:0:0:
128,192,108291,1,0,0:0:0:0:
213,192,108356,1,0,0:0:0:0:
298,192,108356,1,0,0:0:0:0:
384,192,108421,1,0,0:0:0:0:
42,192,108485,1,0,0:0:0:0:
128,192,108485,1,0,0:0:0:0:
469,192,108485,1,0,0:0:0:0:
298,192,108550,1,0,0:0:0:0:
213,192,108615,1,0,0:0:0:0:
128,192,108615,1,0,0:0:0:0:
469,192,108679,1,0,0:0:0:0:
384,192,108744,1,0,0:0:0:0:
298,192,108744,1,0,0:0:0:0:
42,192,108744,1,0,0:0:0:0:
128,192,108809,1,0,0:0:0:0:
213,192,108873,1,0,0:0:0:0:
384,192,108873,1,0,0:0:0:0:
298,192,108938,1,0,0:0:0:0:
128,192,109003,1,0,0:0:0:0:
42,192,109003,1,0,0:0:0:0:
469,192,109003,1,0,0:0:0:0:
384,192,109067,1,0,0:0:0:0:
213,192,109132,1,0,0:0:0:0:
298,192,109132,1,0,0:0:0:0:
469,192,109197,1,0,0:0:0:0:
128,192,109261,1,0,0:0:0:0:
213,192,109261,1,0,0:0:0:0:
42,192,109261,1,0,0:0:0:0:
384,192,109326,1,0,0:0:0:0:
298,192,109326,1,0,0:0:0:0:
42,192,109391,1,0,0:0:0:0:
469,192,109391,1,0,0:0:0:0:
213,192,109455,1,0,0:0:0:0:
128,192,109455,1,0,0:0:0:0:
384,192,109520,1,0,0:0:0:0:
469,192,109520,1,0,0:0:0:0:
298,192,109520,1,0,0:0:0:0:
42,192,109585,1,0,0:0:0:0:
128,192,109585,1,0,0:0:0:0:
298,192,109649,1,0,0:0:0:0:
213,192,109649,1,0,0:0:0:0:
469,192,109714,1,0,0:0:0:0:
384,192,109778,1,0,0:0:0:0:
128,192,109778,1,0,0:0:0:0:
298,192,109843,1,0,0:0:0:0:
42,192,109843,1,0,0:0:0:0:
213,192,109908,1,0,0:0:0:0:
469,192,109908,1,0,0:0:0:0:
128,192,109972,1,0,0:0:0:0:
42,192,110037,1,0,0:0:0:0:
298,192,110037,1,0,0:0:0:0:
384,192,110102,1,0,0:0:0:0:
469,192,110102,1,0,0:0:0:0:
128,192,110166,1,0,0:0:0:0:
213,192,110166,1,0,0:0:0:0:
298,192,110231,1,0,0:0:0:0:
384,192,110296,1,0,0:0:0:0:
128,192,110296,1,0,0:0:0:0:
469,192,110360,1,0,0:0:0:0:
213,192,110360,1,0,0:0:0:0:
298,192,110425,1,0,0:0:0:0:
42,192,110425,1,0,0:0:0:0:
128,192,110490,1,0,0:0:0:0:
384,192,110554,1,0,0:0:0:0:
469,192,110554,1,0,0:0:0:0:
128,192,110619,1,0,0:0:0:0:
213,192,110619,1,0,0:0:0:0:
384,192,110684,1,0,0:0:0:0:
469,192,110684,1,0,0:0:0:0:
213,192,110748,1,0,0:0:0:0:
298,192,110813,1,0,0:0:0:0:
384,192,110813,1,0,0:0:0:0:
128,192,110878,1,0,0:0:0:0:
42,192,110878,1,0,0:0:0:0:
298,192,110942,1,0,0:0:0:0:
384,192,110942,1,0,0:0:0:0:
469,192,111007,1,0,0:0:0:0:
128,192,111072,1,0,0:0:0:0:
213,192,111072,1,0,0:0:0:0:
384,192,111136,1,0,0:0:0:0:
469,192,111136,1,0,0:0:0:0:
128,192,111201,1,0,0:0:0:0:
213,192,111201,1,0,0:0:0:0:
298,192,111266,1,0,0:0:0:0:
128,192,111330,1,0,0:0:0:0:
42,192,111330,1,0,0:0:0:0:
298,192,111395,1,0,0:0:0:0:
213,192,111395,1,0,0:0:0:0:
469,192,111460,1,0,0:0:0:0:
384,192,111460,1,0,0:0:0:0:
128,192,111524,1,0,0:0:0:0:
42,192,111524,1,0,0:0:0:0:
298,192,111589,1,0,0:0:0:0:
213,192,111589,1,0,0:0:0:0:
469,192,111653,1,0,0:0:0:0:
384,192,111653,1,0,0:0:0:0:
128,192,111718,1,0,0:0:0:0:
42,192,111718,1,0,0:0:0:0:
298,192,111783,1,0,0:0:0:0:
213,192,111783,1,0,0:0:0:0:
42,192,111847,1,0,0:0:0:0:
384,192,111847,1,0,0:0:0:0:
469,192,111847,1,0,0:0:0:0:
213,192,111912,1,0,0:0:0:0:
128,192,111912,1,0,0:0:0:0:
298,192,111977,1,0,0:0:0:0:
384,192,111977,1,0,0:0:0:0:
213,192,112041,1,0,0:0:0:0:
128,192,112041,1,0,0:0:0:0:
298,192,112106,1,0,0:0:0:0:
384,192,112106,1,0,0:0:0:0:
213,192,112171,1,0,0:0:0:0:
128,192,112171,1,0,0:0:0:0:
298,192,112235,1,0,0:0:0:0:
384,192,112235,1,0,0:0:0:0:
213,192,112300,1,0,0:0:0:0:
128,192,112300,1,0,0:0:0:0:
298,192,112365,1,0,0:0:0:0:
384,192,112365,1,0,0:0:0:0:
469,192,112365,1,0,0:0:0:0:
128,192,112429,1,0,0:0:0:0:
42,192,112429,1,0,0:0:0:0:
213,192,112494,1,0,0:0:0:0:
298,192,112494,1,0,0:0:0:0:
384,192,112559,1,0,0:0:0:0:
469,192,112559,1,0,0:0:0:0:
213,192,112623,1,0,0:0:0:0:
298,192,112623,1,0,0:0:0:0:
128,192,112623,1,0,0:0:0:0:
42,192,112623,1,0,0:0:0:0:
384,192,112710,1,0,0:0:0:0:
298,192,112796,1,0,0:0:0:0:
469,192,112796,1,0,0:0:0:0:
213,192,112796,1,0,0:0:0:0:
42,192,112796,1,0,0:0:0:0:
128,192,112882,1,0,0:0:0:0:
213,192,112968,1,0,0:0:0:0:
298,192,112968,1,0,0:0:0:0:
384,192,112968,1,0,0:0:0:0:
469,192,112968,1,0,0:0:0:0:
42,192,113054,1,0,0:0:0:0:
128,192,113141,1,0,0:0:0:0:
213,192,113141,1,0,0:0:0:0:
298,192,113141,1,0,0:0:0:0:
384,192,113141,1,0,0:0:0:0:
42,192,113227,1,0,0:0:0:0:
298,192,113313,1,0,0:0:0:0:
213,192,113313,1,0,0:0:0:0:
384,192,113313,1,0,0:0:0:0:
469,192,113313,1,0,0:0:0:0:
128,192,113399,1,0,0:0:0:0:
42,192,113485,128,0,113658:0:0:0:0:
298,192,113485,128,0,113658:0:0:0:0:
384,192,113485,128,0,113658:0:0:0:0:
469,192,113485,128,0,113658:0:0:0:0:
298,192,113852,128,0,114175:0:0:0:0:
42,192,114175,1,0,0:0:0:0:
384,192,114175,1,0,0:0:0:0:
469,192,114175,1,0,0:0:0:0:
128,192,114175,1,0,0:0:0:0:
213,192,114240,1,0,0:0:0:0:
298,192,114304,1,0,0:0:0:0:
384,192,114369,1,0,0:0:0:0:
469,192,114434,1,0,0:0:0:0:
213,192,114434,1,0,0:0:0:0:
128,192,114434,1,0,0:0:0:0:
42,192,114434,1,0,0:0:0:0:
384,192,114498,1,0,0:0:0:0:
298,192,114563,1,0,0:0:0:0:
213,192,114628,1,0,0:0:0:0:
128,192,114692,1,0,0:0:0:0:
42,192,114692,1,0,0:0:0:0:
384,192,114692,1,0,0:0:0:0:
469,192,114692,1,0,0:0:0:0:
298,192,114757,1,0,0:0:0:0:
213,192,114822,1,0,0:0:0:0:
128,192,114886,1,0,0:0:0:0:
42,192,114951,1,0,0:0:0:0:
298,192,114951,1,0,0:0:0:0:
384,192,114951,1,0,0:0:0:0:
469,192,114951,1,0,0:0:0:0:
128,192,115016,1,0,0:0:0:0:
213,192,115080,1,0,0:0:0:0:
298,192,115145,1,0,0:0:0:0:
384,192,115210,1,0,0:0:0:0:
469,192,115210,1,0,0:0:0:0:
128,192,115210,1,0,0:0:0:0:
42,192,115210,1,0,0:0:0:0:
213,192,115274,1,0,0:0:0:0:
298,192,115339,1,0,0:0:0:0:
384,192,115403,1,0,0:0:0:0:
469,192,115468,1,0,0:0:0:0:
213,192,115468,1,0,0:0:0:0:
42,192,115468,1,0,0:0:0:0:
128,192,115468,1,0,0:0:0:0:
384,192,115533,1,0,0:0:0:0:
298,192,115597,1,0,0:0:0:0:
213,192,115662,1,0,0:0:0:0:
128,192,115727,1,0,0:0:0:0:
42,192,115727,1,0,0:0:0:0:
384,192,115727,1,0,0:0:0:0:
469,192,115727,1,0,0:0:0:0:
298,192,115791,1,0,0:0:0:0:
213,192,115856,1,0,0:0:0:0:
128,192,115921,1,0,0:0:0:0:
42,192,115985,1,0,0:0:0:0:
298,192,115985,1,0,0:0:0:0:
384,192,115985,1,0,0:0:0:0:
469,192,115985,1,0,0:0:0:0:
128,192,116050,1,0,0:0:0:0:
213,192,116115,1,0,0:0:0:0:
298,192,116179,1,0,0:0:0:0:
384,192,116244,1,0,0:0:0:0:
469,192,116244,1,0,0:0:0:0:
128,192,116244,1,0,0:0:0:0:
42,192,116244,1,0,0:0:0:0:
213,192,116309,1,0,0:0:0:0:
298,192,116373,1,0,0:0:0:0:
384,192,116438,1,0,0:0:0:0:
469,192,116503,1,0,0:0:0:0:
213,192,116503,1,0,0:0:0:0:
128,192,116503,1,0,0:0:0:0:
42,192,116503,1,0,0:0:0:0:
384,192,116567,1,0,0:0:0:0:
298,192,116632,1,0,0:0:0:0:
213,192,116697,1,0,0:0:0:0:
128,192,116761,1,0,0:0:0:0:
42,192,116761,1,0,0:0:0:0:
469,192,116761,1,0,0:0:0:0:
384,192,116761,1,0,0:0:0:0:
213,192,116826,1,0,0:0:0:0:
298,192,116891,1,0,0:0:0:0:
384,192,116891,1,0,0:0:0:0:
469,192,116955,1,0,0:0:0:0:
298,192,117020,1,0,0:0:0:0:
42,192,117020,1,0,0:0:0:0:
128,192,117020,1,0,0:0:0:0:
213,192,117020,1,0,0:0:0:0:
384,192,117085,1,0,0:0:0:0:
469,192,117149,1,0,0:0:0:0:
42,192,117149,1,0,0:0:0:0:
128,192,117214,1,0,0:0:0:0:
213,192,117278,1,0,0:0:0:0:
298,192,117278,1,0,0:0:0:0:
469,192,117278,1,0,0:0:0:0:
384,192,117278,1,0,0:0:0:0:
42,192,117343,1,0,0:0:0:0:
128,192,117408,1,0,0:0:0:0:
213,192,117408,1,0,0:0:0:0:
469,192,117472,1,0,0:0:0:0:
384,192,117537,128,0,117796:0:0:0:0:
298,192,117537,128,0,117796:0:0:0:0:
213,192,117537,128,0,117796:0:0:0:0:
128,192,117537,128,0,117796:0:0:0:0:
