osu file format v14

[General]
AudioFilename: audio.ogg
AudioLeadIn: 0
PreviewTime: 22012
Countdown: 0
SampleSet: Normal
StackLeniency: 0.7
Mode: 1
LetterboxInBreaks: 0
WidescreenStoryboard: 1

[Editor]
Bookmarks: 22564,33858,45152,59269,67740,79034,90328,101622
DistanceSpacing: 1.9
BeatDivisor: 4
GridSize: 32
TimelineZoom: 1.2

[Metadata]
Title:Pustota
TitleUnicode:Пустота
Artist:whyalive
ArtistUnicode:whyalive
Creator:Ryxliee
Version:Kantan
Source:
Tags:hyperpop хайперпоп hyper pop хайпер поп hip-hop hip hop hiphop хип хоп хипхоп хип-хоп russian русский glitchcore глитчкор 01xDEADDEAD Tachibana_
BeatmapID:4051731
BeatmapSetID:1955891

[Difficulty]
HPDrainRate:8
CircleSize:2
OverallDifficulty:3
ApproachRate:9
SliderMultiplier:1.4
SliderTickRate:1

[Events]
//Background and Video events
0,0,"new.jpg",0,50
//Break Periods
//Storyboard Layer 0 (Background)
//Storyboard Layer 1 (Fail)
//Storyboard Layer 2 (Pass)
//Storyboard Layer 3 (Foreground)
//Storyboard Layer 4 (Overlay)
//Storyboard Sound Samples

[TimingPoints]
218,352.941176470588,4,1,0,60,1,0
22806,-100,4,1,0,80,0,0
33747,-100,4,1,0,60,0,0
34100,-100,4,1,0,100,0,1
43982,-100,4,1,0,100,0,0
44512,-100,4,1,0,80,0,0
56511,-100,4,1,0,70,0,0
65159,-100,4,1,0,60,0,0
67982,-100,4,1,0,70,0,0
79276,-100,4,1,0,100,0,1
89159,-100,4,1,0,100,0,0
90217,-100,4,1,0,60,0,0
90570,-100,4,1,0,80,0,0

[HitObjects]
256,192,11512,8,0,15394,0:0:0:0:
256,192,15747,5,0,0:0:0:0:
256,192,16100,1,8,0:0:0:0:
256,192,17159,1,0,0:0:0:0:
256,192,17512,1,8,0:0:0:0:
256,192,18041,1,8,0:0:0:0:
256,192,18570,1,0,0:0:0:0:
256,192,18923,1,8,0:0:0:0:
256,192,19453,1,8,0:0:0:0:
256,192,19982,1,0,0:0:0:0:
256,192,21394,1,0,0:0:0:0:
256,192,22100,1,8,0:0:0:0:
256,192,22453,1,8,0:0:0:0:
256,192,22806,1,4,0:0:0:0:
256,192,23511,1,8,0:0:0:0:
256,192,24570,1,0,0:0:0:0:
256,192,25100,1,8,0:0:0:0:
256,192,25629,1,0,0:0:0:0:
256,192,26335,1,8,0:0:0:0:
256,192,26688,1,0,0:0:0:0:
256,192,27394,1,0,0:0:0:0:
256,192,27923,1,0,0:0:0:0:
256,192,28453,1,8,0:0:0:0:
256,192,29159,1,8,0:0:0:0:
256,192,30217,1,0,0:0:0:0:
256,192,30747,1,8,0:0:0:0:
256,192,31276,1,0,0:0:0:0:
256,192,31982,1,8,0:0:0:0:
256,192,32335,1,0,0:0:0:0:
256,192,33041,1,0,0:0:0:0:
256,192,34100,1,12,0:0:0:0:
256,192,34806,1,0,0:0:0:0:
256,192,35159,1,8,0:0:0:0:
256,192,35511,1,8,0:0:0:0:
256,192,35864,1,0,0:0:0:0:
256,192,36570,1,0,0:0:0:0:
256,192,36923,1,8,0:0:0:0:
256,192,37629,1,8,0:0:0:0:
256,192,37982,1,0,0:0:0:0:
256,192,38335,1,0,0:0:0:0:
256,192,38688,1,8,0:0:0:0:
256,192,39394,1,0,0:0:0:0:
256,192,39747,1,8,0:0:0:0:
256,192,40453,1,8,0:0:0:0:
256,192,40982,1,0,0:0:0:0:
256,192,41511,1,0,0:0:0:0:
256,192,41864,1,8,0:0:0:0:
256,192,42217,1,0,0:0:0:0:
256,192,42570,1,8,0:0:0:0:
256,192,43276,1,8,0:0:0:0:
256,192,43982,1,0,0:0:0:0:
256,192,45394,1,0,0:0:0:0:
256,192,45747,1,0,0:0:0:0:
256,192,47511,1,8,0:0:0:0:
256,192,48217,1,0,0:0:0:0:
256,192,48570,1,0,0:0:0:0:
256,192,48923,1,8,0:0:0:0:
256,192,49629,1,0,0:0:0:0:
256,192,50159,1,0,0:0:0:0:
256,192,50688,1,0,0:0:0:0:
256,192,51041,1,0,0:0:0:0:
256,192,51747,1,8,0:0:0:0:
256,192,52453,1,0,0:0:0:0:
256,192,53159,1,8,0:0:0:0:
256,192,53864,1,0,0:0:0:0:
256,192,54217,1,0,0:0:0:0:
256,192,54570,1,8,0:0:0:0:
256,192,55276,1,0,0:0:0:0:
256,192,55806,1,0,0:0:0:0:
256,192,56335,1,0,0:0:0:0:
256,192,57394,12,0,59159,0:0:0:0:
256,192,59511,5,12,0:0:0:0:
256,192,60217,1,0,0:0:0:0:
256,192,60923,1,8,0:0:0:0:
256,192,61276,1,8,0:0:0:0:
256,192,61629,1,0,0:0:0:0:
256,192,62335,1,8,0:0:0:0:
256,192,63041,1,0,0:0:0:0:
256,192,63747,1,8,0:0:0:0:
256,192,64100,1,0,0:0:0:0:
256,192,64806,1,8,0:0:0:0:
256,192,65159,1,0,0:0:0:0:
256,192,67982,1,12,0:0:0:0:
256,192,69394,1,0,0:0:0:0:
256,192,70806,1,8,0:0:0:0:
256,192,72217,1,0,0:0:0:0:
256,192,72570,1,8,0:0:0:0:
256,192,73276,1,0,0:0:0:0:
256,192,73629,1,0,0:0:0:0:
256,192,73982,1,8,0:0:0:0:
256,192,74511,1,8,0:0:0:0:
256,192,75041,1,0,0:0:0:0:
256,192,75394,1,8,0:0:0:0:
256,192,75923,1,8,0:0:0:0:
256,192,76453,1,0,0:0:0:0:
256,192,77864,1,0,0:0:0:0:
256,192,78570,1,0,0:0:0:0:
256,192,79276,1,12,0:0:0:0:
256,192,79982,1,0,0:0:0:0:
256,192,80335,1,8,0:0:0:0:
256,192,80687,1,8,0:0:0:0:
256,192,81040,1,0,0:0:0:0:
256,192,81746,1,0,0:0:0:0:
256,192,82099,1,8,0:0:0:0:
256,192,82805,1,8,0:0:0:0:
256,192,83158,1,0,0:0:0:0:
256,192,83511,1,0,0:0:0:0:
256,192,83864,1,8,0:0:0:0:
256,192,84570,1,0,0:0:0:0:
256,192,84923,1,8,0:0:0:0:
256,192,85629,1,8,0:0:0:0:
256,192,86159,1,0,0:0:0:0:
256,192,86687,1,0,0:0:0:0:
256,192,87040,1,8,0:0:0:0:
256,192,87393,1,0,0:0:0:0:
256,192,87746,1,8,0:0:0:0:
256,192,88452,1,8,0:0:0:0:
256,192,89158,1,0,0:0:0:0:
256,192,90570,1,12,0:0:0:0:
256,192,91100,1,0,0:0:0:0:
256,192,91629,1,8,0:0:0:0:
256,192,91982,1,8,0:0:0:0:
256,192,92335,1,0,0:0:0:0:
256,192,93041,1,8,0:0:0:0:
256,192,93394,1,0,0:0:0:0:
256,192,93923,1,8,0:0:0:0:
256,192,94453,1,0,0:0:0:0:
256,192,94806,1,0,0:0:0:0:
256,192,95159,1,8,0:0:0:0:
256,192,96217,1,12,0:0:0:0:
256,192,96747,1,0,0:0:0:0:
256,192,97276,1,8,0:0:0:0:
256,192,97629,1,8,0:0:0:0:
256,192,97982,1,0,0:0:0:0:
256,192,98688,1,8,0:0:0:0:
256,192,99041,1,0,0:0:0:0:
256,192,99570,1,8,0:0:0:0:
256,192,100100,1,0,0:0:0:0:
256,192,100453,1,0,0:0:0:0:
256,192,100806,1,8,0:0:0:0:
256,192,101511,1,8,0:0:0:0:
