osu file format v14

[General]
AudioFilename: audio.ogg
AudioLeadIn: 0
PreviewTime: 22012
Countdown: 0
SampleSet: Normal
StackLeniency: 0.7
Mode: 1
LetterboxInBreaks: 0
WidescreenStoryboard: 0

[Editor]
Bookmarks: 22564,33858,45152,59269,67740,79034,90328,101622
DistanceSpacing: 1.9
BeatDivisor: 4
GridSize: 32
TimelineZoom: 1.2

[Metadata]
Title:Pustota
TitleUnicode:Пустота
Artist:whyalive
ArtistUnicode:whyalive
Creator:Ryxliee
Version:Frozen Heart
Source:
Tags:hyperpop хайперпоп hyper pop хайпер поп hip-hop hip hop hiphop хип хоп хипхоп хип-хоп russian русский glitchcore глитчкор 01xDEADDEAD Tachibana_
BeatmapID:4051076
BeatmapSetID:1955891

[Difficulty]
HPDrainRate:5
CircleSize:2
OverallDifficulty:5.5
ApproachRate:9
SliderMultiplier:1.4
SliderTickRate:1

[Events]
//Background and Video events
0,0,"new.jpg",0,50
//Break Periods
//Storyboard Layer 0 (Background)
//Storyboard Layer 1 (Fail)
//Storyboard Layer 2 (Pass)
//Storyboard Layer 3 (Foreground)
//Storyboard Layer 4 (Overlay)
//Storyboard Sound Samples

[TimingPoints]
218,352.941176470588,4,1,0,60,1,0
218,-125,4,1,0,60,0,0
11512,-125,4,1,0,60,0,0
16100,-123.711039055882,4,1,0,60,0,0
16276,-123.078264407568,4,1,0,60,0,0
16364,-122.764298344784,4,1,0,60,0,0
16453,-122.448389521772,4,1,0,60,0,0
16629,-121.828433346758,4,1,0,60,0,0
16806,-121.211253899654,4,1,0,60,0,0
16982,-120.603730599459,4,1,0,60,0,0
17159,-119.998866598663,4,1,0,60,0,0
17511,-118.813825608798,4,1,0,60,0,0
17688,-118.226738505346,4,1,0,60,0,0
17776,-117.937007435462,4,1,0,60,0,0
17864,-117.648692946634,4,1,0,60,0,0
18041,-117.073035882125,4,1,0,60,0,0
18394,-115.941632217264,4,1,0,60,0,0
18482,-115.662979653148,4,1,0,60,0,0
18570,-115.385663297278,4,1,0,60,0,0
18747,-114.831887201735,4,1,0,60,0,0
18923,-114.286485319516,4,1,0,60,0,0
19100,-113.743184809175,4,1,0,60,0,0
19188,-113.474987272581,4,1,0,60,0,0
19276,-113.2080515384,4,1,0,60,0,0
19453,-112.67493215559,4,1,0,60,0,0
19806,-111.626558422731,4,1,0,60,0,0
19894,-111.368238356957,4,1,0,60,0,0
19982,-111.111111111111,4,1,0,60,0,0
20159,-109.584788513776,4,1,0,60,0,0
20335,-108.108108108108,4,1,0,60,0,0
20511,-106.670695776989,4,1,0,60,0,0
20688,-105.263157894737,4,1,0,60,0,0
20865,-103.892281656979,4,1,0,60,0,0
21041,-102.564102564103,4,1,0,60,0,0
21217,-101.269454206412,4,1,0,60,0,0
21394,-100,4,1,0,60,0,0
21923,-125,4,1,0,60,0,0
22806,-100,4,1,0,80,0,0
33217,-105.247465712582,4,1,0,80,0,0
33394,-111.111111111111,4,1,0,80,0,0
33747,-125,4,1,0,60,0,0
34100,-90.9090909090909,4,1,0,100,0,1
43806,-95.250944414463,4,1,0,100,0,1
43982,-100,4,1,0,100,0,0
44512,-100,4,1,0,80,0,0
45394,-86.9565217391304,4,1,0,80,0,0
46806,-100,4,1,0,80,0,0
48217,-86.9565217391304,4,1,0,80,0,0
48923,-100,4,1,0,80,0,0
49629,-86.9565217391304,4,1,0,80,0,0
50335,-100,4,1,0,80,0,0
50688,-86.9565217391304,4,1,0,80,0,0
51217,-100,4,1,0,80,0,0
52453,-86.9565217391304,4,1,0,80,0,0
52806,-100,4,1,0,80,0,0
53864,-86.9565217391304,4,1,0,80,0,0
54570,-100,4,1,0,80,0,0
55276,-86.9565217391304,4,1,0,80,0,0
55982,-100,4,1,0,80,0,0
56335,-86.9565217391304,4,1,0,80,0,0
56688,-111.111111111111,4,1,0,70,0,0
59511,-111.111111111111,4,1,0,70,0,0
65159,-125,4,1,0,60,0,0
67982,-125,4,1,0,70,0,0
68335,-123.711189648626,4,1,0,70,0,0
69041,-121.211687605529,4,1,0,70,0,0
69217,-120.604231327771,4,1,0,70,0,0
69394,-119.999433363554,4,1,0,70,0,0
70099,-117.649509735841,4,1,0,70,0,0
70188,-117.359379329454,4,1,0,70,0,0
70276,-117.073912322406,4,1,0,70,0,0
70453,-116.503919680924,4,1,0,70,0,0
70629,-115.942624072705,4,1,0,70,0,0
70806,-115.383567614689,4,1,0,70,0,0
71159,-114.284557891044,4,1,0,70,0,0
71423,-113.476222371065,4,1,0,70,0,0
71511,-113.209312271136,4,1,0,70,0,0
71688,-112.67624368183,4,1,0,70,0,0
71864,-112.151141238151,4,1,0,70,0,0
72041,-111.627968268192,4,1,0,70,0,0
72129,-111.369672109595,4,1,0,70,0,0
72218,-111.109653725079,4,1,0,70,0,0
72571,-110.09019312245,4,1,0,70,0,0
72747,-109.588863877461,4,1,0,70,0,0
72835,-109.339907581898,4,1,0,70,0,0
72924,-109.089270076753,4,1,0,70,0,0
73100,-108.596995025896,4,1,0,70,0,0
73277,-108.106383521785,4,1,0,70,0,0
73453,-107.622919578198,4,1,0,70,0,0
73630,-107.141050288374,4,1,0,70,0,0
73982,-106.195466853876,4,1,0,70,0,0
74159,-105.726267442151,4,1,0,70,0,0
74247,-105.494532865078,4,1,0,70,0,0
74335,-105.263811914407,4,1,0,70,0,0
74512,-104.802791111991,4,1,0,70,0,0
74865,-103.895307479088,4,1,0,70,0,0
74953,-103.671521233631,4,1,0,70,0,0
75041,-103.448696968957,4,1,0,70,0,0
75218,-103.003404669261,4,1,0,70,0,0
75394,-102.56441301821,4,1,0,70,0,0
75571,-102.126684831095,4,1,0,70,0,0
75659,-101.910444888237,4,1,0,70,0,0
75747,-101.695118730342,4,1,0,70,0,0
75924,-101.264763544207,4,1,0,70,0,0
76277,-100.417269257213,4,1,0,70,0,0
76365,-100.208200250787,4,1,0,70,0,0
76453,-100,4,1,0,70,0,0
78570,-111.111111111111,4,1,0,100,0,0
78923,-125,4,1,0,100,0,0
79276,-90.9090909090909,4,1,0,100,0,1
88982,-95.2252495279202,4,1,0,100,0,1
89159,-100,4,1,0,100,0,0
90217,-125,4,1,0,60,0,0
90570,-100,4,1,0,80,0,0

[HitObjects]
256,192,11512,8,0,15394,0:0:0:0:
256,192,15747,5,0,0:0:0:0:
256,192,16100,1,8,0:0:0:0:
256,192,16276,1,0,0:0:0:0:
256,192,16364,1,0,0:0:0:0:
256,192,16453,1,8,0:0:0:0:
256,192,16629,1,0,0:0:0:0:
256,192,16806,1,8,0:0:0:0:
256,192,16982,1,8,0:0:0:0:
256,192,17159,1,0,0:0:0:0:
256,192,17511,1,8,0:0:0:0:
256,192,17688,1,0,0:0:0:0:
256,192,17776,1,8,0:0:0:0:
256,192,17864,1,0,0:0:0:0:
256,192,18041,1,8,0:0:0:0:
256,192,18394,1,8,0:0:0:0:
256,192,18482,1,8,0:0:0:0:
256,192,18570,1,0,0:0:0:0:
256,192,18747,1,0,0:0:0:0:
256,192,18923,1,8,0:0:0:0:
256,192,19100,1,0,0:0:0:0:
256,192,19188,1,8,0:0:0:0:
256,192,19276,1,0,0:0:0:0:
256,192,19453,1,8,0:0:0:0:
256,192,19806,1,8,0:0:0:0:
256,192,19894,1,8,0:0:0:0:
256,192,19982,1,0,0:0:0:0:
256,192,20159,1,0,0:0:0:0:
256,192,20335,1,8,0:0:0:0:
256,192,20511,1,0,0:0:0:0:
256,192,20688,1,8,0:0:0:0:
256,192,20865,1,0,0:0:0:0:
256,192,21041,1,8,0:0:0:0:
256,192,21217,1,8,0:0:0:0:
256,192,21394,1,0,0:0:0:0:
256,192,21923,1,0,0:0:0:0:
256,192,22100,1,8,0:0:0:0:
256,192,22276,1,0,0:0:0:0:
256,192,22453,1,8,0:0:0:0:
256,192,22629,1,8,0:0:0:0:
256,192,22806,1,4,0:0:0:0:
256,192,23159,1,0,0:0:0:0:
256,192,23335,1,0,0:0:0:0:
256,192,23511,1,8,0:0:0:0:
256,192,23864,1,8,0:0:0:0:
256,192,24041,1,0,0:0:0:0:
256,192,24217,1,8,0:0:0:0:
256,192,24306,1,8,0:0:0:0:
256,192,24394,1,0,0:0:0:0:
256,192,24570,1,0,0:0:0:0:
256,192,24923,1,8,0:0:0:0:
256,192,25100,1,0,0:0:0:0:
256,192,25276,1,0,0:0:0:0:
256,192,25364,1,0,0:0:0:0:
256,192,25453,1,8,0:0:0:0:
256,192,25629,1,0,0:0:0:0:
256,192,25806,1,8,0:0:0:0:
256,192,25894,1,8,0:0:0:0:
256,192,25982,1,0,0:0:0:0:
256,192,26159,1,0,0:0:0:0:
256,192,26335,1,8,0:0:0:0:
256,192,26688,1,0,0:0:0:0:
256,192,26864,1,8,0:0:0:0:
256,192,27041,1,8,0:0:0:0:
256,192,27129,1,0,0:0:0:0:
256,192,27217,1,8,0:0:0:0:
256,192,27394,1,0,0:0:0:0:
256,192,27747,1,8,0:0:0:0:
256,192,27923,1,0,0:0:0:0:
256,192,28100,1,0,0:0:0:0:
256,192,28188,1,8,0:0:0:0:
256,192,28276,1,0,0:0:0:0:
256,192,28453,1,0,0:0:0:0:
256,192,28629,1,8,0:0:0:0:
256,192,28717,1,0,0:0:0:0:
256,192,28806,1,8,0:0:0:0:
256,192,28982,1,0,0:0:0:0:
256,192,29159,1,8,0:0:0:0:
256,192,29511,1,0,0:0:0:0:
256,192,29688,1,8,0:0:0:0:
256,192,29864,1,8,0:0:0:0:
256,192,29953,1,8,0:0:0:0:
256,192,30041,1,0,0:0:0:0:
256,192,30217,1,0,0:0:0:0:
256,192,30570,1,8,0:0:0:0:
256,192,30747,1,0,0:0:0:0:
256,192,30923,1,8,0:0:0:0:
256,192,31100,1,8,0:0:0:0:
256,192,31276,1,0,0:0:0:0:
256,192,31629,1,0,0:0:0:0:
256,192,31806,1,0,0:0:0:0:
256,192,31982,1,8,0:0:0:0:
256,192,32335,1,0,0:0:0:0:
256,192,32511,1,0,0:0:0:0:
256,192,32688,1,8,0:0:0:0:
256,192,32776,1,8,0:0:0:0:
256,192,32864,1,8,0:0:0:0:
256,192,33041,1,0,0:0:0:0:
256,192,33217,1,0,0:0:0:0:
256,192,33394,1,8,0:0:0:0:
256,192,33747,1,0,0:0:0:0:
256,192,34100,1,12,0:0:0:0:
256,192,34453,1,0,0:0:0:0:
256,192,34629,1,8,0:0:0:0:
256,192,34806,1,0,0:0:0:0:
256,192,34894,1,0,0:0:0:0:
256,192,34982,1,8,0:0:0:0:
256,192,35070,1,8,0:0:0:0:
256,192,35159,1,0,0:0:0:0:
256,192,35335,1,0,0:0:0:0:
256,192,35511,1,8,0:0:0:0:
256,192,35688,1,0,0:0:0:0:
256,192,35864,1,8,0:0:0:0:
256,192,36217,1,0,0:0:0:0:
256,192,36394,1,8,0:0:0:0:
256,192,36482,1,0,0:0:0:0:
256,192,36570,1,8,0:0:0:0:
256,192,36747,1,0,0:0:0:0:
256,192,36923,1,8,0:0:0:0:
256,192,37276,1,8,0:0:0:0:
256,192,37453,1,0,0:0:0:0:
256,192,37629,1,8,0:0:0:0:
256,192,37717,1,8,0:0:0:0:
256,192,37806,1,8,0:0:0:0:
256,192,37894,1,0,0:0:0:0:
256,192,37982,1,8,0:0:0:0:
256,192,38159,1,0,0:0:0:0:
256,192,38335,1,8,0:0:0:0:
256,192,38511,1,0,0:0:0:0:
256,192,38688,1,8,0:0:0:0:
256,192,39041,1,0,0:0:0:0:
256,192,39217,1,0,0:0:0:0:
256,192,39306,1,0,0:0:0:0:
256,192,39394,1,8,0:0:0:0:
256,192,39570,1,8,0:0:0:0:
256,192,39747,1,0,0:0:0:0:
256,192,40100,1,8,0:0:0:0:
256,192,40276,1,0,0:0:0:0:
256,192,40453,1,8,0:0:0:0:
256,192,40541,1,0,0:0:0:0:
256,192,40629,1,8,0:0:0:0:
256,192,40806,1,8,0:0:0:0:
256,192,40982,1,0,0:0:0:0:
256,192,41070,1,8,0:0:0:0:
256,192,41159,1,0,0:0:0:0:
256,192,41335,1,0,0:0:0:0:
256,192,41511,1,8,0:0:0:0:
256,192,41864,1,0,0:0:0:0:
256,192,42041,1,0,0:0:0:0:
256,192,42217,1,8,0:0:0:0:
256,192,42394,1,0,0:0:0:0:
256,192,42570,1,8,0:0:0:0:
256,192,42659,1,8,0:0:0:0:
256,192,42747,1,0,0:0:0:0:
256,192,42923,1,8,0:0:0:0:
256,192,43100,1,8,0:0:0:0:
256,192,43276,1,0,0:0:0:0:
256,192,43629,1,8,0:0:0:0:
256,192,43806,1,8,0:0:0:0:
256,192,43982,1,0,0:0:0:0:
256,192,44511,1,0,0:0:0:0:
256,192,44688,1,8,0:0:0:0:
256,192,44864,1,0,0:0:0:0:
256,192,45041,1,8,0:3:0:0:
256,192,45217,1,8,0:0:0:0:
256,192,45306,1,8,0:0:0:0:
256,192,45394,1,4,0:0:0:0:
256,192,45747,1,4,0:0:0:0:
256,192,47511,1,8,0:0:0:0:
256,192,47864,1,0,0:0:0:0:
256,192,48041,1,8,0:0:0:0:
256,192,48217,1,4,0:0:0:0:
256,192,48570,1,4,0:0:0:0:
256,192,48923,1,8,0:0:0:0:
256,192,49629,1,4,0:0:0:0:
256,192,50159,1,4,0:0:0:0:
256,192,50335,1,8,0:0:0:0:
256,192,50688,1,4,0:0:0:0:
256,192,51041,1,4,0:0:0:0:
256,192,51217,1,8,0:0:0:0:
256,192,51394,1,0,0:0:0:0:
256,192,51570,1,0,0:0:0:0:
256,192,51747,1,8,0:0:0:0:
256,192,52100,1,0,0:0:0:0:
256,192,52276,1,8,0:0:0:0:
256,192,52453,1,4,0:0:0:0:
256,192,52806,1,0,0:0:0:0:
256,192,53159,1,8,0:0:0:0:
256,192,53511,1,0,0:0:0:0:
256,192,53688,1,8,0:0:0:0:
256,192,53864,1,4,0:0:0:0:
256,192,54217,1,4,0:0:0:0:
256,192,54570,1,8,0:0:0:0:
256,192,54747,1,0,0:0:0:0:
256,192,54923,1,0,0:0:0:0:
256,192,55100,1,8,0:0:0:0:
256,192,55276,1,4,0:0:0:0:
256,192,55806,1,4,0:0:0:0:
256,192,55982,1,8,0:0:0:0:
256,192,56335,1,4,0:0:0:0:
256,192,57394,8,0,59159,0:0:0:0:
256,192,59511,5,12,0:0:0:0:
256,192,59864,1,0,0:0:0:0:
256,192,60041,1,8,0:0:0:0:
256,192,60217,1,8,0:0:0:0:
256,192,60394,1,0,0:0:0:0:
256,192,60570,1,8,0:0:0:0:
256,192,60923,1,0,0:0:0:0:
256,192,61276,1,0,0:0:0:0:
256,192,61453,1,0,0:0:0:0:
256,192,61629,1,8,0:0:0:0:
256,192,61982,1,8,0:0:0:0:
256,192,62159,1,8,0:0:0:0:
256,192,62335,1,0,0:0:0:0:
256,192,62688,1,0,0:0:0:0:
256,192,63041,1,8,0:0:0:0:
256,192,63306,1,8,0:0:0:0:
256,192,63394,1,0,0:0:0:0:
256,192,63570,1,8,0:0:0:0:
256,192,63747,1,0,0:0:0:0:
256,192,64100,1,8,0:0:0:0:
256,192,64364,1,8,0:0:0:0:
256,192,64453,1,0,0:0:0:0:
256,192,64629,1,8,0:0:0:0:
256,192,64806,1,0,0:0:0:0:
256,192,65159,1,0,0:0:0:0:
256,192,67982,1,4,0:0:0:0:
256,192,68335,1,8,0:0:0:0:
256,192,69041,1,8,0:0:0:0:
256,192,69217,1,8,0:0:0:0:
256,192,69394,1,0,0:0:0:0:
256,192,70099,1,0,0:0:0:0:
256,192,70188,1,8,0:0:0:0:
256,192,70276,1,0,0:0:0:0:
224,192,70453,1,0,0:0:0:0:
224,192,70629,1,8,0:0:0:0:
256,192,70806,1,0,0:0:0:0:
256,192,71159,1,8,0:0:0:0:
256,192,71423,1,0,0:0:0:0:
256,192,71511,1,8,0:0:0:0:
256,192,71688,1,8,0:0:0:0:
256,192,71864,1,0,0:0:0:0:
256,192,72041,1,8,0:0:0:0:
256,192,72129,1,8,0:0:0:0:
256,192,72218,1,0,0:0:0:0:
256,192,72571,1,8,0:0:0:0:
256,192,72747,1,0,0:0:0:0:
256,192,72835,1,0,0:0:0:0:
256,192,72924,1,8,0:0:0:0:
256,192,73100,1,8,0:0:0:0:
256,192,73277,1,0,0:0:0:0:
256,192,73453,1,8,0:0:0:0:
256,192,73630,1,0,0:0:0:0:
256,192,73982,1,8,0:0:0:0:
256,192,74159,1,0,0:0:0:0:
256,192,74247,1,8,0:0:0:0:
256,192,74335,1,0,0:0:0:0:
256,192,74512,1,8,0:0:0:0:
256,192,74865,1,8,0:0:0:0:
256,192,74953,1,8,0:0:0:0:
256,192,75041,1,0,0:0:0:0:
256,192,75218,1,0,0:0:0:0:
256,192,75394,1,8,0:0:0:0:
256,192,75571,1,0,0:0:0:0:
256,192,75659,1,8,0:0:0:0:
256,192,75747,1,0,0:0:0:0:
256,192,75924,1,8,0:0:0:0:
256,192,76277,1,8,0:0:0:0:
256,192,76365,1,8,0:0:0:0:
256,192,76453,1,0,0:0:0:0:
256,192,76630,1,0,0:0:0:0:
256,192,76806,1,8,0:0:0:0:
256,192,76982,1,0,0:0:0:0:
256,192,77159,1,8,0:0:0:0:
256,192,77336,1,8,0:0:0:0:
256,192,77512,1,0,0:0:0:0:
256,192,77688,1,8,0:0:0:0:
256,192,77865,1,0,0:0:0:0:
256,192,78570,1,8,0:0:0:0:
256,192,78923,1,0,0:0:0:0:
256,192,79276,1,12,0:0:0:0:
256,192,79629,1,0,0:0:0:0:
256,192,79805,1,8,0:0:0:0:
256,192,79982,1,0,0:0:0:0:
256,192,80070,1,0,0:0:0:0:
256,192,80158,1,8,0:0:0:0:
256,192,80246,1,8,0:0:0:0:
256,192,80335,1,0,0:0:0:0:
256,192,80511,1,0,0:0:0:0:
256,192,80687,1,8,0:0:0:0:
256,192,80864,1,0,0:0:0:0:
256,192,81040,1,8,0:0:0:0:
256,192,81393,1,0,0:0:0:0:
256,192,81570,1,8,0:0:0:0:
256,192,81658,1,0,0:0:0:0:
256,192,81746,1,8,0:0:0:0:
256,192,81923,1,0,0:0:0:0:
256,192,82099,1,8,0:0:0:0:
256,192,82452,1,8,0:0:0:0:
256,192,82629,1,0,0:0:0:0:
256,192,82806,1,8,0:0:0:0:
256,192,82893,1,8,0:0:0:0:
256,192,82982,1,8,0:0:0:0:
256,192,83070,1,0,0:0:0:0:
256,192,83158,1,8,0:0:0:0:
256,192,83335,1,0,0:0:0:0:
256,192,83511,1,8,0:0:0:0:
256,192,83687,1,0,0:0:0:0:
256,192,83864,1,8,0:0:0:0:
256,192,84217,1,0,0:0:0:0:
256,192,84393,1,0,0:0:0:0:
256,192,84482,1,0,0:0:0:0:
256,192,84570,1,8,0:0:0:0:
256,192,84746,1,8,0:0:0:0:
256,192,84923,1,0,0:0:0:0:
256,192,85276,1,8,0:0:0:0:
256,192,85452,1,0,0:0:0:0:
256,192,85629,1,8,0:0:0:0:
256,192,85717,1,0,0:0:0:0:
256,192,85805,1,8,0:0:0:0:
256,192,85982,1,8,0:0:0:0:
256,192,86158,1,0,0:0:0:0:
256,192,86246,1,8,0:0:0:0:
256,192,86335,1,0,0:0:0:0:
256,192,86511,1,0,0:0:0:0:
256,192,86687,1,8,0:0:0:0:
256,192,87040,1,0,0:0:0:0:
256,192,87217,1,0,0:0:0:0:
256,192,87393,1,8,0:0:0:0:
256,192,87570,1,0,0:0:0:0:
256,192,87746,1,8,0:0:0:0:
256,192,87835,1,8,0:0:0:0:
256,192,87923,1,0,0:0:0:0:
256,192,88099,1,8,0:0:0:0:
256,192,88276,1,8,0:0:0:0:
256,192,88453,1,0,0:0:0:0:
256,192,88806,1,8,0:0:0:0:
256,192,88982,1,8,0:0:0:0:
256,192,89159,1,0,0:0:0:0:
256,192,90217,1,0,0:3:0:0:
256,192,90570,1,12,0:0:0:0:
256,192,90923,1,8,0:0:0:0:
256,192,91100,1,0,0:0:0:0:
256,192,91453,1,0,0:0:0:0:
256,192,91629,1,8,0:0:0:0:
256,192,91806,1,0,0:0:0:0:
256,192,91982,1,0,0:0:0:0:
256,192,92159,1,8,0:0:0:0:
256,192,92335,1,8,0:0:0:0:
256,192,92423,1,0,0:0:0:0:
256,192,92511,1,8,0:0:0:0:
256,192,92864,1,0,0:0:0:0:
256,192,93041,1,8,0:0:0:0:
256,192,93394,1,0,0:0:0:0:
256,192,93747,1,8,0:0:0:0:
256,192,93923,1,0,0:0:0:0:
256,192,94276,1,0,0:0:0:0:
256,192,94453,1,8,0:0:0:0:
256,192,94629,1,8,0:0:0:0:
256,192,94806,1,8,0:0:0:0:
256,192,94982,1,0,0:0:0:0:
256,192,95159,1,8,0:0:0:0:
256,192,95247,1,8,0:0:0:0:
256,192,95335,1,0,0:0:0:0:
256,192,95688,1,0,0:0:0:0:
256,192,95864,1,8,0:0:0:0:
256,192,96217,1,4,0:0:0:0:
256,192,96570,1,8,0:0:0:0:
256,192,96747,1,0,0:0:0:0:
256,192,97100,1,0,0:0:0:0:
256,192,97276,1,8,0:0:0:0:
256,192,97453,1,0,0:0:0:0:
256,192,97629,1,0,0:0:0:0:
256,192,97806,1,8,0:0:0:0:
256,192,97982,1,8,0:0:0:0:
256,192,98070,1,0,0:0:0:0:
256,192,98159,1,8,0:0:0:0:
256,192,98511,1,0,0:0:0:0:
256,192,98688,1,8,0:0:0:0:
256,192,99041,1,0,0:0:0:0:
256,192,99394,1,8,0:0:0:0:
256,192,99570,1,0,0:0:0:0:
256,192,99923,1,0,0:0:0:0:
256,192,100100,1,8,0:0:0:0:
256,192,100277,1,8,0:0:0:0:
256,192,100453,1,8,0:0:0:0:
256,192,100630,1,0,0:0:0:0:
256,192,100806,1,8,0:0:0:0:
256,192,100894,1,8,0:0:0:0:
256,192,100982,1,0,0:0:0:0:
256,192,101335,1,0,0:0:0:0:
256,192,101511,1,8,0:0:0:0:
256,192,101688,1,0,0:0:0:0:
