osu file format v14

[General]
AudioFilename: audio.mp3
AudioLeadIn: 0
PreviewTime: -1
Countdown: 1
SampleSet: Normal
StackLeniency: 0.7
Mode: 0
LetterboxInBreaks: 0
WidescreenStoryboard: 0

[Editor]
DistanceSpacing: 1
BeatDivisor: 16
GridSize: 4
TimelineZoom: 1

[Metadata]
Title:The True Challenge
TitleUnicode:The True Challenge
Artist:whoever made the original music
ArtistUnicode:whoever made the original music
Creator:PhenoixTrains
Version:Insane
Source:
Tags:
BeatmapID:1401130
BeatmapSetID:661847

[Difficulty]
HPDrainRate:5
CircleSize:5
OverallDifficulty:5
ApproachRate:5
SliderMultiplier:1.4
SliderTickRate:1

[Events]
//Background and Video events
Video,0,"bandicam 2017-08-20 13-29-17-937.mp4"
0,0,"background.png",0,0
//Break Periods
//Storyboard Layer 0 (Background)
//Storyboard Layer 1 (Fail)
//Storyboard Layer 2 (Pass)
//Storyboard Layer 3 (Foreground)
//Storyboard Sound Samples

[TimingPoints]
0,88.1900000000002,4,1,0,100,1,0

[HitObjects]
112,224,0,2,0,L|112:288,1,61.25
256,192,22,1,0,0:0:0:0:
236,164,44,1,0,0:0:0:0:
268,148,66,1,0,0:0:0:0:
328,180,110,1,0,0:0:0:0:
304,204,132,1,0,0:0:0:0:
268,200,154,1,0,0:0:0:0:
236,184,176,1,0,0:0:0:0:
248,152,198,1,0,0:0:0:0:
280,140,220,1,0,0:0:0:0:
244,148,242,1,0,0:0:0:0:
212,160,264,1,0,0:0:0:0:
192,188,286,1,0,0:0:0:0:
244,236,330,1,0,0:0:0:0:
276,244,352,1,0,0:0:0:0:
308,232,374,1,0,0:0:0:0:
328,204,396,1,0,0:0:0:0:
340,172,418,1,0,0:0:0:0:
344,136,440,1,0,0:0:0:0:
320,108,462,1,0,0:0:0:0:
288,92,485,1,0,0:0:0:0:
252,96,507,1,0,0:0:0:0:
248,152,529,1,0,0:0:0:0:
268,180,551,1,0,0:0:0:0:
268,180,573,1,0,0:0:0:0:
256,212,595,1,0,0:0:0:0:
212,160,617,2,0,B|160:100|276:100|276:100|200:32|200:72,6,210
256,192,1565,12,0,3020,0:0:0:0:
256,192,2491,5,0,0:0:0:0:
256,156,2513,1,0,0:0:0:0:
236,128,2535,1,0,0:0:0:0:
200,120,2557,1,0,0:0:0:0:
172,140,2579,1,0,0:0:0:0:
168,176,2601,1,0,0:0:0:0:
188,204,2623,1,0,0:0:0:0:
224,212,2645,1,0,0:0:0:0:
256,196,2667,1,0,0:0:0:0:
288,180,2689,1,0,0:0:0:0:
324,172,2711,1,0,0:0:0:0:
356,180,2733,1,0,0:0:0:0:
376,212,2755,1,0,0:0:0:0:
368,248,2777,1,0,0:0:0:0:
340,268,2800,1,0,0:0:0:0:
308,252,2822,1,0,0:0:0:0:
292,224,2844,1,0,0:0:0:0:
276,192,2866,1,0,0:0:0:0:
256,96,3042,2,0,B|144:192|256:288|344:192|344:192|176:28|120:228|264:328|356:296,2,665
256,192,4144,1,0,0:0:0:0:
256,192,4155,1,0,0:0:0:0:
256,192,4155,1,0,0:0:0:0:
256,192,4166,1,0,0:0:0:0:
256,192,4166,1,0,0:0:0:0:
256,192,4178,1,0,0:0:0:0:
256,192,4178,1,0,0:0:0:0:
256,192,4178,1,0,0:0:0:0:
256,192,4189,1,0,0:0:0:0:
256,192,4189,1,0,0:0:0:0:
256,192,4200,1,0,0:0:0:0:
256,192,4200,1,0,0:0:0:0:
256,192,4211,1,0,0:0:0:0:
256,192,4222,1,0,0:0:0:0:
256,192,4222,1,0,0:0:0:0:
256,192,4222,1,0,0:0:0:0:
256,192,4233,1,0,0:0:0:0:
256,192,4233,1,0,0:0:0:0:
256,192,4244,1,0,0:0:0:0:
256,192,4255,1,0,0:0:0:0:
256,192,4255,1,0,0:0:0:0:
256,192,4255,1,0,0:0:0:0:
256,192,4266,1,0,0:0:0:0:
256,192,4277,1,0,0:0:0:0:
256,192,4277,1,0,0:0:0:0:
256,192,4288,1,0,0:0:0:0:
256,192,4288,1,0,0:0:0:0:
256,192,4288,1,0,0:0:0:0:
256,192,4299,1,0,0:0:0:0:
256,192,4310,1,0,0:0:0:0:
252,176,4310,1,0,0:0:0:0:
252,176,4343,1,0,0:0:0:0:
252,176,4365,1,0,0:0:0:0:
252,176,4376,1,0,0:0:0:0:
252,176,4387,1,0,0:0:0:0:
252,176,4398,1,0,0:0:0:0:
252,176,4409,1,0,0:0:0:0:
252,176,4420,1,0,0:0:0:0:
252,176,4431,1,0,0:0:0:0:
272,160,4442,1,0,0:0:0:0:
288,152,4453,1,0,0:0:0:0:
304,156,4475,1,0,0:0:0:0:
312,160,4486,1,0,0:0:0:0:
320,176,4497,1,0,0:0:0:0:
324,192,4508,1,0,0:0:0:0:
316,208,4519,1,0,0:0:0:0:
296,228,4530,1,0,0:0:0:0:
280,236,4541,1,0,0:0:0:0:
256,248,4563,1,0,0:0:0:0:
240,252,4574,1,0,0:0:0:0:
224,256,4585,1,0,0:0:0:0:
216,252,4596,1,0,0:0:0:0:
200,244,4607,1,0,0:0:0:0:
184,236,4618,1,0,0:0:0:0:
172,224,4640,1,0,0:0:0:0:
168,216,4652,1,0,0:0:0:0:
168,200,4652,1,0,0:0:0:0:
176,184,4663,1,0,0:0:0:0:
184,168,4674,1,0,0:0:0:0:
200,156,4696,1,0,0:0:0:0:
208,152,4696,1,0,0:0:0:0:
32,120,4927,2,0,L|40:120,4,8.75
256,76,5181,2,0,B|76:192|256:304|332:192|232:40|60:192|256:320|348:192|204:40|32:192|256:332|368:192|216:40|8:192|256:352|388:192|124:96,6,437.5
256,76,7231,2,0,B|256:192|256:192|348:60|348:60|352:204|352:204|160:88|160:88|148:224|148:224|144:284|256:320|388:272|388:272|408:236|408:236|428:88|360:24|192:28|64:80|68:248,1,1645
252,20,8554,2,0,B|256:380|256:380|0:192|0:192|512:192|512:192|256:20|256:20|260:380|260:380|4:192|4:192|516:192|516:192|248:20|248:20|252:380|252:380|-4:192|-4:192|508:192|508:192|112:64|112:236|444:244|444:244|452:244|496:284|352:332,1,4935
416,52,9326,1,0,0:0:0:0:
156,248,9789,1,0,0:0:0:0:
56,320,9794,1,0,0:0:0:0:
112,224,9800,1,0,0:0:0:0:
20,284,9805,1,0,0:0:0:0:
256,192,12037,2,0,B|228:168|256:148|280:172|252:196|224:168|256:144|284:172|248:200|220:168|256:140|288:172|252:200,1,70
108,64,12390,2,0,B|464:192|88:124|88:124|152:136|96:280|240:224|240:224|272:232|204:292|304:236|304:236|264:296|344:248|344:248|368:252|296:304|392:252|392:252|392:96,1,1015
12,188,13272,2,0,B|504:188|256:64|140:120|160:256|284:248,1,525
24,304,13785,1,0,0:0:0:0:
68,356,13790,1,0,0:0:0:0:
80,352,13796,1,0,0:0:0:0:
140,356,13801,1,0,0:0:0:0:
156,336,13807,1,0,0:0:0:0:
180,316,13812,1,0,0:0:0:0:
172,320,13818,1,0,0:0:0:0:
144,304,13823,1,0,0:0:0:0:
168,268,13829,1,0,0:0:0:0:
148,220,13834,1,0,0:0:0:0:
196,260,13840,1,0,0:0:0:0:
148,276,13845,1,0,0:0:0:0:
164,212,13856,1,0,0:0:0:0:
204,208,13862,1,0,0:0:0:0:
168,224,13867,1,0,0:0:0:0:
252,192,14132,1,0,0:0:0:0:
480,200,14137,1,0,0:0:0:0:
20,196,14143,1,0,0:0:0:0:
252,24,14148,1,0,0:0:0:0:
256,356,14154,1,0,0:0:0:0:
124,284,14160,1,0,0:0:0:0:
120,80,14165,1,0,0:0:0:0:
388,88,14171,1,0,0:0:0:0:
376,288,14176,1,0,0:0:0:0:
256,276,14182,1,0,0:0:0:0:
116,192,14187,1,0,0:0:0:0:
252,108,14193,1,0,0:0:0:0:
380,196,14198,1,0,0:0:0:0:
32,32,14209,2,0,B|256:192|288:168|288:168|284:84|188:68|120:140|164:192|164:192|308:240,3,682.5
256,192,15835,12,0,16375,0:0:0:0:
256,192,16039,12,0,16700,0:0:0:0:
256,192,16237,12,0,16739,0:0:0:0:
256,192,16888,5,0,0:0:0:0:
420,72,16893,1,0,0:0:0:0:
412,168,16899,1,0,0:0:0:0:
268,80,16904,1,0,0:0:0:0:
100,160,16910,1,0,0:0:0:0:
140,236,16915,1,0,0:0:0:0:
212,288,16921,1,0,0:0:0:0:
284,308,16926,1,0,0:0:0:0:
384,300,16932,1,0,0:0:0:0:
444,244,16937,1,0,0:0:0:0:
320,144,16943,1,0,0:0:0:0:
120,64,16949,5,0,0:0:0:0:
184,64,16954,1,0,0:0:0:0:
248,64,16960,1,0,0:0:0:0:
312,64,16965,1,0,0:0:0:0:
364,104,16971,1,0,0:0:0:0:
368,168,16976,1,0,0:0:0:0:
196,136,16982,1,0,0:0:0:0:
172,144,16987,1,0,0:0:0:0:
184,216,16993,1,0,0:0:0:0:
240,252,16998,1,0,0:0:0:0:
280,264,17004,1,0,0:0:0:0:
328,260,17009,1,0,0:0:0:0:
344,236,17015,1,0,0:0:0:0:
332,204,17020,1,0,0:0:0:0:
32,44,17329,1,0,0:0:0:0:
472,32,17334,1,0,0:0:0:0:
480,360,17340,1,0,0:0:0:0:
32,364,17345,1,0,0:0:0:0:
84,88,17351,1,0,0:0:0:0:
420,72,17356,1,0,0:0:0:0:
432,312,17362,1,0,0:0:0:0:
80,320,17367,1,0,0:0:0:0:
136,128,17373,1,0,0:0:0:0:
368,112,17378,1,0,0:0:0:0:
392,256,17384,1,0,0:0:0:0:
132,272,17389,1,0,0:0:0:0:
184,176,17395,1,0,0:0:0:0:
324,164,17400,1,0,0:0:0:0:
344,216,17406,1,0,0:0:0:0:
184,232,17412,1,0,0:0:0:0:
256,192,17417,2,0,B|256:28|256:28|256:380|256:380|256:188,1,708.75
24,32,17996,2,0,B|24:376|24:376|28:32|28:32|28:376|28:376|32:32|32:32|152:364|296:184|328:184|328:184|400:184|272:272|256:136|256:136|388:136|180:336|180:336|176:44|176:40|420:164|420:164|96:208|96:208|328:316|352:240|404:308|404:308|440:60|112:64,1,3832.5
252,192,20719,6,0,B|388:160|264:116|264:116|480:192|480:192|256:276,1,621.25
272,312,21248,1,0,0:0:0:0:
80,188,21253,1,0,0:0:0:0:
252,192,21259,1,0,0:0:0:0:
252,192,21264,1,0,0:0:0:0:
248,188,21270,1,0,0:0:0:0:
248,188,21275,1,0,0:0:0:0:
248,188,21281,1,0,0:0:0:0:
248,188,21286,1,0,0:0:0:0:
248,188,21292,1,0,0:0:0:0:
248,188,21297,1,0,0:0:0:0:
252,192,21303,1,0,0:0:0:0:
400,320,21308,1,0,0:0:0:0:
88,88,21314,2,0,B|184:88|184:88|88:128|88:128|180:128|180:128|88:160|204:260|284:168|268:96|268:96|352:100,2,621.25
24,192,22521,2,0,B|488:192|488:192|256:4|256:4|256:376|256:376|20:144|20:144|488:224|488:224|228:4|228:4|284:380|284:380|24:232|24:232|488:160|488:160|204:4|204:4|308:380|308:380|468:372|344:264,2,4340
64,56,28049,1,0,0:0:0:0:
468,60,28055,1,0,0:0:0:0:
408,228,28060,1,0,0:0:0:0:
460,312,28066,1,0,0:0:0:0:
144,344,28071,1,0,0:0:0:0:
184,272,28077,1,0,0:0:0:0:
304,328,28083,1,0,0:0:0:0:
364,248,28088,1,0,0:0:0:0:
352,96,28094,1,0,0:0:0:0:
252,112,28099,1,0,0:0:0:0:
316,188,28105,1,0,0:0:0:0:
192,284,28110,1,0,0:0:0:0:
116,156,28116,1,0,0:0:0:0:
220,76,28121,1,0,0:0:0:0:
300,84,28127,1,0,0:0:0:0:
280,116,28132,1,0,0:0:0:0:
200,164,28138,1,0,0:0:0:0:
156,192,28143,1,0,0:0:0:0:
304,272,28149,1,0,0:0:0:0:
136,300,28154,1,0,0:0:0:0:
184,172,28160,1,0,0:0:0:0:
276,180,28165,1,0,0:0:0:0:
276,80,28171,1,0,0:0:0:0:
220,132,28176,1,0,0:0:0:0:
184,100,28182,1,0,0:0:0:0:
320,100,28187,1,0,0:0:0:0:
152,156,28193,1,0,0:0:0:0:
264,196,28744,5,0,0:0:0:0:
484,196,28749,5,0,0:0:0:0:
28,192,28755,5,0,0:0:0:0:
484,200,28760,5,0,0:0:0:0:
28,192,28766,5,0,0:0:0:0:
152,120,28771,6,0,B|256:260|336:120|336:120|156:120,4,420
252,192,30012,2,0,B|452:52|384:152|448:124|448:124|240:264|120:168|176:80|280:68|320:176|320:176|356:284|144:248|84:92|228:56|316:104|316:260|120:224|64:148,3,1163.75
256,192,32525,1,0,0:0:0:0:
256,192,32536,2,0,B|336:192|256:136|256:136|184:148|252:68|428:136|264:232|264:232|268:248|268:248|368:164|360:128|288:84|224:104,3,630
28,192,33853,1,0,0:0:0:0:
480,192,33859,1,0,0:0:0:0:
256,32,33864,1,0,0:0:0:0:
256,352,33870,1,0,0:0:0:0:
92,192,33875,1,0,0:0:0:0:
416,192,33881,1,0,0:0:0:0:
256,92,33887,1,0,0:0:0:0:
256,292,33892,1,0,0:0:0:0:
128,40,34300,1,0,0:0:0:0:
192,56,34305,1,0,0:0:0:0:
236,104,34311,1,0,0:0:0:0:
236,168,34316,1,0,0:0:0:0:
192,212,34322,1,0,0:0:0:0:
136,224,34327,1,0,0:0:0:0:
88,184,34333,1,0,0:0:0:0:
52,128,34338,1,0,0:0:0:0:
80,80,34344,1,0,0:0:0:0:
192,212,34350,1,0,0:0:0:0:
128,40,34355,1,0,0:0:0:0:
88,184,34361,1,0,0:0:0:0:
236,104,34366,1,0,0:0:0:0:
52,128,34372,1,0,0:0:0:0:
192,212,34377,1,0,0:0:0:0:
256,192,34967,2,0,P|380:92|256:188,6,621.25
252,188,37635,2,0,L|116:188,3,420
252,112,38908,2,0,B|260:280|336:188|160:200|268:212|216:212|260:216|216:216|256:228|220:236|256:244|228:244|244:284|384:280|332:112|268:44|148:88|160:208|80:160|144:96|212:96|300:84|392:180|352:264|228:288|144:204|196:172|328:136|328:56|248:40|252:220,1,586.25
104,104,39558,1,0,0:0:0:0:
176,36,39674,1,0,0:0:0:0:
248,36,39679,1,0,0:0:0:0:
248,104,39685,1,0,0:0:0:0:
176,104,39691,1,0,0:0:0:0:
32,104,39702,1,0,0:0:0:0:
32,172,39707,1,0,0:0:0:0:
104,172,39713,1,0,0:0:0:0:
176,172,39718,1,0,0:0:0:0:
248,172,39724,1,0,0:0:0:0:
248,236,39729,1,0,0:0:0:0:
100,236,39729,1,0,0:0:0:0:
176,236,39735,1,0,0:0:0:0:
32,236,39746,1,0,0:0:0:0:
104,36,39757,1,0,0:0:0:0:
32,36,39994,1,0,0:0:0:0:
140,48,40610,1,0,0:0:0:0:
168,84,40610,1,0,0:0:0:0:
200,136,40610,1,0,0:0:0:0:
168,192,40610,1,0,0:0:0:0:
232,192,40610,1,0,0:0:0:0:
136,136,40610,1,0,0:0:0:0:
108,80,40610,1,0,0:0:0:0:
228,80,40610,1,0,0:0:0:0:
76,136,40610,1,0,0:0:0:0:
260,136,40610,1,0,0:0:0:0:
196,48,40611,1,0,0:0:0:0:
104,192,40611,1,0,0:0:0:0:
32,36,41008,2,0,L|256:192,1,245
32,112,41030,1,0,0:0:0:0:
152,48,41052,1,0,0:0:0:0:
112,160,41074,1,0,0:0:0:0:
220,92,41096,1,0,0:0:0:0:
176,208,41118,1,0,0:0:0:0:
276,136,41140,1,0,0:0:0:0:
32,356,41454,2,0,B|284:356|356:320|364:220|364:220|352:320|280:356|28:356,1,796.25
428,32,41697,1,0,0:0:0:0:
472,80,41702,1,0,0:0:0:0:
448,116,41708,1,0,0:0:0:0:
424,88,41713,1,0,0:0:0:0:
276,40,41719,1,0,0:0:0:0:
336,104,41724,1,0,0:0:0:0:
116,124,41730,1,0,0:0:0:0:
144,116,41735,1,0,0:0:0:0:
308,204,41741,1,0,0:0:0:0:
456,164,41746,1,0,0:0:0:0:
320,196,41752,1,0,0:0:0:0:
108,116,41757,1,0,0:0:0:0:
404,240,41763,1,0,0:0:0:0:
188,104,41768,1,0,0:0:0:0:
192,176,41774,1,0,0:0:0:0:
64,16,41780,1,0,0:0:0:0:
216,84,41785,1,0,0:0:0:0:
288,88,41791,1,0,0:0:0:0:
200,76,41796,1,0,0:0:0:0:
448,184,41802,1,0,0:0:0:0:
284,256,41807,1,0,0:0:0:0:
168,124,41813,1,0,0:0:0:0:
256,184,41818,1,0,0:0:0:0:
120,288,41824,1,0,0:0:0:0:
340,176,41846,1,0,0:0:0:0:
292,136,41868,1,0,0:0:0:0:
168,136,41890,1,0,0:0:0:0:
228,172,41912,1,0,0:0:0:0:
248,264,41934,1,0,0:0:0:0:
312,296,41956,1,0,0:0:0:0:
208,292,41978,1,0,0:0:0:0:
160,248,42000,1,0,0:0:0:0:
156,164,42022,1,0,0:0:0:0:
80,144,42044,1,0,0:0:0:0:
108,120,42066,1,0,0:0:0:0:
144,108,42088,1,0,0:0:0:0:
184,92,42110,1,0,0:0:0:0:
220,92,42154,1,0,0:0:0:0:
224,124,42176,1,0,0:0:0:0:
20,192,42342,1,0,0:0:0:0:
