osu file format v14

[General]
AudioFilename: Whiteeeen---.mp3
AudioLeadIn: 0
PreviewTime: 295441
Countdown: 0
SampleSet: Soft
StackLeniency: 0.3
Mode: 0
LetterboxInBreaks: 0
WidescreenStoryboard: 1

[Editor]
DistanceSpacing: 1
BeatDivisor: 12
GridSize: 4
TimelineZoom: 2.799999

[Metadata]
Title:Ano Koro ~Jin Jin Bao Zhe Ni~ (zerokoi ver.)
TitleUnicode:あの頃~ジンジンバオヂュオニー~(zerokoi ver.)
Artist:whiteeeen
ArtistUnicode:whiteeeen
Creator:[Kamiya]
Version:koiwoshite
Source:それでも僕は君が好き
Tags:OblivioN collab 那些年 紧紧抱着你 君を強く抱きしめる You Are the Apple of My Eye Those Years, The Girl We Went After Together ゼロ恋 Zero Koi Love
BeatmapID:1283707
BeatmapSetID:607798

[Difficulty]
HPDrainRate:5
CircleSize:4
OverallDifficulty:7
ApproachRate:8.3
SliderMultiplier:2.8
SliderTickRate:1

[Events]
//Background and Video events
0,0,"w.jpg",0,0
//Break Periods
2,139205,149194
//Storyboard Layer 0 (Background)
//Storyboard Layer 1 (Fail)
//Storyboard Layer 2 (Pass)
//Storyboard Layer 3 (Foreground)
//Storyboard Sound Samples

[TimingPoints]
1863,714.285714285714,4,2,1,50,1,0
1863,-200,4,2,2,35,0,0
7220,-200,4,2,3,35,0,0
7577,-100,4,2,1,35,0,0
7934,-100,4,2,2,40,0,0
8827,-100,4,2,1,40,0,0
9005,-100,4,2,2,40,0,0
9362,-100,4,2,1,40,0,0
10077,-100,4,2,2,40,0,0
10434,-100,4,2,1,40,0,0
10791,-100,4,2,2,40,0,0
11684,-100,4,2,1,40,0,0
11862,-100,4,2,2,40,0,0
12220,-100,4,2,1,40,0,0
12934,-100,4,2,2,40,0,0
13291,-100,4,2,1,40,0,0
13648,-100,4,2,2,40,0,0
14541,-100,4,2,1,40,0,0
14720,-100,4,2,2,40,0,0
15077,-100,4,2,1,40,0,0
15791,-100,4,2,2,40,0,0
16148,-100,4,2,1,40,0,0
16505,-100,4,2,2,40,0,0
17398,-100,4,2,1,40,0,0
17577,-100,4,2,2,40,0,0
17934,-100,4,2,1,40,0,0
18648,-100,4,2,2,40,0,0
19005,-100,4,2,1,40,0,0
19362,-100,4,2,2,40,0,0
20255,-100,4,2,1,40,0,0
20434,-100,4,2,2,40,0,0
20791,-100,4,2,1,40,0,0
21505,-100,4,2,2,40,0,0
21862,-100,4,2,1,40,0,0
22220,-100,4,2,2,40,0,0
23112,-100,4,2,1,40,0,0
23291,-100,4,2,2,40,0,0
23648,-100,4,2,1,40,0,0
24362,-100,4,2,2,40,0,0
24720,-100,4,2,1,40,0,0
25077,-100,4,2,2,40,0,0
25970,-100,4,2,1,40,0,0
26148,-100,4,2,2,40,0,0
26505,-100,4,2,1,40,0,0
27220,-100,4,2,2,40,0,0
27577,-100,4,2,1,40,0,0
27934,-100,4,2,2,40,0,0
28827,-100,4,2,1,40,0,0
29005,-100,4,2,2,40,0,0
29362,-100,4,2,1,40,0,0
30077,-100,4,2,2,40,0,0
30434,-100,4,2,1,40,0,0
30791,-100,4,2,2,40,0,0
31684,-100,4,2,1,40,0,0
31862,-100,4,2,2,40,0,0
32220,-100,4,2,1,40,0,0
32934,-100,4,2,2,40,0,0
33291,-100,4,2,1,40,0,0
33648,-100,4,2,2,40,0,0
34541,-100,4,2,1,40,0,0
34720,-100,4,2,2,40,0,0
35077,-100,4,2,1,40,0,0
35791,-100,4,2,2,40,0,0
36148,-100,4,2,1,40,0,0
36505,-100,4,2,2,40,0,0
37398,-100,4,2,1,40,0,0
37577,-100,4,2,2,40,0,0
37934,-100,4,2,1,40,0,0
38648,-100,4,2,2,40,0,0
39005,-100,4,2,1,40,0,0
39362,-100,4,2,2,40,0,0
40255,-100,4,2,1,40,0,0
40434,-100,4,2,2,40,0,0
40791,-100,4,2,1,40,0,0
41327,-100,4,2,3,50,0,0
41862,-100,4,2,1,50,0,0
42220,-100,4,2,2,50,0,0
43112,-100,4,2,1,50,0,0
43291,-100,4,2,2,50,0,0
43648,-100,4,2,1,50,0,0
44362,-100,4,2,2,50,0,0
44720,-100,4,2,1,50,0,0
45077,-100,4,2,2,50,0,0
45970,-100,4,2,1,50,0,0
46148,-100,4,2,2,50,0,0
46505,-100,4,2,1,50,0,0
47220,-100,4,2,2,50,0,0
47577,-100,4,2,1,50,0,0
47934,-100,4,2,2,50,0,0
48827,-100,4,2,1,50,0,0
49005,-100,4,2,2,50,0,0
49362,-100,4,2,1,50,0,0
50077,-100,4,2,2,50,0,0
50434,-100,4,2,1,50,0,0
50791,-100,4,2,2,50,0,0
51684,-100,4,2,1,50,0,0
51862,-100,4,2,2,50,0,0
52220,-100,4,2,1,50,0,0
52934,-100,4,2,2,50,0,0
53291,-100,4,2,1,50,0,0
53648,-100,4,2,2,50,0,0
54541,-100,4,2,1,50,0,0
54720,-100,4,2,2,50,0,0
55077,-100,4,2,1,50,0,0
55791,-100,4,2,2,50,0,0
56148,-100,4,2,1,50,0,0
56505,-100,4,2,2,50,0,0
57130,-100,4,2,2,5,0,0
57220,-100,4,2,2,50,0,0
57398,-100,4,2,1,50,0,0
57577,-100,4,2,2,50,0,0
57934,-100,4,2,1,50,0,0
58648,-100,4,2,3,50,0,0
59005,-100,4,2,1,50,0,0
59362,-100,4,2,2,50,0,0
60255,-100,4,2,1,50,0,0
60434,-100,4,2,2,50,0,0
60791,-100,4,2,1,50,0,0
61505,-100,4,2,2,50,0,0
61862,-100,4,2,1,50,0,0
62220,-100,4,2,2,50,0,0
63112,-100,4,2,1,50,0,0
63291,-100,4,2,2,50,0,0
63648,-100,4,2,1,50,0,0
64005,-100,4,2,1,50,0,0
64362,-100,4,2,3,50,0,0
64720,-100,4,2,1,50,0,0
65077,-100,4,2,2,50,0,0
65970,-100,4,2,1,50,0,0
66148,-100,4,2,2,50,0,0
66505,-100,4,2,1,50,0,0
67220,-100,4,2,2,50,0,0
67577,-100,4,2,1,50,0,0
67934,-100,4,2,2,50,0,0
68827,-100,4,2,1,50,0,0
69005,-100,4,2,2,50,0,0
69362,-100,4,2,1,50,0,0
70077,-100,4,2,2,50,0,0
70434,-100,4,2,1,50,0,0
70791,-100,4,2,2,50,0,0
71684,-100,4,2,1,50,0,0
71862,-100,4,2,2,50,0,0
72220,-100,4,2,1,50,0,0
72934,-100,4,2,2,50,0,0
73291,-100,4,2,1,50,0,0
73648,-100,4,2,2,50,0,0
74541,-100,4,2,1,50,0,0
74720,-100,4,2,2,50,0,0
75077,-100,4,2,1,50,0,0
75791,-100,4,2,3,50,0,0
76148,-100,4,2,1,50,0,0
76505,-100,4,2,2,50,0,0
77398,-100,4,2,1,50,0,0
77577,-100,4,2,2,50,0,0
77934,-100,4,2,1,50,0,0
78648,-100,4,2,2,50,0,0
79005,-100,4,2,1,50,0,0
79362,-100,4,2,2,50,0,0
80255,-100,4,2,1,50,0,0
80434,-100,4,2,2,50,0,0
80791,-100,4,2,1,50,0,0
81505,-100,4,2,2,50,0,0
81862,-100,4,2,1,50,0,0
82220,-100,4,2,2,50,0,0
83112,-100,4,2,1,50,0,0
83291,-100,4,2,2,50,0,0
83648,-100,4,2,1,50,0,0
84362,-100,4,2,2,50,0,0
84720,-100,4,2,1,70,0,0
85077,-100,4,2,2,70,0,0
85970,-100,4,2,1,70,0,0
86148,-100,4,2,2,70,0,0
86505,-100,4,2,1,70,0,0
87220,-100,4,2,2,70,0,0
87577,-200,4,2,1,70,0,0
89362,-100,4,2,1,70,0,0
90434,-125,4,2,2,50,0,0
100970,-125,4,2,2,50,0,0
101327,-125,4,2,2,50,0,0
106862,-125,4,2,3,50,0,0
107577,-100,4,2,1,50,0,0
107934,-100,4,2,2,60,0,0
108827,-100,4,2,1,60,0,0
109005,-100,4,2,2,60,0,0
109362,-100,4,2,1,60,0,0
110077,-100,4,2,2,60,0,0
110434,-100,4,2,1,60,0,0
110970,-100,4,2,2,60,0,0
111148,-100,4,2,1,60,0,0
111327,-100,4,2,2,60,0,0
111505,-100,4,2,1,60,0,0
111684,-100,4,2,2,60,0,0
111862,-100,4,2,1,60,0,0
112041,-100,4,2,2,60,0,0
112220,-100,4,2,1,60,0,0
112934,-100,4,2,2,60,0,0
113291,-100,4,2,1,60,0,1
113648,-100,4,2,2,60,0,1
114541,-100,4,2,1,60,0,1
114720,-100,4,2,2,60,0,1
115077,-100,4,2,1,60,0,1
115791,-100,4,2,2,60,0,1
116148,-100,4,2,1,60,0,1
116505,-100,4,2,2,60,0,1
117398,-100,4,2,1,60,0,1
117577,-100,4,2,2,60,0,1
117934,-100,4,2,1,60,0,1
118648,-100,4,2,2,60,0,1
119005,-100,4,2,1,60,0,1
119362,-100,4,2,2,60,0,1
120255,-100,4,2,1,60,0,1
120434,-100,4,2,2,60,0,1
120791,-100,4,2,1,60,0,1
121505,-100,4,2,2,60,0,1
121862,-100,4,2,1,60,0,1
122220,-100,4,2,2,60,0,1
123112,-100,4,2,1,60,0,1
123291,-100,4,2,1,60,0,1
123470,-100,4,2,2,60,0,1
123648,-100,4,2,1,60,0,1
123827,-100,4,2,2,60,0,1
124005,-100,4,2,1,60,0,1
124362,-100,4,2,2,60,0,1
124720,-100,4,2,1,60,0,1
125077,-100,4,2,2,60,0,1
125970,-100,4,2,1,60,0,1
126148,-100,4,2,2,60,0,1
126505,-100,4,2,1,60,0,1
127220,-100,4,2,2,60,0,1
127577,-100,4,2,1,60,0,1
127934,-100,4,2,2,60,0,1
128827,-100,4,2,1,60,0,1
129005,-100,4,2,2,60,0,1
129362,-100,4,2,1,60,0,1
130077,-100,4,2,3,60,0,1
130434,-100,4,2,1,60,0,1
130791,-100,4,2,2,60,0,1
131684,-100,4,2,1,60,0,1
131862,-100,4,2,2,60,0,1
132220,-100,4,2,2,60,0,1
132934,-100,4,2,2,60,0,1
133291,-100,4,2,1,60,0,1
133648,-100,4,2,2,60,0,1
134005,-100,4,2,1,60,0,1
134184,-100,4,2,2,60,0,1
134362,-100,4,2,1,60,0,1
134541,-100,4,2,2,60,0,1
134720,-100,4,2,1,60,0,1
134898,-100,4,2,2,60,0,1
135077,-100,4,2,1,60,0,1
136148,-100,4,2,1,60,0,0
136505,-100,4,2,2,50,0,0
139005,-100,4,2,2,50,0,0
149898,-100,4,2,2,50,0,0
150434,-100,4,2,1,50,0,0
150791,-100,4,2,2,50,0,0
151684,-100,4,2,1,50,0,0
151862,-100,4,2,2,50,0,0
152220,-100,4,2,1,50,0,0
152934,-100,4,2,2,50,0,0
153291,-100,4,2,1,50,0,0
153648,-100,4,2,2,50,0,0
154541,-100,4,2,1,50,0,0
154720,-100,4,2,2,50,0,0
155077,-100,4,2,1,50,0,0
155791,-100,4,2,2,50,0,0
156148,-100,4,2,1,50,0,0
156505,-100,4,2,2,50,0,0
157398,-100,4,2,1,50,0,0
157577,-100,4,2,2,50,0,0
157934,-100,4,2,1,50,0,0
158648,-100,4,2,2,50,0,0
159005,-100,4,2,1,50,0,0
159362,-100,4,2,2,50,0,0
160255,-100,4,2,1,50,0,0
160434,-100,4,2,2,50,0,0
160791,-100,4,2,1,50,0,0
161505,-100,4,2,2,50,0,0
161862,-100,4,2,1,50,0,0
162220,-100,4,2,2,50,0,0
163112,-100,4,2,1,50,0,0
163291,-100,4,2,2,50,0,0
163648,-100,4,2,1,50,0,0
164362,-100,4,2,2,50,0,0
164720,-100,4,2,1,50,0,0
165077,-100,4,2,2,50,0,0
165970,-100,4,2,1,50,0,0
166148,-100,4,2,2,50,0,0
166505,-100,4,2,1,50,0,0
167220,-100,4,2,2,50,0,0
167577,-100,4,2,1,50,0,0
167934,-100,4,2,2,50,0,0
168827,-100,4,2,1,50,0,0
169005,-100,4,2,2,50,0,0
169362,-100,4,2,1,50,0,0
170077,-100,4,2,2,50,0,0
170434,-100,4,2,1,50,0,0
170791,-100,4,2,2,50,0,0
171684,-100,4,2,1,50,0,0
171862,-100,4,2,2,50,0,0
172220,-100,4,2,1,50,0,0
172934,-100,4,2,3,50,0,0
173291,-100,4,2,1,50,0,0
173648,-100,4,2,2,50,0,0
174541,-100,4,2,1,50,0,0
174720,-100,4,2,2,50,0,0
175077,-100,4,2,1,50,0,0
175791,-100,4,2,2,50,0,0
176148,-100,4,2,1,50,0,0
176505,-100,4,2,2,50,0,0
177398,-100,4,2,1,50,0,0
177577,-100,4,2,2,50,0,0
177934,-100,4,2,1,50,0,0
178648,-100,4,2,2,50,0,0
179005,-100,4,2,1,50,0,0
179362,-100,4,2,2,50,0,0
180255,-100,4,2,1,50,0,0
180434,-100,4,2,2,50,0,0
180791,-100,4,2,1,50,0,0
181505,-100,4,2,2,50,0,0
181862,-100,4,2,1,50,0,0
182220,-100,4,2,2,50,0,0
183112,-100,4,2,1,50,0,0
183291,-100,4,2,2,50,0,0
183470,-100,4,2,1,50,0,0
183648,-100,4,2,1,50,0,0
184362,-100,4,2,2,50,0,0
184720,-100,4,2,1,50,0,0
185077,-100,4,2,2,50,0,0
185970,-100,4,2,1,50,0,0
186148,-100,4,2,2,50,0,0
186505,-100,4,2,1,50,0,0
187220,-100,4,2,2,50,0,0
187577,-100,4,2,1,50,0,0
187934,-100,4,2,2,50,0,0
188827,-100,4,2,1,50,0,0
189005,-100,4,2,2,50,0,0
189362,-100,4,2,1,50,0,0
190077,-100,4,2,3,50,0,0
190434,-100,4,2,1,50,0,0
190791,-100,4,2,2,50,0,0
191684,-100,4,2,1,50,0,0
191862,-100,4,2,2,50,0,0
192220,-100,4,2,1,50,0,0
192934,-100,4,2,2,50,0,0
193291,-100,4,2,1,50,0,0
193648,-100,4,2,2,50,0,0
194541,-100,4,2,1,50,0,0
194720,-100,4,2,2,50,0,0
195077,-100,4,2,1,50,0,0
195791,-100,4,2,2,50,0,0
196148,-100,4,2,1,50,0,0
196505,-100,4,2,2,50,0,0
197398,-100,4,2,1,50,0,0
198291,-100,4,2,1,50,0,0
198470,-100,4,2,3,50,0,0
199005,-125,4,2,2,50,0,0
215791,-125,4,2,3,50,0,0
216148,-100,4,2,1,50,0,0
216505,-100,4,2,2,50,0,0
217398,-100,4,2,1,50,0,0
217577,-100,4,2,2,50,0,0
217755,-100,4,2,1,50,0,0
218648,-100,4,2,2,50,0,0
219005,-100,4,2,1,50,0,0
219184,-100,4,2,2,50,0,0
219362,-100,4,2,1,50,0,0
219541,-100,4,2,2,50,0,0
219720,-100,4,2,1,50,0,0
219898,-100,4,2,2,50,0,0
220077,-100,4,2,1,50,0,0
220612,-100,4,2,2,50,0,0
220791,-100,4,2,1,50,0,0
221505,-100,4,2,2,50,0,0
221684,-100,4,2,1,50,0,0
221862,-100,4,2,1,50,0,1
222220,-100,4,2,2,50,0,1
223112,-100,4,2,1,50,0,1
223291,-100,4,2,2,50,0,1
223648,-100,4,2,1,50,0,1
224362,-100,4,2,2,50,0,1
224720,-100,4,2,1,50,0,1
225077,-100,4,2,2,50,0,1
225970,-100,4,2,1,50,0,1
226148,-100,4,2,2,50,0,1
226505,-100,4,2,1,50,0,1
227220,-100,4,2,2,50,0,1
227577,-100,4,2,1,50,0,1
227934,-100,4,2,2,50,0,1
228827,-100,4,2,1,50,0,1
229005,-100,4,2,2,50,0,1
229362,-100,4,2,1,50,0,1
230077,-100,4,2,2,50,0,1
230434,-100,4,2,1,50,0,1
230791,-100,4,2,2,50,0,1
231684,-100,4,2,1,50,0,1
231862,-100,4,2,1,50,0,1
232041,-100,4,2,2,50,0,1
232220,-100,4,2,1,50,0,1
232398,-100,4,2,2,50,0,1
232577,-100,4,2,1,50,0,1
232934,-100,4,2,3,50,0,1
233291,-100,4,2,1,50,0,1
233648,-100,4,2,2,50,0,1
234541,-100,4,2,1,50,0,1
234720,-100,4,2,2,50,0,1
234898,-100,4,2,1,50,0,1
235077,-100,4,2,1,50,0,1
236148,-100,4,2,1,50,0,1
236505,-100,4,2,2,50,0,1
237398,-100,4,2,1,50,0,1
237577,-100,4,2,2,50,0,1
237934,-100,4,2,1,50,0,1
238291,-100,4,2,1,40,0,1
238380,-100,4,2,1,50,0,1
239005,-100,4,2,1,50,0,1
239362,-100,4,2,2,50,0,1
240255,-100,4,2,1,50,0,1
240434,-100,4,2,2,50,0,1
240791,-100,4,2,1,50,0,1
241505,-100,4,2,2,50,0,1
241862,-100,4,2,1,50,0,1
242041,-100,4,2,2,50,0,1
242220,-100,4,2,1,50,0,1
242398,-100,4,2,2,50,0,1
242577,-100,4,2,1,50,0,1
242755,-100,4,2,2,50,0,1
242934,-100,4,2,1,50,0,1
243112,-100,4,2,1,50,0,1
243291,-100,4,2,2,50,0,1
243648,-100,4,2,1,50,0,1
244362,-100,4,2,2,50,0,1
244720,-100,4,2,1,50,0,0
245077,-100,4,2,2,50,0,0
245970,-100,4,2,1,50,0,0
246148,-100,4,2,2,50,0,0
246505,-100,4,2,1,50,0,0
247398,-100,4,2,3,50,0,0
247577,-100,4,2,1,50,0,0
247934,-100,4,2,2,50,0,0
248827,-100,4,2,1,50,0,0
250077,-100,4,2,2,50,0,0
250434,-100,4,2,1,50,0,0
250791,-100,4,2,2,50,0,0
251684,-100,4,2,1,50,0,0
252934,-100,4,2,3,50,0,0
253291,-100,4,2,1,50,0,0
253648,-100,4,2,2,50,0,0
254541,-100,4,2,1,50,0,0
255434,-83.3333333333333,4,2,1,50,0,0
255791,-83.3333333333333,4,2,2,50,0,0
256148,-71.4285714285714,4,2,1,50,0,0
256862,-62.5,4,2,1,50,0,0
257220,-62.5,4,2,2,50,0,0
257398,-62.5,4,2,1,50,0,0
257577,-100,4,2,1,50,0,0
257934,-100,4,2,2,50,0,0
258291,-100,4,2,1,50,0,0
258648,-100,4,2,2,50,0,0
259005,-100,4,2,1,50,0,0
259720,-100,4,2,2,50,0,0
260255,-100,4,2,1,50,0,0
261505,-100,4,2,2,50,0,0
261862,-100,4,2,1,50,0,0
262220,-100,4,2,2,50,0,0
263112,-100,4,2,1,50,0,0
264362,-100,4,2,3,50,0,0
265077,-100,4,2,2,50,0,0
265970,-100,4,2,1,50,0,0
266148,-100,4,2,2,50,0,0
266327,-100,4,2,1,50,0,0
267220,-100,4,2,2,50,0,0
267577,-100,4,2,1,50,0,0
267934,-100,4,2,2,50,0,0
268827,-100,4,2,1,50,0,0
269005,-100,4,2,2,50,0,0
269184,-100,4,2,1,50,0,0
270434,-100,4,2,2,50,0,0
271148,-111.111111111111,4,2,2,50,0,0
271862,-125,4,2,2,50,0,0
272577,-100,4,2,1,50,0,0
273291,-125,4,2,2,50,0,0
276148,-125,4,2,2,50,0,0
290077,-125,4,2,3,50,0,0
290434,-100,4,2,1,50,0,0
290791,-100,4,2,2,50,0,0
291505,-100,4,2,2,50,0,0
291684,-100,4,2,1,50,0,0
291862,-100,4,2,2,50,0,0
292220,-100,4,2,1,50,0,0
292934,-100,4,2,2,50,0,0
293291,-100,4,2,1,50,0,0
295791,-100,4,2,3,50,0,0
296148,-100,4,2,1,50,0,1
296505,-100,4,2,2,50,0,1
297398,-100,4,2,1,50,0,1
297577,-100,4,2,2,50,0,1
297934,-100,4,2,1,50,0,1
298648,-100,4,2,2,50,0,1
299005,-100,4,2,1,50,0,1
299362,-100,4,2,2,50,0,1
300255,-100,4,2,1,50,0,1
300434,-100,4,2,2,50,0,1
300791,-100,4,2,1,50,0,1
301505,-100,4,2,2,50,0,1
301862,-100,4,2,1,50,0,1
302220,-100,4,2,2,50,0,1
303112,-100,4,2,1,50,0,1
303291,-100,4,2,2,50,0,1
303648,-100,4,2,1,50,0,1
304362,-100,4,2,2,50,0,1
304720,-100,4,2,1,50,0,1
305077,-100,4,2,1,50,0,1
305255,-100,4,2,2,50,0,1
305434,-100,4,2,1,50,0,1
305612,-100,4,2,2,50,0,1
305791,-100,4,2,1,50,0,1
305970,-100,4,2,2,50,0,1
306148,-100,4,2,1,50,0,1
306327,-100,4,2,2,50,0,1
306505,-100,4,2,1,50,0,1
306684,-100,4,2,2,50,0,1
306862,-100,4,2,1,50,0,1
307220,-100,4,2,3,50,0,1
307577,-100,4,2,1,50,0,1
307934,-100,4,2,2,50,0,1
308827,-100,4,2,1,50,0,1
309005,-100,4,2,1,50,0,1
309184,-100,4,2,2,50,0,1
309362,-100,4,2,1,50,0,1
309541,-100,4,2,2,50,0,1
309720,-100,4,2,1,50,0,1
310077,-100,4,2,2,50,0,1
310434,-100,4,2,1,50,0,1
310791,-100,4,2,2,50,0,1
311684,-100,4,2,1,50,0,1
311862,-100,4,2,2,50,0,1
312220,-100,4,2,1,50,0,1
312577,-100,4,2,1,40,0,1
312666,-100,4,2,1,50,0,1
312755,-100,4,2,3,50,0,1
313291,-100,4,2,1,50,0,1
313648,-100,4,2,2,50,0,1
314541,-100,4,2,1,50,0,1
314720,-100,4,2,2,50,0,1
315077,-100,4,2,1,50,0,1
315791,-100,4,2,2,50,0,1
316148,-100,4,2,1,50,0,1
316327,-100,4,2,2,50,0,1
316505,-100,4,2,1,50,0,1
316684,-100,4,2,2,50,0,1
316862,-100,4,2,1,50,0,1
317041,-100,4,2,2,50,0,1
317220,-100,4,2,1,50,0,1
317398,-100,4,2,1,50,0,1
319005,-125,4,2,1,35,0,0
320077,-100,4,2,3,35,0,0
320434,-142.857142857143,4,2,2,35,0,0
321684,-142.857142857143,4,2,1,35,0,0
321862,-142.857142857143,4,2,2,35,0,0
322220,-142.857142857143,4,2,1,35,0,0
324005,-142.857142857143,4,2,2,35,0,0
324541,-142.857142857143,4,2,1,35,0,0
324720,-142.857142857143,4,2,2,35,0,0
325077,-142.857142857143,4,2,1,35,0,0
325791,-142.857142857143,4,2,2,35,0,0
326148,-142.857142857143,4,2,1,35,0,0
326505,-142.857142857143,4,2,2,35,0,0
327398,-142.857142857143,4,2,1,35,0,0
327577,-142.857142857143,4,2,2,35,0,0
327934,-142.857142857143,4,2,1,35,0,0
329362,-142.857142857143,4,2,2,35,0,0
330077,-142.857142857143,4,2,2,35,0,0
330255,-142.857142857143,4,2,1,35,0,0
331327,-142.857142857143,4,2,2,35,0,0
339005,-100,4,2,1,20,0,0
340434,-100,4,2,1,10,0,0
341862,-100,4,2,1,5,0,0

[Colours]
Combo1 : 254,107,218
Combo2 : 227,251,187
Combo3 : 255,255,142
Combo4 : 251,226,196
Combo5 : 120,141,239
Combo6 : 61,224,228
Combo7 : 112,184,233
SliderBorder : 255,255,255

[HitObjects]
181,126,1863,6,0,P|163:192|189:266,1,140,2|2,0:0|0:0,0:0:0:0:
331,258,3291,2,0,P|349:192|322:125,2,140,2|2|2,0:0|0:0|0:0,0:0:0:0:
168,336,5434,1,2,0:0:0:0:
177,140,6148,86,0,L|173:64,1,70,2|0,0:0|0:0,0:0:0:0:
132,276,6862,1,2,0:0:0:0:
16,177,7220,1,8,0:0:0:0:
23,167,7309,1,8,0:0:0:0:
31,158,7398,1,8,0:0:0:0:
40,150,7487,1,8,0:0:0:0:
49,144,7577,6,0,P|104:118|178:140,1,140,2|2,0:0|0:0,0:0:0:0:
237,205,8112,1,0,0:0:0:0:
420,148,8291,2,0,P|363:164|291:131,1,140,8|2,0:0|0:0,0:0:0:0:
237,205,8827,1,2,0:0:0:0:
359,8,9005,6,0,L|363:89,1,70,2|0,0:0|0:0,0:0:0:0:
439,226,9362,2,0,P|441:171|503:113,2,140,2|8|2,0:0|0:0|0:0,0:0:0:0:
265,267,10434,38,0,P|207:284|135:243,1,140,2|2,0:0|0:0,0:0:0:0:
101,166,10970,1,0,0:0:0:0:
0,253,11148,2,0,L|142:249,1,140,8|2,0:0|0:0,0:0:0:0:
298,135,11684,1,2,0:0:0:0:
298,135,11862,54,0,L|301:210,1,70,2|0,0:0|0:0,0:0:0:0:
348,63,12220,2,0,P|290:47|223:88,1,140,2|8,0:0|0:0,0:0:0:0:
169,158,12755,1,2,3:3:0:0:
300,204,12934,2,0,L|303:279,1,70,2|0,3:2|0:0,0:0:0:0:
124,232,13291,38,0,P|87:183|105:106,1,140,2|2,0:0|0:0,0:0:0:0:
166,46,13827,1,0,0:0:0:0:
166,46,14005,1,8,0:0:0:0:
293,129,14362,1,2,0:0:0:0:
434,131,14541,1,2,0:0:0:0:
364,189,14720,5,2,0:0:0:0:
364,189,14898,1,0,0:0:0:0:
357,59,15077,2,0,P|326:43|278:31,1,70,2|0,0:0|0:0,0:0:0:0:
157,142,15434,2,0,P|224:150|299:125,1,140,8|2,0:0|0:0,0:0:0:0:
503,14,16148,38,0,P|510:83|507:160,1,140,2|2,0:0|0:0,0:0:0:0:
508,154,16684,1,0,0:0:0:0:
416,255,16862,2,0,P|409:186|412:109,1,140,8|2,0:0|0:0,0:0:0:0:
506,35,17398,1,2,0:0:0:0:
508,154,17577,54,0,L|498:182,4,17.5,2|0|0|0|0,0:0|0:0|0:0|0:0|0:0,0:0:0:0:
335,63,17934,2,0,P|318:129|352:189,1,140,2|8,0:0|0:0,0:0:0:0:
416,255,18470,2,0,L|494:255,2,70,0|2|0,0:0|0:0|0:0,0:0:0:0:
279,301,19005,86,0,P|215:318|139:301,1,140,2|2,0:0|0:0,0:0:0:0:
66,255,19541,1,0,0:0:0:0:
136,127,19720,2,0,L|137:214,1,70,8|0,0:0|0:0,0:0:0:0:
66,255,20077,1,2,0:0:0:0:
61,81,20255,54,0,P|85:57|128:38,1,70,2|2,0:0|0:0,0:0:0:0:
207,30,20612,1,0,0:0:0:0:
353,93,20791,2,0,P|409:104|481:60,1,140,2|8,0:0|0:0,0:0:0:0:
396,10,21327,1,0,0:0:0:0:
305,18,21505,1,2,0:0:0:0:
252,92,21684,1,0,0:0:0:0:
340,241,21862,38,0,L|345:168,1,70,2|0,0:0|0:0,0:0:0:0:
348,136,22130,1,0,0:0:0:0:
348,136,22220,2,0,P|302:186|234:195,2,140,2|8|2,0:0|0:0|0:0,0:0:0:0:
254,24,23112,6,0,P|246:48|253:96,1,70,2|2,0:0|0:0,0:0:0:0:
348,136,23470,1,0,0:0:0:0:
463,105,23648,1,2,0:0:0:0:
463,105,24005,2,0,P|453:71|455:37,1,70,8|0,0:0|0:0,0:0:0:0:
504,322,24362,2,0,P|506:288|494:245,1,70,2|0,0:0|0:0,0:0:0:0:
508,260,24630,1,0,0:0:0:0:
508,260,24720,38,0,P|462:247|376:277,1,140,2|2,0:0|0:0,0:0:0:0:
302,333,25255,1,0,0:0:0:0:
270,206,25434,2,0,P|276:136|267:65,1,140,8|2,0:0|0:0,0:0:0:0:
154,19,25970,1,2,0:0:0:0:
101,90,26148,38,0,P|66:84|27:90,1,70,2|0,0:0|0:0,0:0:0:0:
204,162,26505,2,0,P|269:185|336:154,2,140,2|8|2,0:0|0:0|0:0,0:0:0:0:
368,79,27398,1,0,0:0:0:0:
368,79,27577,6,0,P|408:110|412:199,1,140,2|2,0:0|0:0,0:0:0:0:
355,262,28112,1,0,0:0:0:0:
404,341,28291,2,0,L|488:332,1,70,8|0,0:0|0:0,0:0:0:0:
278,309,28648,1,2,0:0:0:0:
476,348,28827,38,0,L|404:341,1,70,2|2,0:0|0:0,0:0:0:0:
436,258,29184,1,0,0:0:0:0:
278,309,29362,2,0,L|209:315,1,70,2|0,0:0|0:0,0:0:0:0:
343,226,29720,2,0,P|389:172|463:164,1,140,8|2,0:0|0:0,0:0:0:0:
436,258,30255,1,0,0:0:0:0:
278,309,30434,38,0,P|184:297|136:295,1,140,2|2,0:0|0:0,0:0:0:0:
47,290,30970,1,0,0:0:0:0:
11,163,31148,2,0,P|77:174|136:121,1,140,8|2,0:0|0:0,0:0:0:0:
218,41,31684,6,0,P|255:34|297:42,1,70,2|2,0:0|0:0,0:0:0:0:
346,108,32041,1,0,0:0:0:0:
131,131,32220,2,0,P|104:104|87:64,1,70,2|0,0:0|0:0,0:0:0:0:
256,122,32577,2,0,P|262:192|263:262,1,140,8|2,0:0|0:0,0:0:0:0:
242,351,33112,1,0,0:0:0:0:
59,306,33291,38,0,P|120:277|192:289,1,140,2|2,0:0|0:0,0:0:0:0:
189,287,33827,1,0,0:0:0:0:
381,359,34005,2,0,L|240:350,1,140,8|2,0:0|0:0,0:0:0:0:
469,283,34541,1,2,0:0:0:0:
469,283,34720,38,0,L|464:355,1,70,2|0,0:0|0:0,0:0:0:0:
468,148,35077,2,0,P|394:164|328:133,1,140,2|8,0:0|0:0,0:0:0:0:
255,98,35612,1,0,0:0:0:0:
248,189,35791,2,0,L|244:265,1,70,2|0,0:0|0:0,0:0:0:0:
163,110,36148,6,0,P|176:38|239:6,1,140,2|2,0:0|0:0,0:0:0:0:
317,40,36684,1,0,0:0:0:0:
163,110,36862,2,0,P|99:132|27:107,1,140,8|2,0:0|0:0,0:0:0:0:
265,148,37398,38,0,P|307:146|340:147,1,70,2|2,0:0|0:0,0:0:0:0:
423,169,37755,1,0,0:0:0:0:
386,38,37934,2,0,L|292:40,1,70,2|0,0:0|0:0,0:0:0:0:
345,222,38291,2,0,P|396:264|483:241,1,140,8|2,0:0|0:0,0:0:0:0:
383,296,38827,1,0,0:0:0:0:
221,356,39005,38,0,P|185:287|169:224,1,140,2|2,0:0|0:0,0:0:0:0:
169,227,39541,1,0,0:0:0:0:
153,30,39720,2,0,P|133:97|99:161,1,140,8|2,0:0|0:0,0:0:0:0:
211,107,40255,1,2,0:0:0:0:
262,28,40434,6,0,P|309:27|335:33,1,70,2|0,0:0|0:0,0:0:0:0:
317,192,40791,2,0,P|270:193|244:187,1,70,2|0,0:0|0:0,0:0:0:0:
425,137,41148,1,8,0:0:0:0:
340,112,41327,1,8,0:0:0:0:
393,212,41505,1,8,0:0:0:0:
394,222,41595,1,8,0:0:0:0:
394,232,41684,1,8,0:0:0:0:
394,242,41773,1,8,0:0:0:0:
393,252,41862,38,0,P|383:305|305:349,1,140,2|2,0:0|0:0,0:0:0:0:
236,300,42398,1,0,0:0:0:0:
155,342,42577,2,0,L|157:260,1,70,8|0,0:0|0:0,0:0:0:0:
102,198,42934,1,2,0:0:0:0:
217,110,43112,1,2,0:0:0:0:
217,110,43291,38,0,P|256:103|291:111,1,70,2|0,0:0|0:0,0:0:0:0:
444,192,43648,2,0,P|391:220|313:187,1,140,2|8,0:0|0:0,0:0:0:0:
285,108,44184,1,0,0:0:0:0:
228,180,44362,1,2,0:0:0:0:
267,262,44541,1,0,0:0:0:0:
380,147,44720,6,0,P|376:76|357:10,1,140,2|2,0:0|0:0,0:0:0:0:
357,10,45255,1,0,0:0:0:0:
444,192,45434,2,0,P|424:260|421:329,1,140,8|2,0:0|0:0,0:0:0:0:
263,331,45970,1,2,0:0:0:0:
263,331,46148,38,0,L|267:254,1,70,2|0,0:0|0:0,0:0:0:0:
315,124,46505,2,0,L|318:193,1,70,2|0,0:0|0:0,0:0:0:0:
263,331,46862,2,0,P|225:312|178:312,1,70,8|0,0:0|0:0,0:0:0:0:
42,346,47220,2,0,P|76:353|110:346,1,70,2|0,0:0|0:0,0:0:0:0:
157,192,47577,38,0,P|144:224|138:259,1,70,2|0,0:0|0:0,0:0:0:0:
110,345,47934,1,2,0:0:0:0:
110,345,48112,1,0,0:0:0:0:
248,239,48291,2,0,P|244:163|209:99,1,140,8|2,0:0|0:0,0:0:0:0:
75,170,48827,6,0,P|33:177|1:168,1,70,2|2,0:0|0:0,0:0:0:0:
40,85,49184,1,0,0:0:0:0:
120,243,49362,2,0,P|183:218|255:245,1,140,2|8,0:0|0:0,0:0:0:0:
299,315,49898,1,0,0:0:0:0:
120,243,50077,2,0,P|125:201|149:165,1,70,2|0,3:2|0:0,0:0:0:0:
351,137,50434,38,0,P|389:189|409:269,1,140,2|2,0:0|0:0,0:0:0:0:
408,261,50970,1,0,0:0:0:0:
260,119,51148,2,0,P|278:83|301:61,1,70,8|0,0:0|0:0,0:0:0:0:
444,114,51505,1,2,0:0:0:0:
290,202,51684,1,2,0:0:0:0:
408,261,51862,54,0,P|416:298|403:336,1,70,2|0,0:0|0:0,0:0:0:0:
241,269,52220,2,0,P|206:216|229:146,2,140,2|8|2,0:0|0:0|0:0,0:0:0:0:
330,285,53112,1,0,0:0:0:0:
308,36,53291,38,0,L|297:122,1,70,2|0,0:0|0:0,0:0:0:0:
437,202,53648,2,0,L|423:122,1,70,2|0,0:0|0:0,0:0:0:0:
227,147,54005,2,0,P|270:184|350:166,1,140,8|2,0:0|0:0,0:0:0:0:
427,44,54541,1,2,0:0:0:0:
495,103,54720,37,2,0:0:0:0:
495,103,54898,1,0,0:0:0:0:
346,168,55077,2,0,P|348:128|368:92,1,70,2|0,0:0|0:0,0:0:0:0:
492,220,55434,2,0,P|441:191|415:183,1,70,8|0,0:0|0:0,0:0:0:0:
372,260,55791,2,0,P|322:276|289:297,1,70,2|0,0:0|0:0,0:0:0:0:
190,97,56148,54,0,P|216:137|192:224,1,140,2|2,0:0|0:0,0:0:0:0:
135,290,56684,1,0,0:0:0:0:
32,174,56862,2,0,L|162:162,1,105,8|0,0:0|0:0,0:0:0:0:
136,164,57220,1,2,0:0:0:0:
290,85,57398,1,2,0:0:0:0:
344,238,57577,38,0,L|339:168,1,70,2|0,0:0|0:0,0:0:0:0:
190,97,57934,2,0,P|166:163|199:226,1,140,2|8,0:0|0:0,0:0:0:0:
258,157,58470,1,0,0:0:0:0:
278,254,58648,1,8,0:0:0:0:
273,263,58737,1,8,0:0:0:0:
268,272,58827,1,8,0:0:0:0:
262,280,58916,1,8,0:0:0:0:
256,292,59005,54,0,L|350:290,1,70,2|0,0:0|0:0,0:0:0:0:
137,349,59362,2,0,L|235:340,1,70,2|0,0:0|0:0,0:0:0:0:
397,326,59720,2,0,P|405:272|348:203,1,140,8|2,0:0|0:0,0:0:0:0:
258,157,60255,1,2,0:0:0:0:
177,260,60434,54,0,L|179:190,1,70,2|0,0:0|0:0,0:0:0:0:
89,117,60791,2,0,L|85:191,1,70,2|0,0:0|0:0,0:0:0:0:
36,49,61148,2,0,P|100:77|174:53,1,140,8|2,0:0|0:0,0:0:0:0:
243,13,61684,1,0,0:0:0:0:
317,111,61862,86,0,P|383:86|467:97,1,140,2|2,0:0|0:0,0:0:0:0:
451,91,62398,1,0,0:0:0:0:
317,111,62577,2,0,P|314:153|328:197,1,70,8|0,0:0|0:0,0:0:0:0:
372,254,62934,1,2,0:0:0:0:
239,269,63112,1,2,0:0:0:0:
183,121,63291,6,0,P|185:79|173:42,1,70,2|0,0:0|0:0,0:0:0:0:
70,269,63648,2,0,P|68:311|80:348,1,70,2|0,0:0|0:0,0:0:0:0:
243,339,64005,2,0,P|246:304|238:265,1,70,8|2,0:0|0:3,0:3:0:0:
133,198,64362,1,8,0:0:0:0:
140,190,64452,1,8,0:0:0:0:
147,182,64541,1,8,0:0:0:0:
154,174,64630,1,8,0:0:0:0:
162,167,64720,38,0,L|163:262,1,70,2|0,0:0|0:0,0:0:0:0:
323,111,65077,2,0,L|240:65,1,70,2|0,0:0|0:0,0:0:0:0:
291,290,65434,2,0,L|373:241,1,70,8|0,0:0|0:0,0:0:0:0:
428,203,65791,1,2,0:0:0:0:
291,290,65970,1,2,0:0:0:0:
282,295,66148,38,0,P|218:324|149:295,1,140,2|2,0:0|0:0,0:0:0:0:
230,89,66862,2,0,P|294:60|363:89,1,140,8|2,0:0|0:0,0:0:0:0:
424,143,67398,1,0,0:0:0:0:
232,158,67577,6,0,P|226:118|235:71,1,70,2|0,0:0|0:0,0:0:0:0:
331,249,67934,1,2,0:0:0:0:
331,249,68112,1,0,0:0:0:0:
177,322,68291,2,0,P|233:322|265:320,1,70,8|0,0:0|0:0,0:0:0:0:
246,230,68648,1,2,0:0:0:0:
177,322,68827,1,2,0:0:0:0:
406,347,69005,38,0,P|431:310|441:210,2,140,2|2|8,0:0|0:0|0:0,0:0:0:0:
406,347,69898,1,0,0:0:0:0:
345,279,70077,2,0,P|317:312|310:344,1,70,2|0,0:0|0:0,0:0:0:0:
376,156,70434,38,0,P|309:151|257:83,1,140,2|2,0:0|0:0,0:0:0:0:
249,9,70970,1,0,0:0:0:0:
432,91,71148,2,0,P|459:132|432:227,1,140,8|2,0:0|0:0,0:0:0:0:
256,188,71684,1,2,0:0:0:0:
334,128,71862,6,0,P|339:86|324:55,1,70,2|0,0:0|0:0,0:0:0:0:
164,260,72220,2,0,P|158:301|174:333,1,70,2|0,0:0|0:0,0:0:0:0:
373,275,72577,2,0,P|307:271|227:289,1,140,8|2,0:0|0:0,0:0:0:0:
235,285,73112,1,0,0:0:0:0:
431,347,73291,38,0,P|456:293|441:215,1,140,2|2,0:0|0:0,0:0:0:0:
432,126,73827,37,0,0:0:0:0:
334,128,74005,1,8,0:0:0:0:
177,27,74184,5,0,0:0:0:0:
232,106,74362,1,2,0:0:0:0:
172,239,74541,37,2,0:0:0:0:
263,203,74720,1,2,0:0:0:0:
263,203,75077,1,2,0:0:0:0:
263,203,75434,2,0,L|262:281,1,70,8|0,0:0|0:0,0:0:0:0:
128,145,75791,1,8,0:0:0:0:
120,138,75880,1,8,0:0:0:0:
111,131,75970,1,8,0:0:0:0:
102,124,76059,1,8,0:0:0:0:
93,117,76148,38,0,P|152:140|244:120,2,140,2|2|8,0:0|0:0|0:0,0:0:0:0:
250,49,77041,1,0,0:0:0:0:
231,214,77220,1,2,0:0:0:0:
373,123,77398,6,0,P|381:163|381:197,1,70,2|2,0:0|0:0,0:0:0:0:
381,192,77934,1,2,0:0:0:0:
288,130,78112,1,0,0:0:0:0:
209,296,78291,2,0,P|282:283|310:227,1,140,8|2,0:0|0:0,0:0:0:0:
105,129,79005,38,0,P|96:198|138:267,1,140,2|2,0:0|0:0,0:0:0:0:
209,296,79541,1,0,0:0:0:0:
203,113,79720,2,0,L|190:193,1,70,8|0,0:0|0:0,0:0:0:0:
309,228,80077,1,2,0:0:0:0:
314,91,80255,1,2,0:0:0:0:
314,91,80434,38,0,P|378:63|442:92,1,140,2|2,0:0|0:0,0:0:0:0:
209,296,81148,2,0,P|145:324|81:295,1,140,8|2,0:0|0:0,0:0:0:0:
38,211,81684,1,0,0:0:0:0:
264,228,81862,6,0,P|211:201|132:239,1,140,2|2,0:0|0:0,0:0:0:0:
83,298,82398,1,0,0:0:0:0:
198,365,82577,2,0,L|211:280,1,70,8|0,0:0|0:0,0:0:0:0:
216,152,82934,1,2,0:0:0:0:
391,218,83112,1,2,0:0:0:0:
391,218,83291,38,0,P|329:247|263:227,1,140,2|2,0:0|0:0,0:0:0:0:
320,156,83827,1,0,0:0:0:0:
135,200,84005,1,8,0:0:0:0:
73,133,84184,1,0,0:0:0:0:
42,219,84362,2,0,P|47:274|56:296,1,70,2|0,0:0|0:0,0:0:0:0:
320,156,84720,37,2,0:0:0:0:
388,215,84898,1,0,0:0:0:0:
406,128,85077,2,0,P|394:74|382:53,1,70,2|0,0:0|0:0,0:0:0:0:
179,101,85434,2,0,L|268:87,2,70,8|0|2,0:0|0:0|0:0,0:0:0:0:
10,66,85970,1,2,0:0:0:0:
73,133,86148,54,0,L|81:209,1,70,2|0,0:0|0:0,0:0:0:0:
330,275,86505,2,0,L|322:199,1,70,2|0,0:3|0:0,0:0:0:0:
179,101,86862,2,0,L|187:177,1,70,8|0,0:0|0:0,0:0:0:0:
436,244,87220,2,0,L|428:168,1,70,2|0,0:0|0:0,0:0:0:0:
157,334,87577,54,0,P|214:248|206:351,1,280,2|2,0:0|0:0,0:0:0:0:
197,299,89184,1,0,0:0:0:0:
74,254,89362,38,0,P|100:209|128:186,1,70,2|0,0:0|0:0,0:0:0:0:
194,157,89720,1,8,0:0:0:0:
350,231,89898,1,8,0:0:0:0:
439,244,90077,1,8,0:0:0:0:
505,181,90255,1,8,0:0:0:0:
299,151,90434,38,0,P|266:193|265:258,1,112,2|0,0:0|0:0,0:0:0:0:
343,288,90970,2,0,P|289:336|240:337,1,112
170,301,91505,1,2,0:0:0:0:
170,301,91684,6,0,P|171:205|169:177,1,112
126,84,92220,2,0,P|137:49|161:23,1,56
216,92,92577,1,2,0:0:0:0:
305,100,92755,2,0,P|352:102|372:92,2,56
250,171,93291,38,0,P|236:227|265:284,1,112,2|0,0:0|0:0,0:0:0:0:
425,273,93827,2,0,P|445:221|431:168,1,112
343,222,94362,1,2,0:0:0:0:
256,275,94541,38,0,P|198:251|143:259,1,112
69,292,95077,1,0,0:0:0:0:
258,64,95434,6,0,P|187:76|146:65,2,112,2|0|6,0:0|0:0|0:0,0:0:0:0:
432,34,96505,2,0,L|432:108,1,56
462,174,96862,1,2,0:0:0:0:
379,315,97220,1,0,0:0:0:0:
289,312,97398,1,0,0:0:0:0:
219,255,97577,38,0,L|196:125,2,112,2|0|2,0:0|0:0|0:0,0:0:0:0:
46,351,98648,1,0,0:0:0:0:
28,228,99005,38,0,P|96:212|157:231,1,112,4|0,0:0|0:0,0:0:0:0:
219,254,99541,1,2,0:0:0:0:
256,192,99630,12,0,100970,0:0:0:0:
420,274,101327,5,0,0:0:0:0:
334,245,101505,1,0,0:0:0:0:
323,156,101684,1,0,0:0:0:0:
410,168,101862,2,0,P|429:207|412:285,1,112,6|0,0:0|0:0,0:0:0:0:
95,259,102577,2,0,P|76:220|102:145,1,112,2|0,0:0|0:0,0:0:0:0:
161,99,103112,1,0,0:0:0:0:
188,204,103291,38,0,P|203:252|184:332,2,112,6|0|2,0:0|0:0|0:0,0:0:0:0:
161,99,104184,2,0,P|238:117|284:101,1,112
268,109,104720,38,0,L|268:180,1,56,6|0,0:0|0:0,0:0:0:0:
384,266,105077,2,0,L|383:192,1,56
174,186,105434,2,0,P|167:232|173:260,1,56,2|0,0:0|0:0,0:0:0:0:
219,315,105791,1,0,0:0:0:0:
306,298,105970,1,0,0:0:0:0:
306,298,106148,5,6,0:0:0:0:
490,77,106505,2,0,P|493:122|488:158,1,56
441,268,106862,1,8,0:0:0:0:
430,265,106952,1,8,0:0:0:0:
419,263,107041,1,8,0:0:0:0:
408,261,107130,1,8,0:0:0:0:
397,261,107220,2,0,P|390:301|405:332,1,56,8|0,0:0|0:0,0:0:0:0:
383,160,107577,38,0,P|311:194|232:165,1,140,6|2,0:0|0:0,0:0:0:0:
166,183,108112,2,0,L|160:272,2,70,0|8|0,0:0|0:0|0:0,0:0:0:0:
172,91,108648,1,2,0:0:0:0:
254,181,108827,1,2,0:0:0:0:
435,226,109005,22,0,B|451:242|463:266|463:266|470:312|447:362,2,140,2|2|8,0:0|0:0|0:0,0:0:0:0:
386,50,110077,1,2,0:0:0:0:
447,117,110255,1,0,0:0:0:0:
309,89,110434,6,0,P|251:111|187:102,1,105,6|0,0:0|0:0,0:0:0:0:
164,94,110791,53,8,0:0:0:0:
119,14,110970,1,2,2:0:0:0:
290,200,111148,21,8,0:0:0:0:
335,280,111327,1,2,0:0:0:0:
309,89,111505,5,8,0:0:0:0:
354,9,111684,1,2,0:0:0:0:
183,195,111862,53,2,0:0:0:0:
138,275,112041,1,2,0:0:0:0:
260,324,112220,1,10,0:0:0:0:
226,120,112398,1,2,0:0:0:0:
260,324,112577,2,0,P|289:299|325:285,1,70,8|0,0:0|0:0,0:0:0:0:
432,359,112934,2,0,P|388:374|360:369,1,70,2|0,0:0|0:0,0:0:0:0:
406,145,113291,38,0,L|394:296,1,140,6|2,0:0|0:0,0:0:0:0:
365,370,113827,1,0,0:0:0:0:
260,250,114005,2,0,P|302:269|323:298,1,70,8|0,0:0|0:0,0:0:0:0:
165,283,114362,2,0,P|160:237|175:204,1,70,2|2,0:0|0:0,0:0:0:0:
225,144,114720,53,2,0:0:0:0:
228,353,114898,2,0,P|190:379|154:383,1,70,0|2,0:0|0:0,0:0:0:0:
94,328,115255,1,0,0:0:0:0:
260,250,115434,2,0,L|349:252,1,70,8|0,0:0|0:0,0:0:0:0:
419,232,115791,1,2,0:0:0:0:
446,318,115970,1,0,0:0:0:0:
392,147,116148,54,0,P|312:152|267:93,1,140,6|2,0:0|0:0,0:0:0:0:
224,36,116684,1,0,0:0:0:0:
383,23,116862,2,0,P|412:66|389:150,1,140,8|2,0:0|0:0,0:0:0:0:
242,227,117398,1,2,0:0:0:0:
326,194,117577,38,0,L|324:281,1,70,6|0,0:0|0:0,0:0:0:0:
156,162,117934,2,0,P|150:118|162:80,1,70,2|0,0:0|0:0,0:0:0:0:
92,255,118291,2,0,P|51:253|-1:223,1,70,8|0,0:0|0:0,0:0:0:0:
161,343,118648,2,0,P|200:334|242:350,1,70,2|0,0:0|0:0,0:0:0:0:
237,345,118916,1,0,0:0:0:0:
245,350,119005,70,0,P|305:377|385:343,2,140,6|2|8,0:0|0:0|0:0,0:0:0:0:
312,268,119898,1,0,0:0:0:0:
372,355,120077,1,2,0:0:0:0:
488,251,120255,6,0,P|456:245|418:251,1,70,2|2,0:0|0:0,0:0:0:0:
245,349,120612,1,0,0:0:0:0:
245,349,120791,2,0,P|203:288|221:216,1,140,2|8,0:0|0:0,0:0:0:0:
302,152,121327,1,0,0:0:0:0:
221,74,121505,2,0,L|222:167,1,70,2|0,0:0|0:0,0:0:0:0:
396,254,121862,6,0,P|436:207|433:121,1,140,6|2,0:0|0:0,0:0:0:0:
398,49,122398,1,0,0:0:0:0:
304,235,122577,2,0,P|309:301|380:349,1,140,8|2,0:0|0:0,0:0:0:0:
301,125,123112,1,2,0:0:0:0:
396,254,123291,85,8,0:0:0:0:
302,140,123470,1,2,0:0:0:0:
387,269,123648,1,8,0:0:0:0:
302,152,123827,1,2,0:0:0:0:
145,302,124005,2,0,L|135:376,1,70,8|0,0:0|0:0,0:0:0:0:
123,198,124362,2,0,L|134:275,1,70,2|0,0:0|0:0,0:0:0:0:
365,291,124720,70,0,P|286:321|241:288,1,140,6|2,0:0|0:0,0:0:0:0:
452,357,125434,2,0,L|444:210,1,140,8|2,0:0|0:0,0:0:0:0:
321,98,125970,1,2,0:0:0:0:
262,168,126148,85,6,0:0:0:0:
262,168,126327,1,0,0:0:0:0:
447,189,126505,2,0,L|443:113,2,70,2|0|8,0:0|0:0|0:0,0:0:0:0:
321,98,127041,1,2,0:3:0:0:
262,168,127220,1,2,0:0:0:0:
171,177,127398,1,0,0:0:0:0:
27,56,127577,6,0,L|42:196,2,140,6|2|8,0:0|0:0|0:0,0:0:0:0:
112,23,128470,1,0,0:0:0:0:
112,23,128648,1,2,0:0:0:0:
307,104,128827,2,0,L|314:184,1,70,2|6,0:0|0:0,0:0:0:0:
286,260,129184,1,0,0:0:0:0:
229,54,129362,6,0,P|300:61|366:12,1,140,2|8,0:0|0:0,0:0:0:0:
236,192,129898,1,8,0:0:0:0:
163,157,130077,1,8,0:0:0:0:
153,160,130166,1,8,0:0:0:0:
143,164,130255,1,8,0:0:0:0:
133,169,130345,1,8,0:0:0:0:
125,176,130434,54,0,P|93:246|124:300,1,140,6|2,0:0|0:0,0:0:0:0:
120,297,130970,1,0,0:0:0:0:
340,365,131148,2,0,P|377:297|331:231,1,140,8|2,0:0|0:0,0:0:0:0:
218,234,131684,1,2,0:0:0:0:
315,160,131862,6,0,P|355:152|389:160,1,70,2|0,0:0|0:0,0:0:0:0:
245,351,132220,2,0,P|213:358|169:349,1,70,2|0,0:0|0:0,0:0:0:0:
352,245,132577,2,0,P|360:285|352:319,1,70,8|0,0:0|0:0,0:0:0:0:
208,141,132934,2,0,P|200:101|208:67,1,70,2|0,0:0|0:0,0:0:0:0:
212,64,133202,1,0,0:0:0:0:
219,56,133291,22,0,B|148:103|74:69,1,140,6|2,0:0|0:0,0:0:0:0:
11,36,133827,1,2,0:0:0:0:
208,141,134005,2,0,L|203:230,1,70,8|2,0:0|0:0,0:0:0:0:
254,281,134362,1,8,0:0:0:0:
220,361,134541,1,2,0:0:0:0:
352,335,134720,37,8,0:0:0:0:
352,335,135434,2,0,P|387:342|422:334,1,70,8|0,0:0|0:0,0:0:0:0:
453,249,135791,2,0,P|418:244|384:249,1,70,8|0,0:0|0:0,0:0:0:0:
254,281,136148,38,0,P|212:229|255:181,2,140,6|2|8,0:0|0:0|0:0,0:0:0:0:
256,192,137041,12,2,139005,0:0:0:0:
408,121,149898,38,0,P|410:82|403:45,2,70,2|2|2,0:0|0:0|0:0,0:0:0:0:
182,108,150434,6,0,P|251:94|321:93,1,140,2|2,0:0|0:0,0:0:0:0:
408,121,150970,1,0,0:0:0:0:
291,249,151148,2,0,L|283:171,1,70,8|0,0:0|0:0,0:0:0:0:
321,93,151505,1,2,0:0:0:0:
205,301,151684,1,2,0:0:0:0:
295,318,151862,38,0,L|290:233,1,70,2|0,0:0|0:0,0:0:0:0:
398,347,152220,1,2,0:0:0:0:
398,347,152398,1,0,0:0:0:0:
490,247,152577,2,0,L|496:326,2,70,8|0|2,0:0|0:0|0:0,0:0:0:0:
481,156,153112,1,0,0:0:0:0:
290,248,153291,38,0,P|358:257|411:215,1,140,2|2,0:0|0:0,0:0:0:0:
410,215,153827,1,0,0:0:0:0:
222,136,154005,2,0,P|153:126|101:169,1,140,8|2,0:0|0:0,0:0:0:0:
260,220,154541,1,2,0:0:0:0:
173,281,154720,54,0,L|176:212,1,70,2|0,0:0|0:0,0:0:0:0:
334,101,155077,2,0,L|332:171,1,70,2|0,0:0|0:0,0:0:0:0:
344,332,155434,2,0,P|378:297|412:291,1,70,8|0,0:0|0:0,0:0:0:0:
276,376,155791,2,0,P|227:368|195:345,1,70,2|0,0:0|0:0,0:0:0:0:
463,216,156148,38,0,P|480:277|462:368,1,140,2|2,0:0|0:0,0:0:0:0:
469,351,156684,1,0,0:0:0:0:
463,216,156862,2,0,L|467:132,1,70,8|0,0:0|0:0,0:0:0:0:
366,51,157220,1,2,0:0:0:0:
288,128,157398,2,0,P|247:105|205:101,1,70,2|2,0:0|0:0,0:0:0:0:
133,101,157755,53,0,0:0:0:0:
183,235,157934,2,0,P|212:204|228:172,1,70,2|0,0:0|0:0,0:0:0:0:
366,51,158291,2,0,P|362:152|359:208,1,140,8|2,0:0|0:0,0:0:0:0:
407,317,158827,1,0,0:0:0:0:
407,317,159005,38,0,L|239:338,1,140,2|2,0:0|0:0,0:0:0:0:
92,287,159720,2,0,L|230:269,1,140,8|2,0:0|0:0,0:0:0:0:
348,161,160255,1,2,0:0:0:0:
439,253,160434,6,0,P|389:265|356:260,1,70,2|0,0:0|0:0,0:0:0:0:
439,98,160791,2,0,P|453:143|455:176,1,70,2|0,0:0|0:0,0:0:0:0:
214,173,161148,2,0,P|265:152|349:161,1,140,8|2,0:0|0:0,0:0:0:0:
148,116,161862,38,0,P|165:184|171:254,2,140,2|2|8,0:0|0:0|0:0,0:0:0:0:
57,107,162755,1,0,0:0:0:0:
57,107,162934,1,2,0:0:0:0:
63,255,163112,1,2,0:0:0:0:
201,190,163291,54,0,P|186:225|157:271,1,70,2|0,0:0|0:0,0:0:0:0:
286,341,163648,1,2,0:0:0:0:
286,341,163827,1,0,0:0:0:0:
399,269,164005,2,0,P|376:230|366:201,1,70,8|0,0:0|0:0,0:0:0:0:
487,260,164362,2,0,P|487:297|462:335,1,70,2|0,0:0|0:0,0:0:0:0:
451,177,164720,6,0,P|451:132|448:35,1,140,2|2,0:0|0:0,0:0:0:0:
448,37,165434,1,8,0:0:0:0:
357,28,165612,1,0,0:0:0:0:
272,62,165791,1,2,0:0:0:0:
244,208,165970,70,0,P|249:173|240:140,1,70,2|2,0:0|0:0,0:0:0:0:
175,58,166327,1,0,0:0:0:0:
30,190,166505,2,0,P|142:178|177:174,1,140,2|8,0:0|0:0,0:0:0:0:
169,174,167041,1,0,0:0:0:0:
312,133,167220,2,0,P|351:144|386:128,1,70,2|0,0:0|0:0,0:0:0:0:
249,211,167577,6,0,P|184:202|121:247,1,140,2|2,0:0|0:0,0:0:0:0:
359,261,168291,2,0,P|345:189|387:126,1,140,8|2,0:0|0:0,0:0:0:0:
467,227,168827,38,0,L|468:306,1,70,2|2,0:0|0:0,0:0:0:0:
467,296,169184,1,0,0:0:0:0:
376,134,169362,2,0,L|378:58,1,70,2|0,0:0|0:0,0:0:0:0:
377,64,169720,1,8,0:0:0:0:
208,183,170077,2,0,L|203:260,1,70,2|0,0:0|0:0,0:0:0:0:
203,263,170345,1,0,0:0:0:0:
203,273,170434,38,0,P|148:244|58:269,1,140,2|2,0:0|0:0,0:0:0:0:
275,340,171148,2,0,L|429:328,1,140,8|2,0:0|0:0,0:0:0:0:
261,352,171684,1,2,0:0:0:0:
79,327,171862,2,0,L|73:248,1,70,2|0,0:0|0:0,0:0:0:0:
199,113,172220,6,0,L|208:191,1,70,2|0,0:0|0:0,0:0:0:0:
91,77,172577,1,8,0:0:0:0:
199,113,172755,1,2,0:3:0:0:
296,58,172934,1,8,0:0:0:0:
297,68,173023,1,8,0:0:0:0:
298,78,173112,1,8,0:0:0:0:
337,194,173291,38,0,P|282:168|197:188,1,140,2|2,0:0|0:0,0:0:0:0:
135,238,173827,1,0,0:0:0:0:
283,324,174005,2,0,P|322:332|355:325,1,70,8|0,0:0|0:0,0:0:0:0:
406,254,174362,1,2,0:0:0:0:
337,194,174541,1,2,0:0:0:0:
414,82,174720,38,0,P|416:126|422:162,1,70,2|0,0:0|0:0,0:0:0:0:
280,73,175077,2,0,P|317:49|345:26,1,70,2|0,0:0|0:0,0:0:0:0:
337,194,175434,2,0,P|297:173|263:160,1,70,8|0,0:0|0:0,0:0:0:0:
181,251,175791,2,0,L|261:245,1,70,2|0,0:0|0:0,0:0:0:0:
143,174,176148,6,0,P|95:224|108:305,1,140,2|2,0:0|0:0,0:0:0:0:
182,331,176684,1,0,0:0:0:0:
217,128,176862,1,8,0:0:0:0:
217,128,177220,1,2,0:0:0:0:
296,60,177398,1,2,0:0:0:0:
220,143,177577,37,2,0:0:0:0:
302,75,177755,1,0,0:0:0:0:
431,149,177934,2,0,L|433:218,1,70,2|0,0:0|0:0,0:0:0:0:
340,342,178291,2,0,P|330:302|341:259,1,70,8|0,0:0|0:0,0:0:0:0:
480,294,178648,2,0,P|443:304|397:295,1,70,2|0,0:0|0:0,0:0:0:0:
284,296,179005,38,0,B|303:301|336:274|336:274|373:299|411:301,1,140,2|2,0:0|0:0,0:0:0:0:
193,297,179541,1,0,0:0:0:0:
261,140,179720,2,0,L|270:226,1,70,8|0,0:0|0:0,0:0:0:0:
402,214,180077,1,2,0:0:0:0:
416,123,180255,1,2,0:0:0:0:
435,35,180434,6,0,P|452:103|511:129,1,140,2|2,0:0|0:0,0:0:0:0:
213,49,181148,2,0,P|144:35|73:70,1,140,8|2,0:0|0:0,0:0:0:0:
43,143,181684,1,0,0:0:0:0:
232,187,181862,38,0,L|212:48,1,140,2|2,0:0|0:0,0:0:0:0:
277,113,182398,1,0,0:0:0:0:
134,135,182577,2,0,P|136:175|144:216,1,70,8|0,0:0|0:0,0:0:0:0:
197,276,182934,1,2,0:0:0:0:
277,113,183112,1,2,0:0:0:0:
336,181,183291,37,2,0:0:0:0:
141,204,183470,1,2,0:0:0:0:
269,228,183648,2,0,P|314:259|403:227,1,140,2|8,0:0|0:0,0:0:0:0:
361,102,184184,1,0,0:0:0:0:
304,32,184362,1,2,0:0:0:0:
277,113,184541,1,0,0:0:0:0:
392,239,184720,6,0,P|385:284|291:334,2,140,2|2|8,0:0|0:0|0:0,0:0:0:0:
296,168,185612,1,0,0:0:0:0:
296,168,185791,1,2,0:0:0:0:
329,13,185970,38,0,L|324:95,1,70,2|2,0:0|0:0,0:0:0:0:
296,168,186327,1,0,0:0:0:0:
113,52,186505,1,2,0:0:0:0:
82,137,186684,1,0,0:0:0:0:
179,236,186862,2,0,L|34:226,1,140,8|2,0:0|0:0,0:0:0:0:
222,162,187577,38,0,P|236:94|211:31,1,140,2|2,0:0|0:0,0:0:0:0:
211,31,188112,1,0,0:0:0:0:
319,230,188291,2,0,P|304:297|330:362,1,140,8|2,0:0|0:0,0:0:0:0:
410,296,188827,1,2,0:0:0:0:
441,203,189005,6,0,P|440:168|432:135,1,70,2|0,0:0|0:0,0:0:0:0:
255,177,189362,2,0,P|303:164|350:92,1,140,2|8,0:0|0:0,0:0:0:0:
304,12,189898,1,0,0:0:0:0:
210,94,190077,1,8,0:0:0:0:
201,100,190166,1,8,0:0:0:0:
194,108,190255,1,8,0:0:0:0:
187,116,190345,1,8,0:0:0:0:
183,125,190434,38,0,P|168:182|214:254,1,140,2|2,0:0|0:0,0:0:0:0:
292,278,190970,1,0,0:0:0:0:
206,249,191148,2,0,P|199:283|199:324,1,70,8|0,0:0|0:0,0:0:0:0:
308,176,191505,1,2,0:0:0:0:
450,304,191684,38,0,P|454:269|443:236,1,70,2|2,0:0|0:0,0:0:0:0:
399,156,192041,1,0,0:0:0:0:
292,278,192220,2,0,L|438:274,1,140,2|8,0:0|0:0,0:0:0:0:
431,274,192934,1,2,0:0:0:0:
470,192,193112,1,0,0:0:0:0:
341,129,193291,6,0,P|275:158|203:127,1,140,2|2,0:0|0:0,0:0:0:0:
213,137,193827,1,0,0:0:0:0:
82,291,194005,2,0,P|144:262|209:282,1,140,8|2,0:0|0:0,0:0:0:0:
59,363,194541,38,0,P|27:343|10:308,1,70,2|2,0:0|0:0,0:0:0:0:
34,227,194898,1,0,0:0:0:0:
209,282,195077,2,0,B|253:266|295:310|374:282,2,140,2|8|2,0:0|0:0|0:0,0:0:0:0:
150,352,195970,1,0,0:0:0:0:
420,362,196148,38,0,P|436:317|420:224,1,140,2|2,0:0|0:0,0:0:0:0:
364,157,196684,1,0,0:0:0:0:
284,201,196862,2,0,L|281:300,1,70,8|0,0:0|0:0,0:0:0:0:
356,322,197220,1,0,0:0:0:0:
364,157,197398,5,2,0:0:0:0:
366,66,197577,1,2,0:3:0:0:
163,180,197755,37,2,0:0:0:0:
161,264,197934,1,2,0:0:0:0:
281,357,198112,21,0,0:0:0:0:
284,201,198291,1,8,0:0:0:0:
169,87,198470,5,8,0:0:0:0:
198,121,198559,1,8,0:0:0:0:
243,122,198648,1,8,0:0:0:0:
284,104,198737,1,8,0:0:0:0:
295,60,198827,1,8,0:0:0:0:
390,173,199005,6,0,P|412:232|388:288,1,112,2|0,0:0|0:0,0:0:0:0:
319,229,199541,2,0,L|259:229|193:229,1,112,2|0,0:0|0:0,0:0:0:0:
125,192,200077,1,0,0:0:0:0:
60,136,200255,2,0,P|118:106|170:123,2,112,2|0|2,0:0|0:0|0:0,0:0:0:0:
267,42,201327,53,0,0:0:0:0:
354,21,201505,1,0,0:0:0:0:
440,43,201684,1,0,0:0:0:0:
505,144,201862,38,0,P|508:191|492:256,1,112,2|0,0:0|0:0,0:0:0:0:
432,320,202398,2,0,P|404:280|417:204,1,112,2|0,0:0|0:0,0:0:0:0:
505,144,202934,1,0,0:0:0:0:
354,64,203112,6,0,P|333:129|361:183,2,112,2|0|2,0:0|0:0|0:0,0:0:0:0:
164,167,204005,2,0,P|179:114|158:64,1,112,2|0,0:0|0:0,0:0:0:0:
12,216,204720,37,6,0:0:0:0:
12,216,205077,2,0,L|6:277,1,56
108,115,205434,2,0,P|157:96|219:116,1,112,2|0,0:0|0:0,0:0:0:0:
267,182,205970,1,0,0:0:0:0:
409,109,206148,38,0,B|404:167|409:230|409:229,1,112,2|0,0:0|0:0,0:0:0:0:
266,293,206862,2,0,B|271:235|266:172|266:173,1,112,2|0,0:0|0:0,0:0:0:0:
111,109,207577,6,0,P|169:125|221:108,1,112,6|0,0:0|0:0,0:0:0:0:
292,62,208112,1,2,0:0:0:0:
256,192,208202,12,2,209720,0:0:0:0:
82,122,209898,37,0,0:0:0:0:
100,209,210077,1,0,0:0:0:0:
119,296,210255,1,0,0:0:0:0:
184,186,210434,38,0,P|240:172|301:189,1,112,6|0,0:0|0:0,0:0:0:0:
468,313,211148,2,0,P|412:327|351:310,1,112,2|0,0:0|0:0,0:0:0:0:
339,227,211684,1,0,0:0:0:0:
339,227,211862,6,0,B|329:104,2,112,6|0|2,0:0|0:0|0:0,0:0:0:0:
428,169,212755,1,0,0:0:0:0:
399,84,212934,1,0,0:0:0:0:
435,2,213112,1,0,0:0:0:0:
511,84,213291,38,0,L|384:84|383:84,1,112,6|0,0:0|0:0,0:0:0:0:
150,67,214005,2,0,P|205:51|269:69,1,112,2|0,0:0|0:0,0:0:0:0:
329,115,214541,1,0,0:0:0:0:
329,115,214720,37,6,0:0:0:0:
82,18,215077,2,0,P|68:69|103:136,1,112,0|2,0:0|0:0,0:0:0:0:
132,197,215612,1,2,0:3:0:0:
184,274,215791,1,8,0:0:0:0:
192,274,215880,1,8,0:0:0:0:
200,274,215970,1,8,0:0:0:0:
208,274,216059,1,8,0:0:0:0:
218,275,216148,6,0,P|241:215|198:153,1,140,6|2,0:0|0:0,0:0:0:0:
88,122,216684,2,0,P|51:130|18:122,2,70,0|8|0,0:0|0:0|0:0,0:0:0:0:
145,50,217220,1,2,0:0:0:0:
282,171,217398,1,2,0:0:0:0:
206,219,217577,37,2,0:0:0:0:
339,247,217755,1,2,0:0:0:0:
206,219,217934,2,0,P|193:147|236:92,2,140,2|8|2,0:0|0:0|0:0,0:0:0:0:
256,288,218827,1,0,0:0:0:0:
416,171,219005,37,12,0:0:0:0:
416,171,219184,1,2,0:0:0:0:
145,50,219362,5,8,0:0:0:0:
145,141,219541,1,2,0:0:0:0:
417,264,219720,37,8,0:0:0:0:
417,264,219898,1,2,0:0:0:0:
145,141,220077,37,8,0:0:0:0:
145,232,220255,1,2,0:0:0:0:
418,352,220434,5,8,0:0:0:0:
418,352,220612,1,2,0:0:0:0:
145,232,220791,6,0,L|146:315,1,70,2|0,0:0|0:0,0:0:0:0:
184,149,221148,2,0,P|147:141|102:156,1,70,8|0,0:0|0:0,0:0:0:0:
348,259,221505,2,0,P|385:267|436:256,1,70,2|8,0:0|0:0,0:0:0:0:
278,62,221862,38,0,P|271:138|281:220,1,140,6|2,0:0|0:0,0:0:0:0:
348,259,222398,1,0,0:0:0:0:
174,357,222577,2,0,P|181:281|171:199,1,140,8|2,0:0|0:0,0:0:0:0:
116,147,223112,1,2,0:0:0:0:
172,46,223291,37,2,0:0:0:0:
27,15,223470,1,0,0:0:0:0:
31,148,223648,1,2,0:0:0:0:
31,148,223827,1,0,0:0:0:0:
172,46,224005,2,0,P|213:39|250:46,1,70,8|0,0:0|0:0,0:0:0:0:
310,101,224362,1,2,0:0:0:0:
394,139,224541,1,0,0:0:0:0:
500,0,224720,22,0,P|500:57|491:92,1,70,6|0,0:0|0:0,0:0:0:0:
484,113,224987,1,0,0:0:0:0:
484,113,225077,1,2,0:0:0:0:
420,282,225255,1,0,0:0:0:0:
345,216,225434,2,0,P|405:183|472:200,1,140,8|2,0:0|0:0,0:0:0:0:
316,312,225970,1,2,0:0:0:0:
420,282,226148,38,0,P|422:317|413:359,1,70,6|0,0:0|0:0,0:0:0:0:
201,352,226505,2,0,P|194:317|196:282,1,70,2|0,0:0|0:0,0:0:0:0:
170,92,226862,2,0,P|193:155|258:174,1,140,8|2,0:0|0:0,0:0:0:0:
329,116,227398,1,0,0:0:0:0:
116,33,227577,70,0,P|123:102|126:190,1,140,6|2,0:0|0:0,0:0:0:0:
125,172,228112,1,0,0:0:0:0:
248,313,228291,2,0,P|250:243|257:173,1,140,8|2,0:0|0:0,0:0:0:0:
213,30,228827,86,0,L|214:109,1,70,2|2,0:0|0:0,0:0:0:0:
28,46,229184,1,0,0:0:0:0:
200,108,229362,2,0,L|200:39,1,70,2|0,0:0|0:0,0:0:0:0:
28,179,229720,2,0,L|28:248,1,70,8|0,0:0|0:0,0:0:0:0:
121,329,230077,1,2,0:0:0:0:
120,318,230166,1,0,0:0:0:0:
119,307,230255,1,0,0:0:0:0:
257,173,230434,38,0,P|313:141|387:165,1,140,6|2,0:0|0:0,0:0:0:0:
457,211,230970,1,0,0:0:0:0:
334,318,231148,2,0,L|328:242,1,70,8|0,0:0|0:0,0:0:0:0:
311,110,231505,1,2,0:0:0:0:
112,179,231684,69,2,0:0:0:0:
112,50,231862,1,8,0:0:0:0:
47,115,232041,1,2,0:0:0:0:
176,115,232220,1,8,0:0:0:0:
91,37,232398,85,2,0:0:0:0:
132,191,232577,1,8,0:0:0:0:
188,94,232755,1,2,0:3:0:0:
34,135,232934,1,8,0:0:0:0:
31,153,233023,1,8,0:0:0:0:
30,170,233112,1,8,0:0:0:0:
31,187,233202,1,8,0:0:0:0:
34,204,233291,38,0,P|69:263|135:281,1,140,6|2,0:0|0:0,0:0:0:0:
219,248,233827,1,0,0:0:0:0:
426,286,234005,2,0,P|365:260|291:306,1,140,8|2,0:0|0:0,0:0:0:0:
301,289,234541,1,2,0:0:0:0:
397,191,234720,69,6,0:0:0:0:
367,353,234898,1,2,0:0:0:0:
255,172,235077,85,2,0:0:0:0:
255,337,235255,1,0,0:0:0:0:
115,191,235434,37,8,0:0:0:0:
145,353,235612,1,2,0:3:0:0:
107,274,235791,1,8,0:0:0:0:
53,347,235970,1,0,0:0:0:0:
42,138,236148,70,0,P|102:163|184:144,1,140,6|2,0:0|0:0,0:0:0:0:
254,109,236684,1,0,0:0:0:0:
410,198,236862,2,0,P|434:156|436:91,1,105,8|0,0:0|0:0,0:0:0:0:
418,58,237220,1,2,0:0:0:0:
311,183,237398,1,2,0:0:0:0:
340,268,237577,86,0,L|369:347,1,70,6|0,0:0|0:0,0:0:0:0:
223,202,237934,2,0,P|235:128|263:102,1,105,2|0,0:0|0:0,0:0:0:0:
253,108,238291,1,8,0:0:0:0:
341,17,238470,1,0,0:0:0:0:
437,100,238648,2,0,L|443:184,1,70,2|0,0:0|0:0,0:0:0:0:
212,296,239005,38,0,P|147:260|133:190,1,140,6|2,0:0|0:0,0:0:0:0:
112,294,239541,1,0,0:0:0:0:
223,202,239720,2,0,L|221:132,2,70,8|0|2,0:0|0:0|0:0,0:0:0:0:
148,28,240255,1,2,0:0:0:0:
96,108,240434,2,0,P|80:140|73:174,1,70,2|0,0:0|0:0,0:0:0:0:
377,166,240791,2,0,P|355:112|306:44,2,140,2|8|2,0:0|0:0|0:0,0:0:0:0:
377,166,241684,1,0,0:0:0:0:
351,326,241862,85,14,0:0:0:0:
405,252,242041,1,2,0:0:0:0:
255,192,242220,37,8,0:0:0:0:
256,102,242398,1,2,0:0:0:0:
161,326,242577,69,8,0:0:0:0:
107,252,242755,1,2,0:0:0:0:
254,192,242934,6,0,L|254:275,2,70,8|2|2,0:0|0:0|0:0,0:0:0:0:
86,135,243648,37,2,0:0:0:0:
187,37,244005,2,0,P|256:52|325:37,1,140,8|2,0:0|0:0,0:0:0:0:
322,37,244541,1,0,0:0:0:0:
309,230,244720,6,0,P|255:220|206:230,1,105,6|0,0:0|0:0,0:0:0:0:
206,229,245077,2,0,L|201:309,1,70,2|0,0:0|0:0,0:0:0:0:
395,302,245434,2,0,P|413:218|388:158,1,140,8|2,0:0|0:0,0:0:0:0:
290,107,245970,1,2,0:0:0:0:
399,99,246148,6,0,L|395:179,1,70,2|0,0:0|0:0,0:0:0:0:
206,229,246505,1,2,0:0:0:0:
203,138,246684,1,0,0:0:0:0:
124,316,246862,1,8,0:0:0:0:
206,229,247041,1,8,0:0:0:0:
287,315,247220,1,8,0:0:0:0:
370,230,247398,1,8,0:0:0:0:
370,230,247487,1,8,0:0:0:0:
370,230,247577,38,0,P|416:292|405:364,1,140,6|2,0:0|0:0,0:0:0:0:
165,57,248291,1,8,0:0:0:0:
165,57,248470,1,0,0:0:0:0:
208,137,248648,1,2,0:0:0:0:
113,228,248827,1,2,0:0:0:0:
189,277,249005,37,6,0:0:0:0:
214,148,249184,1,2,0:0:0:0:
270,321,249362,2,0,L|348:321,1,70,2|0,0:0|0:0,0:0:0:0:
464,215,249720,2,0,P|425:209|390:216,1,70,8|0,0:0|0:0,0:0:0:0:
307,237,250077,1,2,0:0:0:0:
425,323,250255,1,0,0:0:0:0:
464,215,250434,6,0,P|487:148|459:73,1,140,6|2,0:0|0:0,0:0:0:0:
390,34,250970,1,0,0:0:0:0:
322,156,251148,2,0,L|406:148,2,70,8|0|2,0:0|0:0|0:0,0:0:0:0:
163,78,251684,1,2,0:0:0:0:
88,180,251862,38,0,L|173:169,1,70,4|2,0:0|0:0,0:0:0:0:
249,98,252220,2,0,P|276:160|249:239,1,140,2|8,0:0|0:0,0:0:0:0:
191,289,252755,1,0,0:0:0:0:
257,358,252934,1,8,0:0:0:0:
274,355,253023,1,8,0:0:0:0:
291,353,253112,1,8,0:0:0:0:
377,277,253291,38,0,P|411:204|387:136,1,140,6|2,0:0|0:0,0:0:0:0:
335,82,253827,1,0,0:0:0:0:
253,122,254005,2,0,P|219:194|243:263,1,140,8|2,0:0|0:0,0:0:0:0:
319,199,254541,1,2,0:0:0:0:
210,325,254720,6,0,L|124:325,1,70,4|2,0:0|0:0,0:0:0:0:
94,325,254987,1,0,0:0:0:0:
94,325,255077,2,0,P|108:276|102:252,1,70,2|0,0:0|0:0,0:0:0:0:
189,46,255434,38,0,P|177:93|202:137,1,83.9999974365235,8|0,0:0|0:0,0:0:0:0:
240,145,255702,1,0,0:0:0:0:
240,145,255791,2,0,L|342:144,1,83.9999974365235,2|0,0:0|0:0,0:0:0:0:
492,312,256148,22,0,L|389:312,1,97.9999970092774,6|0,0:0|0:0,0:0:0:0:
329,312,256416,1,0,0:0:0:0:
329,312,256505,2,0,P|348:258|328:219,1,97.9999970092774,2|0,0:3|0:0,0:0:0:0:
77,46,256862,6,0,L|199:45,1,112,8|0,0:0|0:0,0:0:0:0:
262,46,257130,1,0,0:0:0:0:
262,46,257220,2,0,P|231:94|240:146,1,112,2|2,0:0|0:0,0:0:0:0:
335,293,257577,54,0,L|331:214,1,70,6|2,0:0|0:0,0:0:0:0:
323,117,257934,1,2,0:3:0:0:
162,193,258112,1,0,0:0:0:0:
161,203,258202,1,0,0:0:0:0:
159,213,258291,2,0,P|153:245|153:292,1,70,12|0,0:0|0:0,0:0:0:0:
238,311,258648,2,0,P|244:279|244:232,1,70,2|0,0:0|0:0,0:0:0:0:
180,146,259005,38,0,P|159:206|153:297,1,140,2|2,0:0|0:3,0:0:0:0:
176,369,259541,1,0,0:0:0:0:
361,367,259720,1,8,0:0:0:0:
423,300,259898,2,0,P|417:244|402:205,2,70,0|2|2,0:0|0:0|0:0,0:0:0:0:
341,137,260434,5,4,0:0:0:0:
454,99,260612,1,2,0:0:0:0:
431,214,260791,1,2,0:0:0:0:
431,214,260970,1,0,0:0:0:0:
373,64,261148,2,0,P|331:57|299:67,1,70,8|0,0:0|0:0,0:0:0:0:
180,146,261505,1,2,0:0:0:0:
213,61,261684,1,0,0:0:0:0:
250,200,261862,38,0,P|260:239|234:332,2,140,6|2|8,0:0|0:0|0:0,0:0:0:0:
180,146,262755,1,0,0:0:0:0:
257,99,262934,1,2,0:0:0:0:
341,136,263112,1,2,0:0:0:0:
464,39,263291,22,0,L|452:120,1,70,4|2,0:0|0:0,0:0:0:0:
349,205,263648,2,0,L|339:122,1,70,2|0,0:0|0:0,0:0:0:0:
334,90,263916,1,0,0:0:0:0:
334,90,264005,1,8,0:0:0:0:
250,200,264184,1,2,0:3:0:0:
440,187,264362,1,8,0:0:0:0:
439,197,264452,1,8,0:0:0:0:
438,207,264541,1,8,0:0:0:0:
294,307,264720,6,0,P|228:334|164:312,1,140,6|2,0:0|0:0,0:0:0:0:
16,195,265434,2,0,P|82:168|146:190,1,140,8|2,0:0|0:0,0:0:0:0:
166,314,265970,1,2,0:0:0:0:
225,224,266148,53,2,0:0:0:0:
87,262,266327,1,2,0:0:0:0:
236,228,266505,1,2,0:0:0:0:
302,290,266684,1,0,0:0:0:0:
313,166,266862,2,0,L|321:96,2,70,8|0|2,0:0|0:0|0:0,0:0:0:0:
370,237,267398,1,0,0:0:0:0:
157,317,267577,38,0,P|173:249|127:175,1,140,6|2,0:0|0:0,0:0:0:0:
72,131,268112,1,0,0:0:0:0:
217,56,268291,2,0,L|209:147,1,70,8|0,0:0|0:0,0:0:0:0:
301,125,268648,1,2,0:0:0:0:
257,293,268827,1,2,0:0:0:0:
217,212,269005,5,2,0:0:0:0:
405,212,269184,1,2,0:0:0:0:
323,248,269362,1,2,0:0:0:0:
397,302,269541,1,0,0:0:0:0:
388,194,269720,37,8,0:0:0:0:
316,271,269898,1,2,0:3:0:0:
420,295,270077,1,0,0:0:0:0:
497,219,270255,1,0,0:0:0:0:
392,28,270434,38,0,L|485:51,1,93.3333333333333,2|0,0:0|0:0,0:0:0:0:
439,134,270851,2,0,L|356:112,1,70,2|0,0:0|0:0,0:0:0:0:
312,226,271208,6,0,L|304:308,1,62.9999980773926,2|0,0:0|0:0,0:0:0:0:
204,288,271565,2,0,L|198:211,1,62.9999980773926,2|0,0:0|0:0,0:0:0:0:
116,32,271922,6,0,B|136:84|136:84|140:148,1,112,2|2,0:0|0:0,0:0:0:0:
366,116,272577,5,0,0:0:0:0:
396,151,272666,1,0,0:0:0:0:
401,196,272755,1,0,0:0:0:0:
393,240,272845,1,0,0:0:0:0:
360,270,272934,1,0,0:0:0:0:
318,286,273023,1,0,0:0:0:0:
274,277,273112,1,0,0:0:0:0:
245,242,273202,1,0,0:0:0:0:
232,207,273291,38,0,L|242:338,1,112,4|0,0:0|0:0,0:0:0:0:
224,122,273827,2,0,P|204:59|153:36,1,112,2|0,0:0|0:0,0:0:0:0:
82,39,274362,1,0,0:0:0:0:
16,113,274541,1,0,0:0:0:0:
16,113,274720,6,0,L|5:224,2,112,2|0|2,0:0|0:0|0:0,0:0:0:0:
295,65,275612,1,0,0:0:0:0:
307,154,275791,1,0,0:0:0:0:
224,122,275970,1,0,0:0:0:0:
373,103,276148,38,0,P|389:161|363:218,1,112,6|0,0:0|0:0,0:0:0:0:
288,376,276684,2,0,P|272:318|298:261,1,112,2|0,0:0|0:0,0:0:0:0:
372,208,277220,2,0,L|440:208,1,56
360,324,277577,2,0,L|472:324,1,112,4|0,0:0|0:0,0:0:0:0:
244,201,278291,38,0,L|132:202,2,112,2|0|6,0:0|0:0|0:0,0:0:0:0:
422,58,279362,1,0,0:0:0:0:
422,58,279541,1,0,0:0:0:0:
422,58,280255,1,0,0:0:0:0:
363,125,280434,54,0,P|360:198|375:247,1,112,2|0,0:0|0:0,0:0:0:0:
209,314,281148,2,0,P|214:247|202:196,1,112
80,74,281862,2,0,L|205:64,1,112,6|0,0:0|0:0,0:0:0:0:
281,59,282398,1,2,0:0:0:0:
256,192,282487,12,0,284005,0:0:0:0:
140,304,284184,37,0,0:0:0:0:
151,214,284362,1,0,0:0:0:0:
69,251,284541,1,0,0:0:0:0:
220,264,284720,2,0,L|339:262,1,112,6|0,0:0|0:0,0:0:0:0:
430,112,285434,2,0,P|367:130|312:101,1,112,2|0,0:0|0:0,0:0:0:0:
248,68,285970,1,0,0:0:0:0:
166,30,286148,54,0,L|41:30,2,112,6|0|2,0:0|0:0|0:0,0:0:0:0:
146,129,287041,1,0,0:0:0:0:
67,170,287220,1,0,0:0:0:0:
123,240,287398,1,0,0:0:0:0:
208,288,287577,38,0,P|272:277|317:239,1,112,6|0,0:0|0:0,0:0:0:0:
441,104,288291,2,0,P|382:65|320:59,1,112,2|0,0:0|0:0,0:0:0:0:
253,63,288827,1,0,0:0:0:0:
253,63,289005,5,6,0:0:0:0:
257,330,289362,2,0,L|368:319,1,112,0|2,0:0|0:0,0:0:0:0:
425,237,289898,1,2,0:3:0:0:
294,145,290077,1,8,0:0:0:0:
291,153,290166,1,8,0:0:0:0:
288,160,290255,1,8,0:0:0:0:
284,167,290345,1,8,0:0:0:0:
280,174,290434,38,0,P|229:228|160:215,1,140,6|2,0:0|0:0,0:0:0:0:
90,318,290970,1,0,0:0:0:0:
90,318,291148,2,0,L|96:230,1,70,8|0,0:0|0:0,0:0:0:0:
34,179,291505,2,0,P|69:141|88:132,1,70,2|2,0:0|0:0,0:0:0:0:
226,61,291862,6,0,P|296:81|367:59,2,140,2|2|8,0:0|0:0|0:0,0:0:0:0:
204,236,292934,2,0,P|152:250|102:228,1,105,2|0,0:0|0:0,0:0:0:0:
104,216,293291,38,0,L|104:309,1,70,6|0,0:0|0:0,0:0:0:0:
98,94,293648,1,8,0:0:0:0:
104,286,293827,1,0,0:0:0:0:
193,178,294005,1,8,0:0:0:0:
169,40,294184,1,0,0:0:0:0:
104,216,294362,1,8,0:0:0:0:
280,139,294541,1,0,0:0:0:0:
238,304,294720,37,8,0:0:0:0:
408,260,294898,1,0,0:0:0:0:
356,99,295077,1,8,0:0:0:0:
193,178,295255,1,0,0:0:0:0:
472,196,295434,5,8,0:0:0:0:
382,173,295612,1,0,0:0:0:0:
408,260,295791,1,8,0:0:0:0:
408,270,295880,1,8,0:0:0:0:
408,280,295970,1,8,0:0:0:0:
485,97,296148,6,0,P|420:121|336:78,1,140,6|2,0:0|0:0,0:0:0:0:
289,36,296684,1,0,0:0:0:0:
93,97,296862,2,0,P|158:121|242:78,1,140,8|2,0:0|0:0,0:0:0:0:
93,97,297398,1,2,0:0:0:0:
124,212,297577,37,2,0:0:0:0:
222,98,297755,1,0,0:0:0:0:
38,168,297934,2,0,L|26:257,1,70,2|0,0:0|0:0,0:0:0:0:
39,57,298291,2,0,L|40:136,1,70,8|0,0:0|0:0,0:0:0:0:
229,167,298648,2,0,L|221:89,1,70,2|0,0:0|0:0,0:0:0:0:
164,239,299005,38,0,P|233:262|297:227,1,140,6|2,0:0|0:0,0:0:0:0:
372,269,299541,1,0,0:0:0:0:
372,269,299720,2,0,L|377:200,1,70,8|0,0:0|0:0,0:0:0:0:
343,101,300077,1,2,0:0:0:0:
148,147,300255,1,2,0:0:0:0:
99,70,300434,5,6,0:0:0:0:
175,19,300612,1,0,0:0:0:0:
222,97,300791,2,0,P|271:123|320:103,1,105,2|0,0:0|0:0,0:0:0:0:
343,101,301148,2,0,B|377:88|427:103|429:115,1,70,8|0,0:0|0:0,0:0:0:0:
372,269,301505,2,0,L|380:178,1,70,2|0,0:0|0:0,0:0:0:0:
509,43,301862,86,0,P|507:114|499:184,2,140,6|2|8,0:0|0:0|0:0,0:0:0:0:
454,110,302755,1,0,0:0:0:0:
347,59,302934,1,2,0:0:0:0:
206,110,303112,6,0,L|195:35,1,70,2|2,0:0|0:0,0:0:0:0:
264,180,303470,1,0,0:0:0:0:
347,59,303648,2,0,L|331:141,1,70,2|0,0:0|0:0,0:0:0:0:
299,314,304005,2,0,L|170:313,1,105,8|0,0:0|0:0,0:0:0:0:
159,283,304362,2,0,L|246:284,1,70,2|0,0:0|0:0,0:0:0:0:
448,268,304720,6,0,P|480:205|444:131,1,140,6|8,0:0|0:0,0:0:0:0:
305,85,305255,1,2,0:0:0:0:
302,71,305434,1,8,0:0:0:0:
139,202,305612,1,2,0:0:0:0:
136,188,305791,1,8,0:0:0:0:
323,288,305970,1,2,0:0:0:0:
319,273,306148,6,0,L|318:360,1,70,8|2,0:0|0:0,0:0:0:0:
81,230,306505,2,0,P|145:265|196:232,1,140,8|8,0:0|0:0,0:0:0:0:
302,71,307041,1,0,0:0:0:0:
390,50,307220,1,2,0:0:0:0:
475,82,307398,1,0,0:0:0:0:
306,150,307577,22,0,P|247:134|221:60,1,140,6|2,0:0|0:0,0:0:0:0:
413,212,308291,2,0,P|436:279|406:342,1,140,8|2,0:0|0:0,0:0:0:0:
243,272,308827,1,2,0:0:0:0:
413,226,309005,53,12,0:0:0:0:
240,255,309184,1,2,0:0:0:0:
415,242,309362,1,10,0:0:0:0:
240,238,309541,1,2,0:0:0:0:
415,259,309720,1,8,0:0:0:0:
358,188,309898,1,0,0:0:0:0:
397,106,310077,2,0,L|474:106|475:106,1,70,2|0,0:0|0:0,0:0:0:0:
251,36,310434,6,0,P|184:78|115:57,1,140,6|2,0:0|0:0,0:0:0:0:
43,32,310970,1,0,0:0:0:0:
251,36,311148,2,0,L|250:125,1,70,8|0,0:0|0:0,0:0:0:0:
213,292,311505,1,2,0:0:0:0:
143,214,311684,22,0,P|166:162|163:124,1,70,2|6,0:0|0:0,0:0:0:0:
127,66,312041,1,0,0:0:0:0:
262,192,312220,2,0,L|411:181,1,140,2|8,0:0|0:0,0:0:0:0:
348,44,312755,1,2,3:0:0:0:
248,20,312934,1,8,0:0:0:0:
252,28,313023,1,8,0:0:0:0:
256,36,313112,1,8,0:0:0:0:
260,44,313202,1,8,0:0:0:0:
263,52,313291,70,0,P|266:129|260:201,1,140,6|2,0:0|0:0,0:0:0:0:
322,306,313827,2,0,P|291:298|258:258,2,70,0|8|0,0:0|0:0|0:0,0:0:0:0:
330,230,314362,1,2,0:0:0:0:
208,134,314541,1,2,0:0:0:0:
332,112,314720,86,0,P|378:103|413:81,1,70,2|0,0:0|0:0,0:0:0:0:
263,52,315077,2,0,P|189:47|121:85,2,140,2|8|2,0:0|0:0|0:0,0:0:0:0:
263,52,315970,1,0,0:0:0:0:
404,160,316148,37,12,0:0:0:0:
433,245,316327,1,2,0:0:0:0:
104,160,316505,69,8,0:0:0:0:
75,245,316684,1,2,0:0:0:0:
405,89,316862,85,8,0:0:0:0:
434,174,317041,1,2,0:0:0:0:
105,89,317220,5,8,0:0:0:0:
76,174,317398,1,2,0:0:0:0:
172,244,317577,37,2,0:0:0:0:
160,224,318291,2,0,L|144:154,1,70
367,155,318648,2,0,L|352:224,1,70
344,320,319005,22,0,B|292:320|260:260|260:260|224:328|160:320,1,224
116,96,320077,37,8,0:0:0:0:
118,102,320166,1,8,0:0:0:0:
120,108,320255,1,8,0:0:0:0:
122,114,320345,1,8,0:0:0:0:
123,121,320434,38,0,L|232:113,1,97.9999970092774,2|2,0:0|0:0,0:0:0:0:
412,248,321148,2,0,L|298:256,1,97.9999970092774,8|0,0:0|0:0,0:0:0:0:
226,258,321684,1,2,0:0:0:0:
128,330,321862,2,0,P|100:264|112:224,2,97.9999970092774,2|2|8,0:0|0:0|0:0,0:0:0:0:
236,53,323291,6,0,P|318:83|266:165,1,195.999994018555,2|8,0:0|0:0,0:0:0:0:
442,80,324362,1,2,0:0:0:0:
442,80,324541,1,2,0:0:0:0:
442,80,324720,6,0,L|439:185,1,97.9999970092774,2|2,0:0|0:0,0:0:0:0:
254,329,325434,2,0,L|244:213,1,97.9999970092774,8|2,0:0|0:0,0:0:0:0:
60,140,326148,38,0,P|120:111|163:114,2,97.9999970092774,2|0|8,0:0|0:0|0:0,0:0:0:0:
317,210,327220,1,2,0:0:0:0:
277,131,327398,1,2,0:0:0:0:
389,64,327577,38,0,L|388:172,1,97.9999970092774,2|2,0:0|0:0,0:0:0:0:
229,300,328291,2,0,L|220:195,1,97.9999970092774,8|0,0:0|0:0,0:0:0:0:
118,58,329005,6,0,P|118:129|95:161,1,97.9999970092774,2|2,0:0|0:0,0:0:0:0:
22,181,329541,1,0,0:0:0:0:
13,93,329720,1,8,0:0:0:0:
314,120,330077,2,0,L|313:176,1,48.9999985046387,2|2,0:0|0:0,0:0:0:0:
392,109,330434,38,0,L|392:222,1,97.9999970092774,0|2,0:0|0:0,0:0:0:0:
252,336,331148,1,8,0:0:0:0:
254,321,331327,1,2,0:0:0:0:
256,306,331505,1,2,0:0:0:0:
286,160,331862,22,0,B|309:136|354:148|389:190|336:272|255:307|255:307|190:277|117:193|160:155|204:136|224:161,1,489.999985046387,2|2,0:0|0:0,0:0:0:0:
256,192,333827,12,0,341862,0:0:0:0:
