osu file format v14

[General]
AudioFilename: snow clown.mp3
AudioLeadIn: 0
PreviewTime: 61344
Countdown: 0
SampleSet: Soft
StackLeniency: 0.7
Mode: 3
LetterboxInBreaks: 0
EpilepsyWarning: 1
SpecialStyle: 0
WidescreenStoryboard: 1

[Editor]
DistanceSpacing: 0.8
BeatDivisor: 4
GridSize: 16
TimelineZoom: 1.6

[Metadata]
Title:snow clown
TitleUnicode:snow clown
Artist:wh
ArtistUnicode:wh
Creator:arviejhay
Version:Hash Brown Lv.9
Source:
Tags:niconico douga mad otomad otogemad donald ドナルド mcdonalds dj taka wehe wehesomushi potatomania snow storm
BeatmapID:482648
BeatmapSetID:192643

[Difficulty]
HPDrainRate:7
CircleSize:7
OverallDifficulty:7
ApproachRate:5
SliderMultiplier:1.4
SliderTickRate:1

[Events]
//Background and Video events
Video,0,"snow clown.avi"
0,0,"pizap.com14052184150891.jpg",0,0
//Break Periods
//Storyboard Layer 0 (Background)
//Storyboard Layer 1 (Fail)
//Storyboard Layer 2 (Pass)
//Storyboard Layer 3 (Foreground)
//Storyboard Sound Samples

[TimingPoints]
1750,413.793103448276,4,2,1,60,1,0
97750,-100,4,2,1,50,0,0
101060,-100,4,2,1,5,0,0
101887,-100,4,2,1,30,0,0
101991,-100,4,2,1,40,0,0
102094,-100,4,2,1,50,0,0
102198,-100,4,2,1,60,0,0
102301,-100,4,2,1,75,0,0
102405,-100,4,2,1,85,0,0
102508,-100,4,2,1,95,0,0
102612,-100,4,2,1,60,0,0

[HitObjects]
256,192,715,128,0,1750:0:0:0:0:
109,192,1750,128,0,2577:0:0:0:0:
36,192,1750,1,4,3:0:0:0:
475,192,1750,1,4,0:0:0:0:
329,192,2163,1,8,0:0:0:0:
182,192,2577,128,0,3405:0:0:0:0:
475,192,2577,1,4,3:0:0:0:
402,192,2991,1,8,0:0:0:0:
256,192,3405,128,0,4232:0:0:0:0:
36,192,3405,1,4,3:0:0:0:
109,192,3818,1,8,0:0:0:0:
329,192,4232,128,0,5060:0:0:0:0:
182,192,4232,1,4,3:0:0:0:
402,192,4646,1,8,0:0:0:0:
475,192,5060,128,0,5887:0:0:0:0:
109,192,5060,1,4,3:0:0:0:
256,192,5474,1,8,0:0:0:0:
402,192,5887,128,0,6715:0:0:0:0:
36,192,5887,1,4,3:0:0:0:
182,192,6301,1,8,0:0:0:0:
329,192,6715,128,0,7543:0:0:0:0:
109,192,6715,1,4,3:0:0:0:
475,192,7129,1,8,0:0:0:0:
256,192,7543,128,0,8163:0:0:0:0:
36,192,7543,1,4,3:0:0:0:
402,192,7956,1,8,0:0:0:0:
36,192,8370,128,0,9198:0:0:0:0:
329,192,8370,1,4,3:0:0:0:
256,192,8784,1,8,0:0:0:0:
109,192,9198,128,0,10025:0:0:0:0:
402,192,9198,1,4,3:0:0:0:
329,192,9612,1,8,0:0:0:0:
182,192,10025,128,0,10853:0:0:0:0:
475,192,10025,1,4,3:0:0:0:
402,192,10439,1,8,0:0:0:0:
256,192,10853,128,0,11681:0:0:0:0:
36,192,10853,1,4,3:0:0:0:
109,192,11267,1,8,0:0:0:0:
182,192,11681,1,8,3:0:0:0:
475,192,11681,128,0,12508:0:0:0:0:
256,192,12094,1,8,0:0:0:0:
402,192,12508,128,0,13336:0:0:0:0:
109,192,12508,1,8,3:0:0:0:
182,192,12922,1,8,0:0:0:0:
36,192,13336,128,0,13750:0:0:0:0:
256,192,13336,1,8,3:0:0:0:
182,192,13750,128,0,14163:0:0:0:0:
402,192,13750,1,8,0:0:0:0:
329,192,14163,128,0,14577:0:0:0:0:
475,192,14163,1,8,3:0:0:0:
475,192,14577,128,0,14991:0:0:0:0:
36,192,14577,1,8,0:0:0:0:
182,192,14991,1,4,0:0:0:0:
36,192,14991,128,0,15818:0:0:0:0:
402,192,14991,1,8,3:0:0:0:
329,192,15405,1,8,0:0:0:0:
109,192,15818,128,0,16646:0:0:0:0:
475,192,15818,1,8,3:0:0:0:
402,192,16232,1,8,0:0:0:0:
182,192,16646,128,0,17474:0:0:0:0:
475,192,16646,1,8,3:0:0:0:
329,192,17060,1,8,0:0:0:0:
256,192,17474,128,0,18301:0:0:0:0:
36,192,17474,1,8,3:0:0:0:
182,192,17887,1,8,0:0:0:0:
475,192,18301,128,0,19129:0:0:0:0:
36,192,18301,1,8,3:0:0:0:
256,192,18715,1,8,0:0:0:0:
402,192,19129,128,0,19956:0:0:0:0:
36,192,19129,1,8,3:0:0:0:
182,192,19543,1,8,0:0:0:0:
109,192,19956,1,8,3:0:0:0:
256,192,19956,128,0,20370:0:0:0:0:
475,192,20370,1,8,0:0:0:0:
182,192,20370,128,0,20784:0:0:0:0:
329,192,20784,1,8,3:0:0:0:
109,192,20784,128,0,21198:0:0:0:0:
402,192,21198,1,8,0:0:0:0:
182,192,21198,128,0,21612:0:0:0:0:
256,192,21612,128,0,22439:0:0:0:0:
36,192,21612,1,8,3:0:0:0:
402,192,22025,1,8,0:0:0:0:
182,192,22439,128,0,23267:0:0:0:0:
475,192,22439,1,8,3:0:0:0:
402,192,22853,1,8,0:0:0:0:
329,192,23267,1,8,3:0:0:0:
109,192,23267,128,0,24094:0:0:0:0:
402,192,23681,1,8,0:0:0:0:
36,192,24094,128,0,24922:0:0:0:0:
475,192,24094,1,8,3:0:0:0:
402,192,24508,1,8,0:0:0:0:
256,192,24922,128,0,25750:0:0:0:0:
329,192,24922,1,8,3:0:0:0:
475,192,25336,1,8,0:0:0:0:
182,192,25750,128,0,26577:0:0:0:0:
36,192,25750,1,8,3:0:0:0:
329,192,26163,1,8,0:0:0:0:
36,192,26577,1,0,1:0:0:0:
475,192,26577,1,8,3:0:0:0:
329,192,26577,128,0,26991:0:0:0:0:
109,192,26991,1,0,1:0:0:0:
402,192,26991,1,8,0:0:0:0:
182,192,26991,128,0,27405:0:0:0:0:
475,192,27405,1,8,3:0:0:0:
256,192,27405,1,0,1:0:0:0:
36,192,27405,128,0,27818:0:0:0:0:
109,192,27818,1,0,1:0:0:0:
402,192,27818,1,8,0:0:0:0:
329,192,27818,128,0,28232:0:0:0:0:
36,192,28232,1,4,0:0:0:0:
475,192,28232,1,8,3:0:0:0:
256,192,28232,1,0,0:0:0:0:
402,192,28646,1,8,0:0:0:0:
109,192,28646,1,0,0:0:0:0:
182,192,29060,1,0,0:0:0:0:
329,192,29060,1,8,3:0:0:0:
402,192,29474,1,8,0:0:0:0:
109,192,29474,1,0,0:0:0:0:
475,192,29887,1,0,0:0:0:0:
36,192,29887,1,8,3:0:0:0:
402,192,30301,1,0,0:0:0:0:
109,192,30301,1,8,0:0:0:0:
182,192,30715,1,8,3:0:0:0:
329,192,30715,1,0,0:0:0:0:
109,192,31129,1,0,0:0:0:0:
475,192,31129,1,8,0:0:0:0:
402,192,31336,1,0,0:0:0:0:
329,192,31543,1,8,3:0:0:0:
36,192,31543,1,0,0:0:0:0:
109,192,31956,1,0,0:0:0:0:
402,192,31956,1,8,0:0:0:0:
475,192,32370,1,0,0:0:0:0:
182,192,32370,1,8,3:0:0:0:
402,192,32784,1,8,0:0:0:0:
109,192,32784,1,0,0:0:0:0:
36,192,33198,1,0,0:0:0:0:
329,192,33198,1,8,3:0:0:0:
402,192,33612,1,8,0:0:0:0:
109,192,33612,1,0,0:0:0:0:
182,192,34025,1,8,3:0:0:0:
475,192,34025,1,0,0:0:0:0:
109,192,34439,1,0,0:0:0:0:
402,192,34439,1,8,0:0:0:0:
329,192,34646,1,0,0:0:0:0:
475,192,34853,1,8,3:0:0:0:
36,192,34853,1,0,0:0:0:0:
36,192,35267,1,0,0:0:0:0:
402,192,35267,1,8,0:0:0:0:
475,192,35681,1,0,0:0:0:0:
109,192,35681,1,8,3:0:0:0:
182,192,36094,1,0,0:0:0:0:
475,192,36094,1,8,0:0:0:0:
402,192,36508,1,8,3:0:0:0:
109,192,36508,1,0,0:0:0:0:
109,192,36922,1,0,0:0:0:0:
329,192,36922,1,8,0:0:0:0:
109,192,37336,1,0,0:0:0:0:
402,192,37336,1,8,3:0:0:0:
182,192,37750,1,0,0:0:0:0:
402,192,37750,1,8,0:0:0:0:
329,192,37956,1,0,0:0:0:0:
475,192,38163,1,0,0:0:0:0:
36,192,38163,1,8,3:0:0:0:
109,192,38577,1,0,0:0:0:0:
475,192,38577,1,8,0:0:0:0:
36,192,38991,1,0,0:0:0:0:
402,192,38991,1,8,3:0:0:0:
36,192,39405,1,0,0:0:0:0:
329,192,39405,1,8,0:0:0:0:
182,192,39818,1,0,0:0:0:0:
402,192,39818,1,8,3:0:0:0:
109,192,40232,1,0,0:0:0:0:
329,192,40232,1,8,0:0:0:0:
402,192,40646,1,8,3:0:0:0:
36,192,40646,1,0,0:0:0:0:
329,192,40853,1,0,0:0:0:0:
109,192,41060,1,0,0:0:0:0:
475,192,41060,1,8,0:0:0:0:
402,192,41267,1,0,0:0:0:0:
36,192,41474,1,4,0:0:0:0:
475,192,41474,1,8,3:0:0:0:
256,192,41474,1,0,0:0:0:0:
109,192,41887,1,0,0:0:0:0:
402,191,41887,1,8,0:0:0:0:
182,192,42301,1,0,0:0:0:0:
475,192,42301,1,8,3:0:0:0:
402,192,42715,1,8,0:0:0:0:
109,192,42715,1,0,0:0:0:0:
475,192,43129,1,8,3:0:0:0:
36,192,43129,1,0,0:0:0:0:
402,192,43543,1,8,0:0:0:0:
109,192,43543,1,0,0:0:0:0:
329,192,43956,1,8,3:0:0:0:
182,192,43956,1,0,0:0:0:0:
402,192,44370,1,8,0:0:0:0:
109,192,44370,1,0,0:0:0:0:
256,192,44577,1,0,0:0:0:0:
475,192,44784,1,8,3:0:0:0:
36,192,44784,1,0,0:0:0:0:
109,192,45198,1,0,0:0:0:0:
402,192,45198,1,8,0:0:0:0:
329,192,45612,1,8,3:0:0:0:
36,192,45612,1,0,0:0:0:0:
182,192,46025,1,0,0:0:0:0:
475,192,46025,1,8,0:0:0:0:
402,192,46439,1,8,3:0:0:0:
109,192,46439,1,0,0:0:0:0:
36,192,46853,1,8,0:0:0:0:
402,192,46853,1,0,0:0:0:0:
475,192,47267,1,8,3:0:0:0:
109,192,47267,1,0,0:0:0:0:
329,192,47681,1,8,0:0:0:0:
182,192,47681,1,0,0:0:0:0:
109,192,47887,1,0,0:0:0:0:
402,192,48094,1,8,3:0:0:0:
36,192,48094,1,0,0:0:0:0:
182,192,48508,1,0,0:0:0:0:
402,192,48508,1,8,0:0:0:0:
109,192,48922,1,8,3:0:0:0:
475,192,48922,1,0,0:0:0:0:
109,192,49336,1,0,0:0:0:0:
329,192,49336,1,8,0:0:0:0:
36,192,49750,1,0,0:0:0:0:
475,192,49750,1,8,3:0:0:0:
109,192,50163,1,0,0:0:0:0:
475,192,50163,1,8,0:0:0:0:
36,192,50577,1,8,3:0:0:0:
402,192,50577,1,0,0:0:0:0:
329,192,50991,1,0,0:0:0:0:
36,192,50991,1,8,0:0:0:0:
402,192,51405,1,0,0:0:0:0:
109,192,51405,1,8,3:0:0:0:
182,192,51818,1,0,0:0:0:0:
475,192,51818,1,8,0:0:0:0:
109,192,52232,1,0,0:0:0:0:
402,192,52232,1,8,3:0:0:0:
329,192,52646,1,0,0:0:0:0:
36,192,52646,1,8,0:0:0:0:
109,192,53060,1,0,1:0:0:0:
475,192,53060,1,8,3:0:0:0:
402,192,53474,1,8,0:0:0:0:
182,192,53474,1,0,0:0:0:0:
109,192,53887,1,0,1:0:0:0:
329,192,53887,128,0,54301:0:0:0:0:
182,192,54094,1,0,1:0:0:0:
475,192,54301,1,8,0:0:0:0:
36,192,54301,128,0,54715:0:0:0:0:
256,192,54301,1,0,1:0:0:0:
402,192,54508,1,8,3:0:0:0:
109,192,54715,1,0,1:0:0:0:
329,192,54715,1,4,0:0:0:0:
256,192,54715,128,0,61336:0:0:0:0:
36,192,61336,128,0,62991:0:0:0:0:
182,192,62991,128,0,64646:0:0:0:0:
329,192,64646,128,0,65474:0:0:0:0:
475,192,65474,128,0,66301:0:0:0:0:
402,192,66301,128,0,67129:0:0:0:0:
329,192,67129,128,0,67956:0:0:0:0:
182,192,67543,1,0,0:0:0:0:
109,192,67956,1,0,0:0:0:0:
402,192,67956,1,0,0:0:0:0:
182,192,68784,1,0,0:0:0:0:
329,192,68784,1,0,0:0:0:0:
475,192,69612,1,0,0:0:0:0:
36,192,69612,1,0,0:0:0:0:
109,192,70439,1,0,0:0:0:0:
402,192,70439,1,0,0:0:0:0:
182,192,71267,1,0,0:0:0:0:
329,192,71267,1,0,0:0:0:0:
36,192,72094,1,0,0:0:0:0:
475,192,72094,1,0,0:0:0:0:
402,192,72922,1,0,0:0:0:0:
109,192,73336,1,0,0:0:0:0:
402,192,73750,1,0,0:0:0:0:
329,192,74163,1,0,0:0:0:0:
182,192,74163,1,0,0:0:0:0:
36,192,74577,1,4,0:0:0:0:
475,192,74577,1,8,3:0:0:0:
256,192,74577,1,0,0:0:0:0:
402,192,74991,1,8,0:0:0:0:
475,192,75612,1,8,3:0:0:0:
329,192,75818,1,8,0:0:0:0:
182,192,76232,1,8,3:0:0:0:
109,192,76646,1,8,0:0:0:0:
36,192,77267,1,8,3:0:0:0:
182,192,77474,1,8,0:0:0:0:
329,192,77887,1,8,3:0:0:0:
402,192,78301,1,8,0:0:0:0:
109,192,78922,1,8,3:0:0:0:
182,192,79129,1,8,0:0:0:0:
475,192,79543,1,8,3:0:0:0:
402,192,79956,1,8,0:0:0:0:
329,192,80577,1,8,3:0:0:0:
109,192,80784,1,8,0:0:0:0:
402,192,81198,1,8,3:0:0:0:
182,192,81198,1,4,0:0:0:0:
36,192,81612,1,8,0:0:0:0:
182,192,82232,1,8,3:0:0:0:
36,192,82439,1,8,0:0:0:0:
402,192,82853,1,8,3:0:0:0:
109,192,83267,1,8,0:0:0:0:
402,192,83887,1,8,3:0:0:0:
109,192,84094,1,8,0:0:0:0:
475,192,84508,1,8,3:0:0:0:
182,192,84922,1,8,0:0:0:0:
475,192,85543,1,8,3:0:0:0:
182,192,85750,1,8,0:0:0:0:
256,192,86163,1,8,3:0:0:0:
329,192,86577,1,8,0:0:0:0:
402,192,86991,1,8,3:0:0:0:
329,192,87198,1,8,3:0:0:0:
256,192,87405,1,8,3:0:0:0:
36,192,87405,1,8,0:0:0:0:
182,192,87612,1,8,3:0:0:0:
475,192,87818,1,8,3:0:0:0:
329,192,87818,1,0,0:0:0:0:
36,192,88232,1,8,0:0:0:0:
256,192,88646,1,8,3:0:0:0:
182,192,88853,1,8,3:0:0:0:
109,192,89060,1,8,0:0:0:0:
36,192,89474,1,8,3:0:0:0:
475,192,89887,1,8,0:0:0:0:
256,192,90301,1,8,3:0:0:0:
329,192,90508,1,8,3:0:0:0:
402,192,90715,1,8,0:0:0:0:
329,192,90922,1,8,3:0:0:0:
36,192,91129,1,8,3:0:0:0:
475,192,91543,1,8,0:0:0:0:
36,192,91956,1,8,3:0:0:0:
256,192,92163,1,8,3:0:0:0:
475,192,92370,1,8,0:0:0:0:
36,192,92784,1,8,3:0:0:0:
182,192,93198,1,8,0:0:0:0:
329,192,93612,1,8,3:0:0:0:
329,192,93818,1,8,3:0:0:0:
182,192,94025,1,8,3:0:0:0:
402,192,94025,1,8,0:0:0:0:
36,192,94232,1,8,3:0:0:0:
329,192,94439,1,8,3:0:0:0:
182,192,94439,1,0,0:0:0:0:
256,192,94646,1,0,0:0:0:0:
329,192,94853,1,0,0:0:0:0:
475,192,94853,1,8,0:0:0:0:
182,192,95060,1,0,0:0:0:0:
475,192,95267,1,8,3:0:0:0:
109,192,95267,1,0,0:0:0:0:
36,192,95681,1,8,0:0:0:0:
402,192,95681,1,0,0:0:0:0:
329,192,96094,1,8,3:0:0:0:
182,192,96094,1,0,0:0:0:0:
402,192,96301,1,0,0:0:0:0:
475,192,96508,1,8,0:0:0:0:
109,192,96508,1,0,0:0:0:0:
36,192,96922,1,8,3:0:0:0:
329,192,96922,1,0,0:0:0:0:
36,192,97336,1,8,0:0:0:0:
402,192,97336,1,0,0:0:0:0:
402,192,97750,1,8,3:0:0:0:
329,192,97956,1,8,3:0:0:0:
256,192,98163,1,8,3:0:0:0:
182,192,98370,1,8,3:0:0:0:
109,192,98577,1,8,3:0:0:0:
182,192,98784,1,8,3:0:0:0:
256,192,98991,1,8,3:0:0:0:
329,192,99198,1,8,3:0:0:0:
402,192,99405,1,8,3:0:0:0:
329,192,99612,1,8,3:0:0:0:
256,192,99818,1,8,3:0:0:0:
329,192,100025,1,8,3:0:0:0:
256,192,100232,1,8,3:0:0:0:
182,192,100439,1,8,3:0:0:0:
256,192,100646,1,8,3:0:0:0:
329,192,100853,1,8,3:0:0:0:
256,192,101060,128,0,102715:0:0:0:0:
402,192,101060,1,0,0:0:0:0:
109,192,101887,1,0,1:0:0:0:
182,192,102094,1,0,1:0:0:0:
329,192,102301,1,0,1:0:0:0:
402,192,102508,1,0,1:0:0:0:
36,192,102715,1,4,0:0:0:0:
475,192,102715,1,0,0:0:0:0:
109,192,102922,1,0,0:0:0:0:
182,192,103129,1,8,0:0:0:0:
329,192,103129,1,0,0:0:0:0:
256,192,103336,1,0,0:0:0:0:
109,192,103543,1,8,3:0:0:0:
475,192,103543,1,0,0:0:0:0:
182,192,103750,1,0,0:0:0:0:
402,192,103956,1,8,0:0:0:0:
256,192,103956,1,0,0:0:0:0:
329,192,104163,1,0,0:0:0:0:
475,192,104370,1,8,3:0:0:0:
256,192,104370,1,0,0:0:0:0:
182,192,104577,1,0,0:0:0:0:
329,192,104784,1,8,0:0:0:0:
109,192,104784,1,0,0:0:0:0:
36,192,104991,1,0,0:0:0:0:
402,192,105198,1,8,3:0:0:0:
182,192,105198,1,0,0:0:0:0:
329,192,105405,1,0,0:0:0:0:
256,192,105612,1,8,0:0:0:0:
475,192,105612,1,0,0:0:0:0:
182,192,105818,1,0,0:0:0:0:
36,192,106025,1,8,3:0:0:0:
329,192,106025,1,0,0:0:0:0:
109,192,106232,1,0,0:0:0:0:
402,192,106439,1,8,0:0:0:0:
182,192,106439,1,0,0:0:0:0:
256,192,106646,1,0,0:0:0:0:
109,192,106853,1,8,3:0:0:0:
475,192,106853,1,0,0:0:0:0:
402,192,107060,1,0,0:0:0:0:
329,192,107267,1,8,0:0:0:0:
182,192,107267,1,0,0:0:0:0:
256,192,107474,1,0,0:0:0:0:
402,192,107681,1,8,3:0:0:0:
109,192,107681,1,0,0:0:0:0:
36,192,107887,1,0,0:0:0:0:
109,192,108094,1,8,0:0:0:0:
329,192,108094,1,0,0:0:0:0:
182,192,108301,1,0,0:0:0:0:
402,192,108508,1,8,3:0:0:0:
256,192,108508,1,0,0:0:0:0:
475,192,108715,1,0,0:0:0:0:
182,192,108922,1,8,0:0:0:0:
402,192,108922,1,0,0:0:0:0:
329,192,109129,1,0,0:0:0:0:
109,192,109336,1,8,3:0:0:0:
36,192,109336,1,0,0:0:0:0:
329,192,109543,1,0,0:0:0:0:
182,192,109750,1,8,0:0:0:0:
109,192,109750,1,0,0:0:0:0:
402,192,109956,1,0,0:0:0:0:
256,192,110163,1,8,3:0:0:0:
182,192,110163,1,0,0:0:0:0:
475,192,110370,1,0,0:0:0:0:
329,192,110577,1,8,0:0:0:0:
256,192,110577,1,0,0:0:0:0:
475,192,110784,1,0,0:0:0:0:
402,192,110991,1,8,3:0:0:0:
36,192,110991,1,0,0:0:0:0:
256,192,111198,1,0,0:0:0:0:
402,192,111405,1,8,0:0:0:0:
475,192,111405,1,0,0:0:0:0:
182,192,111612,1,0,0:0:0:0:
402,192,111818,1,8,3:0:0:0:
329,192,111818,1,0,0:0:0:0:
109,192,112025,1,0,0:0:0:0:
329,192,112232,1,8,0:0:0:0:
256,192,112232,1,0,0:0:0:0:
36,192,112439,1,0,0:0:0:0:
182,192,112646,1,8,3:0:0:0:
402,192,112646,1,0,0:0:0:0:
329,192,112853,1,0,0:0:0:0:
475,192,113060,1,8,0:0:0:0:
256,192,113060,1,0,0:0:0:0:
329,192,113267,1,0,0:0:0:0:
109,192,113474,1,8,3:0:0:0:
256,192,113474,1,0,0:0:0:0:
182,192,113681,1,0,0:0:0:0:
402,192,113887,1,8,0:0:0:0:
36,192,113887,1,0,0:0:0:0:
329,192,114094,1,0,0:0:0:0:
256,192,114301,1,8,3:0:0:0:
475,192,114301,1,0,0:0:0:0:
182,192,114508,1,0,0:0:0:0:
256,192,114715,1,8,0:0:0:0:
36,192,114715,1,0,0:0:0:0:
329,192,114922,1,0,0:0:0:0:
402,192,115129,1,8,3:0:0:0:
109,192,115129,1,0,0:0:0:0:
329,192,115336,1,8,3:0:0:0:
256,192,115543,1,8,0:0:0:0:
36,192,115543,1,8,3:0:0:0:
182,192,115750,1,8,3:0:0:0:
475,192,115956,1,8,3:0:0:0:
329,192,115956,1,0,0:0:0:0:
36,192,116370,1,8,0:0:0:0:
256,192,116784,1,8,3:0:0:0:
182,192,116991,1,8,3:0:0:0:
109,192,117198,1,8,0:0:0:0:
36,192,117612,1,8,3:0:0:0:
475,192,118025,1,8,0:0:0:0:
256,192,118439,1,8,3:0:0:0:
329,192,118646,1,8,3:0:0:0:
402,192,118853,1,8,0:0:0:0:
329,192,119060,1,8,3:0:0:0:
36,192,119267,1,8,3:0:0:0:
475,192,119681,1,8,0:0:0:0:
36,192,120094,1,8,3:0:0:0:
256,192,120301,1,8,3:0:0:0:
475,192,120508,1,8,0:0:0:0:
36,192,120922,1,8,3:0:0:0:
182,192,121336,1,8,0:0:0:0:
329,192,121750,1,8,3:0:0:0:
329,192,121956,1,8,3:0:0:0:
182,192,122163,1,8,3:0:0:0:
402,192,122163,1,8,0:0:0:0:
36,192,122370,1,8,3:0:0:0:
329,192,122577,1,8,3:0:0:0:
182,192,122577,1,0,0:0:0:0:
256,192,122784,1,0,0:0:0:0:
329,192,122991,1,0,0:0:0:0:
475,192,122991,1,8,0:0:0:0:
182,192,123198,1,0,0:0:0:0:
475,192,123405,1,8,3:0:0:0:
109,192,123405,1,0,0:0:0:0:
402,192,123818,1,0,0:0:0:0:
36,192,123818,1,8,0:0:0:0:
182,192,124232,1,0,0:0:0:0:
329,192,124232,1,8,3:0:0:0:
402,192,124439,1,0,0:0:0:0:
475,192,124646,1,8,0:0:0:0:
109,192,124646,1,0,0:0:0:0:
329,192,125060,1,0,0:0:0:0:
36,192,125060,1,0,3:0:0:0:
402,192,125474,1,0,0:0:0:0:
36,192,125474,1,8,0:0:0:0:
36,192,125887,1,4,0:0:0:0:
475,192,125887,1,8,3:0:0:0:
402,192,126094,1,8,3:0:0:0:
329,192,126301,1,8,3:0:0:0:
256,192,126508,1,8,3:0:0:0:
109,192,126715,1,8,3:0:0:0:
182,192,126715,1,4,0:0:0:0:
256,192,126922,1,8,3:0:0:0:
329,192,127129,1,8,3:0:0:0:
402,192,127336,1,8,3:0:0:0:
475,192,127543,1,8,3:0:0:0:
36,192,127543,1,4,0:0:0:0:
109,192,127750,1,8,3:0:0:0:
182,192,127956,1,8,3:0:0:0:
256,192,128163,1,8,3:0:0:0:
329,192,128370,1,8,3:0:0:0:
475,192,128370,1,4,0:0:0:0:
256,192,128577,1,8,3:0:0:0:
182,192,128784,1,8,3:0:0:0:
109,192,128991,1,8,3:0:0:0:
36,192,129198,1,0,0:0:0:0:
256,192,129198,128,0,132508:0:0:0:0:
