osu file format v14

[General]
AudioFilename: audio.mp3
AudioLeadIn: 0
PreviewTime: 26078
Countdown: 0
SampleSet: Normal
StackLeniency: 0.7
Mode: 3
LetterboxInBreaks: 0
SpecialStyle: 0
WidescreenStoryboard: 0

[Editor]
DistanceSpacing: 0.6
BeatDivisor: 2
GridSize: 16
TimelineZoom: 1

[Metadata]
Title:Unfinished Catastrophe
TitleUnicode:Unfinished Catastrophe
Artist:weyheyhey !!
ArtistUnicode:weyheyhey !!
Creator:The Fire Tiger
Version:Disaster
Source:
Tags:weyheyhey the fire tiger songs i made in a hurry ep unfinished catastrophe theblackparrot rotterdam gabber electronic disaster breakcore cropped short
BeatmapID:972795
BeatmapSetID:453658

[Difficulty]
HPDrainRate:8
CircleSize:4
OverallDifficulty:8
ApproachRate:5
SliderMultiplier:1.4
SliderTickRate:1

[Events]
//Background and Video events
//Break Periods
//Storyboard Layer 0 (Background)
//Storyboard Layer 1 (Fail)
//Storyboard Layer 2 (Pass)
//Storyboard Layer 3 (Foreground)
//Storyboard Sound Samples

[TimingPoints]
510,272.727272727273,4,2,0,100,1,0
8146,-111.111111111111,4,1,0,100,0,0
8419,-125,4,1,0,100,0,0
8691,-142.857142857143,4,1,0,100,0,0
8964,-166.666666666667,4,1,0,100,0,0
9237,-200,4,2,0,50,0,0
17828,-200,4,1,0,100,0,0
17964,-100,4,1,0,100,0,0
18032,-100,4,2,0,50,0,0
18237,-200,4,2,0,50,0,0
20078,-200,4,1,0,50,0,0
20146,-133.333333333333,4,1,0,75,0,0
20282,-200,4,1,0,75,0,0
20623,-200,4,1,0,100,0,0
20691,-100,4,1,0,100,0,0
20896,-100,4,2,0,50,0,0
20964,-200,4,2,0,50,0,0
22021,-200,4,1,0,100,0,0
22055,-100,4,1,0,100,0,0
22294,-100,4,2,0,50,0,0
22328,-200,4,2,0,50,0,0
24100,-200,4,1,0,100,0,0
24237,-100,4,1,0,100,0,0
24510,-200,4,1,0,100,0,0
24714,-200,4,2,0,50,0,0
24987,-200,4,1,0,100,0,0
25191,-133.333333333333,4,1,0,100,0,0
25328,-200,4,1,0,100,0,0
25600,-100,4,1,0,100,0,0
25873,-200,4,1,0,100,0,0
26145,272.727272727273,4,1,0,100,1,0
32145,-66.6666666666667,4,1,0,100,0,0
32213,-62.5,4,1,0,100,0,0
32281,-58.8235294117647,4,1,0,100,0,0
32349,-55.5555555555556,4,1,0,100,0,0
32417,-200,4,1,0,100,0,0
32690,-100,4,1,0,100,0,0
34872,-66.6666666666667,4,1,0,100,0,0
37873,272.727272727273,4,1,0,100,1,0
37873,-66.6666666666667,4,1,0,100,0,0
41963,272.727272727273,4,1,0,100,1,0
41963,-66.6666666666667,4,1,0,100,0,0
45235,-71.4285714285714,4,1,0,100,0,0
45372,-55.5555555555556,4,1,0,100,0,0
46053,272.727272727273,4,1,0,100,1,0
46053,-45.4545454545455,4,1,0,100,0,0
46326,-66.6666666666667,4,1,0,100,0,0
49599,-40,4,1,0,100,0,0
49667,-200,4,1,0,100,0,0
49872,-40,4,1,0,100,0,0
49940,-200,4,1,0,100,0,0
50144,-40,4,1,0,100,0,0
50213,-200,4,1,0,100,0,0
50417,-100,4,1,0,100,0,0
50553,-71.4285714285714,4,1,0,100,0,0
50690,-55.5555555555556,4,1,0,100,0,0
50826,-45.4545454545455,4,1,0,100,0,0
50963,-38.4615384615385,4,1,0,100,0,0
51099,-33.3333333333333,4,1,0,100,0,0
51235,272.727272727273,4,1,0,100,1,0
51235,-66.6666666666667,4,1,0,100,0,0
54235,272.727272727273,4,1,0,100,1,0
54235,-66.6666666666667,4,1,0,100,0,0
58325,272.727272727273,4,1,0,100,1,0
58325,-66.6666666666667,4,1,0,100,0,0
62415,272.727272727273,4,1,0,100,1,0
62415,-66.6666666666667,4,1,0,100,0,0
62687,-57.1428571428571,4,1,0,100,0,0
63505,-66.6666666666667,4,1,0,100,0,0
65142,-100,4,1,0,100,0,0
65278,-133.333333333333,4,1,0,100,0,0
65415,-200,4,1,0,100,0,0
66505,272.727272727273,4,1,0,100,1,0
67324,-40,4,1,0,100,0,0
67460,-20,4,1,0,100,0,0
67596,272.727272727273,4,1,0,100,1,1
67596,-66.6666666666667,4,1,0,100,0,1
70596,272.727272727273,4,1,0,100,1,1
70596,-66.6666666666667,4,1,0,100,0,1
73868,-57.1428571428571,4,1,0,100,0,1
74005,-50,4,1,0,100,0,1
74141,-44.4444444444445,4,1,0,100,0,1
74277,-40,4,1,0,100,0,1
74323,-50,4,1,0,100,0,1
74368,-66.6666666666667,4,1,0,100,0,1
74414,272.727272727273,5,1,0,100,1,0
74414,-133.333333333333,5,1,0,100,0,0
75777,272.727272727273,4,1,0,100,1,0
75777,-66.6666666666667,4,1,0,100,0,0
82322,-60.6060606060606,4,1,0,100,0,0
82595,-55.5555555555556,4,1,0,100,0,0
82867,-51.2820512820513,4,1,0,100,0,0
83140,-47.6190476190476,4,1,0,100,0,0
83958,-51.2820512820513,4,1,0,100,0,0
84095,-55.5555555555556,4,1,0,100,0,0
84231,-60.6060606060606,4,1,0,100,0,0
84367,-66.6666666666667,4,1,0,100,0,0
91867,-100,4,1,0,100,0,0
92004,-200,4,1,0,100,0,0
92140,-133.333333333333,4,1,0,100,0,0
92413,-80,4,1,0,100,0,0
92686,-57.1428571428571,4,1,0,100,0,0
92958,-44.4444444444445,4,1,0,100,0,0
93231,-66.6666666666667,4,1,0,100,0,0
101413,-74.0740740740741,4,1,0,100,0,0
101447,-83.3333333333333,4,1,0,100,0,0
101481,-95.2380952380952,4,1,0,100,0,0
101515,-111.111111111111,4,1,0,100,0,0
101549,-142.857142857143,4,1,0,100,0,0
101686,-104.166666666667,4,1,0,100,0,0
101754,-81.9672131147541,4,1,0,100,0,0
101822,-67.5675675675676,4,1,0,100,0,0
101890,-57.4712643678161,4,1,0,100,0,0
101958,-50,4,1,0,100,0,1
110686,-66.6666666666667,4,2,0,100,0,0

[HitObjects]
64,192,9237,5,0,0:0:0:0:
320,192,9510,1,0,0:0:0:0:
448,192,9510,1,0,0:0:0:0:
192,192,9782,1,0,0:0:0:0:
448,192,10055,1,0,0:0:0:0:
192,192,10191,1,0,0:0:0:0:
64,192,10191,1,0,0:0:0:0:
320,192,10600,1,0,0:0:0:0:
320,192,10873,1,0,0:0:0:0:
192,192,10873,1,0,0:0:0:0:
64,192,11146,1,0,0:0:0:0:
192,192,11419,1,0,0:0:0:0:
64,192,11691,1,0,0:0:0:0:
448,192,11691,1,0,0:0:0:0:
192,192,11964,1,0,0:0:0:0:
448,192,12237,1,0,0:0:0:0:
192,192,12510,1,0,0:0:0:0:
64,192,12782,1,0,0:0:0:0:
192,192,13055,128,0,13328:0:0:0:0:
320,192,13055,128,0,13328:0:0:0:0:
448,192,13191,1,0,0:0:0:0:
64,192,13328,1,0,0:0:0:0:
192,192,13600,1,0,0:0:0:0:
64,192,13873,1,0,0:0:0:0:
448,192,13873,1,0,0:0:0:0:
192,192,14146,1,0,0:0:0:0:
448,192,14419,1,0,0:0:0:0:
64,192,14555,1,0,0:0:0:0:
192,192,14555,1,0,0:0:0:0:
64,192,14964,1,0,0:0:0:0:
192,192,15237,1,0,0:0:0:0:
320,192,15237,1,0,0:0:0:0:
448,192,15510,1,0,0:0:0:0:
448,192,15782,1,0,0:0:0:0:
64,192,16055,1,0,0:0:0:0:
320,192,16055,1,0,0:0:0:0:
192,192,16328,1,0,0:0:0:0:
64,192,16600,1,0,0:0:0:0:
192,192,16737,1,0,0:0:0:0:
320,192,16737,1,0,0:0:0:0:
192,192,17146,1,0,0:0:0:0:
64,192,17419,1,0,0:0:0:0:
192,192,17419,1,0,0:0:0:0:
320,192,17691,1,0,0:0:0:0:
192,192,17964,128,0,18237:0:0:0:0:
448,192,17964,128,0,18237:0:0:0:0:
64,192,18237,1,0,0:0:0:0:
192,192,18510,1,0,0:0:0:0:
320,192,18782,1,0,0:0:0:0:
192,192,18919,1,0,0:0:0:0:
448,192,18919,1,0,0:0:0:0:
64,192,19328,1,0,0:0:0:0:
64,192,19600,1,0,0:0:0:0:
320,192,19600,1,0,0:0:0:0:
192,192,19873,1,0,0:0:0:0:
448,192,20146,128,0,20282:0:0:0:0:
64,192,20419,1,0,0:0:0:0:
192,192,20419,1,0,0:0:0:0:
192,192,20555,1,0,0:0:0:0:
64,192,20691,128,0,20964:0:0:0:0:
320,192,20691,128,0,20964:0:0:0:0:
192,192,20964,1,0,0:0:0:0:
448,192,21237,1,0,0:0:0:0:
64,192,21510,1,0,0:0:0:0:
64,192,21782,128,0,22055:0:0:0:0:
448,192,21782,128,0,22055:0:0:0:0:
320,192,21919,1,0,0:0:0:0:
192,192,21919,1,0,0:0:0:0:
192,192,22055,1,0,0:0:0:0:
320,192,22055,1,0,0:0:0:0:
448,192,22191,1,0,0:0:0:0:
64,192,22328,1,0,0:0:0:0:
192,192,22600,1,0,0:0:0:0:
448,192,22873,1,0,0:0:0:0:
192,192,23010,1,0,0:0:0:0:
448,192,23010,1,0,0:0:0:0:
64,192,23419,1,0,0:0:0:0:
192,192,23691,1,0,0:0:0:0:
320,192,23691,1,0,0:0:0:0:
448,192,23964,1,0,0:0:0:0:
64,192,24237,128,0,24510:0:0:0:0:
192,192,24237,128,0,24510:0:0:0:0:
320,192,24510,1,0,0:0:0:0:
448,192,24782,1,0,0:0:0:0:
320,192,25055,1,0,0:0:0:0:
64,192,25191,1,0,0:0:0:0:
192,192,25191,1,0,0:0:0:0:
64,192,25600,128,0,25873:0:0:0:0:
192,192,25600,128,0,25873:0:0:0:0:
320,192,25873,1,0,0:0:0:0:
448,192,26145,1,0,0:0:0:0:
64,192,26281,1,0,0:0:0:0:
320,192,26349,1,0,0:0:0:0:
192,192,26417,1,0,0:0:0:0:
192,192,26554,1,0,0:0:0:0:
320,192,26690,1,0,0:0:0:0:
64,192,26758,1,0,0:0:0:0:
64,192,26826,1,0,0:0:0:0:
192,192,26895,1,0,0:0:0:0:
320,192,26963,1,0,0:0:0:0:
448,192,27031,1,0,0:0:0:0:
64,192,27099,128,0,27235:0:0:0:0:
192,192,27235,1,0,0:0:0:0:
320,192,27372,1,0,0:0:0:0:
448,192,27508,1,0,0:0:0:0:
64,192,27645,128,0,27781:0:0:0:0:
192,192,27645,128,0,27781:0:0:0:0:
320,192,27781,1,0,0:0:0:0:
448,192,27917,1,0,0:0:0:0:
320,192,27985,1,0,0:0:0:0:
192,192,28054,1,0,0:0:0:0:
64,192,28190,1,0,0:0:0:0:
192,192,28326,1,0,0:0:0:0:
320,192,28463,1,0,0:0:0:0:
448,192,28531,1,0,0:0:0:0:
320,192,28599,1,0,0:0:0:0:
192,192,28667,1,0,0:0:0:0:
64,192,28735,1,0,0:0:0:0:
64,192,28872,128,0,29008:0:0:0:0:
192,192,29008,1,0,0:0:0:0:
192,192,29145,128,0,29417:0:0:0:0:
448,192,29281,1,0,0:0:0:0:
64,192,29417,1,0,0:0:0:0:
320,192,29554,1,0,0:0:0:0:
64,192,29690,1,0,0:0:0:0:
320,192,29826,128,0,29963:0:0:0:0:
448,192,29826,128,0,29963:0:0:0:0:
64,192,29963,1,0,0:0:0:0:
192,192,30031,1,0,0:0:0:0:
320,192,30099,1,0,0:0:0:0:
448,192,30167,1,0,0:0:0:0:
64,192,30235,1,0,0:0:0:0:
192,192,30372,1,0,0:0:0:0:
192,192,30508,1,0,0:0:0:0:
320,192,30645,1,0,0:0:0:0:
64,192,30713,1,0,0:0:0:0:
192,192,30781,1,0,0:0:0:0:
320,192,30849,1,0,0:0:0:0:
192,192,30917,1,0,0:0:0:0:
64,192,30985,1,0,0:0:0:0:
192,192,31054,128,0,31190:0:0:0:0:
448,192,31190,128,0,31326:0:0:0:0:
320,192,31326,1,0,0:0:0:0:
192,192,31463,128,0,31599:0:0:0:0:
64,192,31599,1,0,0:0:0:0:
192,192,31735,128,0,31872:0:0:0:0:
320,192,31735,128,0,31872:0:0:0:0:
64,192,31872,128,0,32008:0:0:0:0:
448,192,32008,128,0,32145:0:0:0:0:
64,192,32145,1,0,0:0:0:0:
192,192,32213,1,0,0:0:0:0:
320,192,32281,1,0,0:0:0:0:
448,192,32349,1,0,0:0:0:0:
192,192,32417,128,0,32690:0:0:0:0:
64,192,32690,1,0,0:0:0:0:
320,192,32826,1,0,0:0:0:0:
448,192,32895,1,0,0:0:0:0:
192,192,32963,1,0,0:0:0:0:
64,192,33099,128,0,33235:0:0:0:0:
192,192,33235,1,0,0:0:0:0:
320,192,33304,1,0,0:0:0:0:
448,192,33372,1,0,0:0:0:0:
192,192,33440,1,0,0:0:0:0:
64,192,33508,128,0,33645:0:0:0:0:
192,192,33645,128,0,33781:0:0:0:0:
320,192,33781,128,0,33917:0:0:0:0:
448,192,33917,1,0,0:0:0:0:
64,192,34054,1,0,0:0:0:0:
192,192,34190,128,0,34326:0:0:0:0:
320,192,34190,128,0,34326:0:0:0:0:
64,192,34326,1,0,0:0:0:0:
448,192,34463,1,0,0:0:0:0:
320,192,34531,1,0,0:0:0:0:
192,192,34599,1,0,0:0:0:0:
192,192,34735,1,0,0:0:0:0:
64,192,34872,1,0,0:0:0:0:
192,192,34872,1,0,0:0:0:0:
192,192,35145,1,0,0:0:0:0:
64,192,35281,1,0,0:0:0:0:
320,192,35281,1,0,0:0:0:0:
320,192,35554,1,0,0:0:0:0:
448,192,35554,1,0,0:0:0:0:
448,192,35826,1,0,0:0:0:0:
192,192,35963,1,0,0:0:0:0:
320,192,35963,1,0,0:0:0:0:
64,192,36235,1,0,0:0:0:0:
192,192,36235,1,0,0:0:0:0:
192,192,36372,1,0,0:0:0:0:
320,192,36372,1,0,0:0:0:0:
64,192,36645,1,0,0:0:0:0:
192,192,36645,1,0,0:0:0:0:
320,192,36917,1,0,0:0:0:0:
320,192,37054,1,0,0:0:0:0:
448,192,37054,1,0,0:0:0:0:
64,192,37326,1,0,0:0:0:0:
192,192,37463,1,0,0:0:0:0:
320,192,37463,1,0,0:0:0:0:
64,192,37735,1,0,0:0:0:0:
320,192,37735,1,0,0:0:0:0:
192,192,38009,1,0,0:0:0:0:
320,192,38145,1,0,0:0:0:0:
448,192,38145,1,0,0:0:0:0:
64,192,38418,1,0,0:0:0:0:
192,192,38691,1,0,0:0:0:0:
320,192,38691,1,0,0:0:0:0:
320,192,38827,1,0,0:0:0:0:
64,192,38827,1,0,0:0:0:0:
320,192,38963,1,0,0:0:0:0:
192,192,38963,1,0,0:0:0:0:
192,192,39236,1,0,0:0:0:0:
320,192,39373,1,0,0:0:0:0:
448,192,39373,1,0,0:0:0:0:
64,192,39645,1,0,0:0:0:0:
192,192,39645,1,0,0:0:0:0:
192,192,39918,1,0,0:0:0:0:
320,192,40054,1,0,0:0:0:0:
448,192,40054,1,0,0:0:0:0:
64,192,40327,1,0,0:0:0:0:
192,192,40327,1,0,0:0:0:0:
192,192,40463,1,0,0:0:0:0:
320,192,40463,1,0,0:0:0:0:
320,192,40736,1,0,0:0:0:0:
448,192,40736,1,0,0:0:0:0:
64,192,41009,1,0,0:0:0:0:
192,192,41145,1,0,0:0:0:0:
320,192,41145,1,0,0:0:0:0:
64,192,41418,1,0,0:0:0:0:
64,192,41554,1,0,0:0:0:0:
448,192,41554,1,0,0:0:0:0:
192,192,41691,1,0,0:0:0:0:
64,192,41827,1,0,0:0:0:0:
320,192,41827,1,0,0:0:0:0:
192,192,42099,1,0,0:0:0:0:
64,192,42235,1,0,0:0:0:0:
448,192,42235,1,0,0:0:0:0:
320,192,42508,1,0,0:0:0:0:
448,192,42508,1,0,0:0:0:0:
64,192,42781,1,0,0:0:0:0:
192,192,42781,1,0,0:0:0:0:
192,192,42917,1,0,0:0:0:0:
320,192,42917,1,0,0:0:0:0:
320,192,43053,1,0,0:0:0:0:
448,192,43053,1,0,0:0:0:0:
64,192,43326,1,0,0:0:0:0:
192,192,43463,1,0,0:0:0:0:
448,192,43463,1,0,0:0:0:0:
64,192,43735,1,0,0:0:0:0:
320,192,43735,1,0,0:0:0:0:
192,192,44008,1,0,0:0:0:0:
192,192,44144,1,0,0:0:0:0:
320,192,44144,1,0,0:0:0:0:
320,192,44417,1,0,0:0:0:0:
448,192,44417,1,0,0:0:0:0:
192,192,44553,1,0,0:0:0:0:
320,192,44553,1,0,0:0:0:0:
320,192,44826,1,0,0:0:0:0:
448,192,44826,1,0,0:0:0:0:
64,192,45099,1,0,0:0:0:0:
192,192,45235,1,0,0:0:0:0:
320,192,45235,1,0,0:0:0:0:
64,192,45372,128,0,45508:0:0:0:0:
192,192,45508,128,0,45644:0:0:0:0:
320,192,45644,128,0,45781:0:0:0:0:
448,192,45644,128,0,45781:0:0:0:0:
64,192,45781,1,0,0:0:0:0:
320,192,45917,128,0,46053:0:0:0:0:
64,192,46053,128,0,46190:0:0:0:0:
192,192,46190,128,0,46326:0:0:0:0:
320,192,46326,1,0,0:0:0:0:
448,192,46326,1,0,0:0:0:0:
320,192,46599,128,0,46735:0:0:0:0:
448,192,46735,128,0,46872:0:0:0:0:
64,192,46872,1,0,0:0:0:0:
192,192,46872,1,0,0:0:0:0:
192,192,47008,1,0,0:0:0:0:
192,192,47144,1,0,0:0:0:0:
320,192,47144,1,0,0:0:0:0:
192,192,47417,1,0,0:0:0:0:
320,192,47417,1,0,0:0:0:0:
320,192,47690,1,0,0:0:0:0:
448,192,47690,1,0,0:0:0:0:
64,192,47826,1,0,0:0:0:0:
192,192,47826,1,0,0:0:0:0:
192,192,48099,1,0,0:0:0:0:
192,192,48235,1,0,0:0:0:0:
320,192,48235,1,0,0:0:0:0:
64,192,48508,1,0,0:0:0:0:
320,192,48508,1,0,0:0:0:0:
192,192,48644,1,0,0:0:0:0:
320,192,48644,1,0,0:0:0:0:
64,192,48917,1,0,0:0:0:0:
448,192,48917,1,0,0:0:0:0:
192,192,49190,1,0,0:0:0:0:
64,192,49326,1,0,0:0:0:0:
448,192,49326,1,0,0:0:0:0:
320,192,49463,1,0,0:0:0:0:
192,192,49531,1,0,0:0:0:0:
64,192,49599,128,0,49803:0:0:0:0:
448,192,49599,128,0,49803:0:0:0:0:
192,192,49872,128,0,50076:0:0:0:0:
320,192,49872,128,0,50076:0:0:0:0:
320,192,50144,128,0,50417:0:0:0:0:
448,192,50144,128,0,50417:0:0:0:0:
64,192,50417,1,0,0:0:0:0:
192,192,50417,1,0,0:0:0:0:
320,192,50553,1,0,0:0:0:0:
192,192,50690,1,0,0:0:0:0:
320,192,50826,1,0,0:0:0:0:
192,192,50894,1,0,0:0:0:0:
320,192,50963,1,0,0:0:0:0:
192,192,51031,1,0,0:0:0:0:
320,192,51099,1,0,0:0:0:0:
64,192,51167,1,0,0:0:0:0:
192,192,51235,1,0,0:0:0:0:
448,192,51235,1,0,0:0:0:0:
64,192,51371,1,0,0:0:0:0:
320,192,51507,1,0,0:0:0:0:
192,192,51644,1,0,0:0:0:0:
448,192,51644,1,0,0:0:0:0:
192,192,51780,1,0,0:0:0:0:
64,192,51916,1,0,0:0:0:0:
192,192,52053,1,0,0:0:0:0:
448,192,52053,1,0,0:0:0:0:
192,192,52189,1,0,0:0:0:0:
448,192,52189,1,0,0:0:0:0:
192,192,52325,1,0,0:0:0:0:
448,192,52325,1,0,0:0:0:0:
64,192,52462,1,0,0:0:0:0:
192,192,52598,1,0,0:0:0:0:
320,192,52735,1,0,0:0:0:0:
448,192,52735,1,0,0:0:0:0:
192,192,52871,1,0,0:0:0:0:
64,192,53007,1,0,0:0:0:0:
192,192,53144,1,0,0:0:0:0:
320,192,53144,1,0,0:0:0:0:
320,192,53280,1,0,0:0:0:0:
64,192,53416,1,0,0:0:0:0:
192,192,53416,1,0,0:0:0:0:
320,192,53553,1,0,0:0:0:0:
448,192,53689,1,0,0:0:0:0:
64,192,53825,1,0,0:0:0:0:
192,192,53825,1,0,0:0:0:0:
320,192,53962,1,0,0:0:0:0:
320,192,54098,1,0,0:0:0:0:
448,192,54098,1,0,0:0:0:0:
192,192,54235,1,0,0:0:0:0:
64,192,54371,1,0,0:0:0:0:
192,192,54507,1,0,0:0:0:0:
320,192,54507,1,0,0:0:0:0:
64,192,54644,1,0,0:0:0:0:
192,192,54780,1,0,0:0:0:0:
448,192,54780,1,0,0:0:0:0:
64,192,54916,1,0,0:0:0:0:
192,192,55053,1,0,0:0:0:0:
320,192,55053,1,0,0:0:0:0:
448,192,55189,1,0,0:0:0:0:
64,192,55325,1,0,0:0:0:0:
192,192,55325,1,0,0:0:0:0:
320,192,55462,1,0,0:0:0:0:
192,192,55598,1,0,0:0:0:0:
64,192,55735,1,0,0:0:0:0:
448,192,55735,1,0,0:0:0:0:
192,192,55871,1,0,0:0:0:0:
320,192,56007,1,0,0:0:0:0:
64,192,56144,1,0,0:0:0:0:
448,192,56144,1,0,0:0:0:0:
64,192,56280,1,0,0:0:0:0:
448,192,56280,1,0,0:0:0:0:
192,192,56416,1,0,0:0:0:0:
320,192,56416,1,0,0:0:0:0:
64,192,56553,1,0,0:0:0:0:
320,192,56689,1,0,0:0:0:0:
192,192,56825,1,0,0:0:0:0:
448,192,56825,1,0,0:0:0:0:
64,192,56962,1,0,0:0:0:0:
192,192,57098,1,0,0:0:0:0:
64,192,57235,1,0,0:0:0:0:
320,192,57235,1,0,0:0:0:0:
192,192,57371,1,0,0:0:0:0:
448,192,57507,1,0,0:0:0:0:
192,192,57507,1,0,0:0:0:0:
64,192,57644,1,0,0:0:0:0:
192,192,57780,1,0,0:0:0:0:
320,192,57916,1,0,0:0:0:0:
448,192,57916,1,0,0:0:0:0:
192,192,58053,1,0,0:0:0:0:
64,192,58189,1,0,0:0:0:0:
320,192,58189,1,0,0:0:0:0:
192,192,58325,1,0,0:0:0:0:
320,192,58461,1,0,0:0:0:0:
64,192,58597,1,0,0:0:0:0:
192,192,58597,1,0,0:0:0:0:
320,192,58734,1,0,0:0:0:0:
192,192,58870,1,0,0:0:0:0:
320,192,58870,1,0,0:0:0:0:
192,192,59006,1,0,0:0:0:0:
64,192,59143,1,0,0:0:0:0:
192,192,59143,1,0,0:0:0:0:
448,192,59279,1,0,0:0:0:0:
64,192,59415,1,0,0:0:0:0:
192,192,59415,1,0,0:0:0:0:
320,192,59552,1,0,0:0:0:0:
192,192,59688,1,0,0:0:0:0:
320,192,59825,1,0,0:0:0:0:
448,192,59825,1,0,0:0:0:0:
64,192,59961,1,0,0:0:0:0:
192,192,60097,1,0,0:0:0:0:
320,192,60234,1,0,0:0:0:0:
448,192,60234,1,0,0:0:0:0:
320,192,60370,1,0,0:0:0:0:
448,192,60370,1,0,0:0:0:0:
192,192,60506,1,0,0:0:0:0:
320,192,60506,1,0,0:0:0:0:
64,192,60643,1,0,0:0:0:0:
192,192,60779,1,0,0:0:0:0:
320,192,60915,1,0,0:0:0:0:
448,192,60915,1,0,0:0:0:0:
192,192,61052,1,0,0:0:0:0:
64,192,61188,1,0,0:0:0:0:
192,192,61325,1,0,0:0:0:0:
320,192,61325,1,0,0:0:0:0:
320,192,61461,1,0,0:0:0:0:
320,192,61597,1,0,0:0:0:0:
448,192,61597,1,0,0:0:0:0:
64,192,61734,1,0,0:0:0:0:
64,192,61870,1,0,0:0:0:0:
64,192,62006,1,0,0:0:0:0:
320,192,62006,1,0,0:0:0:0:
192,192,62143,1,0,0:0:0:0:
320,192,62279,1,0,0:0:0:0:
448,192,62279,1,0,0:0:0:0:
192,192,62415,1,0,0:0:0:0:
64,192,62551,1,0,0:0:0:0:
64,192,62687,1,0,0:0:0:0:
192,192,62778,1,0,0:0:0:0:
320,192,62869,1,0,0:0:0:0:
448,192,62960,1,0,0:0:0:0:
320,192,63051,1,0,0:0:0:0:
192,192,63142,1,0,0:0:0:0:
64,192,63233,1,0,0:0:0:0:
192,192,63324,1,0,0:0:0:0:
320,192,63415,1,0,0:0:0:0:
64,192,63505,1,0,0:0:0:0:
192,192,63505,1,0,0:0:0:0:
448,192,63642,1,0,0:0:0:0:
192,192,63778,128,0,63915:0:0:0:0:
320,192,63915,1,0,0:0:0:0:
448,192,63915,1,0,0:0:0:0:
320,192,64051,128,0,64187:0:0:0:0:
192,192,64187,1,0,0:0:0:0:
192,192,64324,128,0,64460:0:0:0:0:
64,192,64324,128,0,64460:0:0:0:0:
320,192,64596,128,0,64869:0:0:0:0:
448,192,64596,128,0,64869:0:0:0:0:
192,192,64733,1,0,0:0:0:0:
64,192,64733,1,0,0:0:0:0:
64,192,64869,1,0,0:0:0:0:
192,192,64960,1,0,0:0:0:0:
320,192,65051,1,0,0:0:0:0:
448,192,65142,1,0,0:0:0:0:
64,192,65278,128,0,65415:0:0:0:0:
192,192,65415,1,0,0:0:0:0:
320,192,65505,1,0,0:0:0:0:
320,192,65687,1,0,0:0:0:0:
64,192,65778,1,0,0:0:0:0:
192,192,66096,1,0,0:0:0:0:
320,192,66233,1,0,0:0:0:0:
448,192,66369,1,0,0:0:0:0:
320,192,66505,1,0,0:0:0:0:
192,192,66642,1,0,0:0:0:0:
192,192,66915,1,0,0:0:0:0:
320,192,67051,1,0,0:0:0:0:
192,192,67324,1,0,0:0:0:0:
448,192,67324,1,0,0:0:0:0:
320,192,67324,1,0,0:0:0:0:
192,192,67460,1,0,0:0:0:0:
320,192,67460,1,0,0:0:0:0:
448,192,67460,1,0,0:0:0:0:
192,192,67596,1,0,0:0:0:0:
320,192,67596,1,0,0:0:0:0:
64,192,67732,128,0,67868:0:0:0:0:
320,192,67868,1,0,0:0:0:0:
448,192,68005,1,0,0:0:0:0:
320,192,68141,128,0,68277:0:0:0:0:
192,192,68277,1,0,0:0:0:0:
64,192,68414,1,0,0:0:0:0:
192,192,68550,1,0,0:0:0:0:
320,192,68686,1,0,0:0:0:0:
448,192,68823,128,0,68959:0:0:0:0:
64,192,68959,1,0,0:0:0:0:
192,192,69096,1,0,0:0:0:0:
320,192,69232,128,0,69368:0:0:0:0:
448,192,69368,1,0,0:0:0:0:
320,192,69505,128,0,69641:0:0:0:0:
192,192,69641,1,0,0:0:0:0:
64,192,69777,1,0,0:0:0:0:
192,192,69914,128,0,70050:0:0:0:0:
448,192,70050,1,0,0:0:0:0:
320,192,70186,1,0,0:0:0:0:
192,192,70323,128,0,70459:0:0:0:0:
64,192,70459,1,0,0:0:0:0:
192,192,70596,1,0,0:0:0:0:
320,192,70732,128,0,70868:0:0:0:0:
448,192,70868,1,0,0:0:0:0:
64,192,71005,1,0,0:0:0:0:
192,192,71141,128,0,71277:0:0:0:0:
320,192,71277,1,0,0:0:0:0:
64,192,71414,1,0,0:0:0:0:
64,192,71550,1,0,0:0:0:0:
192,192,71686,1,0,0:0:0:0:
320,192,71686,1,0,0:0:0:0:
192,192,71823,128,0,71959:0:0:0:0:
320,192,71959,1,0,0:0:0:0:
448,192,72096,1,0,0:0:0:0:
320,192,72232,128,0,72368:0:0:0:0:
192,192,72368,1,0,0:0:0:0:
64,192,72505,1,0,0:0:0:0:
192,192,72641,1,0,0:0:0:0:
448,192,72777,1,0,0:0:0:0:
320,192,72914,128,0,73050:0:0:0:0:
64,192,73050,1,0,0:0:0:0:
448,192,73186,1,0,0:0:0:0:
320,192,73323,128,0,73459:0:0:0:0:
192,192,73459,1,0,0:0:0:0:
192,192,73596,128,0,73732:0:0:0:0:
64,192,73868,1,0,0:0:0:0:
192,192,74005,128,0,74141:0:0:0:0:
320,192,74141,128,0,74277:0:0:0:0:
64,192,74209,1,0,0:0:0:0:
448,192,74277,1,0,0:0:0:0:
320,192,74346,1,0,0:0:0:0:
192,192,74414,128,0,74550:0:0:0:0:
64,192,74686,128,0,74754:0:0:0:0:
192,192,74754,128,0,74823:0:0:0:0:
320,192,74823,128,0,74959:0:0:0:0:
448,192,74959,128,0,75095:0:0:0:0:
64,192,75095,128,0,75232:0:0:0:0:
192,192,75232,128,0,75368:0:0:0:0:
320,192,75368,128,0,75504:0:0:0:0:
448,192,75504,128,0,75777:0:0:0:0:
64,192,75777,1,0,0:0:0:0:
192,192,75777,1,0,0:0:0:0:
192,192,75981,1,0,0:0:0:0:
448,192,76049,1,0,0:0:0:0:
320,192,76049,1,0,0:0:0:0:
320,192,76254,1,0,0:0:0:0:
192,192,76322,1,0,0:0:0:0:
64,192,76322,1,0,0:0:0:0:
192,192,76527,1,0,0:0:0:0:
320,192,76595,1,0,0:0:0:0:
448,192,76595,1,0,0:0:0:0:
192,192,76731,1,0,0:0:0:0:
320,192,76731,1,0,0:0:0:0:
192,192,76867,1,0,0:0:0:0:
320,192,76867,1,0,0:0:0:0:
320,192,77072,1,0,0:0:0:0:
64,192,77140,1,0,0:0:0:0:
448,192,77140,1,0,0:0:0:0:
448,192,77345,1,0,0:0:0:0:
192,192,77413,1,0,0:0:0:0:
320,192,77413,1,0,0:0:0:0:
320,192,77617,1,0,0:0:0:0:
64,192,77686,1,0,0:0:0:0:
448,192,77686,1,0,0:0:0:0:
64,192,77890,1,0,0:0:0:0:
192,192,77958,1,0,0:0:0:0:
320,192,77958,1,0,0:0:0:0:
320,192,78163,1,0,0:0:0:0:
64,192,78231,1,0,0:0:0:0:
448,192,78231,1,0,0:0:0:0:
192,192,78436,1,0,0:0:0:0:
64,192,78504,1,0,0:0:0:0:
320,192,78504,1,0,0:0:0:0:
320,192,78708,1,0,0:0:0:0:
64,192,78777,1,0,0:0:0:0:
448,192,78777,1,0,0:0:0:0:
320,192,78913,1,0,0:0:0:0:
64,192,78913,1,0,0:0:0:0:
64,192,79049,1,0,0:0:0:0:
320,192,79049,1,0,0:0:0:0:
64,192,79254,1,0,0:0:0:0:
192,192,79322,1,0,0:0:0:0:
448,192,79322,1,0,0:0:0:0:
64,192,79458,1,0,0:0:0:0:
320,192,79458,1,0,0:0:0:0:
64,192,79595,128,0,79867:0:0:0:0:
320,192,79595,128,0,79867:0:0:0:0:
192,192,79867,128,0,80072:0:0:0:0:
448,192,79867,128,0,80072:0:0:0:0:
192,192,80140,1,0,0:0:0:0:
320,192,80140,1,0,0:0:0:0:
192,192,80345,1,0,0:0:0:0:
64,192,80413,1,0,0:0:0:0:
448,192,80413,1,0,0:0:0:0:
320,192,80617,1,0,0:0:0:0:
64,192,80686,1,0,0:0:0:0:
448,192,80686,1,0,0:0:0:0:
448,192,80890,1,0,0:0:0:0:
192,192,80958,1,0,0:0:0:0:
320,192,80958,1,0,0:0:0:0:
192,192,81095,1,0,0:0:0:0:
320,192,81095,1,0,0:0:0:0:
64,192,81231,1,0,0:0:0:0:
192,192,81231,1,0,0:0:0:0:
192,192,81436,1,0,0:0:0:0:
320,192,81504,1,0,0:0:0:0:
448,192,81504,1,0,0:0:0:0:
192,192,81708,1,0,0:0:0:0:
320,192,81777,1,0,0:0:0:0:
448,192,81777,1,0,0:0:0:0:
64,192,81913,1,0,0:0:0:0:
192,192,81913,1,0,0:0:0:0:
64,192,82049,1,0,0:0:0:0:
192,192,82049,1,0,0:0:0:0:
448,192,82117,1,0,0:0:0:0:
320,192,82186,1,0,0:0:0:0:
448,192,82254,1,0,0:0:0:0:
64,192,82322,128,0,82595:0:0:0:0:
192,192,82322,128,0,82595:0:0:0:0:
320,192,82322,128,0,82595:0:0:0:0:
64,192,82731,128,0,83004:0:0:0:0:
192,192,82731,128,0,83004:0:0:0:0:
320,192,82731,1,0,0:0:0:0:
320,192,82867,128,0,83004:0:0:0:0:
64,192,83140,1,0,0:0:0:0:
192,192,83140,1,0,0:0:0:0:
320,192,83277,1,0,0:0:0:0:
448,192,83277,1,0,0:0:0:0:
192,192,83413,1,0,0:0:0:0:
320,192,83549,1,0,0:0:0:0:
448,192,83617,1,0,0:0:0:0:
192,192,83686,1,0,0:0:0:0:
320,192,83686,1,0,0:0:0:0:
448,192,83822,1,0,0:0:0:0:
320,192,83890,1,0,0:0:0:0:
192,192,83958,1,0,0:0:0:0:
64,192,83958,1,0,0:0:0:0:
192,192,84095,1,0,0:0:0:0:
320,192,84231,1,0,0:0:0:0:
448,192,84299,1,0,0:0:0:0:
320,192,84367,1,0,0:0:0:0:
448,192,84436,1,0,0:0:0:0:
64,192,84504,1,0,0:0:0:0:
192,192,84504,1,0,0:0:0:0:
192,192,84708,1,0,0:0:0:0:
320,192,84777,1,0,0:0:0:0:
448,192,84777,1,0,0:0:0:0:
64,192,84981,1,0,0:0:0:0:
192,192,85049,1,0,0:0:0:0:
320,192,85049,1,0,0:0:0:0:
448,192,85254,1,0,0:0:0:0:
192,192,85322,1,0,0:0:0:0:
64,192,85322,1,0,0:0:0:0:
192,192,85458,1,0,0:0:0:0:
320,192,85458,1,0,0:0:0:0:
448,192,85595,1,0,0:0:0:0:
64,192,85663,1,0,0:0:0:0:
192,192,85731,1,0,0:0:0:0:
320,192,85731,1,0,0:0:0:0:
192,192,85867,1,0,0:0:0:0:
320,192,85867,1,0,0:0:0:0:
64,192,86004,1,0,0:0:0:0:
192,192,86140,1,0,0:0:0:0:
320,192,86140,1,0,0:0:0:0:
320,192,86277,1,0,0:0:0:0:
448,192,86277,1,0,0:0:0:0:
192,192,86413,1,0,0:0:0:0:
320,192,86413,1,0,0:0:0:0:
64,192,86549,1,0,0:0:0:0:
448,192,86617,1,0,0:0:0:0:
192,192,86686,1,0,0:0:0:0:
320,192,86686,1,0,0:0:0:0:
64,192,86822,1,0,0:0:0:0:
448,192,86890,1,0,0:0:0:0:
192,192,86958,1,0,0:0:0:0:
320,192,86958,1,0,0:0:0:0:
192,192,87095,1,0,0:0:0:0:
64,192,87163,1,0,0:0:0:0:
320,192,87231,1,0,0:0:0:0:
448,192,87231,1,0,0:0:0:0:
192,192,87367,1,0,0:0:0:0:
448,192,87436,1,0,0:0:0:0:
64,192,87504,1,0,0:0:0:0:
192,192,87504,1,0,0:0:0:0:
192,192,87640,1,0,0:0:0:0:
320,192,87640,1,0,0:0:0:0:
448,192,87777,1,0,0:0:0:0:
320,192,87845,1,0,0:0:0:0:
64,192,87913,1,0,0:0:0:0:
192,192,87913,1,0,0:0:0:0:
192,192,88049,1,0,0:0:0:0:
320,192,88049,1,0,0:0:0:0:
448,192,88186,1,0,0:0:0:0:
320,192,88254,1,0,0:0:0:0:
64,192,88322,1,0,0:0:0:0:
192,192,88322,1,0,0:0:0:0:
192,192,88458,1,0,0:0:0:0:
320,192,88458,1,0,0:0:0:0:
448,192,88595,1,0,0:0:0:0:
320,192,88663,1,0,0:0:0:0:
192,192,88731,1,0,0:0:0:0:
64,192,88799,1,0,0:0:0:0:
192,192,88867,1,0,0:0:0:0:
320,192,88867,1,0,0:0:0:0:
448,192,89072,1,0,0:0:0:0:
192,192,89140,1,0,0:0:0:0:
320,192,89140,1,0,0:0:0:0:
64,192,89345,1,0,0:0:0:0:
192,192,89413,1,0,0:0:0:0:
320,192,89413,1,0,0:0:0:0:
448,192,89617,1,0,0:0:0:0:
320,192,89686,128,0,89754:0:0:0:0:
192,192,89686,128,0,89754:0:0:0:0:
192,192,89822,128,0,89890:0:0:0:0:
64,192,89822,128,0,89890:0:0:0:0:
320,192,89958,1,0,0:0:0:0:
448,192,90027,1,0,0:0:0:0:
64,192,90095,1,0,0:0:0:0:
320,192,90095,1,0,0:0:0:0:
64,192,90231,1,0,0:0:0:0:
192,192,90231,1,0,0:0:0:0:
320,192,90367,1,0,0:0:0:0:
192,192,90436,1,0,0:0:0:0:
320,192,90504,1,0,0:0:0:0:
64,192,90504,1,0,0:0:0:0:
64,192,90640,1,0,0:0:0:0:
192,192,90640,1,0,0:0:0:0:
192,192,90777,1,0,0:0:0:0:
320,192,90777,1,0,0:0:0:0:
448,192,90913,1,0,0:0:0:0:
64,192,90981,1,0,0:0:0:0:
192,192,91049,1,0,0:0:0:0:
320,192,91049,1,0,0:0:0:0:
192,192,91186,1,0,0:0:0:0:
64,192,91254,1,0,0:0:0:0:
192,192,91322,128,0,91527:0:0:0:0:
320,192,91322,128,0,91527:0:0:0:0:
448,192,91527,128,0,91799:0:0:0:0:
64,192,91527,128,0,91799:0:0:0:0:
64,192,91867,128,0,92004:0:0:0:0:
192,192,91867,128,0,92004:0:0:0:0:
320,192,92004,1,0,0:0:0:0:
448,192,92140,1,0,0:0:0:0:
64,192,92208,1,0,0:0:0:0:
192,192,92277,1,0,0:0:0:0:
320,192,92345,128,0,92413:0:0:0:0:
448,192,92413,1,0,0:0:0:0:
64,192,92481,1,0,0:0:0:0:
192,192,92549,1,0,0:0:0:0:
448,192,92617,1,0,0:0:0:0:
64,192,92686,1,0,0:0:0:0:
320,192,92754,1,0,0:0:0:0:
192,192,92822,1,0,0:0:0:0:
448,192,92890,1,0,0:0:0:0:
64,192,92958,1,0,0:0:0:0:
192,192,93027,1,0,0:0:0:0:
448,192,93095,1,0,0:0:0:0:
320,192,93163,1,0,0:0:0:0:
64,192,93231,1,0,0:0:0:0:
192,192,93231,1,0,0:0:0:0:
192,192,93436,1,0,0:0:0:0:
320,192,93504,1,0,0:0:0:0:
448,192,93504,1,0,0:0:0:0:
448,192,93708,1,0,0:0:0:0:
64,192,93777,1,0,0:0:0:0:
192,192,93777,1,0,0:0:0:0:
192,192,93981,1,0,0:0:0:0:
320,192,94049,1,0,0:0:0:0:
448,192,94049,1,0,0:0:0:0:
320,192,94186,1,0,0:0:0:0:
448,192,94186,1,0,0:0:0:0:
64,192,94322,1,0,0:0:0:0:
192,192,94322,1,0,0:0:0:0:
192,192,94527,1,0,0:0:0:0:
320,192,94595,1,0,0:0:0:0:
448,192,94595,1,0,0:0:0:0:
64,192,94867,128,0,95004:0:0:0:0:
192,192,94867,128,0,95004:0:0:0:0:
320,192,94867,128,0,95004:0:0:0:0:
64,192,95140,128,0,95277:0:0:0:0:
192,192,95140,128,0,95277:0:0:0:0:
320,192,95140,128,0,95277:0:0:0:0:
192,192,95413,1,0,0:0:0:0:
320,192,95413,1,0,0:0:0:0:
64,192,95617,1,0,0:0:0:0:
192,192,95686,1,0,0:0:0:0:
320,192,95686,1,0,0:0:0:0:
448,192,95890,1,0,0:0:0:0:
192,192,95958,1,0,0:0:0:0:
64,192,95958,1,0,0:0:0:0:
448,192,96163,1,0,0:0:0:0:
192,192,96231,1,0,0:0:0:0:
320,192,96231,1,0,0:0:0:0:
320,192,96367,1,0,0:0:0:0:
448,192,96367,1,0,0:0:0:0:
64,192,96436,1,0,0:0:0:0:
320,192,96504,1,0,0:0:0:0:
448,192,96504,1,0,0:0:0:0:
192,192,96708,1,0,0:0:0:0:
320,192,96777,1,0,0:0:0:0:
448,192,96777,1,0,0:0:0:0:
192,192,97049,128,0,97186:0:0:0:0:
320,192,97049,128,0,97186:0:0:0:0:
448,192,97049,128,0,97186:0:0:0:0:
64,192,97322,128,0,97458:0:0:0:0:
192,192,97322,128,0,97458:0:0:0:0:
320,192,97322,128,0,97458:0:0:0:0:
64,192,97595,1,0,0:0:0:0:
192,192,97595,1,0,0:0:0:0:
448,192,97799,1,0,0:0:0:0:
192,192,97867,1,0,0:0:0:0:
320,192,97867,1,0,0:0:0:0:
192,192,98072,1,0,0:0:0:0:
320,192,98140,1,0,0:0:0:0:
64,192,98140,1,0,0:0:0:0:
448,192,98345,1,0,0:0:0:0:
64,192,98413,1,0,0:0:0:0:
192,192,98413,1,0,0:0:0:0:
192,192,98549,1,0,0:0:0:0:
320,192,98549,1,0,0:0:0:0:
448,192,98617,1,0,0:0:0:0:
192,192,98686,1,0,0:0:0:0:
320,192,98686,1,0,0:0:0:0:
64,192,98890,1,0,0:0:0:0:
192,192,98958,1,0,0:0:0:0:
320,192,98958,1,0,0:0:0:0:
64,192,99163,1,0,0:0:0:0:
192,192,99231,128,0,99367:0:0:0:0:
320,192,99231,128,0,99367:0:0:0:0:
448,192,99231,128,0,99367:0:0:0:0:
64,192,99504,128,0,99640:0:0:0:0:
192,192,99504,128,0,99640:0:0:0:0:
448,192,99504,128,0,99640:0:0:0:0:
192,192,99777,1,0,0:0:0:0:
320,192,99777,1,0,0:0:0:0:
320,192,99981,1,0,0:0:0:0:
64,192,100049,1,0,0:0:0:0:
192,192,100049,1,0,0:0:0:0:
320,192,100254,1,0,0:0:0:0:
192,192,100322,1,0,0:0:0:0:
448,192,100322,1,0,0:0:0:0:
192,192,100527,1,0,0:0:0:0:
64,192,100595,1,0,0:0:0:0:
320,192,100595,1,0,0:0:0:0:
64,192,100731,1,0,0:0:0:0:
320,192,100731,1,0,0:0:0:0:
64,192,100867,1,0,0:0:0:0:
192,192,100867,128,0,101004:0:0:0:0:
320,192,100867,128,0,101004:0:0:0:0:
192,192,101140,128,0,101277:0:0:0:0:
320,192,101140,128,0,101277:0:0:0:0:
448,192,101277,1,0,0:0:0:0:
64,192,101413,128,0,101686:0:0:0:0:
192,192,101413,128,0,101686:0:0:0:0:
320,192,101686,1,0,0:0:0:0:
448,192,101754,1,0,0:0:0:0:
320,192,101822,1,0,0:0:0:0:
448,192,101890,1,0,0:0:0:0:
64,192,101958,1,0,0:0:0:0:
192,192,101958,1,0,0:0:0:0:
320,192,101958,1,0,0:0:0:0:
64,192,102231,1,0,0:0:0:0:
192,192,102231,1,0,0:0:0:0:
320,192,102231,1,0,0:0:0:0:
192,192,102504,1,0,0:0:0:0:
320,192,102504,1,0,0:0:0:0:
448,192,102504,1,0,0:0:0:0:
64,192,102777,1,0,0:0:0:0:
192,192,102777,1,0,0:0:0:0:
448,192,102777,1,0,0:0:0:0:
192,192,102913,1,0,0:0:0:0:
64,192,103049,1,0,0:0:0:0:
192,192,103049,1,0,0:0:0:0:
448,192,103049,1,0,0:0:0:0:
192,192,103322,1,0,0:0:0:0:
320,192,103322,1,0,0:0:0:0:
448,192,103322,1,0,0:0:0:0:
192,192,103595,128,0,103731:0:0:0:0:
320,192,103595,128,0,103731:0:0:0:0:
448,192,103595,128,0,103731:0:0:0:0:
64,192,103867,128,0,104004:0:0:0:0:
320,192,103867,128,0,104004:0:0:0:0:
448,192,103867,128,0,104004:0:0:0:0:
64,192,104140,1,0,0:0:0:0:
192,192,104140,1,0,0:0:0:0:
320,192,104277,1,0,0:0:0:0:
192,192,104345,1,0,0:0:0:0:
320,192,104413,1,0,0:0:0:0:
448,192,104413,1,0,0:0:0:0:
64,192,104549,1,0,0:0:0:0:
448,192,104617,1,0,0:0:0:0:
192,192,104686,1,0,0:0:0:0:
320,192,104686,1,0,0:0:0:0:
448,192,104822,1,0,0:0:0:0:
64,192,104890,1,0,0:0:0:0:
192,192,104958,1,0,0:0:0:0:
320,192,104958,1,0,0:0:0:0:
192,192,105095,1,0,0:0:0:0:
320,192,105095,1,0,0:0:0:0:
64,192,105231,1,0,0:0:0:0:
192,192,105231,1,0,0:0:0:0:
192,192,105367,1,0,0:0:0:0:
64,192,105436,1,0,0:0:0:0:
320,192,105504,1,0,0:0:0:0:
448,192,105504,1,0,0:0:0:0:
192,192,105640,1,0,0:0:0:0:
64,192,105708,1,0,0:0:0:0:
192,192,105777,128,0,105913:0:0:0:0:
320,192,105777,128,0,105913:0:0:0:0:
64,192,106049,128,0,106186:0:0:0:0:
448,192,106049,128,0,106186:0:0:0:0:
64,192,106322,1,0,0:0:0:0:
192,192,106322,1,0,0:0:0:0:
320,192,106322,1,0,0:0:0:0:
192,192,106595,1,0,0:0:0:0:
320,192,106595,1,0,0:0:0:0:
448,192,106595,1,0,0:0:0:0:
192,192,106867,1,0,0:0:0:0:
320,192,106867,1,0,0:0:0:0:
448,192,106867,1,0,0:0:0:0:
64,192,107140,1,0,0:0:0:0:
192,192,107140,1,0,0:0:0:0:
448,192,107140,1,0,0:0:0:0:
448,192,107277,1,0,0:0:0:0:
64,192,107413,1,0,0:0:0:0:
320,192,107413,1,0,0:0:0:0:
448,192,107413,1,0,0:0:0:0:
64,192,107686,1,0,0:0:0:0:
192,192,107686,1,0,0:0:0:0:
320,192,107686,1,0,0:0:0:0:
64,192,107958,128,0,108095:0:0:0:0:
192,192,107958,128,0,108095:0:0:0:0:
320,192,107958,128,0,108095:0:0:0:0:
192,192,108231,128,0,108367:0:0:0:0:
320,192,108231,128,0,108367:0:0:0:0:
448,192,108231,128,0,108367:0:0:0:0:
64,192,108504,1,0,0:0:0:0:
192,192,108504,1,0,0:0:0:0:
320,192,108504,1,0,0:0:0:0:
64,192,108777,1,0,0:0:0:0:
192,192,108777,1,0,0:0:0:0:
320,192,108777,1,0,0:0:0:0:
192,192,109049,1,0,0:0:0:0:
320,192,109049,1,0,0:0:0:0:
448,192,109049,1,0,0:0:0:0:
64,192,109322,1,0,0:0:0:0:
192,192,109322,1,0,0:0:0:0:
448,192,109322,1,0,0:0:0:0:
192,192,109458,1,0,0:0:0:0:
64,192,109595,1,0,0:0:0:0:
192,192,109595,1,0,0:0:0:0:
448,192,109595,1,0,0:0:0:0:
192,192,109867,1,0,0:0:0:0:
320,192,109867,1,0,0:0:0:0:
448,192,109867,1,0,0:0:0:0:
192,192,110140,128,0,110277:0:0:0:0:
320,192,110140,128,0,110277:0:0:0:0:
448,192,110140,128,0,110277:0:0:0:0:
64,192,110413,128,0,110549:0:0:0:0:
320,192,110413,128,0,110549:0:0:0:0:
448,192,110413,128,0,110549:0:0:0:0:
64,192,110686,128,0,110822:0:0:0:0:
192,192,110822,128,0,110958:0:0:0:0:
320,192,110958,1,0,0:0:0:0:
448,192,111027,1,0,0:0:0:0:
320,192,111095,1,0,0:0:0:0:
192,192,111163,1,0,0:0:0:0:
64,192,111231,1,0,0:0:0:0:
192,192,111367,1,0,0:0:0:0:
320,192,111504,1,0,0:0:0:0:
448,192,111572,1,0,0:0:0:0:
320,192,111640,1,0,0:0:0:0:
192,192,111708,1,0,0:0:0:0:
64,192,111777,1,0,0:0:0:0:
192,192,111913,1,0,0:0:0:0:
320,192,112049,1,0,0:0:0:0:
192,192,112117,1,0,0:0:0:0:
64,192,112186,1,0,0:0:0:0:
192,192,112254,1,0,0:0:0:0:
320,192,112322,1,0,0:0:0:0:
448,192,112390,1,0,0:0:0:0:
320,192,112458,1,0,0:0:0:0:
64,192,112595,1,0,0:0:0:0:
192,192,112731,1,0,0:0:0:0:
320,192,112867,1,0,0:0:0:0:
448,192,112867,1,0,0:0:0:0:
320,192,113004,1,0,0:0:0:0:
448,192,113004,1,0,0:0:0:0:
64,192,113140,1,0,0:0:0:0:
192,192,113140,1,0,0:0:0:0:
192,192,113277,1,0,0:0:0:0:
320,192,113413,1,0,0:0:0:0:
448,192,113413,1,0,0:0:0:0:
320,192,113549,1,0,0:0:0:0:
448,192,113549,1,0,0:0:0:0:
64,192,113686,1,0,0:0:0:0:
192,192,113686,1,0,0:0:0:0:
192,192,113822,1,0,0:0:0:0:
64,192,113958,1,0,0:0:0:0:
192,192,113958,1,0,0:0:0:0:
64,192,114095,1,0,0:0:0:0:
192,192,114095,1,0,0:0:0:0:
320,192,114231,1,0,0:0:0:0:
448,192,114231,1,0,0:0:0:0:
448,192,114367,1,0,0:0:0:0:
320,192,114436,1,0,0:0:0:0:
192,192,114504,1,0,0:0:0:0:
64,192,114572,1,0,0:0:0:0:
192,192,114640,1,0,0:0:0:0:
320,192,114708,1,0,0:0:0:0:
448,192,114777,1,0,0:0:0:0:
192,192,114913,1,0,0:0:0:0:
64,192,115049,1,0,0:0:0:0:
192,192,115049,1,0,0:0:0:0:
64,192,115186,1,0,0:0:0:0:
192,192,115186,1,0,0:0:0:0:
320,192,115322,1,0,0:0:0:0:
448,192,115322,1,0,0:0:0:0:
320,192,115458,1,0,0:0:0:0:
448,192,115527,1,0,0:0:0:0:
64,192,115595,1,0,0:0:0:0:
192,192,115595,1,0,0:0:0:0:
64,192,115731,1,0,0:0:0:0:
192,192,115731,1,0,0:0:0:0:
320,192,115867,1,0,0:0:0:0:
448,192,115867,1,0,0:0:0:0:
192,192,116004,1,0,0:0:0:0:
64,192,116072,1,0,0:0:0:0:
320,192,116140,1,0,0:0:0:0:
448,192,116140,1,0,0:0:0:0:
320,192,116277,1,0,0:0:0:0:
448,192,116277,1,0,0:0:0:0:
192,192,116413,1,0,0:0:0:0:
320,192,116413,1,0,0:0:0:0:
448,192,116481,1,0,0:0:0:0:
64,192,116549,1,0,0:0:0:0:
192,192,116617,1,0,0:0:0:0:
320,192,116686,1,0,0:0:0:0:
448,192,116754,1,0,0:0:0:0:
320,192,116822,1,0,0:0:0:0:
64,192,116958,1,0,0:0:0:0:
192,192,116958,1,0,0:0:0:0:
320,192,117095,1,0,0:0:0:0:
192,192,117231,1,0,0:0:0:0:
320,192,117231,1,0,0:0:0:0:
192,192,117367,1,0,0:0:0:0:
320,192,117367,1,0,0:0:0:0:
64,192,117504,1,0,0:0:0:0:
192,192,117504,1,0,0:0:0:0:
448,192,117640,1,0,0:0:0:0:
192,192,117777,1,0,0:0:0:0:
320,192,117777,1,0,0:0:0:0:
192,192,117913,1,0,0:0:0:0:
320,192,117913,1,0,0:0:0:0:
320,192,118049,1,0,0:0:0:0:
448,192,118049,1,0,0:0:0:0:
192,192,118186,1,0,0:0:0:0:
64,192,118322,1,0,0:0:0:0:
192,192,118322,1,0,0:0:0:0:
64,192,118458,1,0,0:0:0:0:
192,192,118458,1,0,0:0:0:0:
320,192,118595,1,0,0:0:0:0:
448,192,118595,1,0,0:0:0:0:
192,192,118731,1,0,0:0:0:0:
64,192,118799,1,0,0:0:0:0:
192,192,118867,1,0,0:0:0:0:
320,192,118936,1,0,0:0:0:0:
448,192,119004,1,0,0:0:0:0:
320,192,119072,1,0,0:0:0:0:
64,192,119140,1,0,0:0:0:0:
192,192,119277,1,0,0:0:0:0:
