osu file format v14

[General]
AudioFilename: weyheyhey !! - Songs I Made In A Hurry EP - 03 UP THE BUM NO BAIIIIIBEEZ.mp3
AudioLeadIn: 0
PreviewTime: 132108
Countdown: 0
SampleSet: Normal
StackLeniency: 0.2
Mode: 0
LetterboxInBreaks: 1
WidescreenStoryboard: 1

[Editor]
Bookmarks: 28335,46063,54790,84790,102790,132108,155154,163881,190062,207517,224971,242426,251153,262472
DistanceSpacing: 0.5
BeatDivisor: 12
GridSize: 4
TimelineZoom: 2.999999

[Metadata]
Title:UP THE BUM NO BAIIIIIBEEZ
TitleUnicode:UP THE BUM NO BAIIIIIBEEZ
Artist:weyheyhey !!
ArtistUnicode:weyheyhey !!
Creator:Silverboxer
Version:JUMP AROUND
Source:
Tags:weyheyhey breakcore uk hardcore raggacore
BeatmapID:1728216
BeatmapSetID:458037

[Difficulty]
HPDrainRate:5
CircleSize:4
OverallDifficulty:8
ApproachRate:10
SliderMultiplier:1.4
SliderTickRate:1

[Events]
//Background and Video events
0,0,"graffiti.jpg",0,0
//Break Periods
2,132244,135067
//Storyboard Layer 0 (Background)
//Storyboard Layer 1 (Fail)
//Storyboard Layer 2 (Pass)
//Storyboard Layer 3 (Foreground)
//Storyboard Sound Samples

[TimingPoints]
11154,272.727272727273,4,2,0,65,1,0
19881,-100,4,1,0,65,0,0
28608,-200,4,1,0,65,0,0
29426,-100,4,1,0,65,0,0
29972,-200,4,1,0,65,0,0
31608,-100,4,1,0,65,0,0
32154,-200,4,1,0,65,0,0
33790,-100,4,1,0,65,0,0
34335,-200,4,1,0,65,0,0
35972,-100,4,1,0,65,0,0
44426,-100,4,2,0,30,0,0
46063,-100,4,1,0,5,0,0
50154,-100,4,1,0,15,0,0
50699,-100,4,1,0,25,0,0
51244,-100,4,1,0,35,0,0
51790,-100,4,1,0,45,0,0
53699,-50,4,1,0,65,0,0
53972,-100,4,1,0,65,0,0
54517,-66.6666666666667,4,1,0,65,0,0
54790,-50,4,1,0,65,0,0
85335,-50,4,1,0,65,0,1
101972,-100,4,1,0,65,0,1
102244,-50,4,1,0,65,0,1
102790,-50,4,1,0,65,0,0
106608,-100,4,1,0,65,0,0
106881,-50,4,1,0,65,0,0
110972,-100,4,1,0,65,0,0
111244,-50,4,1,0,65,0,0
118881,-50,4,1,0,65,0,0
119699,-100,4,1,0,65,0,0
119972,-66.6666666666667,4,1,0,65,0,0
120244,-50,4,1,0,65,0,0
128154,-100,4,1,0,65,0,0
128972,-50,4,1,0,65,0,0
135517,-133.333333333333,4,1,0,65,0,0
136608,-133.333333333333,4,1,0,35,0,0
137154,-133.333333333333,4,1,0,65,0,0
137699,-50,4,1,0,65,0,1
138381,-50,4,1,0,65,0,0
139881,-50,4,1,0,65,0,1
140563,-50,4,1,0,65,0,0
142063,-50,4,1,0,65,0,1
142744,-50,4,1,0,65,0,0
144244,-50,4,1,0,65,0,1
144926,-50,4,1,0,65,0,0
146426,-50,4,1,0,65,0,1
147108,-50,4,1,0,65,0,0
148608,-50,4,1,0,65,0,1
149290,-50,4,1,0,65,0,0
150790,-50,4,1,0,65,0,1
151472,-50,4,1,0,65,0,0
152972,-50,4,1,0,65,0,1
153654,-50,4,1,0,65,0,0
172060,-12.5,4,1,0,65,0,0
172608,-50,4,1,0,65,0,0
190063,-50,4,1,0,65,0,1
207517,-50,4,1,0,65,0,0
214062,-50,4,1,0,65,0,0
224153,-66.6666666666667,4,1,0,65,0,0
224426,-100,4,1,0,65,0,0
224698,-200,4,1,0,65,0,0
224971,-50,4,1,0,65,0,0
242426,-100,4,1,0,65,0,0
249244,-66.6666666666667,4,1,0,65,0,0
250608,-50,4,1,0,65,0,0
254971,-50,4,1,0,5,0,0
255039,-50,4,1,0,65,0,0
255380,-50,4,1,0,5,0,0
255448,-50,4,1,0,65,0,0
257153,-50,4,1,0,5,0,0
257221,-50,4,1,0,65,0,0
257562,-50,4,1,0,5,0,0
257630,-50,4,1,0,65,0,0
259676,-50,4,3,0,65,0,0

[Colours]
Combo1 : 206,204,115
Combo2 : 213,94,130
Combo3 : 222,85,78
Combo4 : 80,152,131

[HitObjects]
112,88,11154,6,0,L|104:160,1,70
108,264,11426,2,0,P|184:260|224:308,2,140,0|8|0,0:0|0:0|0:0,0:0:0:0:
148,332,12108,1,0,0:0:0:0:
328,280,12244,2,0,L|344:140,1,140
168,140,12790,2,0,L|184:280,1,140,2|0,0:0|0:0,0:0:0:0:
416,320,13335,5,0,0:0:0:0:
464,252,13472,1,0,0:0:0:0:
432,176,13608,2,0,B|400:132|400:132|408:44,2,140,0|8|0,0:0|0:0|0:0,0:0:0:0:
484,108,14290,1,0,0:0:0:0:
312,48,14426,2,0,P|240:48|184:84,1,140
20,156,14972,2,0,P|92:156|148:192,1,140,2|0,0:0|0:0,0:0:0:0:
288,340,15517,6,0,P|312:312|320:280,1,70
264,208,15790,2,0,L|288:68,1,140,0|8,0:0|0:0,0:0:0:0:
136,24,16335,1,0,0:0:0:0:
48,84,16472,1,0,0:0:0:0:
92,180,16608,2,0,L|80:248,1,70
144,328,16881,2,0,B|212:352|212:308|280:328,2,140,2|2|0,0:0|0:0|0:0,0:0:0:0:
176,104,17699,6,0,L|244:84,1,70
284,180,17972,2,0,L|424:188,2,140,0|8|0,0:0|0:0|0:0,0:0:0:0:
172,220,18654,1,0,0:0:0:0:
92,88,18790,6,0,B|68:80|68:80|44:92|44:92|28:84,3,70
232,116,19335,2,0,B|256:108|256:108|280:120|280:120|296:112,3,70
144,188,19881,6,0,L|136:264,1,70
280,336,20154,2,0,P|352:340|392:288,2,140,0|8|0,0:0|0:0|0:0,0:0:0:0:
284,180,20835,1,0,0:0:0:0:
376,120,20972,2,0,L|448:132,1,70
216,264,21244,2,0,P|180:200|184:136,2,140,0|0|8,0:0|0:0|0:0,0:0:0:0:
252,40,22063,6,0,L|180:48,1,70
292,136,22335,2,0,B|344:136|344:136|376:156|376:156|428:156,2,140,0|8|0,0:0|0:0|0:0,0:0:0:0:
168,232,23017,1,0,0:0:0:0:
236,312,23154,2,0,P|260:284|272:252,1,70
72,256,23426,2,0,P|84:288|107:314,1,70
168,232,23699,2,0,L|144:88,1,140,0|8,0:0|0:0,0:0:0:0:
332,72,24244,6,0,P|404:64|456:104,2,140,0|0|8,0:0|0:0|0:0,0:0:0:0:
288,324,25063,1,0,0:0:0:0:
448,244,25199,1,0,0:0:0:0:
320,192,25335,2,0,L|248:200,1,70
92,268,25608,2,0,B|108:268|112:264|112:264|112:280|112:280|152:276|180:288|200:320,2,140,0|8|0,0:0|0:0|0:0,0:0:0:0:
108,136,26426,5,0,0:0:0:0:
108,136,26563,1,0,0:0:0:0:
24,124,26699,2,0,P|64:64|128:52,2,140,0|8|0,0:0|0:0|0:0,0:0:0:0:
88,228,27381,1,0,0:0:0:0:
332,148,27517,2,0,L|348:80,1,70
196,216,27790,2,0,L|204:288,1,70
456,344,28063,1,4,0:0:0:0:
328,44,28608,6,0,L|188:64,1,140,0|8,0:0|0:0,0:0:0:0:
56,248,29426,5,0,0:0:0:0:
128,324,29563,1,0,0:0:0:0:
252,328,29699,2,0,P|288:312|304:284,1,70
408,96,29972,6,0,P|440:84|476:80,2,70,0|0|8,0:0|0:0|0:0,0:0:0:0:
60,188,30790,6,0,L|48:328,1,140,0|8,0:0|0:0,0:0:0:0:
464,340,31608,6,0,L|456:268,1,70
332,228,31881,2,0,L|339:297,1,70
208,356,32154,6,0,B|172:360|172:360|140:348,2,70,0|0|8,0:0|0:0|0:0,0:0:0:0:
276,48,32972,6,0,P|348:52|384:104,1,140,0|8,0:0|0:0,0:0:0:0:
216,248,33790,6,0,L|140:240,1,70
64,152,34063,1,0,0:0:0:0:
184,96,34199,1,0,0:0:0:0:
356,216,34335,6,0,L|348:288,2,70,0|0|8,0:0|0:0|0:0,0:0:0:0:
48,320,35154,6,0,B|116:344|116:344|184:340,1,140,0|8,0:0|0:0,0:0:0:0:
252,72,35972,5,0,0:0:0:0:
328,152,36108,1,0,0:0:0:0:
424,100,36244,2,0,B|432:76|432:76|420:60|420:60|420:36,1,70
156,48,36517,2,0,L|84:56,1,70,8|0,0:0|0:0,0:0:0:0:
16,192,36790,2,0,B|16:208|20:224|20:224|12:236|12:236|28:256,1,70
192,248,37063,2,0,B|184:232|188:216|188:216|176:212|168:184,1,70,8|0,0:0|0:0,0:0:0:0:
52,324,37335,6,0,P|84:340|120:340,1,70
268,236,37608,2,0,P|236:220|200:220,1,70
424,344,37881,2,0,P|448:276|440:208,1,140,8|0,0:0|0:0,0:0:0:0:
348,52,38290,5,0,0:0:0:0:
136,160,38426,2,0,P|200:196|268:200,1,140
232,80,38835,1,0,0:0:0:0:
36,128,38972,2,0,L|44:200,1,70
468,197,39244,2,0,L|476:128,1,70,8|0,0:0|0:0,0:0:0:0:
256,40,39517,6,0,L|256:144,1,105
256,160,39790,1,0,0:0:0:0:
344,324,39926,1,0,0:0:0:0:
440,88,40063,2,0,P|408:64|376:60,1,70,8|0,0:0|0:0,0:0:0:0:
72,152,40335,2,0,P|104:176|136:180,1,70
208,100,40608,5,0,0:0:0:0:
184,312,40744,1,0,0:0:0:0:
132,216,40881,2,0,L|60:220,1,70
304,100,41154,5,0,0:0:0:0:
328,312,41290,1,0,0:0:0:0:
380,216,41426,2,0,L|452:220,1,70,8|0,0:0|0:0,0:0:0:0:
468,96,41699,6,0,L|398:92,1,70
208,100,41972,1,0,0:0:0:0:
132,216,42108,1,0,0:0:0:0:
124,52,42244,2,0,P|184:8|248:12,1,140,8|0,0:0|0:0,0:0:0:0:
320,176,42654,1,0,0:0:0:0:
432,136,42790,6,0,B|444:104|444:104|436:68,1,70
256,144,43063,2,0,B|252:160|252:160|260:172|260:172|252:184|252:184|260:212,1,70,8|0,0:0|0:0,0:0:0:0:
352,280,43335,1,0,0:0:0:0:
316,48,43472,1,0,0:0:0:0:
176,88,43608,2,0,B|164:96|144:92|144:92|128:84|108:92,1,70,8|0,0:0|0:0,0:0:0:0:
48,248,43881,6,0,B|76:260|96:252|96:252|112:264,1,70
256,144,44154,1,0,0:0:0:0:
292,332,44290,1,0,0:0:0:0:
428,216,44426,2,0,B|448:196|444:168|444:168|432:152,1,70
284,68,44699,2,0,B|264:88|268:116|268:116|280:132,1,70
228,316,44972,6,0,B|248:296|244:268|244:268|233:254,1,70
72,176,45244,1,0,0:0:0:0:
100,352,45381,1,0,0:0:0:0:
184,80,45517,2,0,B|200:64|200:64|228:72|228:72|244:64,1,70
464,152,45790,2,0,B|448:168|448:168|420:160|420:160|404:168,1,70
192,328,46063,6,0,B|232:332|256:308|256:308|280:332|324:328,23,140
172,48,52608,6,0,P|148:80|148:112,1,70
264,184,52881,2,0,P|288:152|288:120,1,70
176,60,53154,6,0,P|152:92|152:124,1,70
268,196,53427,2,0,P|292:164|292:132,1,70
180,72,53699,6,0,B|132:124|192:148|132:196,1,140,8|0,0:0|0:0,0:0:0:0:
436,52,53972,2,0,L|416:48,6,17.5
452,72,54244,2,0,L|384:88,1,70
64,52,54517,6,0,B|48:112|48:112|76:144,1,105.000004005432
248,348,54790,6,0,B|308:360|344:340|344:340|364:304,1,140
264,36,55063,2,0,B|204:24|168:44|168:44|148:80,1,140,8|0,0:0|0:0,0:0:0:0:
280,248,55335,1,0,0:0:0:0:
504,200,55472,1,0,0:0:0:0:
340,32,55608,1,8,0:0:0:0:
92,140,55744,1,0,0:0:0:0:
404,320,55881,6,0,L|420:180,1,140
340,32,56154,1,8,0:0:0:0:
172,272,56290,1,0,0:0:0:0:
156,48,56426,2,0,P|84:48|36:92,1,140
76,312,56699,2,0,P|148:312|196:268,1,140,8|0,0:0|0:0,0:0:0:0:
356,47,56972,6,0,P|424:46|475:91,1,140
435,312,57245,2,0,P|367:313|316:268,1,140,8|0,0:0|0:0,0:0:0:0:
220,36,57517,2,0,L|200:176,1,140
76,312,57790,1,8,0:0:0:0:
8,120,57926,1,0,0:0:0:0:
136,20,58063,6,0,P|192:68|256:80,1,140
452,84,58335,2,0,P|500:136|508:204,1,140,8|0,0:0|0:0,0:0:0:0:
356,308,58608,1,8,0:0:0:0:
156,288,58744,1,8,0:0:0:0:
388,276,58881,1,8,0:0:0:0:
136,328,59017,1,8,0:0:0:0:
44,196,59154,6,0,L|64:56,1,140
336,140,59426,2,0,L|196:160,1,140,8|0,0:0|0:0,0:0:0:0:
360,52,59699,2,0,P|416:100|424:164,1,140
184,322,59972,2,0,P|131:279|120:212,1,140,8|0,0:0|0:0,0:0:0:0:
292,96,60244,5,0,0:0:0:0:
464,71,60381,1,0,0:0:0:0:
488,244,60517,1,8,0:0:0:0:
316,268,60654,1,0,0:0:0:0:
184,128,60790,2,0,B|140:72|140:72|152:4,1,140
96,188,61063,2,0,B|140:244|140:244|128:312,1,140,8|0,0:0|0:0,0:0:0:0:
300,304,61335,6,0,L|440:328,1,140
437,56,61608,2,0,L|300:80,1,140,8|0,0:0|0:0,0:0:0:0:
96,188,61881,1,0,0:0:0:0:
240,208,62017,1,0,0:0:0:0:
184,84,62154,1,8,0:0:0:0:
88,300,62290,1,0,0:0:0:0:
288,297,62426,6,0,P|334:303|376:288,1,70
328,187,62563,1,0,0:0:0:0:
328,160,62631,1,0,0:0:0:0:
320,132,62699,1,0,0:0:0:0:
308,108,62767,1,0,0:0:0:0:
292,84,62835,1,0,0:0:0:0:
272,64,62904,1,0,0:0:0:0:
252,48,62972,6,0,B|184:32|184:32|172:92|172:92|100:56,1,210
80,36,63244,6,0,B|68:52|44:52|44:52|68:60|84:88|84:88|60:92|60:92|40:128|56:180,1,210
72,204,63517,6,0,P|144:208|188:256,1,140
440,288,63790,2,0,P|368:284|324:236,1,140,8|0,0:0|0:0,0:0:0:0:
352,28,64063,2,0,P|392:88|388:156,1,140
123,153,64335,2,0,P|120:84|160:28,1,140,8|0,0:0|0:0,0:0:0:0:
256,124,64608,5,0,0:0:0:0:
352,28,64744,1,0,0:0:0:0:
364,192,64881,2,0,B|360:284|360:284|324:316,1,140,8|0,0:0|0:0,0:0:0:0:
72,272,65154,5,8,0:0:0:0:
212,336,65290,1,8,0:0:0:0:
72,180,65426,1,8,0:0:0:0:
232,256,65563,1,8,0:0:0:0:
72,96,65699,6,0,P|120:44|188:36,1,140
264,192,65972,1,8,0:0:0:0:
172,144,66108,1,0,0:0:0:0:
264,84,66244,2,0,B|312:64|364:76|364:76|384:112,1,140
436,328,66517,5,8,0:0:0:0:
384,220,66654,1,0,0:0:0:0:
312,308,66790,1,0,0:0:0:0:
216,212,66926,5,0,0:0:0:0:
216,216,66994,1,0,0:0:0:0:
216,220,67063,1,0,0:0:0:0:
88,292,67199,5,0,0:0:0:0:
88,288,67267,1,0,0:0:0:0:
88,284,67336,1,0,0:0:0:0:
40,24,67472,5,0,0:0:0:0:
68,28,67540,1,0,0:0:0:0:
96,32,67608,1,0,0:0:0:0:
124,36,67676,1,0,0:0:0:0:
152,44,67744,2,0,L|148:116,1,70
236,76,67881,6,0,P|308:80|368:52,1,140
136,160,68154,2,0,L|160:300,1,140,8|0,0:0|0:0,0:0:0:0:
448,248,68426,2,0,L|424:110,1,140
248,344,68699,2,0,P|320:348|380:320,1,140,8|0,0:0|0:0,0:0:0:0:
344,96,68972,5,0,0:0:0:0:
292,228,69108,1,0,0:0:0:0:
508,180,69244,1,8,0:0:0:0:
292,16,69381,1,0,0:0:0:0:
48,116,69517,2,0,P|44:185|76:246,1,140
244,296,69790,2,0,P|247:226|215:165,1,140,8|0,0:0|0:0,0:0:0:0:
224,44,70063,6,0,L|364:60,1,140,4|0,0:0|0:0,0:0:0:0:
504,16,70335,1,8,0:0:0:0:
472,328,70472,2,0,B|360:360|284:336|276:308|264:284|236:280|204:288|192:312|196:344|220:360|240:356|256:344,1,350,8|0,0:0|0:0,0:0:0:0:
276,324,70881,2,0,L|292:184,1,140
168,56,71154,6,0,L|152:196,1,140
448,236,71426,1,0,0:0:0:0:
448,236,71699,6,2,B|452:276|452:276|440:304,1,70
360,252,71835,2,2,B|356:212|356:212|368:184,1,70
440,244,71972,6,2,B|444:284|444:284|432:312,1,70
352,260,72108,2,2,B|348:220|348:220|360:192,1,70
432,252,72244,6,0,B|436:292|436:292|424:320|424:320|352:324,1,140
160,292,72517,1,0,0:0:0:0:
160,292,72790,5,0,0:0:0:0:
184,112,72926,1,0,0:0:0:0:
324,36,73063,2,0,L|464:60,1,140,8|0,0:0|0:0,0:0:0:0:
104,184,73335,6,0,P|80:112|96:52,1,140
244,220,73608,2,0,P|268:292|252:352,1,140,8|0,0:0|0:0,0:0:0:0:
23,284,73881,2,0,B|95:268|91:316|159:292,1,140
332,120,74154,1,8,0:0:0:0:
408,252,74290,1,0,0:0:0:0:
320,344,74426,6,0,L|180:324,1,140
228,160,74699,2,0,L|366:179,1,140,8|0,0:0|0:0,0:0:0:0:
344,328,74972,2,0,L|204:308,1,140
252,144,75244,1,8,0:0:0:0:
140,12,75381,1,0,0:0:0:0:
56,172,75517,6,0,B|84:244|48:348|48:348|76:300|132:300,1,280
256,352,75926,1,0,0:0:0:0:
382,300,76063,5,8,0:0:0:0:
472,68,76199,1,8,0:0:0:0:
468,308,76335,1,8,0:0:0:0:
380,52,76471,1,8,0:0:0:0:
232,348,76608,5,0,0:0:0:0:
196,352,76676,1,0,0:0:0:0:
160,356,76744,2,0,P|132:292|136:224,1,140
256,148,77017,1,0,0:0:0:0:
292,152,77085,1,0,0:0:0:0:
328,156,77154,2,0,P|364:96|360:28,1,140
224,16,77426,6,0,L|156:32,1,70
184,128,77563,2,0,L|244:92,1,70
72,80,77699,1,0,0:0:0:0:
72,100,77767,1,0,0:0:0:0:
72,120,77835,1,0,0:0:0:0:
72,140,77904,1,0,0:0:0:0:
72,160,77972,1,0,0:0:0:0:
72,180,78040,1,0,0:0:0:0:
72,200,78108,1,0,0:0:0:0:
72,220,78176,1,0,0:0:0:0:
72,240,78244,5,0,0:0:0:0:
108,232,78313,1,0,0:0:0:0:
144,232,78381,1,0,0:0:0:0:
176,248,78449,1,0,0:0:0:0:
200,272,78517,1,0,0:0:0:0:
224,300,78585,1,0,0:0:0:0:
256,320,78654,1,0,0:0:0:0:
288,332,78722,1,0,0:0:0:0:
324,324,78790,6,0,P|428:276|388:360,1,280,8|0,0:0|0:0,0:0:0:0:
256,40,79199,1,8,0:0:0:0:
188,292,79335,2,0,P|84:340|124:256,1,280,8|0,0:0|0:0,0:0:0:0:
256,40,79744,1,8,0:0:0:0:
388,148,79881,2,0,P|256:192|128:148,1,280,8|0,0:0|0:0,0:0:0:0:
256,40,80290,5,0,0:0:0:0:
292,44,80358,1,0,0:0:0:0:
328,48,80426,2,0,L|340:16,6,35
344,80,80699,5,0,0:0:0:0:
388,176,80835,1,0,0:0:0:0:
432,280,80972,2,0,P|352:388|224:360,1,280,8|0,0:0|0:0,0:0:0:0:
288,64,81381,1,0,0:0:0:0:
308,268,81517,1,0,0:0:0:0:
132,176,81654,2,0,L|124:104,1,70
92,68,81790,2,0,L|56:56,4,35
236,44,82063,6,0,B|288:64|332:52|332:52|332:60|316:76|316:76|400:36|456:104,1,280,8|0,0:0|0:0,0:0:0:0:
468,344,82472,1,0,0:0:0:0:
372,152,82608,1,0,0:0:0:0:
256,320,82744,2,0,B|212:364|116:360|100:280|100:280|64:256|20:268,1,280,8|0,0:0|0:0,0:0:0:0:
188,260,83154,6,0,B|216:176|216:176|144:104|144:104|176:20,1,280,8|0,0:0|0:0,0:0:0:0:
460,52,83563,1,8,0:0:0:0:
324,260,83699,2,0,B|296:176|296:176|368:104|368:104|360:84,1,210,8|0,0:0|0:0,0:0:0:0:
348,52,83972,5,0,0:0:0:0:
336,20,84040,1,0,0:0:0:0:
308,40,84108,1,0,0:0:0:0:
276,52,84176,1,0,0:0:0:0:
240,56,84244,1,0,0:0:0:0:
204,52,84313,1,0,0:0:0:0:
172,40,84381,1,0,0:0:0:0:
140,24,84449,1,0,0:0:0:0:
148,72,84517,5,0,0:0:0:0:
140,128,84585,1,0,0:0:0:0:
116,188,84654,1,0,0:0:0:0:
116,256,84722,1,0,0:0:0:0:
156,328,84790,5,8,0:0:0:0:
156,328,85063,6,0,L|192:332,1,35
312,336,85335,6,0,P|344:280|328:208,1,140,8|0,0:0|0:0,0:0:0:0:
128,32,85608,2,0,P|96:88|112:160,1,140
472,208,85881,1,0,0:0:0:0:
404,48,86017,1,0,0:0:0:0:
416,352,86154,1,0,0:0:0:0:
256,20,86290,1,0,0:0:0:0:
128,204,86426,5,0,0:0:0:0:
336,280,86563,1,0,0:0:0:0:
169,137,86699,2,0,P|53:185|120:281,1,280,8|0,0:0|0:0,0:0:0:0:
364,248,87108,2,0,L|380:108,2,140
152,336,87517,6,0,L|168:196,1,140,8|0,0:0|0:0,0:0:0:0:
492,180,87790,2,0,L|476:320,1,140
200,144,88063,1,0,0:0:0:0:
360,360,88199,1,0,0:0:0:0:
488,48,88335,1,0,0:0:0:0:
144,20,88472,1,0,0:0:0:0:
152,336,88608,5,0,0:0:0:0:
16,72,88744,1,0,0:0:0:0:
296,192,88881,2,0,B|364:164|376:96|376:96|360:184|384:244,1,280,8|0,0:0|0:0,0:0:0:0:
484,344,89290,1,0,0:0:0:0:
424,32,89426,2,0,P|348:24|304:64,1,140
383,242,89699,6,0,P|394:310|366:373,1,140,8|0,0:0|0:0,0:0:0:0:
144,372,89972,2,0,P|116:309|128:241,1,140
380,40,90244,1,0,0:0:0:0:
256,292,90381,1,0,0:0:0:0:
132,40,90517,1,0,0:0:0:0:
420,160,90654,1,0,0:0:0:0:
444,184,90722,1,0,0:0:0:0:
456,216,90790,6,0,L|492:216,6,35
440,232,91063,2,0,P|368:336|224:344,1,280,8|0,0:0|0:0,0:0:0:0:
72,152,91472,2,0,P|144:48|288:40,1,280,8|0,0:0|0:0,0:0:0:0:
168,348,91881,6,0,L|160:208,1,140,8|0,0:0|0:0,0:0:0:0:
344,36,92154,2,0,L|352:176,1,140
24,176,92426,1,0,0:0:0:0:
240,36,92563,1,0,0:0:0:0:
360,332,92699,2,0,B|296:352|296:352|276:320|236:316,1,140
152,52,92972,6,0,B|216:32|216:32|236:64|276:68,1,140
384,168,93244,1,0,0:0:0:0:
128,216,93381,1,0,0:0:0:0:
416,252,93517,1,0,0:0:0:0:
96,132,93654,1,0,0:0:0:0:
360,84,93790,1,0,0:0:0:0:
152,300,93926,1,0,0:0:0:0:
328,8,94063,6,0,P|400:4|452:44,1,140,8|0,0:0|0:0,0:0:0:0:
184,376,94335,2,0,P|112:380|60:340,1,140
124,36,94608,1,0,0:0:0:0:
216,296,94744,1,0,0:0:0:0:
360,84,94881,1,0,0:0:0:0:
512,208,95017,1,0,0:0:0:0:
376,372,95154,5,0,0:0:0:0:
128,280,95290,1,0,0:0:0:0:
256,68,95426,2,0,P|192:40|124:56,1,140,8|0,0:0|0:0,0:0:0:0:
296,152,95699,2,0,P|344:92|340:28,1,140
48,232,95972,2,0,P|48:300|93:352,1,140
376,268,96244,5,8,0:0:0:0:
136,268,96381,1,0,0:0:0:0:
388,268,96517,1,0,0:0:0:0:
124,268,96654,1,0,0:0:0:0:
400,268,96790,1,0,0:0:0:0:
408,232,96858,1,0,0:0:0:0:
416,196,96926,1,0,0:0:0:0:
344,40,97063,2,0,L|204:56,1,140
184,296,97335,5,0,0:0:0:0:
104,48,97472,1,0,0:0:0:0:
280,124,97608,2,0,L|420:144,1,140,8|0,0:0|0:0,0:0:0:0:
186,205,97881,2,0,L|133:75,1,140
303,246,98154,2,0,L|217:356,1,140
92,204,98426,6,0,B|24:20|24:20|104:48,1,280,8|0,0:0|0:0,0:0:0:0:
256,196,98835,1,0,0:0:0:0:
456,176,98972,1,0,0:0:0:0:
480,148,99040,1,0,0:0:0:0:
484,112,99108,1,0,0:0:0:0:
264,28,99244,1,0,0:0:0:0:
320,320,99381,1,0,0:0:0:0:
412,68,99517,5,0,0:0:0:0:
128,36,99654,1,0,0:0:0:0:
28,304,99790,2,0,B|72:324|120:276|120:276|108:320|120:352|120:352|140:320|140:320|164:348|192:352,1,280,8|0,0:0|0:0,0:0:0:0:
484,304,100199,2,0,B|440:324|392:276|392:276|404:320|392:352|392:352|372:320|372:320|348:348|320:352,1,280,12|0,0:0|0:0,0:0:0:0:
100,208,100608,6,0,L|116:68,1,140,8|0,0:0|0:0,0:0:0:0:
396,68,100881,2,0,L|412:208,1,140,8|0,0:0|0:0,0:0:0:0:
256,344,101154,1,0,0:0:0:0:
256,40,101290,1,0,0:0:0:0:
256,344,101426,1,0,0:0:0:0:
256,344,101699,6,0,L|396:328,1,140
308,60,101972,6,0,L|300:164,1,105,8|0,0:0|0:0,0:0:0:0:
316,188,102244,6,0,P|388:188|444:152,1,140
108,84,102517,6,0,P|72:146|75:212,1,140
176,332,102790,6,0,P|247:332|303:296,1,140
168,40,103063,2,0,P|96:39|40:75,1,140,8|0,0:0|0:0,0:0:0:0:
327,198,103335,2,0,L|307:58,1,140
8,180,103608,2,0,L|28:320,1,140,8|0,0:0|0:0,0:0:0:0:
260,336,103881,6,0,B|328:316|328:360|396:336,1,140
252,48,104154,2,0,B|184:68|184:24|116:48,1,140,8|0,0:0|0:0,0:0:0:0:
272,312,104426,2,0,B|340:292|340:336|408:312,1,140
408,72,104699,1,8,0:0:0:0:
103,72,104835,1,0,0:0:0:0:
103,311,104972,6,0,L|248:320,1,140
252,48,105244,2,0,L|252:188,1,140,8|0,0:0|0:0,0:0:0:0:
384,340,105517,2,0,P|436:288|452:224,1,140
59,225,105790,2,0,P|78:291|128:340,1,140,8|0,0:0|0:0,0:0:0:0:
256,280,106063,6,0,L|256:208,1,70
248,200,106199,2,0,L|212:192,2,35
256,168,106335,5,0,0:0:0:0:
412,60,106472,1,0,0:0:0:0:
100,60,106608,2,0,L|96:164,1,105
80,196,106881,6,0,P|92:264|144:312,1,140
320,112,107154,6,0,P|388:116|448:156,1,140
192,272,107426,2,0,P|124:268|64:228,1,140,8|0,0:0|0:0,0:0:0:0:
356,224,107699,2,0,B|348:364,1,140
160,164,107972,2,0,B|168:24,1,140,8|0,0:0|0:0,0:0:0:0:
320,112,108244,5,0,0:0:0:0:
56,44,108381,1,0,0:0:0:0:
448,32,108517,2,0,L|444:172,1,140,8|0,0:0|0:0,0:0:0:0:
192,272,108790,2,0,P|328:320|452:276,1,280,0|8,0:0|0:0,0:0:0:0:
480,136,109199,1,0,0:0:0:0:
356,40,109335,6,0,L|216:56,1,140
216,55,109540,1,0,0:0:0:0:
216,55,109608,1,0,0:0:0:0:
204,352,109744,1,0,0:0:0:0:
36,164,109881,6,0,L|176:180,1,140
175,179,110086,1,0,0:0:0:0:
175,179,110154,1,0,0:0:0:0:
356,40,110290,1,0,0:0:0:0:
384,300,110426,6,0,L|392:228,1,70
484,212,110563,2,0,L|468:352,1,140
468,351,110767,1,0,0:0:0:0:
468,351,110835,1,0,0:0:0:0:
380,312,110972,6,0,L|276:320,1,105,4|0,0:0|0:0,0:0:0:0:
256,348,111244,6,0,P|188:328|120:348,1,140,2|0,0:0|0:0,0:0:0:0:
24,228,111517,6,0,L|36:88,1,140
256,56,111790,1,8,0:0:0:0:
392,192,111926,1,0,0:0:0:0:
256,328,112063,1,0,0:0:0:0:
120,192,112199,1,0,0:0:0:0:
468,124,112335,2,0,P|488:192|472:260,1,140,8|0,0:0|0:0,0:0:0:0:
256,328,112608,6,0,L|256:188,1,140
8,276,112881,2,0,L|148:280,1,140,8|0,0:0|0:0,0:0:0:0:
400,312,113154,5,0,0:0:0:0:
256,56,113290,1,0,0:0:0:0:
256,328,113426,1,8,0:0:0:0:
400,72,113563,1,0,0:0:0:0:
120,192,113699,6,0,P|112:264|128:328,1,140
392,192,113972,2,0,P|400:120|384:56,1,140,8|0,0:0|0:0,0:0:0:0:
332,252,114244,2,0,B|384:288|436:264|436:264|456:288,1,140
180,132,114517,2,0,B|128:96|76:120|76:120|56:96,1,140,8|0,0:0|0:0,0:0:0:0:
256,56,114790,6,0,L|272:124,1,70
280,132,114926,2,0,L|316:140,2,35
272,148,115063,2,0,P|256:216|288:280,1,140
460,340,115335,5,0,0:0:0:0:
428,324,115404,1,0,0:0:0:0:
392,316,115472,1,0,0:0:0:0:
360,332,115540,1,0,0:0:0:0:
336,356,115608,1,0,0:0:0:0:
304,364,115676,1,0,0:0:0:0:
268,364,115744,1,0,0:0:0:0:
232,356,115813,1,0,0:0:0:0:
204,336,115881,6,0,P|136:308|72:316,1,140
308,48,116154,2,0,P|376:76|440:68,1,140,8|0,0:0|0:0,0:0:0:0:
88,76,116426,2,0,L|72:216,1,140
424,308,116699,2,0,L|440:168,1,140,8|0,0:0|0:0,0:0:0:0:
308,48,116972,6,0,P|288:120|296:184,1,140
452,128,117244,1,8,0:0:0:0:
176,88,117381,1,0,0:0:0:0:
52,304,117517,2,0,P|116:332|184:324,1,140
460,304,117790,2,0,P|396:332|328:324,1,140,8|0,0:0|0:0,0:0:0:0:
171,273,118063,5,0,0:0:0:0:
227,77,118199,1,0,0:0:0:0:
368,224,118335,1,0,0:0:0:0:
165,342,118472,1,0,0:0:0:0:
170,38,118608,1,0,0:0:0:0:
431,195,118744,1,0,0:0:0:0:
79,246,118881,6,0,P|68:281|76:314,1,70
99,333,119017,2,0,P|92:299|102:266,1,70
117,228,119154,6,0,L|400:212,1,280
165,32,119699,6,0,L|212:38,1,35
148,130,119835,2,0,L|113:134,1,35
181,9,119972,6,0,L|233:25,1,52.5000020027161
135,153,120108,2,0,L|83:169,1,52.5000020027161
312,48,120244,6,0,P|384:44|444:80,1,140
200,336,120517,2,0,P|128:340|68:304,1,140,8|0,0:0|0:0,0:0:0:0:
112,64,120790,1,0,0:0:0:0:
256,264,120926,1,0,0:0:0:0:
400,64,121063,1,8,0:0:0:0:
256,344,121199,1,0,0:0:0:0:
112,228,121335,6,0,B|92:180|92:180|120:96,1,140
392,96,121608,2,0,B|420:180|420:180|400:228,1,140,8|0,0:0|0:0,0:0:0:0:
152,328,121881,1,0,0:0:0:0:
204,60,122017,1,0,0:0:0:0:
300,292,122154,2,0,L|440:308,1,140,8|0,0:0|0:0,0:0:0:0:
376,144,122426,6,0,L|236:160,1,140
152,328,122699,1,8,0:0:0:0:
128,32,122835,1,0,0:0:0:0:
24,144,122972,2,0,P|84:184|152:192,1,140
488,144,123244,2,0,P|428:184|360:192,1,140,8|0,0:0|0:0,0:0:0:0:
256,44,123517,6,0,L|256:184,1,140
32,128,123790,1,8,0:0:0:0:
392,60,123926,2,0,P|504:148|476:268,1,280,8|0,0:0|0:0,0:0:0:0:
344,340,124335,2,0,L|204:324,1,140
168,320,124540,1,0,0:0:0:0:
132,316,124608,6,0,B|88:256|88:256|104:192,1,140
380,68,124881,2,0,B|424:128|424:128|408:192,1,140,8|0,0:0|0:0,0:0:0:0:
140,120,125154,1,0,0:0:0:0:
296,40,125290,1,0,0:0:0:0:
324,248,125426,1,8,0:0:0:0:
120,148,125563,1,0,0:0:0:0:
320,52,125699,6,0,L|460:68,1,140
256,344,125972,1,8,0:0:0:0:
76,176,126108,1,0,0:0:0:0:
472,112,126244,2,0,B|512:188|512:284|456:332|456:332|408:320,1,280,0|8,0:0|0:0,0:0:0:0:
336,180,126654,1,0,0:0:0:0:
228,256,126790,6,0,L|88:268,1,140
216,56,127063,1,8,0:0:0:0:
392,152,127199,1,0,0:0:0:0:
296,328,127335,1,8,0:0:0:0:
120,232,127472,1,0,0:0:0:0:
332,52,127608,5,0,0:0:0:0:
368,48,127676,1,0,0:0:0:0:
400,60,127744,1,0,0:0:0:0:
428,84,127813,1,0,0:0:0:0:
448,112,127881,1,0,0:0:0:0:
448,148,127949,1,0,0:0:0:0:
432,180,128017,1,0,0:0:0:0:
420,212,128085,1,0,0:0:0:0:
420,248,128154,6,0,B|428:304|428:304|464:336,1,105,2|0,0:0|0:0,0:0:0:0:
472,352,128426,6,0,L|368:364,1,105,2|0,0:0|0:0,0:0:0:0:
352,352,128699,6,0,B|316:352|316:352|288:332|288:332|252:332,1,105,2|0,0:0|0:0,0:0:0:0:
220,348,128972,6,0,P|152:364|80:340,1,140,8|0,0:0|0:0,0:0:0:0:
160,64,129244,1,0,0:0:0:0:
160,64,129313,1,0,0:0:0:0:
160,64,129381,1,0,0:0:0:0:
152,256,129517,1,0,0:0:0:0:
48,72,129654,2,0,P|176:16|308:56,1,280,8|0,0:0|0:0,0:0:0:0:
136,340,130063,6,0,P|104:276|112:208,1,140,8|0,0:0|0:0,0:0:0:0:
472,184,130335,1,0,0:0:0:0:
472,184,130404,1,0,0:0:0:0:
472,184,130472,1,0,0:0:0:0:
212,264,130608,1,0,0:0:0:0:
304,32,130744,2,0,P|372:160|340:284,1,280,8|0,0:0|0:0,0:0:0:0:
48,124,131154,6,0,L|188:144,1,140,8|0,0:0|0:0,0:0:0:0:
364,48,131426,1,8,0:0:0:0:
364,48,131563,1,8,0:0:0:0:
415,320,131699,2,0,L|134:339,1,280,8|0,0:0|0:0,0:0:0:0:
468,192,135517,6,0,L|312:212,1,157.500006008148,8|0,0:0|0:0,0:0:0:0:
44,148,136063,2,0,L|200:168,1,157.500006008148,8|0,0:0|0:0,0:0:0:0:
344,96,136608,5,8,0:0:0:0:
168,164,136744,1,8,0:0:0:0:
344,232,136881,1,8,0:0:0:0:
168,300,137017,1,8,0:0:0:0:
408,356,137154,5,8,0:0:0:0:
104,232,137290,1,8,0:0:0:0:
408,152,137426,1,8,0:0:0:0:
104,28,137563,1,8,0:0:0:0:
484,68,137699,6,0,B|461:153|461:153|508:223|508:223|480:327,1,280,8|0,0:0|0:0,0:0:0:0:
31,326,138108,2,0,B|3:223|3:223|50:153|50:153|27:66,1,280,8|0,0:0|0:0,0:0:0:0:
296,32,138517,2,0,L|368:40,1,70
380,120,138654,2,0,L|310:112,1,70
220,96,138790,5,2,0:0:0:0:
220,96,138926,1,2,0:0:0:0:
96,184,139063,2,0,L|116:324,1,140
296,32,139335,1,0,0:0:0:0:
308,356,139472,1,0,0:0:0:0:
460,188,139608,2,0,P|484:120|464:56,1,140
296,312,139881,6,0,B|372:416|496:372|496:372|508:320,1,280,8|0,0:0|0:0,0:0:0:0:
216,72,140290,2,0,B|140:-32|16:12|16:12|4:64,1,280,8|0,0:0|0:0,0:0:0:0:
80,332,140699,6,0,L|224:344,1,140
292,40,140972,1,0,0:0:0:0:
336,300,141108,1,0,0:0:0:0:
480,140,141244,1,0,0:0:0:0:
444,136,141313,1,0,0:0:0:0:
408,136,141381,1,0,0:0:0:0:
376,148,141449,1,0,0:0:0:0:
348,164,141517,1,0,0:0:0:0:
324,188,141585,1,0,0:0:0:0:
296,208,141654,6,0,P|224:224|212:224,1,70
224,0,141790,2,0,L|244:140,1,140
80,332,142063,6,0,B|12:232|60:132|60:132|56:176|76:196,1,280,8|0,0:0|0:0,0:0:0:0:
432,52,142472,2,0,B|500:152|452:252|452:252|456:208|436:188,1,280,8|0,0:0|0:0,0:0:0:0:
236,224,142881,5,0,0:0:0:0:
236,224,142949,1,0,0:0:0:0:
236,224,143017,1,0,0:0:0:0:
236,224,143085,1,0,0:0:0:0:
236,224,143154,2,0,L|376:236,1,140
396,92,143426,5,0,0:0:0:0:
352,68,143494,1,0,0:0:0:0:
304,52,143563,1,0,0:0:0:0:
256,44,143631,1,0,0:0:0:0:
212,60,143699,1,0,0:0:0:0:
168,84,143767,1,0,0:0:0:0:
120,96,143835,1,0,0:0:0:0:
72,80,143904,1,0,0:0:0:0:
44,40,143972,5,0,0:0:0:0:
44,60,144040,1,0,0:0:0:0:
44,80,144108,1,0,0:0:0:0:
44,100,144176,1,0,0:0:0:0:
44,120,144244,6,0,L|44:260,1,140,8|0,0:0|0:0,0:0:0:0:
500,148,144517,1,8,0:0:0:0:
260,40,144654,2,0,P|224:176|292:288,1,280,8|0,0:0|0:0,0:0:0:0:
496,248,145063,5,0,0:0:0:0:
336,48,145199,2,0,L|196:60,1,140
48,160,145472,2,0,L|80:172,1,35
52,188,145540,2,0,L|86:191,1,35
68,220,145608,2,0,L|101:214,1,35
96,244,145676,2,0,L|127:229,1,35
124,260,145744,2,0,P|160:260|192:268,1,70
280,320,145881,5,0,0:0:0:0:
316,312,145949,1,0,0:0:0:0:
348,296,146017,1,0,0:0:0:0:
376,276,146085,1,0,0:0:0:0:
400,252,146154,1,0,0:0:0:0:
420,224,146222,1,0,0:0:0:0:
432,192,146290,1,0,0:0:0:0:
444,160,146358,1,0,0:0:0:0:
444,124,146426,6,0,P|336:32|200:24,1,280,8|0,0:0|0:0,0:0:0:0:
68,260,146835,2,0,P|176:352|312:360,1,280,8|0,0:0|0:0,0:0:0:0:
320,32,147244,5,0,0:0:0:0:
320,32,147381,1,2,0:0:0:0:
96,152,147517,2,0,L|80:292,1,140,2|2,0:0|0:0,0:0:0:0:
416,232,147790,2,0,L|432:92,1,140,2|2,0:0|0:0,0:0:0:0:
176,32,148063,1,0,0:0:0:0:
176,32,148131,1,0,0:0:0:0:
176,32,148199,1,0,0:0:0:0:
268,244,148335,1,0,0:0:0:0:
232,248,148404,1,0,0:0:0:0:
196,252,148472,1,0,0:0:0:0:
160,256,148540,1,0,0:0:0:0:
124,260,148608,6,0,B|116:204|116:204|32:192|-4:104|44:32,1,280,8|0,0:0|0:0,0:0:0:0:
388,124,149017,2,0,B|396:180|396:180|480:192|516:280|468:352,1,280,8|0,0:0|0:0,0:0:0:0:
256,320,149426,6,0,L|116:336,1,140
84,324,149631,1,0,0:0:0:0:
64,304,149699,2,0,L|56:232,1,70
128,180,149835,2,0,L|136:108,1,70
180,36,149972,5,0,0:0:0:0:
204,60,150040,1,0,0:0:0:0:
232,80,150108,1,0,0:0:0:0:
264,88,150176,1,0,0:0:0:0:
300,84,150244,2,0,P|368:72|432:100,1,140
444,132,150449,1,0,0:0:0:0:
428,164,150517,2,0,P|404:232|424:296,1,140
136,268,150790,5,8,0:0:0:0:
250,50,150926,1,0,0:0:0:0:
381,257,151063,1,0,0:0:0:0:
120,234,151199,5,8,0:0:0:0:
287,53,151335,1,0,0:0:0:0:
360,288,151472,1,0,0:0:0:0:
114,197,151608,6,0,L|124:56,1,140
123,58,151813,1,0,0:0:0:0:
123,58,151881,1,0,0:0:0:0:
436,76,152017,1,0,0:0:0:0:
436,76,152085,1,0,0:0:0:0:
436,76,152154,1,0,0:0:0:0:
232,220,152290,1,0,0:0:0:0:
232,220,152358,1,0,0:0:0:0:
232,220,152426,2,0,L|196:228,2,35
248,208,152563,5,0,0:0:0:0:
380,28,152699,1,0,0:0:0:0:
468,340,152835,1,0,0:0:0:0:
184,32,152972,6,0,P|112:36|64:80,1,140,8|0,0:0|0:0,0:0:0:0:
240,356,153244,1,8,0:0:0:0:
492,220,153381,2,0,P|480:92|356:24,1,280,8|2,0:0|0:0,0:0:0:0:
256,192,153790,5,0,0:0:0:0:
80,140,153926,2,0,P|48:204|56:272,1,140
216,340,154199,1,0,0:0:0:0:
252,344,154267,1,0,0:0:0:0:
288,348,154335,1,0,0:0:0:0:
324,352,154404,1,0,0:0:0:0:
360,356,154472,2,0,P|396:360|428:352,1,70
492,276,154608,6,0,L|512:136,1,140
20,108,154881,2,0,L|0:248,1,140
276,320,155154,6,0,B|344:324|344:324|388:304|400:276,1,140
128,212,155426,2,0,B|124:280|124:280|144:324|172:336,1,140
236,64,155699,2,0,B|168:60|168:60|124:80|112:108,1,140
384,172,155972,2,0,B|388:104|388:104|368:60|340:48,1,140
256,192,156244,5,0,0:0:0:0:
256,192,156381,1,0,0:0:0:0:
276,320,156517,2,0,L|416:324,1,140
256,72,156790,5,0,0:0:0:0:
256,72,156927,1,0,0:0:0:0:
180,272,157063,1,0,0:0:0:0:
96,28,157199,1,0,0:0:0:0:
24,216,157335,6,0,P|44:284|88:336,1,140
488,168,157608,2,0,P|468:101|423:47,1,140
188,56,157881,2,0,P|143:109|123:176,1,140
324,328,158154,2,0,P|368:274|388:207,1,140
256,148,158426,5,0,0:0:0:0:
256,236,158563,1,0,0:0:0:0:
256,136,158699,1,0,0:0:0:0:
256,247,158836,1,0,0:0:0:0:
256,128,158972,1,0,0:0:0:0:
256,255,159109,1,0,0:0:0:0:
256,36,159244,5,0,0:0:0:0:
256,348,159381,1,0,0:0:0:0:
376,4,159517,6,0,L|368:144,1,140
444,312,159790,2,0,L|304:304,1,140
136,380,160063,2,0,L|144:240,1,140
68,72,160335,2,0,L|208:80,1,140
60,384,160608,6,0,P|8:332|0:268,1,140
452,0,160881,2,0,P|501:47|512:115,1,140
0,115,161154,2,0,P|10:47|59:0,1,140
512,268,161426,2,0,P|501:336|452:383,1,140
0,140,161699,6,0,L|24:0,1,140
488,2,161972,2,0,L|512:140,1,140
23,381,162244,2,0,L|0:244,1,140
512,244,162517,2,0,L|488:381,1,140
232,36,162790,5,8,0:0:0:0:
280,348,162926,1,8,0:0:0:0:
280,36,163063,1,8,0:0:0:0:
232,348,163199,1,8,0:0:0:0:
120,36,163335,5,8,0:0:0:0:
392,348,163472,1,8,0:0:0:0:
392,36,163608,1,8,0:0:0:0:
120,348,163745,1,8,0:0:0:0:
256,36,163881,6,0,P|324:24|388:52,1,140
256,348,164154,2,0,P|188:360|124:332,1,140,8|0,0:0|0:0,0:0:0:0:
384,152,164426,2,0,L|372:292,1,140
128,232,164699,2,0,L|140:92,1,140,8|0,0:0|0:0,0:0:0:0:
328,132,164972,6,0,L|468:152,1,140
100,216,165244,1,8,0:0:0:0:
392,272,165381,1,0,0:0:0:0:
284,356,165517,2,0,B|252:344|252:344|228:296|236:240,1,140
228,28,165790,2,0,B|260:40|260:40|284:88|276:144,1,140,8|0,0:0|0:0,0:0:0:0:
68,192,166063,6,0,L|56:52,2,140,0|0|8,0:0|0:0|0:0,0:0:0:0:
140,376,166472,1,0,0:0:0:0:
292,256,166608,1,0,0:0:0:0:
156,108,166744,1,0,0:0:0:0:
24,276,166881,2,0,L|164:296,1,140,8|0,0:0|0:0,0:0:0:0:
372,24,167154,5,8,0:0:0:0:
140,24,167290,1,0,0:0:0:0:
396,108,167426,1,8,0:0:0:0:
116,108,167563,1,0,0:0:0:0:
372,188,167699,1,8,0:0:0:0:
140,188,167835,1,0,0:0:0:0:
396,272,167972,2,0,P|388:344|336:384,1,140,12|0,0:0|0:0,0:0:0:0:
336,52,168244,6,0,P|408:60|448:112,1,140
168,112,168517,1,8,0:0:0:0:
268,320,168654,1,0,0:0:0:0:
24,256,168790,2,0,L|164:264,1,140
252,88,169063,2,0,P|208:35|140:29,1,140,8|0,0:0|0:0,0:0:0:0:
64,200,169335,6,0,L|92:340,1,140
420,337,169608,2,0,L|448:200,1,140,8|0,0:0|0:0,0:0:0:0:
176,80,169881,2,0,L|148:217,1,140
363,217,170154,2,0,L|336:80,1,140,8|0,0:0|0:0,0:0:0:0:
256,324,170426,5,0,0:0:0:0:
256,192,170563,1,0,0:0:0:0:
176,80,170699,2,0,L|32:88,1,140,8|0,0:0|0:0,0:0:0:0:
172,344,170972,2,0,P|32:320|52:212,1,280,0|8,0:0|0:0,0:0:0:0:
208,192,171381,1,0,0:0:0:0:
336,224,171517,6,0,B|376:224|408:244|408:244|424:220|464:220,1,140,8|0,0:0|0:0,0:0:0:0:
252,336,171790,2,0,L|112:348,1,140,8|0,0:0|0:0,0:0:0:0:
5,256,172063,6,0,B|52:256|78:239|83:222|78:204|65:183|35:179|35:179|-3:179|-7:140|14:118|44:114|113:114|113:114|196:114|196:114|147:114|147:114|148:183|148:183|176:183|176:183|147:183|147:183|147:256|147:256|234:256|301:259|301:259|333:253|351:235|359:213|359:196|359:196|333:193|333:193|355:196|355:196|367:190|371:237|354:260|260:300|238:269|234:243|238:209|238:170|247:135|273:109|312:105|361:105|361:105|453:105|453:105|424:269|424:269|441:196|441:196|493:196|493:196|463:109|463:109|513:278,1,1960,8|0,0:0|0:0,0:0:0:0:
504,297,172608,6,0,P|464:353|396:369,1,140
436,56,172880,2,0,L|432:200,1,140,8|0,0:0|0:0,0:0:0:0:
176,116,173153,1,0,0:0:0:0:
312,24,173289,1,0,0:0:0:0:
312,276,173426,2,0,L|168:284,1,140,8|0,0:0|0:0,0:0:0:0:
40,80,173698,6,0,L|180:92,1,140
472,140,173971,2,0,L|332:152,1,140,8|0,0:0|0:0,0:0:0:0:
40,200,174244,2,0,L|180:212,1,140
472,260,174517,2,0,L|332:272,1,140,8|0,0:0|0:0,0:0:0:0:
132,348,174789,6,0,P|64:336|32:276,1,140
144,136,175062,1,8,0:0:0:0:
368,136,175198,1,0,0:0:0:0:
479,277,175335,2,0,P|446:336|380:348,1,140
256,192,175608,2,0,L|252:52,1,140,8|0,0:0|0:0,0:0:0:0:
32,296,175880,6,0,L|172:308,1,140
171,307,176085,1,0,0:0:0:0:
171,307,176153,2,0,P|244:308|308:288,1,140
307,288,176358,1,0,0:0:0:0:
307,288,176426,2,0,P|360:236|380:172,1,140
260,44,176698,2,0,P|240:115|255:180,1,140,8|0,0:0|0:0,0:0:0:0:
448,48,176971,6,0,L|308:52,1,140
144,216,177244,1,8,0:0:0:0:
416,232,177380,1,0,0:0:0:0:
416,232,177448,1,0,0:0:0:0:
416,232,177517,2,0,P|404:332|248:336,1,280,0|8,0:0|0:0,0:0:0:0:
256,192,177926,1,0,0:0:0:0:
172,72,178062,6,0,B|164:44|164:44|104:16|68:76,1,140
80,300,178335,1,8,0:0:0:0:
224,192,178471,1,0,0:0:0:0:
320,300,178608,2,0,L|464:312,1,140
352,168,178880,2,0,L|496:180,1,140,8|0,0:0|0:0,0:0:0:0:
344,48,179153,6,0,B|284:84|284:84|212:72,1,140
320,192,179426,2,0,B|380:156|380:156|452:168,1,140,8|0,0:0|0:0,0:0:0:0:
408,328,179698,2,0,P|344:360|276:356,1,140
104,328,179971,2,0,P|168:360|236:356,1,140,8|0,0:0|0:0,0:0:0:0:
320,192,180244,5,0,0:0:0:0:
180,48,180380,1,0,0:0:0:0:
68,244,180517,2,0,L|208:256,1,140,8|0,0:0|0:0,0:0:0:0:
207,255,180789,5,0,0:0:0:0:
207,255,181062,1,8,0:0:0:0:
207,255,181335,6,0,B|244:320|244:320|312:332,1,140
304,128,181608,2,0,B|268:64|268:64|200:52,1,140,8|0,0:0|0:0,0:0:0:0:
420,200,181880,2,0,B|412:168|464:160|464:160|412:140|416:112,1,140
92,184,182153,2,0,B|100:216|48:224|48:224|100:244|96:272,1,140,8|0,0:0|0:0,0:0:0:0:
256,344,182426,5,0,0:0:0:0:
256,192,182562,1,0,0:0:0:0:
256,40,182698,2,0,B|328:24|344:68|392:40,1,140,8|0,0:0|0:0,0:0:0:0:
248,188,182971,2,0,L|108:200,1,140
264,340,183244,2,0,L|404:352,1,140,8|0,0:0|0:0,0:0:0:0:
168,340,183517,6,0,L|156:200,1,140
40,72,183789,2,0,L|52:212,1,140,8|0,0:0|0:0,0:0:0:0:
364,216,184062,1,0,0:0:0:0:
256,64,184198,1,0,0:0:0:0:
148,216,184335,2,0,P|212:236|284:248,1,140,8|0,0:0|0:0,0:0:0:0:
452,92,184608,6,0,P|388:72|316:60,1,140
296,60,184812,1,0,0:0:0:0:
276,60,184880,2,0,P|204:80|144:108,1,140
128,120,185085,1,0,0:0:0:0:
112,136,185153,2,0,P|80:200|76:268,1,140
84,288,185358,1,0,0:0:0:0:
96,304,185426,6,0,B|120:312|148:296|144:336|144:336|144:312|176:304|176:304|184:324|216:332|260:328,1,210,8|0,0:0|0:0,0:0:0:0:
280,332,185698,6,0,P|344:304|412:316,1,140,4|0,0:0|0:0,0:0:0:0:
452,52,185971,2,0,P|428:120|376:160,1,140,8|0,0:0|0:0,0:0:0:0:
212,72,186244,1,0,0:0:0:0:
96,192,186380,1,0,0:0:0:0:
304,216,186517,2,0,P|372:216|444:204,1,140,8|0,0:0|0:0,0:0:0:0:
212,72,186789,6,0,P|144:72|72:84,1,140
144,336,187062,2,0,P|168:268|164:200,1,140,8|0,0:0|0:0,0:0:0:0:
48,256,187335,1,0,0:0:0:0:
336,280,187471,1,0,0:0:0:0:
32,288,187608,1,8,0:0:0:0:
356,312,187744,1,0,0:0:0:0:
12,320,187880,6,0,L|24:180,1,140
280,204,188153,2,0,P|228:252|160:260,1,140,8|0,0:0|0:0,0:0:0:0:
316,104,188426,2,0,P|336:36|392:0,1,140
484,164,188698,2,0,B|472:184|472:184|496:188|496:188|496:232|472:280,1,140,8|0,0:0|0:0,0:0:0:0:
220,337,188971,6,8,P|221:228|296:308,2,280
220,336,189789,5,0,0:0:0:0:
220,336,189926,1,0,0:0:0:0:
220,336,190063,6,0,L|80:352,1,140,8|0,0:0|0:0,0:0:0:0:
156,68,190335,2,0,L|296:84,1,140
352,336,190608,1,0,0:0:0:0:
432,40,190744,1,0,0:0:0:0:
160,184,190880,1,0,0:0:0:0:
36,32,191017,1,0,0:0:0:0:
248,120,191153,5,0,0:0:0:0:
124,320,191289,1,0,0:0:0:0:
164,120,191426,2,0,P|272:40|328:140,1,280,8|0,0:0|0:0,0:0:0:0:
256,336,191835,2,0,L|240:196,2,140
183,83,192244,6,0,P|111:67|47:79,1,140,8|0,0:0|0:0,0:0:0:0:
328,84,192517,2,0,P|400:68|464:80,1,140
256,336,192789,1,0,0:0:0:0:
64,192,192926,1,0,0:0:0:0:
448,192,193062,1,0,0:0:0:0:
364,356,193198,1,0,0:0:0:0:
256,124,193335,5,0,0:0:0:0:
148,356,193471,1,0,0:0:0:0:
280,40,193608,2,0,B|372:20|432:44|432:44|420:100|348:136,1,280,8|0,0:0|0:0,0:0:0:0:
76,128,194017,1,0,0:0:0:0:
344,152,194153,1,0,0:0:0:0:
56,188,194289,1,0,0:0:0:0:
396,176,194426,6,0,P|420:244|392:304,1,140,8|0,0:0|0:0,0:0:0:0:
118,302,194698,2,0,P|91:239|116:176,1,140
256,328,194971,1,0,0:0:0:0:
256,56,195108,1,0,0:0:0:0:
256,300,195244,1,0,0:0:0:0:
360,68,195380,1,0,0:0:0:0:
380,76,195448,1,0,0:0:0:0:
396,88,195517,6,0,L|424:112,6,35
436,136,195790,6,0,P|472:208|357:341,1,280,8|0,0:0|0:0,0:0:0:0:
76,136,196199,2,0,P|40:208|158:340,1,280,8|0,0:0|0:0,0:0:0:0:
348,192,196608,6,0,P|384:132|376:64,1,140,8|0,0:0|0:0,0:0:0:0:
232,240,196880,2,0,P|272:300|336:324,1,140
256,32,197153,1,0,0:0:0:0:
80,332,197289,1,0,0:0:0:0:
348,192,197426,1,0,0:0:0:0:
96,48,197562,1,0,0:0:0:0:
40,256,197698,6,0,B|36:280|60:296|60:296|112:276|152:296,1,140,2|2,0:0|0:0,0:0:0:0:
408,176,197971,2,0,L|404:320,1,140
324,80,198244,1,2,0:0:0:0:
308,328,198380,1,2,0:0:0:0:
240,80,198517,1,0,0:0:0:0:
224,328,198653,1,0,0:0:0:0:
156,80,198789,6,0,P|192:16|256:0,1,140,8|0,0:0|0:0,0:0:0:0:
356,304,199062,2,0,P|320:368|256:384,1,140
92,238,199335,1,0,0:0:0:0:
295,25,199471,1,0,0:0:0:0:
377,309,199608,1,0,0:0:0:0:
90,150,199744,1,0,0:0:0:0:
373,68,199880,5,0,0:0:0:0:
302,354,200017,1,0,0:0:0:0:
130,84,200153,2,0,P|183:13|297:26,1,210,8|0,0:0|0:0,0:0:0:0:
312,41,200426,2,0,P|384:41|452:25,1,140
148,184,200698,2,0,P|76:184|8:200,1,140
96,336,200971,5,8,0:0:0:0:
256,240,201108,1,0,0:0:0:0:
416,336,201244,1,0,0:0:0:0:
256,232,201380,1,0,0:0:0:0:
96,328,201517,1,0,0:0:0:0:
96,328,201585,1,0,0:0:0:0:
96,328,201653,1,0,0:0:0:0:
412,192,201789,1,0,0:0:0:0:
100,192,201926,1,0,0:0:0:0:
436,320,202062,5,0,0:0:0:0:
112,332,202198,1,0,0:0:0:0:
168,64,202335,1,8,0:0:0:0:
388,200,202471,1,0,0:0:0:0:
200,344,202608,2,0,L|56:324,1,140
312,40,202880,2,0,L|456:60,1,140
450,324,203153,6,0,L|312:344,1,140,8|0,0:0|0:0,0:0:0:0:
272,28,203426,1,0,0:0:0:0:
388,172,203562,1,0,0:0:0:0:
144,244,203698,1,0,0:0:0:0:
144,244,203767,1,0,0:0:0:0:
144,244,203835,1,0,0:0:0:0:
416,216,203971,1,0,0:0:0:0:
80,164,204108,1,0,0:0:0:0:
384,88,204244,5,0,0:0:0:0:
256,332,204380,1,0,0:0:0:0:
116,64,204517,2,0,B|80:60|48:80|48:80|32:132|64:156|64:156|44:184|44:184|72:196|76:208|76:208|60:216|60:216|76:232|76:260,1,280,8|0,0:0|0:0,0:0:0:0:
396,64,204926,2,0,B|432:60|464:80|464:80|480:132|448:156|448:156|468:184|468:184|440:196|436:208|436:208|452:216|452:216|436:232|436:260,1,280,8|0,0:0|0:0,0:0:0:0:
288,304,205335,5,8,0:0:0:0:
224,80,205471,1,0,0:0:0:0:
216,356,205608,1,0,0:0:0:0:
296,28,205744,1,0,0:0:0:0:
256,192,205880,1,0,0:0:0:0:
256,192,205948,1,0,0:0:0:0:
256,192,206017,2,0,L|116:196,1,140
116,195,206426,6,0,B|120:211|144:223|144:223|128:259|128:259|140:319,1,140
472,80,206699,6,0,P|416:32|352:36,1,140,8|0,0:0|0:0,0:0:0:0:
376,236,206971,6,0,B|364:212|360:172|360:172|392:152|392:152|392:116,1,140
216,280,207244,6,0,L|76:292,1,140,8|0,0:0|0:0,0:0:0:0:
64,80,207517,5,0,0:0:0:0:
64,80,207653,1,0,0:0:0:0:
92,256,207789,1,0,0:0:0:0:
92,256,207926,1,0,0:0:0:0:
188,48,208062,1,0,0:0:0:0:
188,48,208198,1,0,0:0:0:0:
196,308,208335,1,0,0:0:0:0:
196,308,208471,1,0,0:0:0:0:
312,28,208608,1,0,0:0:0:0:
312,28,208744,1,0,0:0:0:0:
320,360,208880,1,0,0:0:0:0:
320,360,209017,1,0,0:0:0:0:
480,0,209153,1,0,0:0:0:0:
480,0,209289,1,0,0:0:0:0:
492,384,209426,2,8,L|488:244,1,140
136,20,209698,6,0,P|64:24|12:68,1,140
498,65,209971,2,0,P|444:22|376:20,1,140
368,244,210244,2,0,P|408:176|408:116,1,140
103,116,210517,2,0,P|106:185|144:244,1,140
472,352,210789,6,0,P|488:280|480:212,1,140
31,214,211062,2,0,P|24:284|40:352,1,140
324,20,211335,2,0,P|254:12|186:28,1,140
256,368,211608,5,8,0:0:0:0:
256,88,211744,1,8,0:0:0:0:
392,156,211880,6,0,L|384:296,1,140
384,295,212085,1,0,0:0:0:0:
384,295,212153,1,0,0:0:0:0:
200,140,212289,2,0,P|164:124|132:120,2,70
152,284,212562,2,0,P|156:323|168:352,2,70
336,64,212835,5,0,0:0:0:0:
336,64,212903,1,0,0:0:0:0:
336,64,212971,1,0,0:0:0:0:
256,284,213108,2,0,L|256:356,2,70
176,64,213380,1,0,0:0:0:0:
176,64,213448,1,0,0:0:0:0:
176,64,213516,1,0,0:0:0:0:
296,188,213653,6,0,L|224:192,1,70
8,264,213789,1,8,0:0:0:0:
504,120,213926,1,8,0:0:0:0:
272,336,214062,6,0,B|240:336|216:316|216:316|220:328|216:356|216:356|204:332|204:332|192:348|192:348|176:336|168:312|168:312|160:336|160:336|140:360|104:356,1,280,8|0,0:0|0:0,0:0:0:0:
240,48,214471,2,0,B|272:48|296:68|296:68|292:56|296:28|296:28|308:52|308:52|320:36|320:36|336:48|344:72|344:72|352:48|352:48|372:24|408:28,1,280,8|0,0:0|0:0,0:0:0:0:
356,296,214880,2,0,L|216:268,1,140
128,40,215153,5,4,0:0:0:0:
220,148,215289,2,0,L|292:152,1,70
384,40,215426,5,4,0:0:0:0:
292,196,215562,2,0,L|220:200,1,70
128,40,215698,5,4,0:0:0:0:
220,244,215835,2,0,L|292:248,1,70
384,40,215971,6,0,P|388:112|384:180,1,140,4|0,0:0|0:0,0:0:0:0:
304,252,216244,6,0,L|164:240,1,140
208,132,216517,2,0,L|348:144,1,140
284,252,216789,2,0,L|145:276,1,140
228,132,217062,2,0,L|366:107,1,140
264,268,217335,6,0,L|136:327,1,140
248,116,217608,2,0,L|375:56,1,140
252,292,217880,2,0,L|144:382,1,140
60,192,218153,1,8,0:0:0:0:
196,32,218289,1,8,0:0:0:0:
376,84,218426,6,0,P|408:120|432:208,1,140
136,300,218698,2,0,P|104:264|80:176,1,140
413,158,218971,2,0,P|423:205|400:293,1,140
98,225,219244,2,0,P|88:178|111:90,1,140
409,241,219517,6,0,P|394:287|330:352,1,140
102,142,219789,2,0,P|117:96|181:31,1,140
364,312,220062,2,0,P|328:344|240:368,1,140
148,72,220335,1,8,0:0:0:0:
264,248,220471,1,8,0:0:0:0:
380,72,220608,6,0,P|328:20|264:12,1,140
376,316,220880,2,0,P|428:264|436:200,1,140
132,312,221153,2,0,P|184:364|248:372,1,140
136,68,221426,2,0,P|84:120|76:184,1,140
423,150,221698,6,0,P|404:79|352:40,1,140
297,359,221971,2,0,P|368:340|407:288,1,140
88,233,222244,2,0,P|107:304|159:343,1,140
256,76,222517,1,8,0:0:0:0:
184,248,222653,1,8,0:0:0:0:
152,44,222790,6,0,B|220:64|280:36|280:36|344:40|368:104|368:104|400:108,1,280,8|0,0:0|0:0,0:0:0:0:
360,340,223199,2,0,B|292:320|232:348|232:348|168:344|144:280|144:280|112:276,1,280,8|0,0:0|0:0,0:0:0:0:
272,172,223608,1,0,0:0:0:0:
24,124,223744,1,0,0:0:0:0:
120,32,223880,6,0,L|260:44,1,140,4|0,0:0|0:0,0:0:0:0:
104,136,224153,6,0,L|208:144,1,105.000004005432,4|0,0:0|0:0,0:0:0:0:
92,244,224426,6,0,L|164:248,1,70,4|0,0:0|0:0,0:0:0:0:
84,352,224698,6,0,L|120:354,1,35,4|0,0:0|0:0,0:0:0:0:
256,368,224971,6,0,L|272:228,1,140
232,44,225244,1,8,0:0:0:0:
120,224,225380,1,0,0:0:0:0:
408,276,225517,2,0,L|392:136,1,140
288,256,225789,1,8,0:0:0:0:
276,48,225926,1,0,0:0:0:0:
148,140,226062,6,0,P|124:208|136:276,1,140
377,273,226335,2,0,P|387:205|364:140,1,140,8|0,0:0|0:0,0:0:0:0:
49,319,226608,2,0,P|103:361|172:360,1,140
332,120,226880,1,8,0:0:0:0:
180,120,227017,1,0,0:0:0:0:
339,359,227153,6,0,P|408:361|462:319,1,140
436,84,227426,2,0,P|428:168|428:228,1,140,8|0,0:0|0:0,0:0:0:0:
284,264,227698,1,0,0:0:0:0:
168,80,227835,2,0,B|96:72|96:72|60:84|40:108,2,140,0|8|0,0:0|0:0|0:0,0:0:0:0:
288,196,228244,5,0,0:0:0:0:
152,280,228380,1,0,0:0:0:0:
16,160,228517,1,8,0:0:0:0:
172,60,228653,1,0,0:0:0:0:
292,324,228789,2,0,B|344:324|368:336|368:336|400:332|424:312,1,140
364,88,229062,2,0,P|332:152|348:216,1,140,8|0,0:0|0:0,0:0:0:0:
240,88,229335,6,0,P|196:32|128:28,2,140,0|0|8,0:0|0:0|0:0,0:0:0:0:
152,308,229744,1,0,0:0:0:0:
60,112,229880,1,0,0:0:0:0:
272,228,230017,1,0,0:0:0:0:
28,228,230153,1,8,0:0:0:0:
236,96,230289,1,0,0:0:0:0:
36,224,230426,6,0,P|16:292|36:356,2,140,0|0|8,0:0|0:0|0:0,0:0:0:0:
276,236,230835,1,0,0:0:0:0:
64,92,230971,1,0,0:0:0:0:
156,296,231108,1,0,0:0:0:0:
224,76,231244,1,8,0:0:0:0:
36,224,231380,1,0,0:0:0:0:
280,224,231517,6,0,P|352:224|420:240,1,140
208,296,231789,2,0,B|184:264|176:220|176:220|200:168,1,140,8|0,0:0|0:0,0:0:0:0:
424,148,232062,1,0,0:0:0:0:
208,132,232198,1,0,0:0:0:0:
432,108,232335,1,8,0:0:0:0:
208,88,232471,1,0,0:0:0:0:
432,64,232608,6,0,P|372:28|304:28,1,140
340,144,232880,1,8,0:0:0:0:
464,248,233017,2,0,B|440:312|388:360|388:360|300:356|252:316,1,280,8|0,0:0|0:0,0:0:0:0:
296,88,233426,2,0,L|296:228,1,140,8|0,0:0|0:0,0:0:0:0:
188,332,233698,6,0,L|188:192,1,140
136,32,233971,1,8,0:0:0:0:
68,240,234108,1,0,0:0:0:0:
304,148,234244,1,0,0:0:0:0:
120,124,234380,1,0,0:0:0:0:
212,304,234517,2,0,B|264:332|264:332|308:328|336:296,1,140,8|0,0:0|0:0,0:0:0:0:
204,52,234789,6,0,P|140:84|132:148,1,140
396,140,235063,2,0,P|364:76|300:68,1,140,8|0,0:0|0:0,0:0:0:0:
308,332,235335,2,0,P|372:300|380:236,1,140
116,244,235608,1,8,0:0:0:0:
200,328,235744,1,0,0:0:0:0:
240,216,235880,6,0,P|248:144|240:76,1,140
100,320,236153,2,0,P|168:336|240:336,1,140,8|0,0:0|0:0,0:0:0:0:
316,116,236426,1,0,0:0:0:0:
328,328,236562,1,0,0:0:0:0:
424,144,236698,1,8,0:0:0:0:
440,280,236835,1,0,0:0:0:0:
240,224,236971,6,0,P|168:240|108:208,1,140
160,16,237244,1,8,0:0:0:0:
340,208,237380,1,0,0:0:0:0:
480,84,237517,2,0,P|448:16|388:0,1,140
192,84,237789,1,8,0:0:0:0:
392,80,237926,1,0,0:0:0:0:
200,248,238063,5,0,0:0:0:0:
256,36,238198,1,0,0:0:0:0:
312,248,238335,1,8,0:0:0:0:
64,192,238471,1,0,0:0:0:0:
312,136,238608,1,0,0:0:0:0:
256,348,238744,1,0,0:0:0:0:
200,136,238881,1,8,0:0:0:0:
448,192,239017,1,0,0:0:0:0:
200,272,239153,6,0,P|148:320|80:336,1,140
429,336,239426,2,0,P|362:319|312:272,1,140,8|0,0:0|0:0,0:0:0:0:
456,36,239699,2,0,P|472:104|468:176,1,140
43,173,239972,2,0,P|40:103|56:36,1,140,8|0,0:0|0:0,0:0:0:0:
364,112,240244,5,8,0:0:0:0:
148,112,240381,1,0,0:0:0:0:
432,164,240517,2,0,L|428:304,1,140,8|0,0:0|0:0,0:0:0:0:
100,96,240789,5,8,0:0:0:0:
412,96,240926,1,0,0:0:0:0:
16,176,241062,2,0,L|20:316,1,140,8|0,0:0|0:0,0:0:0:0:
492,316,241335,6,0,L|496:176,1,140,8|0,0:0|0:0,0:0:0:0:
436,28,241608,1,8,0:0:0:0:
92,32,241744,2,0,P|208:112|344:104,1,280,8|8,0:0|0:0,0:0:0:0:
448,52,242153,2,0,B|504:108|504:108|516:184|460:240,1,210,8|0,0:0|0:0,0:0:0:0:
432,248,242426,6,0,L|360:252,1,70
96,172,242699,2,0,L|104:276,1,105
240,352,242971,1,8,0:0:0:0:
284,92,243244,1,0,0:0:0:0:
384,272,243517,6,0,P|420:272|480:304,1,105
464,336,243789,1,8,0:0:0:0:
160,320,243926,1,8,0:0:0:0:
160,272,244198,1,8,0:0:0:0:
460,216,244335,2,0,L|456:112,1,105,8|0,0:0|0:0,0:0:0:0:
464,76,244608,6,0,B|428:64|428:64|392:68,1,70
136,116,244880,2,0,B|200:136|200:136|240:128,1,105
352,232,245153,1,8,0:0:0:0:
116,336,245426,1,0,0:0:0:0:
20,248,245699,6,0,L|28:144,1,105
96,64,245971,1,8,0:0:0:0:
256,312,246108,2,0,L|256:240,1,70,8|0,0:0|0:0,0:0:0:0:
268,12,246380,1,8,0:0:0:0:
292,320,246517,2,0,L|304:216,1,105,8|0,0:0|0:0,0:0:0:0:
320,188,246789,6,0,P|352:204|388:208,1,70
312,60,247062,2,0,P|277:64|224:108,1,105
232,304,247335,1,8,0:0:0:0:
152,316,247471,1,0,0:0:0:0:
72,320,247608,1,0,0:0:0:0:
36,136,247880,6,0,B|56:92|64:80|64:80|104:64,1,105
188,144,248153,1,8,0:0:0:0:
480,128,248289,2,0,L|408:136,1,70,8|0,0:0|0:0,0:0:0:0:
180,164,248562,1,8,0:0:0:0:
448,212,248698,2,0,L|444:284,1,70,8|0,0:0|0:0,0:0:0:0:
308,340,248971,6,0,B|252:352|252:352|204:340,1,105
184,312,249244,2,0,B|196:280|192:260|192:260|204:232|224:220,1,105.000004005432,2|0,0:0|0:0,0:0:0:0:
396,248,249517,1,0,0:0:0:0:
408,56,249653,1,0,0:0:0:0:
420,256,249789,2,0,B|436:288|428:340|428:340|412:328,1,105.000004005432,2|0,0:0|0:0,0:0:0:0:
232,164,250062,2,0,B|216:132|224:80|224:80|240:92,1,105.000004005432,2|0,0:0|0:0,0:0:0:0:
336,172,250335,5,8,0:0:0:0:
16,240,250471,1,8,0:0:0:0:
424,284,250608,6,0,L|440:144,1,140,8|0,0:0|0:0,0:0:0:0:
72,144,250880,2,0,L|88:284,1,140,8|0,0:0|0:0,0:0:0:0:
188,336,251153,5,0,0:0:0:0:
216,340,251426,1,0,0:0:0:0:
244,344,251698,1,0,0:0:0:0:
272,348,251971,1,0,0:0:0:0:
300,352,252244,1,0,0:0:0:0:
328,356,252517,1,0,0:0:0:0:
360,32,252653,1,0,0:0:0:0:
368,36,252926,1,0,0:0:0:0:
400,360,253062,1,0,0:0:0:0:
472,208,253335,5,0,0:0:0:0:
444,208,253608,1,0,0:0:0:0:
416,208,253880,1,0,0:0:0:0:
388,208,254153,1,0,0:0:0:0:
360,208,254426,1,0,0:0:0:0:
332,208,254698,1,0,0:0:0:0:
24,72,254835,2,0,L|164:76,1,140
424,128,255108,1,0,0:0:0:0:
296,324,255244,2,0,L|152:332,1,140
52,304,255517,5,0,0:0:0:0:
60,276,255789,1,0,0:0:0:0:
68,248,256062,1,0,0:0:0:0:
76,220,256335,1,0,0:0:0:0:
84,192,256608,1,0,0:0:0:0:
92,164,256880,1,0,0:0:0:0:
284,296,257017,2,0,P|352:324|416:312,1,140
364,24,257289,1,0,0:0:0:0:
200,224,257426,2,0,P|172:292|188:356,1,140
360,216,257698,5,0,0:0:0:0:
352,188,257971,1,0,0:0:0:0:
340,164,258244,1,0,0:0:0:0:
324,140,258517,1,0,0:0:0:0:
304,120,258789,1,0,0:0:0:0:
280,104,259062,1,0,0:0:0:0:
256,340,259198,1,0,0:0:0:0:
260,320,259471,1,0,0:0:0:0:
172,68,259608,1,0,0:0:0:0:
93,26,259744,6,0,B|81:72|81:72|97:119,30,93.3333333333333
