osu file format v14

[General]
AudioFilename: audio.mp3
AudioLeadIn: 0
PreviewTime: 135517
Countdown: 1
SampleSet: None
StackLeniency: 0.7
Mode: 1
LetterboxInBreaks: 0
WidescreenStoryboard: 0

[Editor]
DistanceSpacing: 0.5
BeatDivisor: 4
GridSize: 32
TimelineZoom: 2.3

[Metadata]
Title:UP THE BUM NO BAIIIIIBEEZ
TitleUnicode:UP THE BUM NO BAIIIIIBEEZ
Artist:weyheyhey !!
ArtistUnicode:weyheyhey !!
Creator:Backfire
Version:Taikoclysm - Magus
Source:
Tags:Jump Around Breakcore Taikocalypse House of Pain
BeatmapID:1403017
BeatmapSetID:662843

[Difficulty]
HPDrainRate:4.5
CircleSize:5
OverallDifficulty:6.5
ApproachRate:5
SliderMultiplier:1.4
SliderTickRate:1

[Events]
//Background and Video events
0,0,"303986.jpg",0,0
//Break Periods
//Storyboard Layer 0 (Background)
//Storyboard Layer 1 (Fail)
//Storyboard Layer 2 (Pass)
//Storyboard Layer 3 (Foreground)
//Storyboard Sound Samples

[TimingPoints]
11154,272.727272727273,4,1,0,75,1,0
28608,-66.6666666666667,4,1,0,75,0,0
28744,-71.4285714285714,4,1,0,75,0,0
28881,-76.9230769230769,4,1,0,75,0,0
29017,-83.3333333333333,4,1,0,75,0,0
29154,-90.9090909090909,4,1,0,75,0,0
29290,-100,4,1,0,75,0,0
29972,-66.6666666666667,4,1,0,75,0,0
30108,-71.4285714285714,4,1,0,75,0,0
30244,-76.9230769230769,4,1,0,75,0,0
30381,-83.3333333333333,4,1,0,75,0,0
30517,-90.9090909090909,4,1,0,75,0,0
30654,-100,4,1,0,75,0,0
30790,-66.6666666666667,4,1,0,75,0,0
30926,-71.4285714285714,4,1,0,75,0,0
31063,-76.9230769230769,4,1,0,75,0,0
31199,-83.3333333333333,4,1,0,75,0,0
31335,-90.9090909090909,4,1,0,75,0,0
31472,-100,4,1,0,75,0,0
32154,-66.6666666666667,4,1,0,75,0,0
32290,-71.4285714285714,4,1,0,75,0,0
32426,-76.9230769230769,4,1,0,75,0,0
32563,-83.3333333333333,4,1,0,75,0,0
32699,-90.9090909090909,4,1,0,75,0,0
32835,-100,4,1,0,75,0,0
32972,-66.6666666666667,4,1,0,75,0,0
33108,-71.4285714285714,4,1,0,75,0,0
33244,-76.9230769230769,4,1,0,75,0,0
33381,-83.3333333333333,4,1,0,75,0,0
33517,-90.9090909090909,4,1,0,75,0,0
33654,-100,4,1,0,75,0,0
34335,-66.6666666666667,4,1,0,75,0,0
34472,-71.4285714285714,4,1,0,75,0,0
34608,-76.9230769230769,4,1,0,75,0,0
34744,-83.3333333333333,4,1,0,75,0,0
34881,-90.9090909090909,4,1,0,75,0,0
35017,-100,4,1,0,75,0,0
35154,-66.6666666666667,4,1,0,75,0,0
35290,-71.4285714285714,4,1,0,75,0,0
35426,-76.9230769230769,4,1,0,75,0,0
35563,-83.3333333333333,4,1,0,75,0,0
35699,-90.9090909090909,4,1,0,75,0,0
35835,-100,4,1,0,75,0,0
36517,-66.6666666666667,4,1,0,75,0,0
36654,-71.4285714285714,4,1,0,75,0,0
36790,-76.9230769230769,4,1,0,75,0,0
36926,-83.3333333333333,4,1,0,75,0,0
37063,-90.9090909090909,4,1,0,75,0,0
37199,-100,4,1,0,75,0,0
37335,-66.6666666666667,4,1,0,75,0,0
37472,-71.4285714285714,4,1,0,75,0,0
37608,-76.9230769230769,4,1,0,75,0,0
37744,-83.3333333333333,4,1,0,75,0,0
37881,-90.9090909090909,4,1,0,75,0,0
38017,-100,4,1,0,75,0,0
38699,-66.6666666666667,4,1,0,75,0,0
38835,-71.4285714285714,4,1,0,75,0,0
38972,-76.9230769230769,4,1,0,75,0,0
39108,-83.3333333333333,4,1,0,75,0,0
39244,-90.9090909090909,4,1,0,75,0,0
39381,-100,4,1,0,75,0,0
39517,-66.6666666666667,4,1,0,75,0,0
39654,-71.4285714285714,4,1,0,75,0,0
39790,-76.9230769230769,4,1,0,75,0,0
39926,-83.3333333333333,4,1,0,75,0,0
40063,-90.9090909090909,4,1,0,75,0,0
40199,-100,4,1,0,75,0,0
40881,-66.6666666666667,4,1,0,75,0,0
41017,-71.4285714285714,4,1,0,75,0,0
41154,-76.9230769230769,4,1,0,75,0,0
41290,-83.3333333333333,4,1,0,75,0,0
41426,-90.9090909090909,4,1,0,75,0,0
41563,-100,4,1,0,75,0,0
41699,-66.6666666666667,4,1,0,75,0,0
41835,-71.4285714285714,4,1,0,75,0,0
41972,-76.9230769230769,4,1,0,75,0,0
42108,-83.3333333333333,4,1,0,75,0,0
42244,-90.9090909090909,4,1,0,75,0,0
42381,-100,4,1,0,75,0,0
43063,-66.6666666666667,4,1,0,75,0,0
43199,-71.4285714285714,4,1,0,75,0,0
43335,-76.9230769230769,4,1,0,75,0,0
43472,-83.3333333333333,4,1,0,75,0,0
43608,-90.9090909090909,4,1,0,75,0,0
43744,-100,4,1,0,75,0,0
43881,-66.6666666666667,4,1,0,75,0,0
44017,-71.4285714285714,4,1,0,75,0,0
44154,-76.9230769230769,4,1,0,75,0,0
44290,-83.3333333333333,4,1,0,75,0,0
44426,-90.9090909090909,4,1,0,75,0,0
44563,-100,4,1,0,75,0,0
44699,-111.111111111111,4,1,0,75,0,0
44835,-125,4,1,0,75,0,0
44835,-142.857142857143,4,1,0,75,0,0
44972,-166.666666666667,4,1,0,75,0,0
45108,-200,4,1,0,75,0,0
46063,-188.679245283019,4,1,0,75,0,0
46335,-178.571428571429,4,1,0,75,0,0
46608,-169.491525423729,4,1,0,75,0,0
46881,-161.290322580645,4,1,0,75,0,0
47154,-153.846153846154,4,1,0,75,0,0
47426,-147.058823529412,4,1,0,75,0,0
47699,-140.845070422535,4,1,0,75,0,0
47972,-135.135135135135,4,1,0,75,0,0
48244,-129.87012987013,4,1,0,75,0,0
48517,-125,4,1,0,75,0,0
48790,-123.456790123457,4,1,0,75,0,0
48926,-121.951219512195,4,1,0,75,0,0
49063,-120.481927710843,4,1,0,75,0,0
49335,-119.047619047619,4,1,0,75,0,0
49608,-117.647058823529,4,1,0,75,0,0
49881,-116.279069767442,4,1,0,75,0,0
50017,-114.942528735632,4,1,0,75,0,0
50154,-113.636363636364,4,1,0,75,0,0
50426,-112.359550561798,4,1,0,75,0,0
50699,-111.111111111111,4,1,0,75,0,0
50972,-109.89010989011,4,1,0,75,0,0
51108,-108.695652173913,4,1,0,75,0,0
51244,-107.52688172043,4,1,0,75,0,0
51517,-106.382978723404,4,1,0,75,0,0
51654,-105.263157894737,4,1,0,75,0,0
51790,-104.166666666667,4,1,0,75,0,0
52063,-103.092783505155,4,1,0,75,0,0
52199,-102.040816326531,4,1,0,75,0,0
52335,-101.010101010101,4,1,0,75,0,0
52608,-100,4,1,0,75,0,0
54790,-100,4,1,0,75,0,1
54858,-100,4,1,0,75,0,0
63517,-100,4,1,0,75,0,1
63585,-100,4,1,0,75,0,0
73063,-100,4,1,0,75,0,1
73131,-100,4,1,0,75,0,0
80972,-100,4,1,0,75,0,1
81040,-100,4,1,0,75,0,0
84790,-66.6666666666667,4,1,0,75,0,0
85063,-50,4,1,0,75,0,0
85335,-90.9090909090909,4,1,0,75,0,1
93790,-90.9090909090909,4,1,0,75,0,0
94063,-90.9090909090909,4,1,0,75,0,1
102517,-66.6666666666667,4,1,0,75,0,1
102790,-100,4,1,0,75,0,0
106608,-66.6666666666667,4,1,0,75,0,0
106881,-50,4,1,0,75,0,0
107154,-100,4,1,0,75,0,1
107222,-100,4,1,0,75,0,0
111517,-100,4,1,0,75,0,1
111585,-100,4,1,0,75,0,0
120244,-100,4,1,0,75,0,1
120313,-100,4,1,0,75,0,0
128972,-90.9090909090909,4,1,0,75,0,1
130744,-83.3333333333333,4,1,0,75,0,0
131154,-76.9230769230769,4,1,0,75,0,1
132108,-66.6666666666667,4,1,0,75,0,0
135517,-133.333333333333,4,1,0,75,0,0
135790,-128.205128205128,4,1,0,75,0,0
136063,-123.456790123457,4,1,0,75,0,0
136335,-119.047619047619,4,1,0,75,0,0
136608,-116.279069767442,4,1,0,75,0,0
136744,-113.636363636364,4,1,0,75,0,0
136881,-111.111111111111,4,1,0,75,0,0
137017,-108.695652173913,4,1,0,75,0,0
137154,-106.382978723404,4,1,0,75,0,0
137290,-104.166666666667,4,1,0,75,0,0
137426,-102.040816326531,4,1,0,75,0,0
137563,-101.010101010101,4,1,0,75,0,0
137699,-100,4,1,0,75,0,1
138517,-100,4,1,0,75,0,0
139881,-100,4,1,0,75,0,1
140699,-100,4,1,0,75,0,0
142063,-100,4,1,0,75,0,1
142881,-100,4,1,0,75,0,0
144244,-100,4,1,0,75,0,1
144926,-100,4,1,0,75,0,0
146426,-100,4,1,0,75,0,1
147244,-100,4,1,0,75,0,0
148608,-100,4,1,0,75,0,1
149426,-100,4,1,0,75,0,0
150790,-100,4,1,0,75,0,1
151608,-100,4,1,0,75,0,0
152972,-100,4,1,0,75,0,1
153517,-100,4,1,0,75,0,0
155290,-90.9090909090909,4,1,0,75,0,0
155563,-83.3333333333333,4,1,0,75,0,0
155835,-76.9230769230769,4,1,0,75,0,0
156108,-71.4285714285714,4,1,0,75,0,0
156381,-66.6666666666667,4,1,0,75,0,0
156654,-62.5,4,1,0,75,0,0
156926,-58.8235294117647,4,1,0,75,0,0
157199,-100,4,1,0,75,0,0
157472,-90.9090909090909,4,1,0,75,0,0
157744,-83.3333333333333,4,1,0,75,0,0
158017,-76.9230769230769,4,1,0,75,0,0
158290,-71.4285714285714,4,1,0,75,0,0
158563,-76.9230769230769,4,1,0,75,0,0
158835,-83.3333333333333,4,1,0,75,0,0
159108,-90.9090909090909,4,1,0,75,0,0
159381,-100,4,1,0,75,0,0
159654,-83.3333333333333,4,1,0,75,0,0
159926,-71.4285714285714,4,1,0,75,0,0
160199,-62.5,4,1,0,75,0,0
160472,-55.5555555555556,4,1,0,75,0,0
160744,-50,4,1,0,75,0,0
161017,-45.4545454545455,4,1,0,75,0,0
161290,-40,4,1,0,75,0,0
161563,-100,4,1,0,75,0,0
161835,-90.9090909090909,4,1,0,75,0,0
162108,-83.3333333333333,4,1,0,75,0,0
162381,-90.9090909090909,4,1,0,75,0,0
162654,-100,4,1,0,75,0,0
172063,68.1818181818182,4,1,0,75,1,0
172608,272.727272727273,4,1,0,75,1,0
180789,-66.6666666666667,4,1,0,75,0,0
181062,-50,4,1,0,75,0,0
181335,-90.9090909090909,4,1,0,75,0,1
181403,-90.9090909090909,4,1,0,75,0,0
190062,-83.3333333333333,4,1,0,75,0,1
198517,-83.3333333333333,4,1,0,75,0,0
198789,-83.3333333333333,4,1,0,75,0,1
206153,-83.3333333333333,4,1,0,75,0,0
207653,-76.9230769230769,4,1,0,75,0,0
207926,-62.5,4,1,0,75,0,0
208198,-52.6315789473684,4,1,0,75,0,0
208471,-45.4545454545455,4,1,0,75,0,0
208744,-40,4,1,0,75,0,0
209017,-33.3333333333333,4,1,0,75,0,0
209289,-25,4,1,0,75,0,0
209562,-100,4,1,0,75,0,0
209835,-83.3333333333333,4,1,0,75,0,0
210108,-71.4285714285714,4,1,0,75,0,0
210380,-62.5,4,1,0,75,0,0
210653,-55.5555555555556,4,1,0,75,0,0
210926,-62.5,4,1,0,75,0,0
211198,-71.4285714285714,4,1,0,75,0,0
211471,-83.3333333333333,4,1,0,75,0,0
211744,-100,4,1,0,75,0,0
212017,-66.6666666666667,4,1,0,75,0,0
212289,-50,4,1,0,75,0,0
212562,-40,4,1,0,75,0,0
212835,-33.3333333333333,4,1,0,75,0,0
213108,-28.5714285714286,4,1,0,75,0,0
213380,-25,4,1,0,75,0,0
213653,-25,4,1,0,75,0,0
213926,-100,4,1,0,75,0,0
216380,-100,4,1,0,75,0,0
216448,-98.0392156862745,4,1,0,75,0,0
216517,-96.1538461538461,4,1,0,75,0,0
216585,-94.3396226415094,4,1,0,75,0,0
216653,-96.1538461538461,4,1,0,75,0,0
216721,-98.0392156862745,4,1,0,75,0,0
216789,-100,4,1,0,75,0,0
216926,-100,4,1,0,75,0,0
216994,-98.0392156862745,4,1,0,75,0,0
217062,-96.1538461538461,4,1,0,75,0,0
217130,-94.3396226415094,4,1,0,75,0,0
217198,-96.1538461538461,4,1,0,75,0,0
217267,-98.0392156862745,4,1,0,75,0,0
217335,-100,4,1,0,75,0,0
217471,-100,4,1,0,75,0,0
217539,-98.0392156862745,4,1,0,75,0,0
217608,-96.1538461538461,4,1,0,75,0,0
217676,-94.3396226415094,4,1,0,75,0,0
217744,-96.1538461538461,4,1,0,75,0,0
217812,-98.0392156862745,4,1,0,75,0,0
217880,-100,4,1,0,75,0,0
218562,-100,4,1,0,75,0,0
218630,-97.0873786407767,4,1,0,75,0,0
218698,-94.3396226415094,4,1,0,75,0,0
218767,-91.743119266055,4,1,0,75,0,0
218835,-94.3396226415094,4,1,0,75,0,0
218903,-97.0873786407767,4,1,0,75,0,0
218971,-100,4,1,0,75,0,0
219108,-100,4,1,0,75,0,0
219176,-97.0873786407767,4,1,0,75,0,0
219244,-94.3396226415094,4,1,0,75,0,0
219312,-91.743119266055,4,1,0,75,0,0
219380,-94.3396226415094,4,1,0,75,0,0
219448,-97.0873786407767,4,1,0,75,0,0
219517,-100,4,1,0,75,0,0
219653,-100,4,1,0,75,0,0
219721,-97.0873786407767,4,1,0,75,0,0
219789,-94.3396226415094,4,1,0,75,0,0
219858,-91.743119266055,4,1,0,75,0,0
219926,-94.3396226415094,4,1,0,75,0,0
219994,-97.0873786407767,4,1,0,75,0,0
220062,-100,4,1,0,75,0,0
220744,-100,4,1,0,75,0,0
220812,-96.1538461538461,4,1,0,75,0,0
220880,-92.5925925925926,4,1,0,75,0,0
220948,-89.2857142857143,4,1,0,75,0,0
221017,-92.5925925925926,4,1,0,75,0,0
221085,-96.1538461538461,4,1,0,75,0,0
221153,-100,4,1,0,75,0,0
221289,-100,4,1,0,75,0,0
221358,-96.1538461538461,4,1,0,75,0,0
221426,-92.5925925925926,4,1,0,75,0,0
221494,-89.2857142857143,4,1,0,75,0,0
221562,-92.5925925925926,4,1,0,75,0,0
221630,-96.1538461538461,4,1,0,75,0,0
221698,-100,4,1,0,75,0,0
221835,-100,4,1,0,75,0,0
221903,-96.1538461538461,4,1,0,75,0,0
221971,-92.5925925925926,4,1,0,75,0,0
222039,-89.2857142857143,4,1,0,75,0,0
222108,-92.5925925925926,4,1,0,75,0,0
222176,-96.1538461538461,4,1,0,75,0,0
222244,-100,4,1,0,75,0,0
224698,-99.009900990099,4,1,0,75,0,0
225244,-98.0392156862745,4,1,0,75,0,0
225789,-97.0873786407767,4,1,0,75,0,0
226335,-96.1538461538461,4,1,0,75,0,0
226880,-95.2380952380952,4,1,0,75,0,0
227426,-94.3396226415094,4,1,0,75,0,0
227971,-93.4579439252336,4,1,0,75,0,0
228517,-92.5925925925926,4,1,0,75,0,0
229062,-91.743119266055,4,1,0,75,0,0
229608,-90.9090909090909,4,1,0,75,0,0
230153,-90.0900900900901,4,1,0,75,0,0
230698,-89.2857142857143,4,1,0,75,0,0
231244,-88.4955752212389,4,1,0,75,0,0
231789,-87.719298245614,4,1,0,75,0,0
232335,-86.9565217391304,4,1,0,75,0,0
232880,-86.2068965517241,4,1,0,75,0,0
233426,-85.4700854700855,4,1,0,75,0,0
233971,-84.7457627118644,4,1,0,75,0,0
234517,-84.0336134453781,4,1,0,75,0,0
235062,-83.3333333333333,4,1,0,75,0,0
235608,-82.6446280991736,4,1,0,75,0,0
236153,-81.9672131147541,4,1,0,75,0,0
236698,-81.3008130081301,4,1,0,75,0,0
237244,-80.6451612903226,4,1,0,75,0,0
237789,-80,4,1,0,75,0,0
238335,-79.3650793650794,4,1,0,75,0,0
238880,-78.7401574803149,4,1,0,75,0,0
239426,-78.125,4,1,0,75,0,0
239971,-77.5193798449612,4,1,0,75,0,0
240517,-76.9230769230769,4,1,0,75,0,0
241062,-74.0740740740741,4,1,0,75,0,0
241608,-71.4285714285714,4,1,0,75,0,0
242426,-66.6666666666667,4,1,0,75,0,0
242698,-68.9655172413793,4,1,0,75,0,0
242971,-71.4285714285714,4,1,0,75,0,0
243244,-74.0740740740741,4,1,0,75,0,0
243380,-76.9230769230769,4,1,0,75,0,0
243517,-80,4,1,0,75,0,0
243789,-83.3333333333333,4,1,0,75,0,0
243926,-84.7457627118644,4,1,0,75,0,0
244198,-86.2068965517241,4,1,0,75,0,0
244335,-87.719298245614,4,1,0,75,0,0
244608,-89.2857142857143,4,1,0,75,0,0
244880,-90.9090909090909,4,1,0,75,0,0
245153,-92.5925925925926,4,1,0,75,0,0
245426,-94.3396226415094,4,1,0,75,0,0
245562,-96.1538461538461,4,1,0,75,0,0
245698,-98.0392156862745,4,1,0,75,0,0
245971,-100,4,1,0,75,0,0
246108,-102.040816326531,4,1,0,75,0,0
246380,-104.166666666667,4,1,0,75,0,0
246517,-106.382978723404,4,1,0,75,0,0
246789,-108.695652173913,4,1,0,75,0,0
247062,-111.111111111111,4,1,0,75,0,0
247335,-113.636363636364,4,1,0,75,0,0
247608,-116.279069767442,4,1,0,75,0,0
247744,-119.047619047619,4,1,0,75,0,0
247880,-121.951219512195,4,1,0,75,0,0
248153,-125,4,1,0,75,0,0
248289,-128.205128205128,4,1,0,75,0,0
248562,-131.578947368421,4,1,0,75,0,0
248698,-133.333333333333,4,1,0,75,0,0
248971,-135.135135135135,4,1,0,75,0,0
249244,-136.986301369863,4,1,0,75,0,0
249380,-138.888888888889,4,1,0,75,0,0
249517,-140.845070422535,4,1,0,75,0,0
249653,-142.857142857143,4,1,0,75,0,0
249789,-144.927536231884,4,1,0,75,0,0
249926,-147.058823529412,4,1,0,75,0,0
250062,-149.253731343284,4,1,0,75,0,0
250198,-151.515151515152,4,1,0,75,0,0
250335,-153.846153846154,4,1,0,75,0,0
250471,-156.25,4,1,0,75,0,0
250608,-158.730158730159,4,1,0,75,0,0
250744,-161.290322580645,4,1,0,75,0,0
250880,-163.934426229508,4,1,0,75,0,0
251153,-166.666666666667,4,1,0,75,0,0
253335,-178.571428571429,4,1,0,75,0,0
255517,-192.307692307692,4,1,0,75,0,0
257698,-200,4,1,0,75,0,0
259608,-66.6666666666667,4,1,0,75,0,0

[HitObjects]
256,192,4744,12,0,6994,0:0:0:0:
384,160,8154,5,0,0:0:0:0:
384,160,8199,1,8,0:0:0:0:
384,160,8244,1,8,0:0:0:0:
384,128,8290,1,0,0:0:0:0:
416,128,8790,1,0,0:0:0:0:
416,128,8835,1,8,0:0:0:0:
384,128,8881,1,8,0:0:0:0:
416,160,8926,1,0,0:0:0:0:
256,192,9517,12,0,11017,0:0:0:0:
416,128,11154,5,4,0:0:0:0:
416,128,11426,1,0,0:0:0:0:
416,128,11563,1,0,0:0:0:0:
416,128,11699,1,8,0:0:0:0:
448,160,11972,1,0,0:0:0:0:
416,160,12244,1,8,0:0:0:0:
416,160,12381,1,8,0:0:0:0:
384,192,12517,1,0,0:0:0:0:
384,160,12790,1,8,0:0:0:0:
384,160,13063,1,0,0:0:0:0:
384,160,13335,1,4,0:0:0:0:
384,160,13608,1,8,0:0:0:0:
384,128,13744,1,0,0:0:0:0:
384,128,13881,1,8,0:0:0:0:
352,128,14154,1,8,0:0:0:0:
256,288,14290,1,0,0:0:0:0:
352,128,14426,1,0,0:0:0:0:
352,160,14563,1,8,0:0:0:0:
352,160,14699,1,0,0:0:0:0:
352,128,14972,1,8,0:0:0:0:
352,128,15244,1,0,0:0:0:0:
352,128,15517,1,4,0:0:0:0:
352,96,15790,1,0,0:0:0:0:
352,96,15926,1,0,0:0:0:0:
352,96,16063,1,8,0:0:0:0:
320,128,16335,1,0,0:0:0:0:
320,160,16472,1,0,0:0:0:0:
320,160,16608,1,8,0:0:0:0:
352,160,16744,1,8,0:0:0:0:
352,192,16881,1,0,0:0:0:0:
384,160,17154,1,8,0:0:0:0:
384,160,17426,1,0,0:0:0:0:
384,160,17699,1,4,0:0:0:0:
384,160,17972,1,0,0:0:0:0:
384,160,18244,1,8,0:0:0:0:
384,160,18517,1,0,0:0:0:0:
384,160,18654,1,0,0:0:0:0:
384,160,18790,1,8,0:0:0:0:
384,160,18926,1,0,0:0:0:0:
384,160,19063,1,8,0:0:0:0:
384,160,19199,1,0,0:0:0:0:
384,160,19335,1,8,0:0:0:0:
384,160,19472,1,0,0:0:0:0:
384,160,19608,1,8,0:0:0:0:
384,160,19744,1,8,0:0:0:0:
384,160,19881,1,4,0:0:0:0:
384,160,20154,1,0,0:0:0:0:
384,192,20426,1,8,0:0:0:0:
384,192,20699,1,0,0:0:0:0:
384,192,20835,1,8,0:0:0:0:
384,192,20972,1,0,0:0:0:0:
384,192,21108,1,8,0:0:0:0:
384,192,21244,1,0,0:0:0:0:
384,160,21517,1,8,0:0:0:0:
384,160,21790,1,12,0:0:0:0:
384,160,22063,1,4,0:0:0:0:
448,192,22335,1,0,0:0:0:0:
448,192,22608,1,8,0:0:0:0:
384,160,22881,1,0,0:0:0:0:
384,160,23017,1,8,0:0:0:0:
384,160,23154,1,0,0:0:0:0:
384,160,23290,1,8,0:0:0:0:
384,160,23426,1,8,0:0:0:0:
384,160,23699,1,8,0:0:0:0:
384,160,23835,1,0,0:0:0:0:
384,160,23972,1,12,0:0:0:0:
384,160,24244,1,4,0:0:0:0:
384,160,24517,1,0,0:0:0:0:
384,160,24790,1,8,0:0:0:0:
384,160,25063,1,0,0:0:0:0:
384,160,25199,1,8,0:0:0:0:
384,160,25335,1,0,0:0:0:0:
384,160,25472,1,8,0:0:0:0:
384,160,25608,1,8,0:0:0:0:
384,160,25881,1,8,0:0:0:0:
384,160,26154,1,12,0:0:0:0:
384,160,26426,1,4,0:0:0:0:
384,160,26699,1,0,0:0:0:0:
384,160,26972,1,8,0:0:0:0:
384,160,27244,1,0,0:0:0:0:
384,160,27381,1,8,0:0:0:0:
384,160,27517,1,0,0:0:0:0:
384,160,27654,1,8,0:0:0:0:
384,160,27790,1,8,0:0:0:0:
384,160,28063,1,12,0:0:0:0:
352,160,28608,1,4,0:0:0:0:
352,160,28881,1,0,0:0:0:0:
352,160,29154,1,8,0:0:0:0:
416,160,29426,1,0,0:0:0:0:
416,160,29563,1,8,0:0:0:0:
416,160,29699,1,0,0:0:0:0:
384,128,29835,1,8,0:0:0:0:
384,160,29972,1,4,0:0:0:0:
352,160,30244,1,8,0:0:0:0:
352,128,30517,1,12,0:0:0:0:
384,160,30790,1,4,0:0:0:0:
352,128,31063,1,8,0:0:0:0:
352,128,31335,1,8,0:0:0:0:
352,128,31608,1,0,0:0:0:0:
352,128,31744,1,8,0:0:0:0:
352,128,31881,1,8,0:0:0:0:
352,96,32017,1,8,0:0:0:0:
384,160,32154,1,4,0:0:0:0:
352,128,32426,1,0,0:0:0:0:
352,128,32563,1,8,0:0:0:0:
352,96,32699,1,12,0:0:0:0:
384,160,32972,1,4,0:0:0:0:
320,128,33244,1,0,0:0:0:0:
320,128,33381,1,0,0:0:0:0:
320,128,33517,1,8,0:0:0:0:
320,128,33790,1,8,0:0:0:0:
320,128,33926,1,0,0:0:0:0:
320,128,34063,1,8,0:0:0:0:
352,96,34199,1,8,0:0:0:0:
384,160,34335,1,4,0:0:0:0:
352,128,34608,1,0,0:0:0:0:
320,128,34744,1,0,0:0:0:0:
320,128,34881,1,12,0:0:0:0:
352,96,35017,1,8,0:0:0:0:
384,160,35154,1,4,0:0:0:0:
352,96,35426,1,8,0:0:0:0:
352,96,35563,1,0,0:0:0:0:
320,96,35699,1,8,0:0:0:0:
320,96,35972,1,8,0:0:0:0:
320,96,36108,1,0,0:0:0:0:
352,96,36244,1,8,0:0:0:0:
352,96,36381,1,8,0:0:0:0:
384,160,36517,1,4,0:0:0:0:
352,96,36654,1,8,0:0:0:0:
352,96,36790,1,0,0:0:0:0:
352,64,36926,1,8,0:0:0:0:
352,64,37063,1,12,0:0:0:0:
352,64,37199,1,0,0:0:0:0:
384,160,37335,1,4,0:0:0:0:
352,64,37472,1,8,0:0:0:0:
352,64,37608,1,0,0:0:0:0:
352,64,37744,1,8,0:0:0:0:
352,64,37881,1,8,0:0:0:0:
352,64,38154,1,8,0:0:0:0:
352,64,38290,1,0,0:0:0:0:
352,64,38358,1,0,0:0:0:0:
352,64,38426,1,8,0:0:0:0:
352,64,38563,1,8,0:0:0:0:
384,160,38699,1,4,0:0:0:0:
352,64,38835,1,0,0:0:0:0:
384,128,38972,1,8,0:0:0:0:
384,128,39244,1,12,0:0:0:0:
384,160,39517,1,4,0:0:0:0:
352,128,39654,1,0,0:0:0:0:
352,128,39790,1,8,0:0:0:0:
352,128,39926,1,8,0:0:0:0:
352,128,40063,1,0,0:0:0:0:
352,128,40335,1,8,0:0:0:0:
384,96,40472,1,0,0:0:0:0:
352,128,40608,1,8,0:0:0:0:
352,96,40744,1,8,0:0:0:0:
384,160,40881,1,4,0:0:0:0:
384,128,41154,1,0,0:0:0:0:
384,96,41290,1,0,0:0:0:0:
384,96,41426,1,12,0:0:0:0:
384,160,41699,1,4,0:0:0:0:
384,96,41972,1,8,0:0:0:0:
384,96,42108,1,8,0:0:0:0:
384,96,42244,1,0,0:0:0:0:
384,64,42517,1,8,0:0:0:0:
384,128,42654,1,0,0:0:0:0:
384,128,42790,1,8,0:0:0:0:
384,128,42926,1,8,0:0:0:0:
384,160,43063,1,4,0:0:0:0:
352,160,43199,1,8,0:0:0:0:
352,128,43335,1,8,0:0:0:0:
352,128,43472,1,0,0:0:0:0:
352,128,43608,1,12,0:0:0:0:
352,128,43744,1,0,0:0:0:0:
384,160,43881,1,4,0:0:0:0:
352,192,44017,1,8,0:0:0:0:
352,192,44154,1,0,0:0:0:0:
352,192,44290,1,8,0:0:0:0:
352,192,44426,1,8,0:0:0:0:
352,192,44563,1,0,0:0:0:0:
352,192,44699,1,0,0:0:0:0:
352,192,44835,1,8,0:0:0:0:
320,160,44972,1,8,0:0:0:0:
320,160,45108,1,0,0:0:0:0:
320,160,45244,1,8,0:0:0:0:
320,160,45381,1,0,0:0:0:0:
320,160,45517,1,8,0:0:0:0:
320,160,45654,1,8,0:0:0:0:
320,160,45790,1,0,0:0:0:0:
320,160,45926,1,8,0:0:0:0:
320,160,46063,1,0,0:0:0:0:
288,160,46335,1,8,0:0:0:0:
320,160,46608,1,0,0:0:0:0:
320,160,46881,1,8,0:0:0:0:
352,160,47154,1,0,0:0:0:0:
352,160,47426,1,8,0:0:0:0:
352,160,47699,1,0,0:0:0:0:
352,160,47972,1,8,0:0:0:0:
352,160,48244,1,0,0:0:0:0:
352,160,48517,1,8,0:0:0:0:
352,160,48790,1,0,0:0:0:0:
352,160,48926,1,0,0:0:0:0:
352,160,49063,1,8,0:0:0:0:
352,160,49335,1,0,0:0:0:0:
352,192,49608,1,8,0:0:0:0:
352,192,49881,1,0,0:0:0:0:
352,160,50017,1,0,0:0:0:0:
352,192,50154,1,8,0:0:0:0:
352,192,50426,1,0,0:0:0:0:
352,192,50699,1,8,0:0:0:0:
352,192,50972,1,0,0:0:0:0:
288,160,51108,1,0,0:0:0:0:
352,192,51244,1,8,0:0:0:0:
352,192,51517,1,0,0:0:0:0:
352,192,51654,1,0,0:0:0:0:
352,192,51790,1,8,0:0:0:0:
352,192,52063,1,0,0:0:0:0:
352,192,52199,1,0,0:0:0:0:
352,192,52335,1,8,0:0:0:0:
384,192,52608,1,0,0:0:0:0:
384,192,52744,1,0,0:0:0:0:
384,192,52813,1,0,0:0:0:0:
384,160,52881,1,8,0:0:0:0:
384,192,53017,1,8,0:0:0:0:
384,160,53154,1,0,0:0:0:0:
384,192,53290,1,0,0:0:0:0:
384,192,53358,1,0,0:0:0:0:
384,160,53426,1,8,0:0:0:0:
416,192,53563,1,0,0:0:0:0:
384,160,53699,1,8,0:0:0:0:
384,160,53881,1,0,0:0:0:0:
384,160,54063,1,8,0:0:0:0:
384,160,54154,1,8,0:0:0:0:
384,160,54244,1,4,0:0:0:0:
384,160,54517,1,8,0:0:0:0:
384,160,54563,1,8,0:0:0:0:
384,192,54608,1,8,0:0:0:0:
384,192,54654,1,0,0:0:0:0:
384,160,54790,1,4,0:0:0:0:
384,160,54926,1,0,0:0:0:0:
352,128,54994,1,0,0:0:0:0:
384,160,55063,1,8,0:0:0:0:
352,160,55199,1,8,0:0:0:0:
416,160,55267,1,8,0:0:0:0:
352,160,55335,1,0,0:0:0:0:
384,160,55472,1,0,0:0:0:0:
384,160,55540,1,0,0:0:0:0:
384,160,55608,1,8,0:0:0:0:
384,160,55676,1,0,0:0:0:0:
384,160,55744,1,8,0:0:0:0:
384,160,55813,1,8,0:0:0:0:
384,160,55881,1,0,0:0:0:0:
384,128,56017,1,0,0:0:0:0:
384,128,56154,1,8,0:0:0:0:
384,128,56222,1,8,0:0:0:0:
384,128,56290,1,0,0:0:0:0:
384,128,56426,1,8,0:0:0:0:
384,128,56563,1,0,0:0:0:0:
384,128,56631,1,8,0:0:0:0:
384,128,56699,1,0,0:0:0:0:
384,128,56767,1,0,0:0:0:0:
384,128,56835,1,8,0:0:0:0:
384,128,56972,1,0,0:0:0:0:
384,160,57108,1,0,0:0:0:0:
416,160,57176,1,0,0:0:0:0:
416,160,57244,1,8,0:0:0:0:
416,128,57381,1,0,0:0:0:0:
416,160,57517,1,8,0:0:0:0:
416,160,57585,1,8,0:0:0:0:
416,160,57654,1,0,0:0:0:0:
416,128,57722,1,0,0:0:0:0:
416,160,57790,1,8,0:0:0:0:
416,128,57926,1,0,0:0:0:0:
416,128,58063,1,8,0:0:0:0:
416,192,58199,1,0,0:0:0:0:
416,192,58267,1,8,0:0:0:0:
416,192,58335,1,0,0:0:0:0:
448,192,58404,1,8,0:0:0:0:
448,160,58472,1,8,0:0:0:0:
448,160,58540,1,0,0:0:0:0:
448,160,58608,1,8,0:0:0:0:
416,128,58676,1,0,0:0:0:0:
416,128,58744,1,8,0:0:0:0:
416,128,58813,1,8,0:0:0:0:
448,128,58881,1,8,0:0:0:0:
416,128,58949,1,0,0:0:0:0:
448,128,59017,1,8,0:0:0:0:
448,128,59085,1,0,0:0:0:0:
448,128,59154,1,8,0:0:0:0:
416,128,59290,1,0,0:0:0:0:
416,128,59358,1,0,0:0:0:0:
416,128,59426,1,8,0:0:0:0:
416,128,59563,1,8,0:0:0:0:
416,128,59631,1,0,0:0:0:0:
416,128,59699,1,0,0:0:0:0:
416,128,59767,1,8,0:0:0:0:
416,128,59835,1,0,0:0:0:0:
448,128,59972,1,8,0:0:0:0:
448,96,60108,1,8,0:0:0:0:
448,96,60176,1,8,0:0:0:0:
416,96,60244,1,0,0:0:0:0:
448,96,60381,1,0,0:0:0:0:
448,96,60517,1,8,0:0:0:0:
448,96,60585,1,0,0:0:0:0:
448,96,60654,1,0,0:0:0:0:
448,96,60722,1,0,0:0:0:0:
448,64,60790,1,8,0:0:0:0:
448,96,60926,1,0,0:0:0:0:
416,96,61063,1,8,0:0:0:0:
416,128,61131,1,8,0:0:0:0:
416,128,61199,1,0,0:0:0:0:
416,128,61335,1,8,0:0:0:0:
416,128,61472,1,0,0:0:0:0:
416,96,61608,1,8,0:0:0:0:
416,128,61676,1,8,0:0:0:0:
352,96,61744,1,0,0:0:0:0:
416,128,61813,1,8,0:0:0:0:
448,128,61881,1,0,0:0:0:0:
416,128,62017,1,8,0:0:0:0:
448,160,62154,1,8,0:0:0:0:
448,128,62222,1,0,0:0:0:0:
448,128,62290,1,8,0:0:0:0:
448,160,62358,1,8,0:0:0:0:
448,128,62426,1,0,0:0:0:0:
384,128,62494,1,8,0:0:0:0:
416,128,62563,1,0,0:0:0:0:
416,128,62608,1,0,0:0:0:0:
416,160,62654,1,0,0:0:0:0:
448,128,62699,1,8,0:0:0:0:
448,160,62835,1,8,0:0:0:0:
480,128,62972,1,0,0:0:0:0:
416,128,63040,1,8,0:0:0:0:
448,128,63108,1,0,0:0:0:0:
480,128,63176,1,0,0:0:0:0:
416,128,63244,1,8,0:0:0:0:
416,160,63290,1,8,0:0:0:0:
416,160,63335,1,8,0:0:0:0:
416,160,63381,1,8,0:0:0:0:
416,128,63426,1,8,0:0:0:0:
416,128,63472,1,8,0:0:0:0:
416,128,63517,1,0,0:0:0:0:
448,160,63654,1,0,0:0:0:0:
448,160,63790,1,8,0:0:0:0:
448,160,63926,1,0,0:0:0:0:
448,160,63994,1,0,0:0:0:0:
448,160,64063,1,8,0:0:0:0:
448,160,64199,1,8,0:0:0:0:
448,160,64335,1,0,0:0:0:0:
448,160,64404,1,0,0:0:0:0:
448,160,64472,1,0,0:0:0:0:
448,160,64540,1,8,0:0:0:0:
448,160,64608,1,0,0:0:0:0:
448,160,64744,1,0,0:0:0:0:
448,160,64881,1,8,0:0:0:0:
448,160,64949,1,8,0:0:0:0:
448,160,65017,1,0,0:0:0:0:
448,160,65085,1,8,0:0:0:0:
448,160,65154,1,0,0:0:0:0:
448,160,65222,1,8,0:0:0:0:
448,160,65290,1,8,0:0:0:0:
448,160,65358,1,0,0:0:0:0:
448,192,65426,1,8,0:0:0:0:
480,160,65494,1,0,0:0:0:0:
480,192,65563,1,0,0:0:0:0:
480,192,65631,1,0,0:0:0:0:
480,160,65699,1,8,0:0:0:0:
480,160,65835,1,0,0:0:0:0:
480,160,65972,1,8,0:0:0:0:
480,160,66040,1,0,0:0:0:0:
480,160,66108,1,8,0:0:0:0:
480,160,66176,1,8,0:0:0:0:
480,160,66244,1,0,0:0:0:0:
480,128,66381,1,8,0:0:0:0:
480,160,66517,1,8,0:0:0:0:
480,160,66585,1,8,0:0:0:0:
480,160,66654,1,0,0:0:0:0:
480,128,66790,1,0,0:0:0:0:
480,128,66926,1,0,0:0:0:0:
480,128,66994,1,8,0:0:0:0:
480,128,67063,1,8,0:0:0:0:
480,128,67131,1,0,0:0:0:0:
288,160,67199,1,8,0:0:0:0:
288,192,67267,1,8,0:0:0:0:
288,160,67335,1,8,0:0:0:0:
320,160,67404,1,0,0:0:0:0:
288,160,67472,1,8,0:0:0:0:
288,160,67540,1,0,0:0:0:0:
288,160,67608,1,8,0:0:0:0:
288,128,67676,1,8,0:0:0:0:
288,128,67744,1,0,0:0:0:0:
288,160,67813,1,0,0:0:0:0:
288,128,67881,1,8,0:0:0:0:
288,128,68017,1,0,0:0:0:0:
320,128,68154,1,8,0:0:0:0:
320,128,68222,1,0,0:0:0:0:
320,128,68290,1,8,0:0:0:0:
288,128,68426,1,0,0:0:0:0:
288,128,68563,1,8,0:0:0:0:
288,128,68699,1,0,0:0:0:0:
320,128,68767,1,0,0:0:0:0:
288,128,68835,1,8,0:0:0:0:
320,128,68972,1,0,0:0:0:0:
320,128,69108,1,0,0:0:0:0:
320,128,69176,1,0,0:0:0:0:
320,128,69244,1,8,0:0:0:0:
320,128,69381,1,0,0:0:0:0:
320,128,69449,1,0,0:0:0:0:
320,128,69517,1,8,0:0:0:0:
320,128,69585,1,8,0:0:0:0:
320,128,69654,1,0,0:0:0:0:
320,128,69722,1,0,0:0:0:0:
320,128,69790,1,8,0:0:0:0:
320,128,69926,1,8,0:0:0:0:
320,128,70063,1,4,0:0:0:0:
320,128,70199,1,8,0:0:0:0:
320,192,70335,1,4,0:0:0:0:
384,160,70472,1,4,0:0:0:0:
384,128,70608,1,0,0:0:0:0:
416,128,70676,1,8,0:0:0:0:
416,128,70744,1,0,0:0:0:0:
416,128,70813,1,8,0:0:0:0:
448,160,70881,1,8,0:0:0:0:
352,128,70949,1,0,0:0:0:0:
384,96,71017,1,8,0:0:0:0:
352,128,71085,1,0,0:0:0:0:
384,96,71154,1,8,0:0:0:0:
352,160,71290,1,12,0:0:0:0:
352,160,71426,1,0,0:0:0:0:
416,192,71472,1,0,0:0:0:0:
416,192,71517,1,0,0:0:0:0:
416,192,71563,1,8,0:0:0:0:
416,192,71699,1,0,0:0:0:0:
416,160,71767,1,8,0:0:0:0:
416,160,71835,1,0,0:0:0:0:
416,160,71904,1,8,0:0:0:0:
416,160,71972,1,0,0:0:0:0:
416,160,72040,1,8,0:0:0:0:
416,160,72108,1,0,0:0:0:0:
416,128,72176,1,8,0:0:0:0:
416,128,72244,1,0,0:0:0:0:
448,160,72290,1,8,0:0:0:0:
448,160,72335,1,8,0:0:0:0:
448,160,72381,1,0,0:0:0:0:
448,160,72517,1,0,0:0:0:0:
448,160,72563,1,0,0:0:0:0:
448,160,72608,1,0,0:0:0:0:
448,160,72654,1,8,0:0:0:0:
448,128,72790,1,8,0:0:0:0:
448,128,72926,1,12,0:0:0:0:
448,128,73063,1,4,0:0:0:0:
416,128,73199,1,8,0:0:0:0:
416,96,73335,1,0,0:0:0:0:
416,96,73472,1,0,0:0:0:0:
416,96,73540,1,8,0:0:0:0:
416,96,73608,1,0,0:0:0:0:
416,96,73744,1,0,0:0:0:0:
416,96,73881,1,8,0:0:0:0:
416,96,74017,1,0,0:0:0:0:
384,160,74085,1,0,0:0:0:0:
384,160,74154,1,8,0:0:0:0:
384,128,74222,1,8,0:0:0:0:
384,128,74290,1,0,0:0:0:0:
384,96,74426,1,8,0:0:0:0:
384,96,74563,1,0,0:0:0:0:
384,96,74631,1,0,0:0:0:0:
384,96,74699,1,8,0:0:0:0:
384,96,74835,1,0,0:0:0:0:
384,96,74972,1,8,0:0:0:0:
384,96,75108,1,8,0:0:0:0:
384,96,75244,1,0,0:0:0:0:
384,96,75313,1,8,0:0:0:0:
384,96,75381,1,0,0:0:0:0:
384,96,75449,1,0,0:0:0:0:
384,96,75517,1,8,0:0:0:0:
384,96,75654,1,0,0:0:0:0:
384,96,75790,1,8,0:0:0:0:
384,96,75858,1,8,0:0:0:0:
384,96,75926,1,0,0:0:0:0:
384,128,76063,1,0,0:0:0:0:
384,96,76131,1,0,0:0:0:0:
384,128,76199,1,8,0:0:0:0:
384,128,76267,1,8,0:0:0:0:
384,96,76335,1,0,0:0:0:0:
384,96,76404,1,0,0:0:0:0:
384,128,76472,1,8,0:0:0:0:
384,96,76540,1,8,0:0:0:0:
384,96,76608,1,0,0:0:0:0:
352,128,76744,1,8,0:0:0:0:
352,128,76813,1,0,0:0:0:0:
352,128,76881,1,8,0:0:0:0:
352,128,76949,1,8,0:0:0:0:
352,96,77017,1,0,0:0:0:0:
352,96,77085,1,8,0:0:0:0:
352,96,77154,1,8,0:0:0:0:
320,128,77222,1,8,0:0:0:0:
352,96,77290,1,0,0:0:0:0:
320,128,77358,1,8,0:0:0:0:
320,128,77426,1,0,0:0:0:0:
320,128,77494,1,8,0:0:0:0:
320,128,77563,1,8,0:0:0:0:
352,128,77631,1,0,0:0:0:0:
352,128,77699,1,8,0:0:0:0:
352,128,77767,1,0,0:0:0:0:
352,128,77835,1,8,0:0:0:0:
352,128,77904,1,0,0:0:0:0:
352,128,77972,1,8,0:0:0:0:
352,128,78040,1,8,0:0:0:0:
352,128,78108,1,0,0:0:0:0:
352,128,78176,1,8,0:0:0:0:
352,128,78244,1,8,0:0:0:0:
352,128,78313,1,0,0:0:0:0:
320,128,78381,1,8,0:0:0:0:
352,128,78449,1,0,0:0:0:0:
352,128,78517,1,8,0:0:0:0:
320,192,78654,1,8,0:0:0:0:
352,160,78790,1,4,0:0:0:0:
352,160,78926,1,0,0:0:0:0:
352,128,78994,1,0,0:0:0:0:
352,160,79063,1,8,0:0:0:0:
320,128,79199,1,4,0:0:0:0:
320,128,79335,1,4,0:0:0:0:
288,128,79472,1,0,0:0:0:0:
288,128,79540,1,0,0:0:0:0:
288,128,79608,1,8,0:0:0:0:
320,128,79744,1,4,0:0:0:0:
320,128,79881,1,4,0:0:0:0:
288,128,80017,1,0,0:0:0:0:
288,128,80085,1,0,0:0:0:0:
288,128,80154,1,8,0:0:0:0:
288,96,80222,1,0,0:0:0:0:
288,128,80290,1,8,0:0:0:0:
448,192,80335,1,8,0:0:0:0:
448,160,80381,1,8,0:0:0:0:
352,160,80426,1,0,0:0:0:0:
416,96,80563,1,0,0:0:0:0:
416,96,80699,1,8,0:0:0:0:
384,96,80767,1,0,0:0:0:0:
416,96,80835,1,8,0:0:0:0:
352,128,80972,1,4,0:0:0:0:
416,96,81108,1,0,0:0:0:0:
416,160,81244,1,8,0:0:0:0:
352,96,81313,1,0,0:0:0:0:
352,96,81381,1,8,0:0:0:0:
352,96,81517,1,8,0:0:0:0:
384,128,81654,1,4,0:0:0:0:
352,128,81790,1,8,0:0:0:0:
352,128,81858,1,8,0:0:0:0:
416,128,81926,1,8,0:0:0:0:
416,128,81972,1,8,0:0:0:0:
416,128,82017,1,8,0:0:0:0:
416,128,82063,1,0,0:0:0:0:
416,128,82199,1,0,0:0:0:0:
416,128,82267,1,0,0:0:0:0:
416,128,82335,1,8,0:0:0:0:
416,128,82404,1,0,0:0:0:0:
416,128,82472,1,8,0:0:0:0:
416,96,82540,1,8,0:0:0:0:
416,128,82608,1,8,0:0:0:0:
416,96,82676,1,8,0:0:0:0:
416,128,82744,1,4,0:0:0:0:
416,96,82881,1,8,0:0:0:0:
416,96,83017,1,8,0:0:0:0:
416,128,83154,1,4,0:0:0:0:
416,128,83290,1,8,0:0:0:0:
384,96,83426,1,8,0:0:0:0:
416,160,83563,1,4,0:0:0:0:
416,160,83699,1,4,0:0:0:0:
384,160,83835,1,8,0:0:0:0:
384,192,83972,1,8,0:0:0:0:
384,160,84108,1,0,0:0:0:0:
352,96,84176,1,0,0:0:0:0:
352,128,84244,1,8,0:0:0:0:
352,128,84313,1,0,0:0:0:0:
384,128,84381,1,8,0:0:0:0:
352,128,84449,1,0,0:0:0:0:
384,128,84517,1,8,0:0:0:0:
384,160,84585,1,8,0:0:0:0:
384,160,84654,1,0,0:0:0:0:
384,160,84722,1,8,0:0:0:0:
384,160,84790,1,0,0:0:0:0:
416,160,84835,1,0,0:0:0:0:
384,160,85063,1,8,0:0:0:0:
416,160,85108,1,8,0:0:0:0:
352,160,85335,5,4,0:0:0:0:
352,160,85472,1,0,0:0:0:0:
352,160,85608,1,8,0:0:0:0:
352,160,85744,1,0,0:0:0:0:
352,160,85813,1,0,0:0:0:0:
256,192,85881,5,8,0:0:0:0:
352,160,85949,1,0,0:0:0:0:
256,192,86017,1,8,0:0:0:0:
352,160,86154,1,0,0:0:0:0:
352,160,86222,1,0,0:0:0:0:
256,192,86290,1,8,0:0:0:0:
352,160,86358,1,0,0:0:0:0:
256,192,86426,1,8,0:0:0:0:
352,160,86494,1,0,0:0:0:0:
256,192,86563,1,8,0:0:0:0:
352,160,86699,1,4,0:0:0:0:
288,128,86835,1,8,0:0:0:0:
352,192,86904,1,0,0:0:0:0:
352,192,86972,1,8,0:0:0:0:
352,192,87040,1,8,0:0:0:0:
384,160,87108,1,0,0:0:0:0:
384,160,87244,1,8,0:0:0:0:
384,160,87381,1,8,0:0:0:0:
352,160,87517,1,4,0:0:0:0:
352,160,87654,1,0,0:0:0:0:
352,160,87790,1,8,0:0:0:0:
320,160,87926,1,0,0:0:0:0:
320,160,87994,1,0,0:0:0:0:
288,160,88063,1,8,0:0:0:0:
352,128,88131,1,0,0:0:0:0:
288,160,88199,1,8,0:0:0:0:
352,160,88335,1,0,0:0:0:0:
352,160,88404,1,0,0:0:0:0:
288,160,88472,1,8,0:0:0:0:
352,160,88540,1,0,0:0:0:0:
288,160,88608,1,8,0:0:0:0:
352,160,88676,1,0,0:0:0:0:
288,160,88744,1,8,0:0:0:0:
352,128,88881,1,4,0:0:0:0:
448,192,89017,1,8,0:0:0:0:
352,128,89085,1,8,0:0:0:0:
352,160,89154,1,0,0:0:0:0:
352,160,89222,1,0,0:0:0:0:
352,160,89290,1,8,0:0:0:0:
352,128,89426,1,8,0:0:0:0:
384,128,89494,1,8,0:0:0:0:
384,128,89563,1,0,0:0:0:0:
384,128,89699,1,4,0:0:0:0:
384,96,89835,1,8,0:0:0:0:
384,96,89972,1,0,0:0:0:0:
384,96,90108,1,0,0:0:0:0:
384,96,90176,1,0,0:0:0:0:
288,160,90244,1,8,0:0:0:0:
384,96,90313,1,0,0:0:0:0:
384,96,90381,1,8,0:0:0:0:
352,128,90517,1,8,0:0:0:0:
352,128,90654,1,0,0:0:0:0:
352,128,90722,1,0,0:0:0:0:
448,128,90790,1,0,0:0:0:0:
448,128,90835,1,0,0:0:0:0:
416,128,90881,1,0,0:0:0:0:
288,160,90926,1,8,0:0:0:0:
416,96,91063,1,4,0:0:0:0:
416,96,91199,1,0,0:0:0:0:
416,96,91267,1,0,0:0:0:0:
416,96,91335,1,8,0:0:0:0:
448,96,91472,1,4,0:0:0:0:
416,96,91608,1,8,0:0:0:0:
416,96,91744,1,8,0:0:0:0:
448,128,91881,1,4,0:0:0:0:
448,128,92017,1,0,0:0:0:0:
448,128,92085,1,0,0:0:0:0:
448,128,92154,1,8,0:0:0:0:
448,128,92290,1,0,0:0:0:0:
448,128,92358,1,0,0:0:0:0:
320,160,92426,1,8,0:0:0:0:
448,96,92494,1,0,0:0:0:0:
448,96,92563,1,0,0:0:0:0:
448,64,92631,1,0,0:0:0:0:
320,192,92699,1,8,0:0:0:0:
448,64,92835,1,8,0:0:0:0:
448,64,92972,1,8,0:0:0:0:
448,64,93040,1,0,0:0:0:0:
448,64,93108,1,8,0:0:0:0:
384,32,93176,1,8,0:0:0:0:
448,128,93244,1,0,0:0:0:0:
480,128,93290,1,0,0:0:0:0:
480,128,93335,1,0,0:0:0:0:
448,64,93381,1,8,0:0:0:0:
448,160,93449,1,0,0:0:0:0:
448,64,93517,1,8,0:0:0:0:
448,64,93585,1,8,0:0:0:0:
448,64,93654,1,0,0:0:0:0:
448,64,93790,1,8,0:0:0:0:
384,160,93926,1,8,0:0:0:0:
416,128,94063,1,4,0:0:0:0:
416,160,94199,1,0,0:0:0:0:
416,128,94267,1,0,0:0:0:0:
416,128,94335,1,8,0:0:0:0:
416,128,94472,1,0,0:0:0:0:
416,128,94540,1,0,0:0:0:0:
320,128,94608,1,8,0:0:0:0:
416,128,94676,1,0,0:0:0:0:
352,160,94744,1,8,0:0:0:0:
416,128,94881,1,0,0:0:0:0:
416,128,94949,1,0,0:0:0:0:
416,128,95017,1,8,0:0:0:0:
320,128,95085,1,0,0:0:0:0:
320,128,95154,1,8,0:0:0:0:
352,128,95222,1,0,0:0:0:0:
320,128,95290,1,8,0:0:0:0:
320,128,95426,1,4,0:0:0:0:
320,128,95563,1,0,0:0:0:0:
320,128,95631,1,0,0:0:0:0:
352,128,95699,1,8,0:0:0:0:
352,128,95767,1,0,0:0:0:0:
352,128,95835,1,8,0:0:0:0:
352,128,95972,1,8,0:0:0:0:
352,128,96040,1,8,0:0:0:0:
352,128,96108,1,0,0:0:0:0:
352,128,96244,1,4,0:0:0:0:
352,96,96381,1,8,0:0:0:0:
352,96,96517,1,0,0:0:0:0:
352,64,96585,1,8,0:0:0:0:
352,64,96654,1,8,0:0:0:0:
320,128,96790,1,8,0:0:0:0:
352,64,96858,1,0,0:0:0:0:
352,128,96926,1,8,0:0:0:0:
352,64,97063,1,0,0:0:0:0:
352,128,97199,1,8,0:0:0:0:
352,64,97267,1,0,0:0:0:0:
352,128,97335,1,8,0:0:0:0:
352,64,97404,1,0,0:0:0:0:
352,128,97472,1,8,0:0:0:0:
256,192,97608,1,4,0:0:0:0:
288,160,97744,1,8,0:0:0:0:
288,160,97813,1,8,0:0:0:0:
288,160,97881,1,0,0:0:0:0:
288,160,98017,1,8,0:0:0:0:
320,160,98154,1,8,0:0:0:0:
352,192,98222,1,0,0:0:0:0:
352,192,98290,1,8,0:0:0:0:
384,160,98426,1,4,0:0:0:0:
384,160,98563,1,8,0:0:0:0:
384,160,98699,1,0,0:0:0:0:
320,160,98835,1,0,0:0:0:0:
352,160,98904,1,0,0:0:0:0:
352,128,98972,1,8,0:0:0:0:
352,128,99040,1,0,0:0:0:0:
352,128,99108,1,8,0:0:0:0:
352,128,99176,1,0,0:0:0:0:
352,128,99244,1,0,0:0:0:0:
352,128,99313,1,0,0:0:0:0:
352,128,99381,1,8,0:0:0:0:
352,128,99449,1,0,0:0:0:0:
352,128,99517,1,8,0:0:0:0:
352,128,99585,1,0,0:0:0:0:
352,128,99654,1,8,0:0:0:0:
288,160,99790,1,4,0:0:0:0:
288,160,99926,1,0,0:0:0:0:
288,160,99994,1,0,0:0:0:0:
288,160,100063,1,8,0:0:0:0:
288,160,100199,1,12,0:0:0:0:
288,128,100335,1,0,0:0:0:0:
288,128,100404,1,0,0:0:0:0:
288,128,100472,1,8,0:0:0:0:
288,128,100608,1,4,0:0:0:0:
288,128,100744,1,8,0:0:0:0:
288,128,100881,1,8,0:0:0:0:
288,128,100949,1,8,0:0:0:0:
288,128,101017,1,0,0:0:0:0:
352,96,101154,1,8,0:0:0:0:
288,128,101222,1,0,0:0:0:0:
320,96,101290,1,8,0:0:0:0:
288,128,101426,1,0,0:0:0:0:
288,128,101494,1,0,0:0:0:0:
288,128,101563,1,0,0:0:0:0:
288,128,101699,1,8,0:0:0:0:
320,128,101835,1,0,0:0:0:0:
320,128,101972,1,4,0:0:0:0:
288,128,102108,1,8,0:0:0:0:
384,160,102244,1,0,0:0:0:0:
320,96,102517,1,12,0:0:0:0:
320,128,102790,1,4,0:0:0:0:
320,128,102926,1,0,0:0:0:0:
320,128,102994,1,0,0:0:0:0:
320,128,103063,1,8,0:0:0:0:
320,128,103199,1,0,0:0:0:0:
320,160,103335,1,8,0:0:0:0:
352,160,103472,1,0,0:0:0:0:
352,160,103540,1,0,0:0:0:0:
352,192,103608,1,8,0:0:0:0:
384,160,103744,1,0,0:0:0:0:
352,160,103813,1,0,0:0:0:0:
384,160,103881,1,8,0:0:0:0:
384,160,103949,1,8,0:0:0:0:
352,160,104017,1,0,0:0:0:0:
352,160,104085,1,0,0:0:0:0:
352,160,104154,1,8,0:0:0:0:
352,160,104290,1,0,0:0:0:0:
384,160,104426,1,8,0:0:0:0:
384,160,104494,1,8,0:0:0:0:
384,160,104563,1,0,0:0:0:0:
352,160,104699,1,8,0:0:0:0:
352,160,104835,1,0,0:0:0:0:
352,160,104904,1,0,0:0:0:0:
352,160,104972,1,8,0:0:0:0:
352,160,105108,1,8,0:0:0:0:
352,160,105176,1,0,0:0:0:0:
352,128,105244,1,8,0:0:0:0:
352,160,105313,1,8,0:0:0:0:
352,128,105381,1,0,0:0:0:0:
352,128,105517,1,8,0:0:0:0:
320,192,105654,1,0,0:0:0:0:
320,160,105722,1,0,0:0:0:0:
320,192,105790,1,8,0:0:0:0:
320,160,105858,1,8,0:0:0:0:
320,160,105926,1,0,0:0:0:0:
320,160,106063,1,0,0:0:0:0:
320,160,106154,1,8,0:0:0:0:
352,128,106244,1,8,0:0:0:0:
384,192,106335,1,0,0:0:0:0:
416,160,106381,1,0,0:0:0:0:
416,128,106472,1,8,0:0:0:0:
416,160,106517,1,8,0:0:0:0:
352,160,106608,1,0,0:0:0:0:
384,160,106881,1,12,0:0:0:0:
320,160,107154,1,4,0:0:0:0:
352,192,107290,1,0,0:0:0:0:
352,192,107358,1,0,0:0:0:0:
320,192,107426,1,8,0:0:0:0:
352,192,107563,1,0,0:0:0:0:
352,192,107631,1,0,0:0:0:0:
352,192,107699,1,8,0:0:0:0:
352,192,107767,1,8,0:0:0:0:
352,192,107835,1,0,0:0:0:0:
352,192,107972,1,8,0:0:0:0:
352,192,108108,1,0,0:0:0:0:
352,192,108244,1,8,0:0:0:0:
352,192,108381,1,8,0:0:0:0:
352,192,108449,1,8,0:0:0:0:
352,192,108517,1,0,0:0:0:0:
320,160,108654,1,0,0:0:0:0:
320,160,108722,1,0,0:0:0:0:
288,160,108790,1,8,0:0:0:0:
320,160,108858,1,0,0:0:0:0:
320,160,108926,1,8,0:0:0:0:
320,160,109063,1,8,0:0:0:0:
320,160,109199,1,0,0:0:0:0:
320,160,109335,1,8,0:0:0:0:
320,160,109472,1,0,0:0:0:0:
320,160,109540,1,0,0:0:0:0:
320,160,109608,1,0,0:0:0:0:
352,160,109676,1,8,0:0:0:0:
352,160,109744,1,8,0:0:0:0:
352,160,109881,1,8,0:0:0:0:
352,160,110017,1,0,0:0:0:0:
352,160,110085,1,0,0:0:0:0:
352,160,110154,1,0,0:0:0:0:
352,160,110222,1,8,0:0:0:0:
352,160,110290,1,8,0:0:0:0:
352,160,110426,1,8,0:0:0:0:
352,160,110563,1,8,0:0:0:0:
352,160,110699,1,0,0:0:0:0:
352,160,110767,1,0,0:0:0:0:
352,128,110835,1,0,0:0:0:0:
416,160,110904,1,0,0:0:0:0:
416,160,110972,1,12,0:0:0:0:
416,128,111244,1,8,0:0:0:0:
384,160,111290,1,8,0:0:0:0:
384,160,111335,1,8,0:0:0:0:
384,160,111381,1,0,0:0:0:0:
384,96,111517,1,4,0:0:0:0:
320,160,111654,1,0,0:0:0:0:
320,160,111722,1,0,0:0:0:0:
320,160,111790,1,8,0:0:0:0:
320,160,111926,1,8,0:0:0:0:
320,160,112063,1,0,0:0:0:0:
320,160,112131,1,8,0:0:0:0:
320,160,112199,1,0,0:0:0:0:
320,160,112267,1,0,0:0:0:0:
320,160,112335,1,8,0:0:0:0:
320,160,112472,1,8,0:0:0:0:
320,160,112608,1,0,0:0:0:0:
320,160,112744,1,8,0:0:0:0:
320,160,112881,1,0,0:0:0:0:
320,160,112949,1,8,0:0:0:0:
352,160,113017,1,0,0:0:0:0:
352,160,113154,1,8,0:0:0:0:
352,128,113290,1,0,0:0:0:0:
352,128,113358,1,0,0:0:0:0:
352,160,113426,1,8,0:0:0:0:
352,128,113494,1,0,0:0:0:0:
352,160,113563,1,8,0:0:0:0:
320,128,113699,1,8,0:0:0:0:
320,160,113835,1,0,0:0:0:0:
320,160,113972,1,8,0:0:0:0:
352,128,114108,1,0,0:0:0:0:
320,128,114176,1,0,0:0:0:0:
352,128,114244,1,8,0:0:0:0:
320,128,114381,1,8,0:0:0:0:
320,128,114517,1,8,0:0:0:0:
320,128,114585,1,8,0:0:0:0:
320,128,114654,1,0,0:0:0:0:
320,128,114722,1,8,0:0:0:0:
320,128,114790,1,0,0:0:0:0:
416,96,114858,1,8,0:0:0:0:
320,160,114926,1,8,0:0:0:0:
320,128,114994,1,0,0:0:0:0:
384,96,115063,1,8,0:0:0:0:
384,96,115131,1,0,0:0:0:0:
384,96,115199,1,8,0:0:0:0:
384,128,115244,1,8,0:0:0:0:
320,192,115290,1,8,0:0:0:0:
416,160,115335,1,0,0:0:0:0:
352,160,115404,1,0,0:0:0:0:
352,160,115472,1,8,0:0:0:0:
352,160,115540,1,0,0:0:0:0:
160,128,115608,1,8,0:0:0:0:
352,160,115676,1,8,0:0:0:0:
352,160,115744,1,8,0:0:0:0:
352,160,115813,1,8,0:0:0:0:
352,160,115881,1,4,0:0:0:0:
352,160,116017,1,0,0:0:0:0:
384,160,116085,1,0,0:0:0:0:
352,160,116154,1,8,0:0:0:0:
384,160,116290,1,8,0:0:0:0:
192,128,116426,1,0,0:0:0:0:
320,160,116494,1,8,0:0:0:0:
320,160,116563,1,0,0:0:0:0:
320,160,116699,1,8,0:0:0:0:
320,128,116767,1,0,0:0:0:0:
320,128,116835,1,8,0:0:0:0:
352,160,116904,1,8,0:0:0:0:
320,128,116972,1,0,0:0:0:0:
320,128,117040,1,0,0:0:0:0:
320,128,117108,1,8,0:0:0:0:
320,160,117176,1,0,0:0:0:0:
320,128,117244,1,8,0:0:0:0:
320,160,117381,1,8,0:0:0:0:
320,160,117449,1,8,0:0:0:0:
320,160,117517,1,0,0:0:0:0:
320,160,117654,1,8,0:0:0:0:
320,160,117790,1,0,0:0:0:0:
320,160,117858,1,0,0:0:0:0:
320,160,117926,1,8,0:0:0:0:
352,160,118063,1,8,0:0:0:0:
320,160,118199,1,0,0:0:0:0:
320,160,118267,1,0,0:0:0:0:
320,160,118335,1,8,0:0:0:0:
320,160,118472,1,8,0:0:0:0:
320,128,118608,1,0,0:0:0:0:
320,160,118744,1,8,0:0:0:0:
320,160,118881,1,8,0:0:0:0:
320,160,119017,1,0,0:0:0:0:
384,160,119154,1,8,0:0:0:0:
416,160,119199,1,8,0:0:0:0:
416,160,119244,1,8,0:0:0:0:
416,160,119290,1,0,0:0:0:0:
416,160,119426,1,0,0:0:0:0:
416,160,119472,1,0,0:0:0:0:
416,160,119517,1,0,0:0:0:0:
416,128,119563,1,8,0:0:0:0:
416,128,119699,1,0,0:0:0:0:
416,192,119767,1,8,0:0:0:0:
416,192,119835,1,0,0:0:0:0:
416,192,119904,1,8,0:0:0:0:
416,192,119972,1,0,0:0:0:0:
416,192,120040,1,8,0:0:0:0:
416,192,120108,1,8,0:0:0:0:
416,192,120176,1,8,0:0:0:0:
416,192,120244,1,4,0:0:0:0:
352,192,120381,1,0,0:0:0:0:
352,192,120517,1,8,0:0:0:0:
352,192,120585,1,8,0:0:0:0:
352,192,120654,1,0,0:0:0:0:
352,192,120722,1,0,0:0:0:0:
352,192,120790,1,8,0:0:0:0:
352,192,120926,1,0,0:0:0:0:
352,192,121063,1,8,0:0:0:0:
352,192,121131,1,8,0:0:0:0:
352,192,121199,1,0,0:0:0:0:
352,192,121335,1,8,0:0:0:0:
352,192,121472,1,0,0:0:0:0:
352,192,121540,1,0,0:0:0:0:
352,192,121608,1,8,0:0:0:0:
352,192,121744,1,8,0:0:0:0:
352,192,121881,1,0,0:0:0:0:
352,192,121949,1,8,0:0:0:0:
352,192,122017,1,0,0:0:0:0:
352,192,122085,1,8,0:0:0:0:
352,192,122154,1,8,0:0:0:0:
352,192,122222,1,8,0:0:0:0:
352,160,122290,1,0,0:0:0:0:
352,160,122426,1,8,0:0:0:0:
352,160,122563,1,0,0:0:0:0:
352,160,122631,1,0,0:0:0:0:
352,160,122699,1,8,0:0:0:0:
352,160,122835,1,0,0:0:0:0:
352,192,122972,1,8,0:0:0:0:
352,192,123108,1,8,0:0:0:0:
352,192,123176,1,8,0:0:0:0:
352,192,123244,1,0,0:0:0:0:
352,160,123381,1,8,0:0:0:0:
352,160,123517,1,0,0:0:0:0:
384,192,123585,1,8,0:0:0:0:
384,192,123654,1,0,0:0:0:0:
384,192,123722,1,8,0:0:0:0:
384,192,123790,1,8,0:0:0:0:
384,192,123858,1,0,0:0:0:0:
384,192,123926,1,8,0:0:0:0:
384,160,123994,1,0,0:0:0:0:
384,160,124063,1,8,0:0:0:0:
384,160,124131,1,8,0:0:0:0:
384,160,124199,1,0,0:0:0:0:
384,160,124267,1,8,0:0:0:0:
384,160,124335,1,8,0:0:0:0:
352,128,124404,1,8,0:0:0:0:
448,160,124472,1,0,0:0:0:0:
448,160,124517,1,0,0:0:0:0:
448,160,124563,1,0,0:0:0:0:
416,160,124608,1,8,0:0:0:0:
416,160,124676,1,0,0:0:0:0:
416,160,124744,1,0,0:0:0:0:
399,147,124813,1,0,0:0:0:0:
352,160,124881,1,8,0:0:0:0:
384,192,125017,1,8,0:0:0:0:
384,160,125154,1,0,0:0:0:0:
384,160,125222,1,0,0:0:0:0:
384,160,125290,1,8,0:0:0:0:
384,160,125426,1,8,0:0:0:0:
352,160,125563,1,0,0:0:0:0:
352,128,125699,1,8,0:0:0:0:
352,128,125767,1,8,0:0:0:0:
352,128,125835,1,0,0:0:0:0:
352,128,125904,1,0,0:0:0:0:
352,128,125972,1,8,0:0:0:0:
384,128,126108,1,0,0:0:0:0:
416,192,126244,1,8,0:0:0:0:
416,160,126313,1,0,0:0:0:0:
416,160,126381,1,8,0:0:0:0:
416,160,126517,1,8,0:0:0:0:
416,160,126654,1,8,0:0:0:0:
416,160,126722,1,8,0:0:0:0:
416,160,126790,1,0,0:0:0:0:
416,160,126926,1,8,0:0:0:0:
416,160,127063,1,8,0:0:0:0:
416,160,127131,1,8,0:0:0:0:
416,160,127199,1,0,0:0:0:0:
448,160,127267,1,8,0:0:0:0:
448,160,127335,1,8,0:0:0:0:
384,128,127404,1,0,0:0:0:0:
416,128,127472,1,8,0:0:0:0:
416,128,127540,1,0,0:0:0:0:
416,128,127608,1,8,0:0:0:0:
416,128,127676,1,8,0:0:0:0:
416,128,127744,1,0,0:0:0:0:
416,128,127813,1,8,0:0:0:0:
416,128,127881,1,0,0:0:0:0:
384,160,127949,1,8,0:0:0:0:
384,128,128017,1,0,0:0:0:0:
384,128,128085,1,8,0:0:0:0:
448,192,128154,1,0,0:0:0:0:
448,192,128199,1,0,0:0:0:0:
448,160,128244,1,0,0:0:0:0:
448,160,128290,1,8,0:0:0:0:
448,192,128358,1,0,0:0:0:0:
448,160,128426,1,8,0:0:0:0:
448,160,128472,1,8,0:0:0:0:
448,160,128517,1,8,0:0:0:0:
448,160,128563,1,0,0:0:0:0:
448,192,128631,1,0,0:0:0:0:
448,128,128699,1,8,0:0:0:0:
480,128,128744,1,0,0:0:0:0:
448,128,128790,1,0,0:0:0:0:
480,128,128835,1,8,0:0:0:0:
480,128,128972,1,4,0:0:0:0:
448,192,129108,1,0,0:0:0:0:
448,160,129154,1,0,0:0:0:0:
448,160,129199,1,0,0:0:0:0:
448,160,129244,1,0,0:0:0:0:
427,178,129290,1,0,0:0:0:0:
429,175,129335,1,0,0:0:0:0:
480,128,129381,1,8,0:0:0:0:
480,128,129517,1,8,0:0:0:0:
480,128,129654,1,0,0:0:0:0:
480,128,129722,1,0,0:0:0:0:
480,128,129790,1,8,0:0:0:0:
448,96,129926,1,0,0:0:0:0:
448,96,130063,1,8,0:0:0:0:
448,96,130131,1,0,0:0:0:0:
448,96,130199,1,8,0:0:0:0:
448,96,130267,1,8,0:0:0:0:
448,96,130335,1,0,0:0:0:0:
448,96,130404,1,8,0:0:0:0:
448,128,130472,1,0,0:0:0:0:
448,128,130540,1,8,0:0:0:0:
448,128,130608,1,8,0:0:0:0:
448,160,130744,1,12,0:0:0:0:
448,128,131154,1,4,0:0:0:0:
352,160,131290,1,8,0:0:0:0:
352,128,131426,1,12,0:0:0:0:
352,128,131563,1,4,0:0:0:0:
352,128,131699,1,4,0:0:0:0:
288,160,131835,1,8,0:0:0:0:
352,160,131972,1,12,0:0:0:0:
256,192,132108,12,0,135244,0:0:0:0:
320,160,135517,5,4,0:0:0:0:
320,192,135790,1,0,0:0:0:0:
320,192,136063,1,4,0:0:0:0:
320,192,136335,1,0,0:0:0:0:
320,192,136608,1,4,0:0:0:0:
352,160,136744,1,0,0:0:0:0:
320,192,136881,1,4,0:0:0:0:
352,160,137017,1,0,0:0:0:0:
352,160,137154,1,4,0:0:0:0:
288,192,137290,1,4,0:0:0:0:
288,160,137426,1,4,0:0:0:0:
320,160,137563,1,4,0:0:0:0:
320,160,137699,1,4,0:0:0:0:
288,128,137835,1,0,0:0:0:0:
288,128,137904,1,0,0:0:0:0:
320,128,137972,1,8,0:0:0:0:
288,128,138108,1,4,0:0:0:0:
288,128,138244,1,0,0:0:0:0:
320,128,138313,1,0,0:0:0:0:
320,128,138381,1,8,0:0:0:0:
320,96,138517,1,8,0:0:0:0:
320,128,138585,1,0,0:0:0:0:
320,128,138654,1,8,0:0:0:0:
320,128,138722,1,0,0:0:0:0:
320,128,138790,1,8,0:0:0:0:
416,160,138835,1,8,0:0:0:0:
416,160,138926,1,0,0:0:0:0:
416,160,138972,1,0,0:0:0:0:
416,160,139063,1,8,0:0:0:0:
448,192,139131,1,0,0:0:0:0:
416,160,139199,1,8,0:0:0:0:
416,160,139267,1,8,0:0:0:0:
416,160,139335,1,0,0:0:0:0:
352,160,139381,1,0,0:0:0:0:
416,160,139472,1,8,0:0:0:0:
384,128,139517,1,8,0:0:0:0:
384,128,139608,1,0,0:0:0:0:
384,128,139654,1,0,0:0:0:0:
384,128,139744,1,8,0:0:0:0:
416,160,139813,1,8,0:0:0:0:
384,96,139881,1,4,0:0:0:0:
416,96,140017,1,0,0:0:0:0:
416,128,140085,1,0,0:0:0:0:
416,96,140154,1,8,0:0:0:0:
416,128,140290,1,4,0:0:0:0:
416,128,140426,1,0,0:0:0:0:
416,128,140494,1,0,0:0:0:0:
416,128,140563,1,8,0:0:0:0:
384,160,140699,1,0,0:0:0:0:
416,128,140744,1,8,0:0:0:0:
448,96,140790,1,8,0:0:0:0:
416,96,140835,1,0,0:0:0:0:
448,160,140904,1,0,0:0:0:0:
416,96,140972,1,8,0:0:0:0:
416,96,141017,1,8,0:0:0:0:
448,160,141108,1,0,0:0:0:0:
448,160,141154,1,0,0:0:0:0:
448,128,141244,1,8,0:0:0:0:
416,160,141313,1,0,0:0:0:0:
416,160,141381,1,8,0:0:0:0:
416,160,141449,1,0,0:0:0:0:
416,160,141517,1,8,0:0:0:0:
416,160,141585,1,8,0:0:0:0:
416,160,141654,1,0,0:0:0:0:
384,160,141722,1,8,0:0:0:0:
384,160,141790,1,0,0:0:0:0:
480,128,141835,1,0,0:0:0:0:
480,128,141881,1,0,0:0:0:0:
480,128,141926,1,8,0:0:0:0:
448,64,142063,1,4,0:0:0:0:
352,128,142199,1,0,0:0:0:0:
352,128,142267,1,8,0:0:0:0:
352,128,142335,1,8,0:0:0:0:
352,128,142472,1,4,0:0:0:0:
352,128,142608,1,0,0:0:0:0:
352,128,142676,1,8,0:0:0:0:
352,128,142744,1,8,0:0:0:0:
352,160,142881,1,8,0:0:0:0:
320,160,142926,1,8,0:0:0:0:
352,160,143017,1,0,0:0:0:0:
352,160,143063,1,0,0:0:0:0:
320,160,143154,1,8,0:0:0:0:
320,160,143199,1,8,0:0:0:0:
320,160,143244,1,8,0:0:0:0:
320,160,143290,1,0,0:0:0:0:
320,64,143358,1,0,0:0:0:0:
352,128,143426,1,8,0:0:0:0:
352,96,143494,1,0,0:0:0:0:
352,128,143563,1,8,0:0:0:0:
352,128,143631,1,8,0:0:0:0:
352,128,143699,1,0,0:0:0:0:
352,96,143767,1,8,0:0:0:0:
352,96,143835,1,8,0:0:0:0:
352,96,143904,1,0,0:0:0:0:
352,96,143972,1,8,0:0:0:0:
352,96,144040,1,8,0:0:0:0:
256,160,144108,1,8,0:0:0:0:
352,128,144176,1,8,0:0:0:0:
288,128,144244,1,4,0:0:0:0:
352,96,144381,1,8,0:0:0:0:
416,128,144449,5,8,0:0:0:0:
352,128,144517,1,4,0:0:0:0:
416,128,144654,1,4,0:0:0:0:
416,96,144790,1,0,0:0:0:0:
416,96,144858,1,0,0:0:0:0:
416,96,144926,1,8,0:0:0:0:
416,96,144994,1,0,0:0:0:0:
352,160,145063,1,8,0:0:0:0:
352,160,145108,1,8,0:0:0:0:
352,160,145154,1,8,0:0:0:0:
352,160,145199,1,0,0:0:0:0:
448,128,145267,1,0,0:0:0:0:
352,128,145335,1,8,0:0:0:0:
448,128,145404,1,8,0:0:0:0:
352,160,145472,1,0,0:0:0:0:
352,160,145517,1,0,0:0:0:0:
352,160,145563,1,0,0:0:0:0:
352,160,145608,1,0,0:0:0:0:
448,160,145654,1,0,0:0:0:0:
448,160,145699,1,0,0:0:0:0:
448,160,145744,1,8,0:0:0:0:
448,160,145790,1,8,0:0:0:0:
448,128,145835,1,8,0:0:0:0:
448,128,145881,1,0,0:0:0:0:
416,128,145949,1,0,0:0:0:0:
448,128,146017,1,8,0:0:0:0:
384,128,146085,1,8,0:0:0:0:
384,160,146154,1,8,0:0:0:0:
416,128,146222,1,8,0:0:0:0:
416,128,146290,1,8,0:0:0:0:
416,128,146358,1,8,0:0:0:0:
416,128,146426,1,4,0:0:0:0:
352,128,146563,1,0,0:0:0:0:
352,128,146631,1,0,0:0:0:0:
352,128,146699,1,8,0:0:0:0:
352,128,146835,1,4,0:0:0:0:
352,128,146972,1,0,0:0:0:0:
352,128,147040,1,0,0:0:0:0:
352,128,147108,1,8,0:0:0:0:
352,128,147244,1,8,0:0:0:0:
352,160,147313,1,0,0:0:0:0:
352,160,147381,1,8,0:0:0:0:
448,128,147426,1,8,0:0:0:0:
448,128,147472,1,8,0:0:0:0:
352,160,147517,1,0,0:0:0:0:
352,160,147585,1,0,0:0:0:0:
448,128,147654,1,8,0:0:0:0:
448,128,147699,1,8,0:0:0:0:
448,128,147744,1,8,0:0:0:0:
448,128,147790,1,0,0:0:0:0:
352,160,147858,1,0,0:0:0:0:
416,160,147926,1,8,0:0:0:0:
384,160,147972,1,8,0:0:0:0:
384,160,148017,1,8,0:0:0:0:
384,160,148063,1,0,0:0:0:0:
352,160,148131,1,0,0:0:0:0:
416,160,148199,1,8,0:0:0:0:
448,128,148267,1,8,0:0:0:0:
416,160,148335,1,0,0:0:0:0:
384,160,148404,1,8,0:0:0:0:
384,160,148472,1,8,0:0:0:0:
384,160,148540,1,8,0:0:0:0:
384,128,148608,1,4,0:0:0:0:
384,128,148744,1,0,0:0:0:0:
384,160,148813,1,8,0:0:0:0:
384,160,148881,1,8,0:0:0:0:
384,160,149017,1,4,0:0:0:0:
384,160,149154,1,0,0:0:0:0:
384,160,149222,1,8,0:0:0:0:
320,128,149290,1,8,0:0:0:0:
352,128,149426,1,8,0:0:0:0:
352,128,149494,1,8,0:0:0:0:
384,160,149563,1,0,0:0:0:0:
384,160,149608,1,8,0:0:0:0:
416,128,149654,1,8,0:0:0:0:
416,128,149699,1,0,0:0:0:0:
352,96,149767,1,0,0:0:0:0:
352,96,149835,1,8,0:0:0:0:
352,96,149904,1,8,0:0:0:0:
352,96,149972,1,0,0:0:0:0:
352,96,150040,1,8,0:0:0:0:
352,96,150108,1,0,0:0:0:0:
352,96,150176,1,0,0:0:0:0:
352,96,150244,1,8,0:0:0:0:
352,96,150313,1,0,0:0:0:0:
352,96,150381,1,8,0:0:0:0:
352,96,150449,1,8,0:0:0:0:
416,128,150517,1,8,0:0:0:0:
416,128,150563,1,8,0:0:0:0:
416,128,150608,1,8,0:0:0:0:
416,128,150654,1,0,0:0:0:0:
352,96,150790,1,4,0:0:0:0:
352,96,150926,1,8,0:0:0:0:
448,128,150994,1,0,0:0:0:0:
448,128,151063,1,8,0:0:0:0:
448,128,151199,1,4,0:0:0:0:
448,128,151335,1,8,0:0:0:0:
448,128,151404,1,0,0:0:0:0:
448,128,151472,1,8,0:0:0:0:
448,96,151608,1,8,0:0:0:0:
448,96,151676,1,0,0:0:0:0:
448,128,151744,1,8,0:0:0:0:
448,128,151813,1,8,0:0:0:0:
448,96,151881,1,8,0:0:0:0:
448,96,151949,1,0,0:0:0:0:
448,96,152017,1,8,0:0:0:0:
448,96,152085,1,8,0:0:0:0:
448,96,152154,1,8,0:0:0:0:
448,64,152222,1,0,0:0:0:0:
448,64,152290,1,8,0:0:0:0:
480,64,152358,1,0,0:0:0:0:
384,160,152426,1,8,0:0:0:0:
384,160,152472,1,0,0:0:0:0:
384,128,152517,1,0,0:0:0:0:
416,128,152563,1,8,0:0:0:0:
448,64,152631,1,0,0:0:0:0:
448,64,152699,1,8,0:0:0:0:
448,32,152835,1,8,0:0:0:0:
320,128,152972,1,4,0:0:0:0:
320,160,153108,1,8,0:0:0:0:
352,160,153176,1,8,0:0:0:0:
352,160,153244,1,4,0:0:0:0:
352,128,153381,1,4,0:0:0:0:
352,128,153517,1,0,0:0:0:0:
320,128,153585,1,0,0:0:0:0:
352,128,153654,1,8,0:0:0:0:
384,128,153699,1,8,0:0:0:0:
384,128,153744,1,8,0:0:0:0:
352,160,153790,1,0,0:0:0:0:
352,160,153858,1,0,0:0:0:0:
352,160,153926,1,8,0:0:0:0:
416,128,153994,1,0,0:0:0:0:
384,128,154063,1,8,0:0:0:0:
416,128,154131,1,8,0:0:0:0:
352,128,154199,1,0,0:0:0:0:
352,128,154244,1,0,0:0:0:0:
384,128,154290,1,0,0:0:0:0:
384,128,154335,1,8,0:0:0:0:
384,128,154381,1,8,0:0:0:0:
384,128,154426,1,8,0:0:0:0:
384,128,154472,1,8,0:0:0:0:
384,128,154517,1,8,0:0:0:0:
384,128,154563,1,8,0:0:0:0:
384,128,154608,1,4,0:0:0:0:
352,160,154744,1,0,0:0:0:0:
352,160,154881,1,4,0:0:0:0:
352,160,155017,1,0,0:0:0:0:
352,160,155154,1,4,0:0:0:0:
320,160,155290,1,8,0:0:0:0:
320,128,155358,1,8,0:0:0:0:
320,160,155426,1,0,0:0:0:0:
320,128,155563,1,8,0:0:0:0:
320,128,155631,1,8,0:0:0:0:
320,128,155699,1,0,0:0:0:0:
320,128,155835,1,8,0:0:0:0:
320,128,155904,1,8,0:0:0:0:
320,128,155972,1,0,0:0:0:0:
320,128,156108,1,8,0:0:0:0:
320,128,156176,1,8,0:0:0:0:
320,128,156244,1,0,0:0:0:0:
320,160,156381,1,8,0:0:0:0:
320,160,156449,1,8,0:0:0:0:
352,160,156517,1,0,0:0:0:0:
352,160,156654,1,8,0:0:0:0:
352,160,156722,1,8,0:0:0:0:
352,160,156790,1,0,0:0:0:0:
352,128,156926,1,8,0:0:0:0:
352,128,156994,1,8,0:0:0:0:
352,128,157063,1,0,0:0:0:0:
352,128,157199,1,8,0:0:0:0:
352,128,157335,1,4,0:0:0:0:
352,128,157472,1,8,0:0:0:0:
352,128,157540,1,8,0:0:0:0:
416,160,157608,1,0,0:0:0:0:
320,160,157744,1,8,0:0:0:0:
352,160,157813,1,8,0:0:0:0:
352,160,157881,1,0,0:0:0:0:
352,160,158017,1,8,0:0:0:0:
352,160,158085,1,8,0:0:0:0:
352,160,158154,1,0,0:0:0:0:
352,160,158290,1,8,0:0:0:0:
352,160,158358,1,8,0:0:0:0:
352,160,158426,1,0,0:0:0:0:
384,160,158563,1,8,0:0:0:0:
384,160,158631,1,8,0:0:0:0:
384,160,158699,1,0,0:0:0:0:
384,160,158835,1,8,0:0:0:0:
384,160,158904,1,8,0:0:0:0:
416,160,158972,1,0,0:0:0:0:
416,160,159108,1,0,0:0:0:0:
384,160,159176,1,0,0:0:0:0:
384,160,159244,1,8,0:0:0:0:
384,160,159381,1,8,0:0:0:0:
384,128,159517,1,4,0:0:0:0:
384,128,159654,1,8,0:0:0:0:
384,128,159722,1,8,0:0:0:0:
384,128,159790,1,0,0:0:0:0:
384,128,159926,1,8,0:0:0:0:
384,128,159994,1,8,0:0:0:0:
384,128,160063,1,0,0:0:0:0:
384,128,160199,1,8,0:0:0:0:
384,128,160267,1,8,0:0:0:0:
384,96,160335,1,0,0:0:0:0:
384,96,160472,1,8,0:0:0:0:
384,128,160540,1,8,0:0:0:0:
384,128,160608,1,0,0:0:0:0:
384,128,160744,1,8,0:0:0:0:
384,128,160813,1,8,0:0:0:0:
384,96,160881,1,0,0:0:0:0:
352,96,161017,1,8,0:0:0:0:
352,128,161085,1,8,0:0:0:0:
352,96,161154,1,0,0:0:0:0:
384,128,161290,1,8,0:0:0:0:
384,128,161358,1,8,0:0:0:0:
384,128,161426,1,0,0:0:0:0:
352,160,161563,1,8,0:0:0:0:
352,160,161699,1,4,0:0:0:0:
352,128,161835,1,8,0:0:0:0:
352,128,161904,1,8,0:0:0:0:
352,128,161972,1,0,0:0:0:0:
352,128,162108,1,8,0:0:0:0:
352,128,162176,1,8,0:0:0:0:
352,128,162244,1,0,0:0:0:0:
352,128,162381,1,8,0:0:0:0:
352,128,162449,1,8,0:0:0:0:
352,128,162517,1,0,0:0:0:0:
352,128,162654,1,0,0:0:0:0:
352,96,162722,1,0,0:0:0:0:
416,128,162790,1,8,0:0:0:0:
416,128,162835,1,8,0:0:0:0:
448,128,162881,1,8,0:0:0:0:
448,128,162926,1,0,0:0:0:0:
480,128,162994,1,0,0:0:0:0:
448,128,163063,1,8,0:0:0:0:
448,128,163108,1,8,0:0:0:0:
448,128,163154,1,8,0:0:0:0:
448,96,163199,1,0,0:0:0:0:
480,128,163267,1,0,0:0:0:0:
448,96,163335,1,8,0:0:0:0:
448,96,163381,1,8,0:0:0:0:
448,96,163426,1,8,0:0:0:0:
448,96,163472,1,0,0:0:0:0:
480,96,163540,1,0,0:0:0:0:
480,96,163608,1,8,0:0:0:0:
448,96,163654,1,8,0:0:0:0:
448,96,163699,1,8,0:0:0:0:
448,96,163744,1,0,0:0:0:0:
384,96,163813,1,0,0:0:0:0:
512,96,163881,1,8,0:0:0:0:
384,96,164017,1,0,0:0:0:0:
320,160,164085,1,0,0:0:0:0:
320,96,164154,1,8,0:0:0:0:
320,96,164290,1,8,0:0:0:0:
352,128,164426,5,0,0:0:0:0:
352,128,164563,1,0,0:0:0:0:
352,128,164631,1,0,0:0:0:0:
352,128,164699,1,8,0:0:0:0:
352,128,164835,1,8,0:0:0:0:
352,128,164972,1,0,0:0:0:0:
352,128,165108,1,0,0:0:0:0:
352,128,165176,1,0,0:0:0:0:
352,128,165244,1,8,0:0:0:0:
320,128,165381,1,0,0:0:0:0:
320,128,165517,1,8,0:0:0:0:
320,128,165654,1,0,0:0:0:0:
320,128,165790,1,8,0:0:0:0:
288,128,165926,1,0,0:0:0:0:
288,128,166063,1,0,0:0:0:0:
320,128,166199,1,0,0:0:0:0:
320,128,166267,1,0,0:0:0:0:
320,128,166335,1,8,0:0:0:0:
320,128,166472,1,8,0:0:0:0:
320,128,166608,1,0,0:0:0:0:
320,128,166744,1,0,0:0:0:0:
320,128,166813,1,0,0:0:0:0:
320,128,166881,1,8,0:0:0:0:
320,128,167017,1,8,0:0:0:0:
320,128,167154,1,4,0:0:0:0:
320,128,167290,1,0,0:0:0:0:
352,160,167426,1,12,0:0:0:0:
352,128,167563,1,0,0:0:0:0:
320,128,167699,1,4,0:0:0:0:
320,128,167835,1,0,0:0:0:0:
352,192,167972,1,12,0:0:0:0:
320,128,168108,1,0,0:0:0:0:
320,96,168244,1,4,0:0:0:0:
320,96,168381,1,0,0:0:0:0:
320,96,168449,1,0,0:0:0:0:
320,96,168517,1,8,0:0:0:0:
320,96,168654,1,8,0:0:0:0:
320,96,168722,1,8,0:0:0:0:
320,96,168790,1,0,0:0:0:0:
320,96,168926,1,0,0:0:0:0:
256,128,168994,1,0,0:0:0:0:
288,128,169063,1,8,0:0:0:0:
320,128,169199,1,8,0:0:0:0:
320,128,169267,1,8,0:0:0:0:
320,128,169335,1,0,0:0:0:0:
320,128,169472,1,0,0:0:0:0:
320,128,169540,1,0,0:0:0:0:
320,128,169608,1,8,0:0:0:0:
320,128,169744,1,0,0:0:0:0:
320,128,169813,1,0,0:0:0:0:
320,96,169881,1,8,0:0:0:0:
320,128,170017,1,0,0:0:0:0:
352,128,170085,1,0,0:0:0:0:
320,128,170154,1,8,0:0:0:0:
320,160,170290,1,8,0:0:0:0:
320,160,170426,1,0,0:0:0:0:
352,160,170563,1,0,0:0:0:0:
352,160,170631,1,0,0:0:0:0:
352,160,170699,1,8,0:0:0:0:
352,160,170835,1,8,0:0:0:0:
352,128,170904,1,8,0:0:0:0:
352,128,170972,1,0,0:0:0:0:
352,128,171108,1,0,0:0:0:0:
352,128,171176,1,0,0:0:0:0:
352,128,171244,1,8,0:0:0:0:
352,192,171381,1,8,0:0:0:0:
352,160,171449,1,8,0:0:0:0:
320,128,171517,1,0,0:0:0:0:
352,160,171654,1,0,0:0:0:0:
352,160,171722,1,0,0:0:0:0:
352,160,171790,1,8,0:0:0:0:
352,128,171926,1,8,0:0:0:0:
352,128,171994,1,8,0:0:0:0:
256,192,172063,12,0,172472,0:0:0:0:
320,160,172608,5,4,0:0:0:0:
320,160,172744,1,0,0:0:0:0:
320,160,172812,1,0,0:0:0:0:
320,160,172880,1,8,0:0:0:0:
288,160,173017,1,8,0:0:0:0:
256,160,173085,1,0,0:0:0:0:
288,160,173153,1,8,0:0:0:0:
320,160,173289,1,0,0:0:0:0:
320,160,173358,1,0,0:0:0:0:
320,128,173426,1,8,0:0:0:0:
320,128,173562,1,0,0:0:0:0:
320,128,173630,1,8,0:0:0:0:
320,128,173698,1,0,0:0:0:0:
384,160,173835,1,0,0:0:0:0:
352,160,173903,1,0,0:0:0:0:
352,160,173971,1,8,0:0:0:0:
352,160,174039,1,0,0:0:0:0:
352,128,174108,1,8,0:0:0:0:
352,160,174176,1,0,0:0:0:0:
384,128,174244,1,8,0:0:0:0:
384,128,174312,1,8,0:0:0:0:
384,128,174380,1,0,0:0:0:0:
320,128,174448,1,8,0:0:0:0:
320,128,174517,1,0,0:0:0:0:
320,128,174653,1,8,0:0:0:0:
352,160,174789,1,0,0:0:0:0:
352,160,174926,1,0,0:0:0:0:
352,128,174994,1,0,0:0:0:0:
352,160,175062,1,8,0:0:0:0:
416,160,175198,1,0,0:0:0:0:
384,160,175267,1,8,0:0:0:0:
384,160,175335,1,0,0:0:0:0:
384,160,175471,1,0,0:0:0:0:
384,160,175539,1,0,0:0:0:0:
384,160,175608,1,8,0:0:0:0:
384,128,175744,1,8,0:0:0:0:
384,128,175812,1,0,0:0:0:0:
384,128,175880,1,8,0:0:0:0:
384,128,175948,1,8,0:0:0:0:
384,128,176017,1,0,0:0:0:0:
384,128,176085,1,8,0:0:0:0:
384,128,176153,1,8,0:0:0:0:
384,128,176221,1,8,0:0:0:0:
384,128,176289,1,0,0:0:0:0:
384,128,176358,1,8,0:0:0:0:
384,128,176426,1,8,0:0:0:0:
384,128,176494,1,8,0:0:0:0:
384,128,176562,1,0,0:0:0:0:
384,128,176630,1,8,0:0:0:0:
384,96,176698,1,0,0:0:0:0:
384,128,176835,1,8,0:0:0:0:
384,160,176971,1,4,0:0:0:0:
352,160,177108,1,0,0:0:0:0:
352,160,177176,1,0,0:0:0:0:
352,160,177244,1,8,0:0:0:0:
352,160,177312,1,8,0:0:0:0:
352,160,177380,1,0,0:0:0:0:
352,160,177517,1,0,0:0:0:0:
352,128,177653,1,0,0:0:0:0:
352,128,177721,1,0,0:0:0:0:
352,128,177789,1,8,0:0:0:0:
352,128,177858,1,0,0:0:0:0:
352,128,177926,1,0,0:0:0:0:
384,128,178062,1,0,0:0:0:0:
384,128,178198,1,0,0:0:0:0:
384,128,178267,1,0,0:0:0:0:
384,128,178335,1,8,0:0:0:0:
384,96,178403,1,8,0:0:0:0:
384,96,178471,1,0,0:0:0:0:
384,96,178539,1,0,0:0:0:0:
384,96,178608,1,8,0:0:0:0:
384,96,178676,1,0,0:0:0:0:
384,96,178744,1,0,0:0:0:0:
384,96,178812,1,0,0:0:0:0:
384,96,178880,1,8,0:0:0:0:
384,192,178948,1,8,0:0:0:0:
384,192,179017,1,0,0:0:0:0:
352,128,179085,1,0,0:0:0:0:
352,128,179153,1,8,0:0:0:0:
352,128,179289,1,0,0:0:0:0:
352,128,179358,1,0,0:0:0:0:
352,128,179426,1,8,0:0:0:0:
352,128,179494,1,8,0:0:0:0:
352,128,179562,1,0,0:0:0:0:
352,96,179698,1,0,0:0:0:0:
352,96,179835,1,0,0:0:0:0:
352,96,179903,1,0,0:0:0:0:
352,96,179971,1,8,0:0:0:0:
352,96,180039,1,0,0:0:0:0:
352,96,180108,1,0,0:0:0:0:
352,96,180244,1,0,0:0:0:0:
352,96,180380,1,0,0:0:0:0:
352,96,180448,1,0,0:0:0:0:
352,96,180517,1,8,0:0:0:0:
416,128,180585,1,8,0:0:0:0:
352,96,180653,1,0,0:0:0:0:
416,128,180721,1,0,0:0:0:0:
416,128,180789,1,8,0:0:0:0:
416,128,181062,1,0,0:0:0:0:
416,128,181335,1,4,0:0:0:0:
384,128,181471,1,0,0:0:0:0:
416,128,181539,1,0,0:0:0:0:
416,128,181608,1,8,0:0:0:0:
384,128,181676,1,0,0:0:0:0:
384,128,181744,1,8,0:0:0:0:
384,128,181812,1,8,0:0:0:0:
416,128,181880,1,0,0:0:0:0:
416,128,181948,1,8,0:0:0:0:
416,128,182017,1,0,0:0:0:0:
416,128,182085,1,0,0:0:0:0:
416,128,182153,1,8,0:0:0:0:
352,128,182221,1,0,0:0:0:0:
416,128,182289,1,8,0:0:0:0:
352,160,182358,1,8,0:0:0:0:
352,160,182426,1,0,0:0:0:0:
352,160,182494,1,8,0:0:0:0:
416,128,182562,1,0,0:0:0:0:
352,160,182630,1,0,0:0:0:0:
384,128,182698,1,8,0:0:0:0:
352,160,182767,1,8,0:0:0:0:
416,128,182835,1,0,0:0:0:0:
352,160,182903,1,8,0:0:0:0:
352,160,182971,1,8,0:0:0:0:
384,128,183039,1,8,0:0:0:0:
384,128,183108,1,0,0:0:0:0:
352,160,183176,1,8,0:0:0:0:
384,128,183244,1,8,0:0:0:0:
384,128,183312,1,8,0:0:0:0:
352,160,183380,1,0,0:0:0:0:
352,160,183448,1,8,0:0:0:0:
384,128,183517,1,8,0:0:0:0:
352,160,183585,1,8,0:0:0:0:
352,160,183653,1,0,0:0:0:0:
352,128,183721,1,8,0:0:0:0:
352,160,183789,1,0,0:0:0:0:
352,160,183858,1,0,0:0:0:0:
384,128,183926,1,8,0:0:0:0:
352,160,183994,1,0,0:0:0:0:
384,128,184062,1,8,0:0:0:0:
352,160,184130,1,8,0:0:0:0:
352,160,184198,1,0,0:0:0:0:
384,160,184267,1,8,0:0:0:0:
352,128,184335,1,0,0:0:0:0:
352,128,184403,1,0,0:0:0:0:
352,128,184471,1,8,0:0:0:0:
384,160,184539,1,0,0:0:0:0:
352,128,184608,1,8,0:0:0:0:
352,128,184676,1,8,0:0:0:0:
352,128,184744,1,0,0:0:0:0:
352,128,184812,1,8,0:0:0:0:
384,160,184880,1,0,0:0:0:0:
352,128,184948,1,0,0:0:0:0:
384,160,185017,1,8,0:0:0:0:
352,160,185085,1,0,0:0:0:0:
384,160,185153,1,8,0:0:0:0:
352,128,185221,1,8,0:0:0:0:
384,160,185289,1,0,0:0:0:0:
352,128,185358,1,8,0:0:0:0:
352,128,185426,1,0,0:0:0:0:
384,96,185562,5,8,0:0:0:0:
352,128,185698,1,4,0:0:0:0:
352,128,185835,1,0,0:0:0:0:
384,128,185903,1,0,0:0:0:0:
384,128,185971,1,8,0:0:0:0:
384,128,186039,1,0,0:0:0:0:
384,128,186108,1,8,0:0:0:0:
384,128,186176,1,8,0:0:0:0:
384,128,186244,1,0,0:0:0:0:
384,128,186312,1,8,0:0:0:0:
384,128,186380,1,0,0:0:0:0:
384,128,186448,1,0,0:0:0:0:
384,128,186517,1,8,0:0:0:0:
384,128,186585,1,0,0:0:0:0:
384,128,186653,1,8,0:0:0:0:
384,128,186721,1,8,0:0:0:0:
384,128,186789,1,0,0:0:0:0:
384,128,186858,1,8,0:0:0:0:
384,96,186926,1,0,0:0:0:0:
384,128,186994,1,0,0:0:0:0:
384,96,187062,1,8,0:0:0:0:
384,96,187130,1,8,0:0:0:0:
352,96,187198,1,0,0:0:0:0:
352,96,187267,1,8,0:0:0:0:
352,96,187335,1,8,0:0:0:0:
352,128,187403,1,8,0:0:0:0:
352,128,187471,1,0,0:0:0:0:
352,128,187539,1,8,0:0:0:0:
352,128,187608,1,8,0:0:0:0:
352,128,187676,1,8,0:0:0:0:
352,128,187744,1,0,0:0:0:0:
352,128,187812,1,0,0:0:0:0:
352,128,187880,1,8,0:0:0:0:
352,128,187948,1,0,0:0:0:0:
352,128,188017,1,8,0:0:0:0:
352,128,188085,1,8,0:0:0:0:
352,128,188153,1,0,0:0:0:0:
352,128,188221,1,8,0:0:0:0:
352,128,188289,1,0,0:0:0:0:
352,128,188358,1,0,0:0:0:0:
352,128,188426,1,8,0:0:0:0:
352,128,188494,1,0,0:0:0:0:
352,128,188562,1,8,0:0:0:0:
352,128,188630,1,8,0:0:0:0:
352,128,188698,1,0,0:0:0:0:
352,128,188767,1,8,0:0:0:0:
352,128,188835,1,0,0:0:0:0:
352,128,188903,1,0,0:0:0:0:
352,128,188971,1,8,0:0:0:0:
352,128,189039,1,0,0:0:0:0:
352,128,189108,1,8,0:0:0:0:
352,128,189176,1,8,0:0:0:0:
352,128,189244,1,0,0:0:0:0:
352,128,189312,1,8,0:0:0:0:
352,128,189380,1,0,0:0:0:0:
352,128,189448,1,0,0:0:0:0:
352,128,189517,1,8,0:0:0:0:
448,128,189562,1,8,0:0:0:0:
448,128,189608,1,8,0:0:0:0:
448,160,189653,1,0,0:0:0:0:
480,160,189789,1,8,0:0:0:0:
480,160,189926,1,8,0:0:0:0:
480,160,190062,1,4,0:0:0:0:
416,128,190198,1,0,0:0:0:0:
416,128,190267,1,0,0:0:0:0:
416,128,190335,1,8,0:0:0:0:
416,160,190471,1,0,0:0:0:0:
416,160,190539,1,0,0:0:0:0:
256,192,190608,5,8,0:0:0:0:
416,128,190676,1,0,0:0:0:0:
256,160,190744,1,8,0:0:0:0:
416,128,190880,1,0,0:0:0:0:
256,160,191017,1,8,0:0:0:0:
416,128,191085,1,0,0:0:0:0:
256,160,191153,1,8,0:0:0:0:
416,128,191221,1,0,0:0:0:0:
256,160,191289,1,8,0:0:0:0:
416,96,191426,1,4,0:0:0:0:
416,96,191562,1,0,0:0:0:0:
416,96,191630,1,8,0:0:0:0:
416,96,191698,1,8,0:0:0:0:
416,96,191767,1,0,0:0:0:0:
416,96,191835,1,8,0:0:0:0:
416,96,191971,1,8,0:0:0:0:
416,96,192108,1,8,0:0:0:0:
416,96,192244,1,4,0:0:0:0:
416,96,192380,1,0,0:0:0:0:
416,96,192517,1,8,0:0:0:0:
416,96,192653,1,0,0:0:0:0:
416,96,192721,1,0,0:0:0:0:
256,160,192789,1,8,0:0:0:0:
256,160,192926,1,8,0:0:0:0:
416,96,192994,1,0,0:0:0:0:
416,96,193062,1,0,0:0:0:0:
384,96,193130,1,0,0:0:0:0:
288,160,193198,1,8,0:0:0:0:
288,160,193335,1,8,0:0:0:0:
416,96,193403,1,0,0:0:0:0:
288,160,193471,1,8,0:0:0:0:
416,64,193608,1,4,0:0:0:0:
416,96,193744,1,0,0:0:0:0:
416,96,193812,1,8,0:0:0:0:
416,96,193880,1,0,0:0:0:0:
416,96,193948,1,0,0:0:0:0:
416,96,194017,1,8,0:0:0:0:
416,96,194085,1,8,0:0:0:0:
416,96,194153,1,0,0:0:0:0:
384,128,194289,1,8,0:0:0:0:
384,96,194426,1,4,0:0:0:0:
384,96,194562,1,0,0:0:0:0:
384,96,194630,1,0,0:0:0:0:
384,96,194698,1,8,0:0:0:0:
384,96,194835,1,0,0:0:0:0:
320,128,194971,1,8,0:0:0:0:
384,96,195039,1,0,0:0:0:0:
320,128,195108,1,8,0:0:0:0:
384,96,195244,1,0,0:0:0:0:
384,96,195380,1,0,0:0:0:0:
384,96,195448,1,0,0:0:0:0:
384,96,195517,1,0,0:0:0:0:
480,128,195562,1,0,0:0:0:0:
448,128,195608,1,0,0:0:0:0:
352,128,195653,1,8,0:0:0:0:
384,96,195789,1,4,0:0:0:0:
480,128,195926,1,8,0:0:0:0:
480,128,195994,1,0,0:0:0:0:
480,128,196062,1,8,0:0:0:0:
352,128,196198,1,4,0:0:0:0:
352,128,196335,1,0,0:0:0:0:
352,128,196403,1,0,0:0:0:0:
352,128,196471,1,8,0:0:0:0:
352,128,196608,1,4,0:0:0:0:
320,128,196744,1,8,0:0:0:0:
352,128,196880,1,8,0:0:0:0:
352,128,197017,1,0,0:0:0:0:
352,128,197085,1,0,0:0:0:0:
320,160,197153,1,8,0:0:0:0:
352,128,197289,1,0,0:0:0:0:
320,128,197358,1,0,0:0:0:0:
320,160,197426,1,8,0:0:0:0:
320,128,197562,1,0,0:0:0:0:
320,128,197698,1,8,0:0:0:0:
320,128,197835,1,8,0:0:0:0:
320,128,197971,1,0,0:0:0:0:
352,96,198039,1,0,0:0:0:0:
448,128,198108,1,8,0:0:0:0:
448,128,198153,1,8,0:0:0:0:
448,128,198198,1,8,0:0:0:0:
448,128,198244,1,0,0:0:0:0:
448,96,198380,1,8,0:0:0:0:
448,64,198517,1,0,0:0:0:0:
448,64,198585,1,0,0:0:0:0:
448,64,198653,1,8,0:0:0:0:
448,64,198789,1,4,0:0:0:0:
448,64,198926,1,8,0:0:0:0:
448,64,198994,1,0,0:0:0:0:
448,64,199062,1,8,0:0:0:0:
448,64,199198,1,0,0:0:0:0:
448,64,199267,1,0,0:0:0:0:
320,96,199335,1,8,0:0:0:0:
448,64,199403,1,0,0:0:0:0:
320,160,199471,1,8,0:0:0:0:
448,64,199608,1,0,0:0:0:0:
320,160,199744,1,8,0:0:0:0:
448,64,199812,1,0,0:0:0:0:
320,160,199880,1,8,0:0:0:0:
352,160,200017,1,8,0:0:0:0:
448,64,200153,1,4,0:0:0:0:
384,96,200289,1,0,0:0:0:0:
384,96,200358,1,0,0:0:0:0:
384,96,200426,1,8,0:0:0:0:
384,96,200494,1,0,0:0:0:0:
384,96,200562,1,8,0:0:0:0:
384,96,200630,1,8,0:0:0:0:
384,96,200698,1,0,0:0:0:0:
384,128,200767,1,0,0:0:0:0:
384,96,200835,1,8,0:0:0:0:
384,128,200971,1,4,0:0:0:0:
384,160,201108,1,0,0:0:0:0:
384,128,201176,1,0,0:0:0:0:
416,128,201244,1,8,0:0:0:0:
416,128,201380,1,0,0:0:0:0:
416,128,201448,1,0,0:0:0:0:
352,160,201517,1,8,0:0:0:0:
352,160,201653,1,8,0:0:0:0:
416,96,201789,1,0,0:0:0:0:
416,96,201858,1,0,0:0:0:0:
352,160,201926,1,8,0:0:0:0:
352,160,202062,1,8,0:0:0:0:
384,96,202130,1,0,0:0:0:0:
384,96,202198,1,8,0:0:0:0:
384,128,202335,1,4,0:0:0:0:
384,160,202471,1,0,0:0:0:0:
384,160,202539,1,8,0:0:0:0:
384,128,202608,1,0,0:0:0:0:
384,128,202676,1,0,0:0:0:0:
384,128,202744,1,8,0:0:0:0:
384,128,202880,1,8,0:0:0:0:
384,128,203017,1,8,0:0:0:0:
384,128,203153,1,4,0:0:0:0:
384,128,203289,1,8,0:0:0:0:
384,128,203358,1,0,0:0:0:0:
384,128,203426,1,8,0:0:0:0:
384,128,203494,1,8,0:0:0:0:
384,128,203562,1,0,0:0:0:0:
352,128,203698,1,8,0:0:0:0:
384,96,203767,1,0,0:0:0:0:
352,160,203835,1,8,0:0:0:0:
384,96,203971,1,0,0:0:0:0:
384,96,204039,1,0,0:0:0:0:
352,160,204108,1,8,0:0:0:0:
384,96,204176,1,0,0:0:0:0:
384,160,204244,1,8,0:0:0:0:
384,96,204312,1,0,0:0:0:0:
384,160,204380,1,8,0:0:0:0:
384,96,204517,1,4,0:0:0:0:
352,192,204653,1,8,0:0:0:0:
352,192,204721,1,8,0:0:0:0:
352,192,204789,1,0,0:0:0:0:
352,192,204926,1,12,0:0:0:0:
352,128,205062,1,0,0:0:0:0:
352,128,205198,1,8,0:0:0:0:
352,128,205335,1,4,0:0:0:0:
352,128,205471,1,8,0:0:0:0:
352,128,205539,1,0,0:0:0:0:
352,128,205608,1,8,0:0:0:0:
384,128,205744,1,8,0:0:0:0:
384,128,205812,1,0,0:0:0:0:
320,160,205880,1,8,0:0:0:0:
320,160,206017,1,8,0:0:0:0:
352,128,206153,1,0,0:0:0:0:
352,128,206289,1,0,0:0:0:0:
352,128,206426,1,8,0:0:0:0:
384,160,206562,1,8,0:0:0:0:
384,160,206698,1,4,0:0:0:0:
384,160,206835,1,8,0:0:0:0:
384,160,206971,1,8,0:0:0:0:
384,160,207108,1,0,0:0:0:0:
384,160,207244,1,8,0:0:0:0:
384,192,207289,1,8,0:0:0:0:
384,192,207335,1,8,0:0:0:0:
384,160,207380,1,0,0:0:0:0:
320,160,207517,1,4,0:0:0:0:
320,160,207653,1,8,0:0:0:0:
352,128,207721,1,8,0:0:0:0:
352,128,207789,1,0,0:0:0:0:
352,128,207926,1,8,0:0:0:0:
352,128,207994,1,8,0:0:0:0:
352,128,208062,1,0,0:0:0:0:
352,160,208198,1,8,0:0:0:0:
352,160,208267,1,8,0:0:0:0:
384,160,208335,1,0,0:0:0:0:
352,160,208471,1,8,0:0:0:0:
352,160,208539,1,8,0:0:0:0:
352,160,208608,1,0,0:0:0:0:
384,128,208744,1,8,0:0:0:0:
352,128,208812,1,8,0:0:0:0:
384,160,208880,1,0,0:0:0:0:
384,128,209017,1,8,0:0:0:0:
384,128,209085,1,8,0:0:0:0:
384,128,209153,1,0,0:0:0:0:
384,128,209289,1,8,0:0:0:0:
384,128,209358,1,8,0:0:0:0:
384,128,209426,1,0,0:0:0:0:
352,128,209562,1,8,0:0:0:0:
352,160,209698,1,4,0:0:0:0:
384,128,209835,1,8,0:0:0:0:
384,128,209903,1,8,0:0:0:0:
352,128,209971,1,0,0:0:0:0:
352,128,210108,1,8,0:0:0:0:
352,128,210176,1,8,0:0:0:0:
352,128,210244,1,0,0:0:0:0:
352,128,210380,1,8,0:0:0:0:
352,128,210448,1,8,0:0:0:0:
352,128,210517,1,0,0:0:0:0:
384,128,210653,1,8,0:0:0:0:
352,128,210721,1,8,0:0:0:0:
352,128,210789,1,0,0:0:0:0:
352,128,210926,1,8,0:0:0:0:
352,128,210994,1,8,0:0:0:0:
352,128,211062,1,0,0:0:0:0:
352,128,211198,1,8,0:0:0:0:
352,128,211267,1,8,0:0:0:0:
352,128,211335,1,0,0:0:0:0:
352,128,211471,1,0,0:0:0:0:
384,160,211539,1,0,0:0:0:0:
352,160,211608,1,8,0:0:0:0:
352,160,211744,1,8,0:0:0:0:
416,192,211880,1,4,0:0:0:0:
352,128,212017,1,8,0:0:0:0:
352,128,212085,1,8,0:0:0:0:
352,128,212153,1,0,0:0:0:0:
352,128,212289,1,8,0:0:0:0:
384,160,212358,1,8,0:0:0:0:
384,160,212426,1,0,0:0:0:0:
384,160,212562,1,8,0:0:0:0:
384,160,212630,1,8,0:0:0:0:
384,128,212698,1,0,0:0:0:0:
352,160,212835,1,8,0:0:0:0:
352,160,212903,1,8,0:0:0:0:
352,160,212971,1,0,0:0:0:0:
352,160,213108,1,8,0:0:0:0:
352,160,213176,1,8,0:0:0:0:
352,128,213244,1,0,0:0:0:0:
352,128,213380,1,8,0:0:0:0:
352,128,213448,1,8,0:0:0:0:
352,128,213517,1,0,0:0:0:0:
352,128,213653,1,8,0:0:0:0:
352,128,213721,1,8,0:0:0:0:
352,128,213789,1,0,0:0:0:0:
320,160,213926,1,8,0:0:0:0:
352,160,214062,1,4,0:0:0:0:
352,160,214198,1,0,0:0:0:0:
352,160,214267,1,0,0:0:0:0:
352,160,214335,1,8,0:0:0:0:
352,160,214471,1,4,0:0:0:0:
352,160,214608,1,0,0:0:0:0:
352,128,214676,1,0,0:0:0:0:
352,128,214744,1,8,0:0:0:0:
352,128,214880,1,8,0:0:0:0:
352,128,214948,1,0,0:0:0:0:
352,128,215017,1,0,0:0:0:0:
384,128,215085,1,0,0:0:0:0:
384,128,215153,1,8,0:0:0:0:
384,128,215221,1,8,0:0:0:0:
384,128,215289,1,0,0:0:0:0:
384,128,215358,1,0,0:0:0:0:
384,128,215426,1,8,0:0:0:0:
384,128,215494,1,8,0:0:0:0:
384,128,215562,1,8,0:0:0:0:
384,128,215630,1,0,0:0:0:0:
384,128,215698,1,8,0:0:0:0:
480,160,215767,1,8,0:0:0:0:
384,128,215835,1,8,0:0:0:0:
384,128,215903,1,8,0:0:0:0:
384,128,215971,1,0,0:0:0:0:
384,128,216108,1,8,0:0:0:0:
384,128,216244,1,4,0:0:0:0:
384,128,216380,1,0,0:0:0:0:
384,128,216448,1,0,0:0:0:0:
384,128,216517,1,8,0:0:0:0:
384,128,216585,1,0,0:0:0:0:
384,128,216653,1,0,0:0:0:0:
384,224,216721,1,0,0:0:0:0:
384,128,216789,1,8,0:0:0:0:
416,160,216926,1,0,0:0:0:0:
416,160,216994,1,0,0:0:0:0:
416,160,217062,1,8,0:0:0:0:
416,128,217130,1,8,0:0:0:0:
416,160,217198,1,0,0:0:0:0:
352,160,217267,1,0,0:0:0:0:
416,128,217335,1,8,0:0:0:0:
416,128,217471,1,0,0:0:0:0:
416,128,217539,1,0,0:0:0:0:
416,128,217608,1,8,0:0:0:0:
416,128,217676,1,8,0:0:0:0:
416,128,217744,1,8,0:0:0:0:
352,160,217812,1,0,0:0:0:0:
416,128,217880,1,8,0:0:0:0:
416,128,218017,1,0,0:0:0:0:
416,128,218085,1,0,0:0:0:0:
416,128,218153,1,8,0:0:0:0:
416,128,218289,1,8,0:0:0:0:
416,128,218426,1,4,0:0:0:0:
416,128,218562,1,8,0:0:0:0:
416,128,218630,1,8,0:0:0:0:
416,128,218698,1,0,0:0:0:0:
416,128,218767,1,0,0:0:0:0:
416,128,218835,1,0,0:0:0:0:
352,160,218903,1,0,0:0:0:0:
416,128,218971,1,8,0:0:0:0:
416,128,219108,1,8,0:0:0:0:
416,128,219176,1,8,0:0:0:0:
416,128,219244,1,8,0:0:0:0:
416,128,219312,1,0,0:0:0:0:
416,128,219380,1,0,0:0:0:0:
352,128,219448,1,0,0:0:0:0:
416,128,219517,1,8,0:0:0:0:
416,128,219653,1,8,0:0:0:0:
416,128,219721,1,8,0:0:0:0:
416,128,219789,1,8,0:0:0:0:
416,128,219858,1,8,0:0:0:0:
416,128,219926,1,0,0:0:0:0:
352,128,219994,1,0,0:0:0:0:
416,128,220062,1,8,0:0:0:0:
480,160,220198,1,0,0:0:0:0:
480,160,220267,1,0,0:0:0:0:
480,160,220335,1,8,0:0:0:0:
480,128,220471,1,8,0:0:0:0:
416,160,220608,1,4,0:0:0:0:
352,160,220744,1,8,0:0:0:0:
352,160,220812,1,8,0:0:0:0:
352,160,220880,1,0,0:0:0:0:
352,160,220948,1,8,0:0:0:0:
352,160,221017,1,8,0:0:0:0:
352,96,221085,1,0,0:0:0:0:
384,160,221153,1,8,0:0:0:0:
384,160,221289,1,0,0:0:0:0:
384,160,221358,1,8,0:0:0:0:
416,160,221426,1,8,0:0:0:0:
416,160,221494,1,0,0:0:0:0:
416,160,221562,1,8,0:0:0:0:
352,96,221630,1,8,0:0:0:0:
416,160,221698,1,0,0:0:0:0:
448,96,221835,1,8,0:0:0:0:
448,160,221903,1,0,0:0:0:0:
416,160,221971,1,0,0:0:0:0:
448,160,222039,1,8,0:0:0:0:
416,160,222108,1,0,0:0:0:0:
352,96,222176,1,0,0:0:0:0:
416,128,222244,1,8,0:0:0:0:
416,128,222380,1,0,0:0:0:0:
416,128,222448,1,0,0:0:0:0:
416,128,222517,1,8,0:0:0:0:
384,160,222653,5,8,0:0:0:0:
384,160,222789,1,4,0:0:0:0:
384,160,222926,1,0,0:0:0:0:
384,160,222994,1,8,0:0:0:0:
384,160,223062,1,8,0:0:0:0:
384,160,223198,1,4,0:0:0:0:
416,160,223335,1,0,0:0:0:0:
416,160,223403,1,8,0:0:0:0:
448,160,223471,1,8,0:0:0:0:
448,128,223608,1,0,0:0:0:0:
448,128,223744,1,8,0:0:0:0:
448,128,223880,1,0,0:0:0:0:
448,128,224017,1,8,0:0:0:0:
448,128,224153,1,8,0:0:0:0:
448,128,224289,1,0,0:0:0:0:
448,128,224426,1,8,0:0:0:0:
448,128,224562,1,8,0:0:0:0:
288,160,224698,5,4,0:0:0:0:
448,128,224835,1,0,0:0:0:0:
448,128,224971,1,8,0:0:0:0:
448,128,225108,1,0,0:0:0:0:
448,128,225176,1,0,0:0:0:0:
288,160,225244,1,8,0:0:0:0:
448,128,225380,1,0,0:0:0:0:
448,128,225517,1,8,0:0:0:0:
448,128,225585,1,8,0:0:0:0:
448,128,225653,1,0,0:0:0:0:
288,160,225789,1,8,0:0:0:0:
448,96,225926,1,0,0:0:0:0:
448,96,226062,1,8,0:0:0:0:
448,96,226130,1,8,0:0:0:0:
448,96,226198,1,0,0:0:0:0:
448,96,226267,1,0,0:0:0:0:
448,96,226335,1,8,0:0:0:0:
448,96,226471,1,0,0:0:0:0:
448,96,226608,1,8,0:0:0:0:
448,96,226744,1,0,0:0:0:0:
448,96,226812,1,0,0:0:0:0:
384,160,226880,1,8,0:0:0:0:
448,96,227017,1,8,0:0:0:0:
448,96,227153,1,0,0:0:0:0:
448,96,227221,1,0,0:0:0:0:
448,96,227289,1,0,0:0:0:0:
416,128,227358,1,0,0:0:0:0:
384,160,227426,1,8,0:0:0:0:
448,64,227562,1,8,0:0:0:0:
448,64,227698,1,0,0:0:0:0:
448,64,227835,1,8,0:0:0:0:
448,64,227903,1,8,0:0:0:0:
416,192,227971,1,0,0:0:0:0:
448,64,228108,1,8,0:0:0:0:
448,64,228244,1,0,0:0:0:0:
448,64,228380,1,8,0:0:0:0:
448,64,228448,1,0,0:0:0:0:
416,192,228517,1,8,0:0:0:0:
320,160,228653,1,0,0:0:0:0:
384,128,228721,1,8,0:0:0:0:
320,160,228789,1,0,0:0:0:0:
320,160,228926,1,8,0:0:0:0:
320,160,228994,1,8,0:0:0:0:
416,192,229062,1,0,0:0:0:0:
352,128,229198,1,8,0:0:0:0:
352,128,229335,1,0,0:0:0:0:
352,128,229471,1,8,0:0:0:0:
352,128,229539,1,8,0:0:0:0:
416,192,229608,1,0,0:0:0:0:
352,128,229744,1,8,0:0:0:0:
384,160,229880,1,0,0:0:0:0:
384,160,229948,1,0,0:0:0:0:
384,160,230017,1,8,0:0:0:0:
384,160,230085,1,8,0:0:0:0:
416,192,230153,1,0,0:0:0:0:
384,128,230289,1,8,0:0:0:0:
384,128,230358,1,8,0:0:0:0:
384,128,230426,1,0,0:0:0:0:
416,128,230562,1,8,0:0:0:0:
416,192,230698,1,0,0:0:0:0:
416,128,230835,1,8,0:0:0:0:
416,128,230903,1,8,0:0:0:0:
416,128,230971,1,0,0:0:0:0:
416,128,231108,1,0,0:0:0:0:
352,160,231176,1,0,0:0:0:0:
416,192,231244,1,8,0:0:0:0:
352,128,231380,1,8,0:0:0:0:
352,128,231517,1,0,0:0:0:0:
384,128,231653,1,0,0:0:0:0:
279,147,231721,1,0,0:0:0:0:
352,128,231789,1,8,0:0:0:0:
384,128,231926,1,0,0:0:0:0:
384,128,232062,1,8,0:0:0:0:
384,128,232130,1,8,0:0:0:0:
384,128,232198,1,0,0:0:0:0:
384,128,232267,1,0,0:0:0:0:
416,192,232335,1,8,0:0:0:0:
384,128,232471,1,0,0:0:0:0:
384,128,232539,1,0,0:0:0:0:
384,128,232608,1,8,0:0:0:0:
384,128,232744,1,0,0:0:0:0:
284,129,232812,1,0,0:0:0:0:
416,192,232880,1,8,0:0:0:0:
384,128,232948,1,0,0:0:0:0:
384,128,233017,1,8,0:0:0:0:
384,128,233085,1,8,0:0:0:0:
384,128,233153,1,0,0:0:0:0:
257,149,233221,1,0,0:0:0:0:
384,64,233289,1,8,0:0:0:0:
416,224,233426,1,8,0:0:0:0:
384,128,233562,1,0,0:0:0:0:
352,128,233630,1,0,0:0:0:0:
352,96,233698,1,8,0:0:0:0:
352,128,233835,1,0,0:0:0:0:
416,160,233971,1,8,0:0:0:0:
352,160,234108,1,0,0:0:0:0:
352,128,234176,1,8,0:0:0:0:
352,160,234244,1,8,0:0:0:0:
352,128,234380,1,0,0:0:0:0:
352,128,234448,1,0,0:0:0:0:
352,128,234517,1,8,0:0:0:0:
290,131,234653,1,8,0:0:0:0:
290,143,234721,1,8,0:0:0:0:
279,142,234789,1,0,0:0:0:0:
332,154,234926,1,0,0:0:0:0:
416,160,235062,1,8,0:0:0:0:
330,121,235198,1,0,0:0:0:0:
332,120,235267,1,0,0:0:0:0:
340,116,235335,1,8,0:0:0:0:
336,117,235403,1,8,0:0:0:0:
346,115,235471,1,0,0:0:0:0:
416,160,235608,1,8,0:0:0:0:
346,106,235744,1,8,0:0:0:0:
339,107,235812,1,8,0:0:0:0:
355,104,235880,1,0,0:0:0:0:
353,105,236017,1,0,0:0:0:0:
416,160,236153,1,8,0:0:0:0:
353,105,236289,1,0,0:0:0:0:
361,98,236358,1,0,0:0:0:0:
355,103,236426,1,8,0:0:0:0:
359,99,236562,1,0,0:0:0:0:
359,95,236630,1,0,0:0:0:0:
416,160,236698,1,8,0:0:0:0:
356,91,236767,1,8,0:0:0:0:
354,91,236835,1,0,0:0:0:0:
350,89,236971,1,8,0:0:0:0:
350,90,237108,1,0,0:0:0:0:
353,92,237176,1,8,0:0:0:0:
350,89,237244,1,0,0:0:0:0:
354,86,237380,1,8,0:0:0:0:
345,86,237448,1,0,0:0:0:0:
356,91,237517,1,8,0:0:0:0:
354,91,237585,1,8,0:0:0:0:
355,85,237653,1,0,0:0:0:0:
355,87,237721,1,0,0:0:0:0:
416,160,237789,1,8,0:0:0:0:
345,77,237926,1,8,0:0:0:0:
345,77,238062,1,0,0:0:0:0:
345,75,238198,1,0,0:0:0:0:
348,74,238267,1,0,0:0:0:0:
416,160,238335,1,8,0:0:0:0:
364,142,238471,1,0,0:0:0:0:
373,129,238539,1,8,0:0:0:0:
366,134,238608,1,0,0:0:0:0:
380,120,238676,1,0,0:0:0:0:
379,118,238744,1,8,0:0:0:0:
448,160,238880,5,8,0:0:0:0:
388,118,239017,1,0,0:0:0:0:
386,117,239085,1,0,0:0:0:0:
389,117,239153,1,8,0:0:0:0:
388,117,239289,1,8,0:0:0:0:
389,110,239358,1,8,0:0:0:0:
389,117,239426,1,0,0:0:0:0:
380,111,239562,1,0,0:0:0:0:
381,110,239630,1,0,0:0:0:0:
383,106,239698,1,8,0:0:0:0:
383,104,239767,1,0,0:0:0:0:
380,104,239835,1,8,0:0:0:0:
448,160,239971,1,8,0:0:0:0:
368,98,240039,1,0,0:0:0:0:
374,98,240108,1,8,0:0:0:0:
374,99,240176,1,8,0:0:0:0:
373,98,240244,1,0,0:0:0:0:
368,98,240380,1,0,0:0:0:0:
448,160,240517,1,8,0:0:0:0:
352,99,240653,1,0,0:0:0:0:
354,97,240721,1,0,0:0:0:0:
368,98,240789,1,8,0:0:0:0:
374,98,240926,1,0,0:0:0:0:
448,160,241062,1,8,0:0:0:0:
352,99,241198,1,8,0:0:0:0:
355,93,241267,1,8,0:0:0:0:
356,91,241335,1,0,0:0:0:0:
360,90,241471,1,0,0:0:0:0:
448,160,241608,1,8,0:0:0:0:
361,90,241744,1,8,0:0:0:0:
362,89,241880,1,0,0:0:0:0:
384,118,242017,1,8,0:0:0:0:
388,124,242153,1,8,0:0:0:0:
384,118,242289,1,0,0:0:0:0:
448,160,242426,1,4,0:0:0:0:
416,128,242698,1,0,0:0:0:0:
416,128,242971,1,8,0:0:0:0:
384,160,243244,1,0,0:0:0:0:
416,160,243380,1,8,0:0:0:0:
416,160,243517,1,0,0:0:0:0:
416,160,243789,1,8,0:0:0:0:
384,160,243926,1,0,0:0:0:0:
384,160,244198,1,0,0:0:0:0:
384,160,244335,1,8,0:0:0:0:
384,160,244608,1,4,0:0:0:0:
384,160,244880,1,0,0:0:0:0:
384,160,245153,1,8,0:0:0:0:
416,160,245426,1,0,0:0:0:0:
384,128,245562,1,0,0:0:0:0:
384,128,245698,1,8,0:0:0:0:
416,192,245971,1,0,0:0:0:0:
416,192,246108,1,8,0:0:0:0:
416,192,246380,1,8,0:0:0:0:
416,192,246517,1,0,0:0:0:0:
416,192,246789,1,4,0:0:0:0:
416,160,247062,1,8,0:0:0:0:
416,160,247335,1,0,0:0:0:0:
416,160,247608,1,8,0:0:0:0:
416,160,247744,1,8,0:0:0:0:
416,160,247880,1,0,0:0:0:0:
416,160,248153,1,8,0:0:0:0:
416,160,248289,1,0,0:0:0:0:
416,160,248562,1,8,0:0:0:0:
416,160,248698,1,0,0:0:0:0:
416,160,248971,1,4,0:0:0:0:
416,160,249244,1,8,0:0:0:0:
416,160,249380,1,8,0:0:0:0:
416,160,249517,1,0,0:0:0:0:
416,160,249653,1,0,0:0:0:0:
416,160,249789,1,8,0:0:0:0:
448,160,249926,1,0,0:0:0:0:
448,160,250062,1,8,0:0:0:0:
448,160,250198,1,8,0:0:0:0:
416,160,250335,1,0,0:0:0:0:
416,160,250471,1,8,0:0:0:0:
416,160,250608,1,0,0:0:0:0:
416,160,250744,1,8,0:0:0:0:
416,160,250880,1,0,0:0:0:0:
416,160,251153,1,0,0:0:0:0:
416,160,251426,1,0,0:0:0:0:
416,160,251698,1,0,0:0:0:0:
416,160,251971,1,0,0:0:0:0:
416,160,252244,1,0,0:0:0:0:
384,160,252517,1,0,0:0:0:0:
416,160,252653,1,0,0:0:0:0:
416,160,252926,1,0,0:0:0:0:
416,160,253062,1,0,0:0:0:0:
352,160,253335,5,0,0:0:0:0:
416,192,253608,1,0,0:0:0:0:
416,160,253880,1,0,0:0:0:0:
416,160,254153,1,0,0:0:0:0:
416,160,254426,1,0,0:0:0:0:
416,160,254698,1,0,0:0:0:0:
416,160,254835,1,0,0:0:0:0:
416,160,255108,1,0,0:0:0:0:
416,160,255244,1,0,0:0:0:0:
416,160,255517,1,0,0:0:0:0:
416,160,255789,1,0,0:0:0:0:
416,160,256062,1,0,0:0:0:0:
416,160,256335,1,0,0:0:0:0:
416,160,256608,1,0,0:0:0:0:
416,160,256880,1,0,0:0:0:0:
416,160,257017,1,0,0:0:0:0:
416,160,257289,1,0,0:0:0:0:
416,160,257426,1,0,0:0:0:0:
416,160,257698,1,0,0:0:0:0:
416,160,257971,1,0,0:0:0:0:
416,160,258244,1,0,0:0:0:0:
416,160,258517,1,0,0:0:0:0:
416,160,258789,1,0,0:0:0:0:
416,160,259062,1,0,0:0:0:0:
416,160,259198,1,0,0:0:0:0:
416,160,259471,1,0,0:0:0:0:
416,160,259608,1,0,0:0:0:0:
448,128,259698,1,0,0:0:0:0:
448,128,259789,1,0,0:0:0:0:
448,128,259880,1,0,0:0:0:0:
448,128,259971,1,0,0:0:0:0:
448,128,260062,1,0,0:0:0:0:
448,128,260153,1,0,0:0:0:0:
448,128,260244,1,0,0:0:0:0:
448,128,260335,1,0,0:0:0:0:
448,128,260426,1,0,0:0:0:0:
448,160,260517,1,0,0:0:0:0:
448,160,260608,1,0,0:0:0:0:
448,160,260698,1,0,0:0:0:0:
448,160,260789,1,0,0:0:0:0:
448,160,260880,1,0,0:0:0:0:
448,160,260971,1,0,0:0:0:0:
416,128,261062,1,0,0:0:0:0:
448,128,261153,1,0,0:0:0:0:
416,128,261244,1,0,0:0:0:0:
416,128,261335,1,0,0:0:0:0:
448,128,261426,1,0,0:0:0:0:
416,128,261517,1,0,0:0:0:0:
416,128,261608,1,0,0:0:0:0:
448,128,261698,1,0,0:0:0:0:
416,128,261789,1,0,0:0:0:0:
448,160,261880,1,0,0:0:0:0:
448,128,261971,1,0,0:0:0:0:
448,128,262062,1,0,0:0:0:0:
448,128,262153,1,0,0:0:0:0:
448,128,262244,1,0,0:0:0:0:
448,128,262335,1,0,0:0:0:0:
448,128,262426,1,0,0:0:0:0:
448,128,262517,1,0,0:0:0:0:
