osu file format v14

[General]
AudioFilename: audio.mp3
AudioLeadIn: 0
PreviewTime: 17114
Countdown: 0
SampleSet: None
StackLeniency: 0.7
Mode: 3
LetterboxInBreaks: 0
SpecialStyle: 0
WidescreenStoryboard: 0

[Editor]
Bookmarks: 7624,55410
DistanceSpacing: 0.8
BeatDivisor: 8
GridSize: 16
TimelineZoom: 1.6

[Metadata]
Title:Some Bird
TitleUnicode:Some Bird
Artist:weyheyhey !!
ArtistUnicode:weyheyhey !!
Creator:XeoStyle
Version:Cuicui
Source:
Tags:breakcore toomuchnotenough
BeatmapID:1417500
BeatmapSetID:670193

[Difficulty]
HPDrainRate:9
CircleSize:4
OverallDifficulty:10
ApproachRate:5
SliderMultiplier:1.4
SliderTickRate:1

[Events]
//Background and Video events
0,0,"bird.jpg",0,0
//Break Periods
//Storyboard Layer 0 (Background)
//Storyboard Layer 1 (Fail)
//Storyboard Layer 2 (Pass)
//Storyboard Layer 3 (Foreground)
//Storyboard Sound Samples

[TimingPoints]
7624,400,15,3,0,20,1,0

[HitObjects]
64,192,17224,5,0,0:0:0:0:
448,192,17224,1,0,0:0:0:0:
448,192,17424,1,0,0:0:0:0:
64,192,17624,1,0,0:0:0:0:
320,192,17624,1,0,0:0:0:0:
192,192,17824,1,0,0:0:0:0:
448,192,17924,1,0,0:0:0:0:
192,192,18024,1,0,0:0:0:0:
320,192,18124,1,0,0:0:0:0:
320,192,18224,1,0,0:0:0:0:
64,192,18224,1,0,0:0:0:0:
448,192,18424,1,0,0:0:0:0:
64,192,18524,1,0,0:0:0:0:
64,192,18624,1,0,0:0:0:0:
448,192,18624,1,0,0:0:0:0:
64,192,18824,1,0,0:0:0:0:
192,192,18824,1,0,0:0:0:0:
448,192,19024,1,0,0:0:0:0:
64,192,19124,1,0,0:0:0:0:
448,192,19224,1,0,0:0:0:0:
192,192,19324,1,0,0:0:0:0:
320,192,19424,1,0,0:0:0:0:
192,192,19424,1,0,0:0:0:0:
64,192,19624,1,0,0:0:0:0:
320,192,19724,1,0,0:0:0:0:
64,192,19824,1,0,0:0:0:0:
320,192,19824,1,0,0:0:0:0:
448,192,20024,1,0,0:0:0:0:
64,192,20024,1,0,0:0:0:0:
192,192,20074,1,0,0:0:0:0:
320,192,20124,1,0,0:0:0:0:
448,192,20174,1,0,0:0:0:0:
64,192,20224,1,0,0:0:0:0:
192,192,20274,1,0,0:0:0:0:
448,192,20324,1,0,0:0:0:0:
320,192,20374,1,0,0:0:0:0:
64,192,20424,1,0,0:0:0:0:
192,192,20424,1,0,0:0:0:0:
192,192,20624,1,0,0:0:0:0:
64,192,20624,1,0,0:0:0:0:
192,192,20824,1,0,0:0:0:0:
448,192,20824,1,0,0:0:0:0:
64,192,21024,1,0,0:0:0:0:
320,192,21124,1,0,0:0:0:0:
64,192,21224,1,0,0:0:0:0:
448,192,21324,1,0,0:0:0:0:
448,192,21424,1,0,0:0:0:0:
192,192,21424,1,0,0:0:0:0:
192,192,21624,1,0,0:0:0:0:
320,192,21724,1,0,0:0:0:0:
320,192,21824,1,0,0:0:0:0:
64,192,21824,1,0,0:0:0:0:
320,192,22024,1,0,0:0:0:0:
192,192,22024,1,0,0:0:0:0:
64,192,22224,1,0,0:0:0:0:
448,192,22324,1,0,0:0:0:0:
64,192,22424,1,0,0:0:0:0:
320,192,22524,1,0,0:0:0:0:
320,192,22624,1,0,0:0:0:0:
192,192,22624,1,0,0:0:0:0:
448,192,22824,1,0,0:0:0:0:
192,192,22924,1,0,0:0:0:0:
448,192,23024,1,0,0:0:0:0:
192,192,23024,1,0,0:0:0:0:
64,192,23224,1,0,0:0:0:0:
448,192,23224,1,0,0:0:0:0:
320,192,23274,1,0,0:0:0:0:
192,192,23324,1,0,0:0:0:0:
64,192,23374,1,0,0:0:0:0:
448,192,23424,1,0,0:0:0:0:
320,192,23474,1,0,0:0:0:0:
64,192,23524,1,0,0:0:0:0:
192,192,23574,1,0,0:0:0:0:
448,192,23624,1,0,0:0:0:0:
320,192,23624,1,0,0:0:0:0:
64,192,23724,1,0,0:0:0:0:
192,192,23824,1,0,0:0:0:0:
320,192,23924,1,0,0:0:0:0:
64,192,23924,1,0,0:0:0:0:
448,192,24024,128,0,24124:0:0:0:0:
192,192,24024,128,0,24124:0:0:0:0:
448,192,24224,128,0,24324:0:0:0:0:
192,192,24224,128,0,24324:0:0:0:0:
192,192,24424,1,0,0:0:0:0:
64,192,24424,1,0,0:0:0:0:
320,192,24524,1,0,0:0:0:0:
64,192,24624,1,0,0:0:0:0:
320,192,24724,1,0,0:0:0:0:
64,192,24824,1,0,0:0:0:0:
320,192,24924,1,0,0:0:0:0:
64,192,25024,1,0,0:0:0:0:
320,192,25124,1,0,0:0:0:0:
64,192,25224,1,0,0:0:0:0:
320,192,25324,1,0,0:0:0:0:
64,192,25424,1,0,0:0:0:0:
320,192,25524,1,0,0:0:0:0:
64,192,25624,1,0,0:0:0:0:
192,192,25674,1,0,0:0:0:0:
448,192,25724,1,0,0:0:0:0:
320,192,25774,1,0,0:0:0:0:
64,192,25824,1,0,0:0:0:0:
192,192,25824,1,0,0:0:0:0:
320,192,25924,1,0,0:0:0:0:
448,192,26024,128,0,26424:0:0:0:0:
192,192,26424,1,0,0:0:0:0:
64,192,26474,1,0,0:0:0:0:
448,192,26524,1,0,0:0:0:0:
320,192,26574,1,0,0:0:0:0:
192,192,26624,1,0,0:0:0:0:
64,192,26674,1,0,0:0:0:0:
448,192,26724,1,0,0:0:0:0:
320,192,26774,1,0,0:0:0:0:
64,192,26824,1,0,0:0:0:0:
192,192,26824,1,0,0:0:0:0:
192,192,27024,1,0,0:0:0:0:
320,192,27224,1,0,0:0:0:0:
448,192,27224,1,0,0:0:0:0:
192,192,27424,1,0,0:0:0:0:
192,192,27524,1,0,0:0:0:0:
448,192,27524,1,0,0:0:0:0:
448,192,27724,1,0,0:0:0:0:
448,192,27824,1,0,0:0:0:0:
192,192,27824,1,0,0:0:0:0:
320,192,28024,1,0,0:0:0:0:
64,192,28024,1,0,0:0:0:0:
192,192,28074,1,0,0:0:0:0:
448,192,28124,1,0,0:0:0:0:
320,192,28174,1,0,0:0:0:0:
192,192,28224,1,0,0:0:0:0:
64,192,28224,1,0,0:0:0:0:
192,192,28424,1,0,0:0:0:0:
320,192,28424,1,0,0:0:0:0:
448,192,28624,1,0,0:0:0:0:
64,192,28724,1,0,0:0:0:0:
448,192,28824,1,0,0:0:0:0:
64,192,28824,1,0,0:0:0:0:
192,192,28874,1,0,0:0:0:0:
320,192,28924,1,0,0:0:0:0:
448,192,28974,1,0,0:0:0:0:
64,192,29024,1,0,0:0:0:0:
320,192,29224,1,0,0:0:0:0:
192,192,29324,1,0,0:0:0:0:
320,192,29424,1,0,0:0:0:0:
192,192,29424,1,0,0:0:0:0:
320,192,29624,1,0,0:0:0:0:
320,192,29724,1,0,0:0:0:0:
192,192,29824,1,0,0:0:0:0:
320,192,29924,1,0,0:0:0:0:
64,192,30024,1,0,0:0:0:0:
192,192,30024,1,0,0:0:0:0:
448,192,30224,1,0,0:0:0:0:
64,192,30224,1,0,0:0:0:0:
320,192,30274,1,0,0:0:0:0:
192,192,30324,1,0,0:0:0:0:
64,192,30374,1,0,0:0:0:0:
320,192,30424,1,0,0:0:0:0:
448,192,30624,1,0,0:0:0:0:
192,192,30724,1,0,0:0:0:0:
448,192,30824,1,0,0:0:0:0:
320,192,30874,1,0,0:0:0:0:
64,192,30924,1,0,0:0:0:0:
192,192,30974,1,0,0:0:0:0:
448,192,31024,1,0,0:0:0:0:
320,192,31024,1,0,0:0:0:0:
64,192,31224,1,0,0:0:0:0:
192,192,31274,1,0,0:0:0:0:
448,192,31324,1,0,0:0:0:0:
320,192,31374,1,0,0:0:0:0:
64,192,31424,1,0,0:0:0:0:
192,192,31424,1,0,0:0:0:0:
192,192,31624,1,0,0:0:0:0:
64,192,31624,1,0,0:0:0:0:
320,192,31824,1,0,0:0:0:0:
448,192,31824,1,0,0:0:0:0:
320,192,31924,1,0,0:0:0:0:
64,192,31924,1,0,0:0:0:0:
320,192,32124,1,0,0:0:0:0:
64,192,32224,1,0,0:0:0:0:
320,192,32224,1,0,0:0:0:0:
192,192,32424,1,0,0:0:0:0:
320,192,32524,1,0,0:0:0:0:
64,192,32624,1,0,0:0:0:0:
320,192,32624,1,0,0:0:0:0:
192,192,32724,1,0,0:0:0:0:
448,192,32824,1,0,0:0:0:0:
64,192,32924,1,0,0:0:0:0:
320,192,32924,1,0,0:0:0:0:
64,192,33024,1,0,0:0:0:0:
192,192,33024,1,0,0:0:0:0:
448,192,33224,1,0,0:0:0:0:
320,192,33224,1,0,0:0:0:0:
64,192,33424,1,0,0:0:0:0:
320,192,33524,1,0,0:0:0:0:
320,192,33624,1,0,0:0:0:0:
64,192,33624,1,0,0:0:0:0:
192,192,33724,1,0,0:0:0:0:
448,192,33824,1,0,0:0:0:0:
448,192,33924,1,0,0:0:0:0:
192,192,33924,1,0,0:0:0:0:
320,192,34024,1,0,0:0:0:0:
64,192,34124,1,0,0:0:0:0:
64,192,34224,1,0,0:0:0:0:
320,192,34224,1,0,0:0:0:0:
448,192,34324,1,0,0:0:0:0:
192,192,34424,1,0,0:0:0:0:
448,192,34524,1,0,0:0:0:0:
192,192,34524,1,0,0:0:0:0:
320,192,34624,1,0,0:0:0:0:
192,192,34724,1,0,0:0:0:0:
448,192,34824,1,0,0:0:0:0:
320,192,34874,1,0,0:0:0:0:
192,192,34924,1,0,0:0:0:0:
64,192,34974,1,0,0:0:0:0:
320,192,35024,1,0,0:0:0:0:
448,192,35074,1,0,0:0:0:0:
64,192,35124,1,0,0:0:0:0:
192,192,35174,1,0,0:0:0:0:
448,192,35224,1,0,0:0:0:0:
320,192,35274,1,0,0:0:0:0:
64,192,35324,1,0,0:0:0:0:
192,192,35374,1,0,0:0:0:0:
448,192,35424,1,0,0:0:0:0:
320,192,35474,1,0,0:0:0:0:
192,192,35524,1,0,0:0:0:0:
64,192,35574,1,0,0:0:0:0:
448,192,35624,1,0,0:0:0:0:
192,192,35724,1,0,0:0:0:0:
448,192,35824,1,0,0:0:0:0:
192,192,35924,1,0,0:0:0:0:
320,192,36024,1,0,0:0:0:0:
192,192,36024,1,0,0:0:0:0:
320,192,36224,1,0,0:0:0:0:
448,192,36224,1,0,0:0:0:0:
192,192,36424,1,0,0:0:0:0:
64,192,36424,1,0,0:0:0:0:
320,192,36524,1,0,0:0:0:0:
192,192,36624,1,0,0:0:0:0:
64,192,36624,1,0,0:0:0:0:
320,192,36824,1,0,0:0:0:0:
448,192,36824,1,0,0:0:0:0:
192,192,37024,1,0,0:0:0:0:
192,192,37124,1,0,0:0:0:0:
448,192,37124,1,0,0:0:0:0:
64,192,37224,1,0,0:0:0:0:
448,192,37324,1,0,0:0:0:0:
448,192,37424,1,0,0:0:0:0:
64,192,37424,1,0,0:0:0:0:
192,192,37474,1,0,0:0:0:0:
320,192,37524,1,0,0:0:0:0:
448,192,37574,1,0,0:0:0:0:
64,192,37624,1,0,0:0:0:0:
192,192,37724,1,0,0:0:0:0:
320,192,37824,1,0,0:0:0:0:
64,192,37824,1,0,0:0:0:0:
192,192,38024,1,0,0:0:0:0:
448,192,38024,1,0,0:0:0:0:
320,192,38124,1,0,0:0:0:0:
320,192,38324,1,0,0:0:0:0:
320,192,38424,1,0,0:0:0:0:
64,192,38424,1,0,0:0:0:0:
448,192,38624,1,0,0:0:0:0:
320,192,38624,1,0,0:0:0:0:
64,192,38824,1,0,0:0:0:0:
320,192,38924,1,0,0:0:0:0:
64,192,39024,1,0,0:0:0:0:
448,192,39124,1,0,0:0:0:0:
448,192,39224,1,0,0:0:0:0:
320,192,39274,1,0,0:0:0:0:
64,192,39324,1,0,0:0:0:0:
192,192,39374,1,0,0:0:0:0:
320,192,39424,1,0,0:0:0:0:
448,192,39424,1,0,0:0:0:0:
64,192,39474,1,0,0:0:0:0:
192,192,39524,1,0,0:0:0:0:
320,192,39574,1,0,0:0:0:0:
448,192,39624,1,0,0:0:0:0:
64,192,39624,1,0,0:0:0:0:
320,192,39824,1,0,0:0:0:0:
64,192,39924,1,0,0:0:0:0:
64,192,40024,1,0,0:0:0:0:
320,192,40024,1,0,0:0:0:0:
192,192,40124,1,0,0:0:0:0:
320,192,40224,1,0,0:0:0:0:
448,192,40224,1,0,0:0:0:0:
192,192,40424,1,0,0:0:0:0:
192,192,40524,1,0,0:0:0:0:
64,192,40524,1,0,0:0:0:0:
192,192,40724,1,0,0:0:0:0:
448,192,40724,1,0,0:0:0:0:
448,192,40824,1,0,0:0:0:0:
320,192,40824,1,0,0:0:0:0:
64,192,41024,1,0,0:0:0:0:
320,192,41124,1,0,0:0:0:0:
64,192,41224,1,0,0:0:0:0:
320,192,41224,1,0,0:0:0:0:
64,192,41424,1,0,0:0:0:0:
448,192,41424,1,0,0:0:0:0:
320,192,41474,1,0,0:0:0:0:
192,192,41524,1,0,0:0:0:0:
64,192,41574,1,0,0:0:0:0:
448,192,41624,1,0,0:0:0:0:
192,192,41724,1,0,0:0:0:0:
192,192,41824,1,0,0:0:0:0:
448,192,41824,1,0,0:0:0:0:
64,192,41924,1,0,0:0:0:0:
192,192,41974,1,0,0:0:0:0:
320,192,42024,1,0,0:0:0:0:
64,192,42124,1,0,0:0:0:0:
64,192,42224,1,0,0:0:0:0:
448,192,42224,1,0,0:0:0:0:
448,192,42424,1,0,0:0:0:0:
320,192,42474,1,0,0:0:0:0:
64,192,42524,1,0,0:0:0:0:
192,192,42574,1,0,0:0:0:0:
320,192,42624,128,0,42724:0:0:0:0:
64,192,42824,1,0,0:0:0:0:
192,192,42824,1,0,0:0:0:0:
320,192,42924,1,0,0:0:0:0:
192,192,43024,1,0,0:0:0:0:
448,192,43124,1,0,0:0:0:0:
192,192,43224,128,0,43324:0:0:0:0:
448,192,43224,128,0,43324:0:0:0:0:
192,192,43424,128,0,43524:0:0:0:0:
448,192,43424,128,0,43524:0:0:0:0:
320,192,43624,1,0,0:0:0:0:
64,192,43624,1,0,0:0:0:0:
192,192,43724,1,0,0:0:0:0:
448,192,43824,1,0,0:0:0:0:
192,192,43924,1,0,0:0:0:0:
448,192,44024,1,0,0:0:0:0:
192,192,44124,1,0,0:0:0:0:
320,192,44224,1,0,0:0:0:0:
64,192,44224,1,0,0:0:0:0:
320,192,44324,1,0,0:0:0:0:
64,192,44324,1,0,0:0:0:0:
64,192,44524,1,0,0:0:0:0:
320,192,44524,1,0,0:0:0:0:
320,192,44624,1,0,0:0:0:0:
64,192,44624,1,0,0:0:0:0:
192,192,44724,1,0,0:0:0:0:
448,192,44824,1,0,0:0:0:0:
320,192,44874,1,0,0:0:0:0:
64,192,44924,1,0,0:0:0:0:
192,192,44974,1,0,0:0:0:0:
448,192,45024,1,0,0:0:0:0:
320,192,45074,1,0,0:0:0:0:
192,192,45124,1,0,0:0:0:0:
64,192,45174,1,0,0:0:0:0:
448,192,45224,1,0,0:0:0:0:
320,192,45274,1,0,0:0:0:0:
64,192,45324,1,0,0:0:0:0:
192,192,45374,1,0,0:0:0:0:
320,192,45424,1,0,0:0:0:0:
448,192,45474,1,0,0:0:0:0:
192,192,45524,1,0,0:0:0:0:
320,192,45574,1,0,0:0:0:0:
64,192,45624,128,0,45724:0:0:0:0:
192,192,45824,1,0,0:0:0:0:
448,192,45824,1,0,0:0:0:0:
192,192,46024,1,0,0:0:0:0:
320,192,46024,128,0,46124:0:0:0:0:
64,192,46224,1,0,0:0:0:0:
448,192,46324,1,0,0:0:0:0:
64,192,46424,1,0,0:0:0:0:
448,192,46424,1,0,0:0:0:0:
192,192,46474,1,0,0:0:0:0:
320,192,46524,1,0,0:0:0:0:
448,192,46574,1,0,0:0:0:0:
64,192,46624,1,0,0:0:0:0:
320,192,46724,1,0,0:0:0:0:
64,192,46724,1,0,0:0:0:0:
192,192,46824,1,0,0:0:0:0:
448,192,46924,1,0,0:0:0:0:
448,192,47024,1,0,0:0:0:0:
64,192,47024,1,0,0:0:0:0:
320,192,47074,1,0,0:0:0:0:
192,192,47124,1,0,0:0:0:0:
320,192,47224,1,0,0:0:0:0:
448,192,47424,1,0,0:0:0:0:
192,192,47424,1,0,0:0:0:0:
192,192,47624,1,0,0:0:0:0:
448,192,47624,1,0,0:0:0:0:
64,192,47824,1,0,0:0:0:0:
192,192,47824,1,0,0:0:0:0:
448,192,48024,1,0,0:0:0:0:
64,192,48124,1,0,0:0:0:0:
448,192,48224,1,0,0:0:0:0:
192,192,48324,1,0,0:0:0:0:
192,192,48424,1,0,0:0:0:0:
320,192,48424,1,0,0:0:0:0:
320,192,48624,1,0,0:0:0:0:
448,192,48624,1,0,0:0:0:0:
192,192,48724,1,0,0:0:0:0:
320,192,48824,1,0,0:0:0:0:
64,192,48924,1,0,0:0:0:0:
64,192,49024,1,0,0:0:0:0:
448,192,49024,1,0,0:0:0:0:
192,192,49124,1,0,0:0:0:0:
448,192,49224,1,0,0:0:0:0:
320,192,49324,1,0,0:0:0:0:
320,192,49424,1,0,0:0:0:0:
64,192,49424,1,0,0:0:0:0:
448,192,49624,1,0,0:0:0:0:
192,192,49724,1,0,0:0:0:0:
448,192,49824,1,0,0:0:0:0:
192,192,49824,1,0,0:0:0:0:
448,192,50024,1,0,0:0:0:0:
448,192,50124,1,0,0:0:0:0:
64,192,50124,1,0,0:0:0:0:
192,192,50174,1,0,0:0:0:0:
320,192,50224,1,0,0:0:0:0:
448,192,50274,1,0,0:0:0:0:
64,192,50324,1,0,0:0:0:0:
448,192,50424,1,0,0:0:0:0:
64,192,50424,1,0,0:0:0:0:
320,192,50474,1,0,0:0:0:0:
192,192,50524,1,0,0:0:0:0:
64,192,50574,1,0,0:0:0:0:
448,192,50624,1,0,0:0:0:0:
320,192,50624,1,0,0:0:0:0:
320,192,50824,1,0,0:0:0:0:
448,192,50824,1,0,0:0:0:0:
192,192,51024,1,0,0:0:0:0:
448,192,51024,1,0,0:0:0:0:
320,192,51224,1,0,0:0:0:0:
64,192,51324,1,0,0:0:0:0:
320,192,51424,1,0,0:0:0:0:
64,192,51524,1,0,0:0:0:0:
320,192,51624,1,0,0:0:0:0:
192,192,51724,1,0,0:0:0:0:
192,192,51824,1,0,0:0:0:0:
448,192,51824,1,0,0:0:0:0:
192,192,52024,1,0,0:0:0:0:
448,192,52024,1,0,0:0:0:0:
192,192,52224,1,0,0:0:0:0:
64,192,52224,1,0,0:0:0:0:
192,192,52424,1,0,0:0:0:0:
64,192,52424,1,0,0:0:0:0:
448,192,52524,1,0,0:0:0:0:
64,192,52624,1,0,0:0:0:0:
320,192,52724,1,0,0:0:0:0:
320,192,52824,128,0,52924:0:0:0:0:
64,192,52824,128,0,52924:0:0:0:0:
320,192,53024,128,0,53124:0:0:0:0:
64,192,53024,128,0,53124:0:0:0:0:
192,192,53224,1,0,0:0:0:0:
448,192,53224,1,0,0:0:0:0:
320,192,53324,1,0,0:0:0:0:
64,192,53424,1,0,0:0:0:0:
320,192,53524,1,0,0:0:0:0:
64,192,53624,1,0,0:0:0:0:
320,192,53724,1,0,0:0:0:0:
448,192,53824,1,0,0:0:0:0:
64,192,53824,1,0,0:0:0:0:
448,192,53924,1,0,0:0:0:0:
64,192,53924,1,0,0:0:0:0:
192,192,53974,1,0,0:0:0:0:
320,192,54024,1,0,0:0:0:0:
448,192,54074,1,0,0:0:0:0:
64,192,54124,1,0,0:0:0:0:
448,192,54324,1,0,0:0:0:0:
64,192,54324,1,0,0:0:0:0:
192,192,54424,1,0,0:0:0:0:
192,192,54524,1,0,0:0:0:0:
320,192,54624,1,0,0:0:0:0:
320,192,54724,1,0,0:0:0:0:
64,192,54824,1,0,0:0:0:0:
192,192,54874,1,0,0:0:0:0:
448,192,54924,1,0,0:0:0:0:
320,192,54974,1,0,0:0:0:0:
192,192,55024,1,0,0:0:0:0:
64,192,55024,1,0,0:0:0:0:
192,192,55124,1,0,0:0:0:0:
320,192,55224,1,0,0:0:0:0:
320,192,55324,1,0,0:0:0:0:
64,192,55424,1,0,0:0:0:0:
192,192,55424,1,0,0:0:0:0:
448,192,55424,1,0,0:0:0:0:
192,192,55724,1,0,0:0:0:0:
448,192,55724,1,0,0:0:0:0:
64,192,55724,1,0,0:0:0:0:
192,192,56024,1,0,0:0:0:0:
64,192,56024,1,0,0:0:0:0:
192,192,56324,1,0,0:0:0:0:
64,192,56324,1,0,0:0:0:0:
192,192,56624,1,0,0:0:0:0:
