osu file format v14

[General]
AudioFilename: weyheyhey !! Little Batty Foo Foo.mp3
AudioLeadIn: 0
PreviewTime: 17013
Countdown: 0
SampleSet: Normal
StackLeniency: 0.7
Mode: 1
LetterboxInBreaks: 1
WidescreenStoryboard: 0

[Editor]
DistanceSpacing: 1
BeatDivisor: 4
GridSize: 4
TimelineZoom: 2.699999

[Metadata]
Title:Little Batty Foo
TitleUnicode:Little Batty Foo
Artist:weyheyhey!!
ArtistUnicode:weyheyhey!!
Creator:-Kriston-
Version:TaikoPls
Source:
Tags:Breakcore hardstyle 420
BeatmapID:615721
BeatmapSetID:270727

[Difficulty]
HPDrainRate:8
CircleSize:4
OverallDifficulty:6
ApproachRate:6
SliderMultiplier:1.4
SliderTickRate:2

[Events]
//Background and Video events
0,0,"420Yeah.jpg",0,0
//Break Periods
//Storyboard Layer 0 (Background)
//Storyboard Layer 1 (Fail)
//Storyboard Layer 2 (Pass)
//Storyboard Layer 3 (Foreground)
//Storyboard Sound Samples

[TimingPoints]
629.714285714286,545.454545454546,4,1,0,75,1,0
18100,272.727272727273,4,1,0,85,1,0
179554,-90.9090909090909,4,1,0,100,0,1
187190,-90.9090909090909,4,1,0,100,0,0
188281,-86.9565217391304,4,1,0,100,0,1
195918,-90.9090909090909,4,1,0,100,0,0
197145,-100,4,1,0,100,0,0

[HitObjects]
336,228,639,5,4,0:0:0:0:
284,152,902,1,0,0:0:0:0:
396,192,1038,1,0,0:0:0:0:
336,228,1175,1,8,0:0:0:0:
260,200,1311,1,0,0:0:0:0:
332,208,1447,1,8,0:0:0:0:
332,208,1584,1,0,0:0:0:0:
336,228,1720,1,8,0:0:0:0:
312,164,1856,1,8,0:0:0:0:
336,228,1993,1,0,0:0:0:0:
272,164,2129,1,0,0:0:0:0:
372,212,2266,1,8,0:0:0:0:
312,216,2402,1,8,0:0:0:0:
276,152,2538,1,8,0:0:0:0:
272,152,2675,1,8,0:0:0:0:
372,212,2811,1,0,0:0:0:0:
384,212,2947,1,0,0:0:0:0:
276,152,3084,1,0,0:0:0:0:
384,212,3220,1,0,0:0:0:0:
372,212,3356,1,8,0:0:0:0:
376,200,3493,1,8,0:0:0:0:
372,212,3629,1,0,0:0:0:0:
372,212,3766,1,8,0:0:0:0:
372,212,3902,1,0,0:0:0:0:
372,212,4038,1,8,0:0:0:0:
372,212,4175,1,0,0:0:0:0:
336,152,4311,1,0,0:0:0:0:
372,212,4447,1,8,0:0:0:0:
320,176,4584,1,8,0:0:0:0:
372,212,4720,1,0,0:0:0:0:
372,212,4856,1,8,0:0:0:0:
372,212,4993,1,0,0:0:0:0:
196,176,5129,1,0,0:0:0:0:
320,176,5266,1,0,0:0:0:0:
352,188,5402,1,0,0:0:0:0:
320,176,5538,1,8,0:0:0:0:
320,176,5811,1,8,0:0:0:0:
320,176,6084,1,8,0:0:0:0:
320,176,6220,1,8,0:0:0:0:
320,176,6356,1,0,0:0:0:0:
336,152,6493,1,0,0:0:0:0:
340,192,6629,1,8,0:0:0:0:
376,160,6766,1,0,0:0:0:0:
336,152,6902,1,8,0:0:0:0:
336,152,7038,1,8,0:0:0:0:
340,192,7175,1,0,0:0:0:0:
376,176,7311,1,8,0:0:0:0:
296,224,7447,1,0,0:0:0:0:
376,228,7584,1,0,0:0:0:0:
340,192,7720,1,8,0:0:0:0:
248,192,7856,1,8,0:0:0:0:
340,192,7993,1,0,0:0:0:0:
340,192,8129,1,0,0:0:0:0:
340,192,8266,1,8,0:0:0:0:
340,192,8402,1,0,0:0:0:0:
340,192,8538,1,8,0:0:0:0:
300,176,8675,1,0,0:0:0:0:
340,192,8811,1,8,0:0:0:0:
340,192,8947,1,8,0:0:0:0:
340,192,9084,1,0,0:0:0:0:
340,192,9220,1,8,0:0:0:0:
340,192,9356,1,0,0:0:0:0:
376,176,9493,1,0,0:0:0:0:
340,192,9629,1,0,0:0:0:0:
272,208,9766,1,0,0:0:0:0:
340,192,9902,1,8,0:0:0:0:
336,128,10038,1,8,0:0:0:0:
340,192,10175,1,0,0:0:0:0:
264,188,10311,1,8,0:0:0:0:
340,192,10447,1,0,0:0:0:0:
244,184,10584,1,8,0:0:0:0:
340,192,10720,1,0,0:0:0:0:
296,196,10856,1,0,0:0:0:0:
248,184,10993,1,8,0:0:0:0:
324,144,11129,1,8,0:0:0:0:
248,184,11266,1,8,0:0:0:0:
300,176,11402,1,8,0:0:0:0:
256,184,11538,1,0,0:0:0:0:
292,172,11675,1,0,0:0:0:0:
236,160,11811,1,0,0:0:0:0:
304,168,11947,1,0,0:0:0:0:
256,188,12084,1,8,0:0:0:0:
304,168,12220,1,8,0:0:0:0:
360,232,12356,1,0,0:0:0:0:
256,112,12493,1,8,0:0:0:0:
304,152,12629,1,0,0:0:0:0:
360,232,12766,1,8,0:0:0:0:
360,232,12902,1,0,0:0:0:0:
240,240,13038,1,8,0:0:0:0:
360,232,13175,1,8,0:0:0:0:
360,232,13311,1,8,0:0:0:0:
360,232,13447,1,0,0:0:0:0:
360,232,13584,1,8,0:0:0:0:
360,232,13720,1,0,0:0:0:0:
376,176,13856,1,0,0:0:0:0:
368,184,13993,1,0,0:0:0:0:
140,184,14129,1,0,0:0:0:0:
368,184,14266,1,8,0:0:0:0:
340,140,14402,1,0,0:0:0:0:
368,184,14538,1,0,0:0:0:0:
324,212,14675,1,8,0:0:0:0:
368,184,14811,1,0,0:0:0:0:
368,184,14947,1,8,0:0:0:0:
368,184,15084,1,0,0:0:0:0:
376,176,15220,1,8,0:0:0:0:
368,184,15356,1,8,0:0:0:0:
224,124,15493,1,8,0:0:0:0:
368,184,15629,1,0,0:0:0:0:
196,176,15766,1,8,0:0:0:0:
372,188,15902,1,0,0:0:0:0:
248,120,16175,1,0,0:0:0:0:
252,112,16311,1,0,0:0:0:0:
280,136,16447,1,8,0:0:0:0:
332,196,16584,1,8,0:0:0:0:
248,120,16720,1,0,0:0:0:0:
280,136,16993,1,4,0:0:0:0:
236,196,18104,1,4,0:0:0:0:
236,196,18236,1,8,0:0:0:0:
212,132,18304,1,8,0:0:0:0:
236,196,18372,1,8,0:0:0:0:
212,132,18509,1,0,0:0:0:0:
196,208,18645,1,0,0:0:0:0:
204,200,18713,1,0,0:0:0:0:
212,136,18781,1,8,0:0:0:0:
212,136,18918,1,8,0:0:0:0:
268,132,18986,1,8,0:0:0:0:
280,152,19054,1,8,0:0:0:0:
212,136,19190,1,0,0:0:0:0:
316,208,19259,1,0,0:0:0:0:
200,160,19327,1,0,0:0:0:0:
232,124,19395,1,0,0:0:0:0:
200,160,19463,1,8,0:0:0:0:
200,160,19531,1,0,0:0:0:0:
200,160,19600,1,8,0:0:0:0:
200,160,19736,1,0,0:0:0:0:
320,200,19804,1,0,0:0:0:0:
372,196,19872,1,0,0:0:0:0:
324,196,19940,1,0,0:0:0:0:
372,196,20009,1,8,0:0:0:0:
372,196,20077,1,8,0:0:0:0:
372,196,20145,1,8,0:0:0:0:
260,156,20213,1,8,0:0:0:0:
372,196,20281,1,0,0:0:0:0:
280,164,20350,1,0,0:0:0:0:
372,196,20418,1,0,0:0:0:0:
372,196,20486,1,0,0:0:0:0:
376,200,20554,1,8,0:0:0:0:
372,196,20690,1,0,0:0:0:0:
260,152,20759,1,0,0:0:0:0:
328,176,20827,1,0,0:0:0:0:
316,180,20895,1,0,0:0:0:0:
308,216,20963,1,8,0:0:0:0:
308,216,21100,1,0,0:0:0:0:
308,196,21168,1,0,0:0:0:0:
308,216,21236,1,8,0:0:0:0:
308,216,21372,1,0,0:0:0:0:
224,200,21440,1,0,0:0:0:0:
304,164,21509,1,0,0:0:0:0:
224,200,21577,1,0,0:0:0:0:
304,164,21645,1,8,0:0:0:0:
304,164,21713,1,0,0:0:0:0:
304,164,21781,1,8,0:0:0:0:
304,164,21850,1,0,0:0:0:0:
304,164,21918,1,8,0:0:0:0:
304,164,22054,1,0,0:0:0:0:
236,156,22122,1,0,0:0:0:0:
316,168,22190,1,8,0:0:0:0:
320,168,22259,1,8,0:0:0:0:
320,168,22327,1,8,0:0:0:0:
300,156,22395,1,8,0:0:0:0:
320,168,22463,1,0,0:0:0:0:
236,156,22531,1,0,0:0:0:0:
320,168,22600,1,0,0:0:0:0:
260,160,22668,1,0,0:0:0:0:
320,172,22736,1,8,0:0:0:0:
320,168,22872,1,0,0:0:0:0:
224,176,22940,1,0,0:0:0:0:
320,172,23009,1,0,0:0:0:0:
320,168,23077,1,0,0:0:0:0:
320,168,23145,1,8,0:0:0:0:
320,168,23281,1,0,0:0:0:0:
276,184,23350,1,0,0:0:0:0:
320,172,23418,1,8,0:0:0:0:
320,172,23486,1,0,0:0:0:0:
320,172,23554,1,8,0:0:0:0:
320,172,23622,1,8,0:0:0:0:
320,172,23690,1,0,0:0:0:0:
320,172,23759,1,0,0:0:0:0:
320,172,23827,1,8,0:0:0:0:
292,196,23963,1,8,0:0:0:0:
216,164,24100,1,0,0:0:0:0:
284,204,24168,1,0,0:0:0:0:
216,164,24236,1,8,0:0:0:0:
284,100,24372,1,0,0:0:0:0:
272,168,24440,1,0,0:0:0:0:
284,100,24509,1,8,0:0:0:0:
284,100,24645,1,0,0:0:0:0:
284,100,24713,1,0,0:0:0:0:
224,196,24781,1,0,0:0:0:0:
228,160,24850,1,0,0:0:0:0:
224,196,24918,1,8,0:0:0:0:
224,196,25054,1,0,0:0:0:0:
264,168,25122,1,0,0:0:0:0:
264,172,25190,1,0,0:0:0:0:
276,148,25259,1,0,0:0:0:0:
216,188,25327,1,8,0:0:0:0:
248,216,25463,1,0,0:0:0:0:
136,208,25531,1,0,0:0:0:0:
264,168,25600,1,8,0:0:0:0:
264,168,25736,1,0,0:0:0:0:
264,152,25804,1,0,0:0:0:0:
264,168,25872,1,8,0:0:0:0:
284,188,25940,1,0,0:0:0:0:
264,168,26009,1,8,0:0:0:0:
264,168,26077,1,0,0:0:0:0:
264,168,26145,1,8,0:0:0:0:
264,168,26213,1,0,0:0:0:0:
264,168,26281,1,8,0:0:0:0:
268,168,26350,1,8,0:0:0:0:
268,168,26418,1,0,0:0:0:0:
268,168,26486,1,8,0:0:0:0:
264,168,26554,1,8,0:0:0:0:
332,184,26622,1,0,0:0:0:0:
332,184,26690,1,8,0:0:0:0:
332,184,26759,1,8,0:0:0:0:
332,184,26827,1,0,0:0:0:0:
268,192,26895,1,0,0:0:0:0:
180,172,26963,1,0,0:0:0:0:
180,172,27031,1,0,0:0:0:0:
180,172,27100,1,8,0:0:0:0:
180,172,27236,1,0,0:0:0:0:
312,176,27304,1,0,0:0:0:0:
180,172,27372,1,0,0:0:0:0:
180,172,27440,1,0,0:0:0:0:
180,172,27509,1,8,0:0:0:0:
188,156,27645,1,0,0:0:0:0:
252,140,27713,1,0,0:0:0:0:
276,184,27781,1,8,0:0:0:0:
276,184,27918,1,0,0:0:0:0:
296,144,27986,1,0,0:0:0:0:
276,184,28054,1,0,0:0:0:0:
260,108,28122,1,0,0:0:0:0:
276,184,28190,1,8,0:0:0:0:
276,184,28259,1,0,0:0:0:0:
276,184,28327,1,8,0:0:0:0:
276,184,28463,1,0,0:0:0:0:
276,128,28531,1,0,0:0:0:0:
216,188,28600,1,0,0:0:0:0:
224,192,28668,1,0,0:0:0:0:
224,192,28736,1,8,0:0:0:0:
224,192,28804,1,8,0:0:0:0:
216,188,28872,1,8,0:0:0:0:
216,188,28940,1,8,0:0:0:0:
216,188,29009,1,0,0:0:0:0:
264,172,29077,1,0,0:0:0:0:
216,184,29145,1,0,0:0:0:0:
200,132,29213,1,0,0:0:0:0:
216,184,29281,1,8,0:0:0:0:
232,168,29418,1,0,0:0:0:0:
304,204,29486,1,0,0:0:0:0:
232,172,29554,1,0,0:0:0:0:
232,172,29622,1,0,0:0:0:0:
232,172,29690,1,8,0:0:0:0:
232,172,29827,1,0,0:0:0:0:
196,160,29895,1,0,0:0:0:0:
232,172,29963,1,8,0:0:0:0:
232,160,30100,1,0,0:0:0:0:
292,152,30168,1,0,0:0:0:0:
232,160,30236,1,0,0:0:0:0:
232,164,30304,1,0,0:0:0:0:
232,164,30372,1,8,0:0:0:0:
216,184,30440,1,0,0:0:0:0:
216,184,30509,1,8,0:0:0:0:
248,144,30577,1,0,0:0:0:0:
216,184,30645,1,8,0:0:0:0:
296,136,30713,1,0,0:0:0:0:
224,124,30781,1,0,0:0:0:0:
224,124,30850,1,0,0:0:0:0:
224,124,30918,1,8,0:0:0:0:
180,212,30986,1,0,0:0:0:0:
224,124,31054,1,8,0:0:0:0:
296,264,31122,1,8,0:0:0:0:
224,124,31190,1,0,0:0:0:0:
328,188,31259,1,0,0:0:0:0:
252,204,31327,1,0,0:0:0:0:
212,160,31395,1,0,0:0:0:0:
252,204,31463,1,8,0:0:0:0:
252,204,31600,1,0,0:0:0:0:
240,216,31668,1,0,0:0:0:0:
252,204,31736,1,0,0:0:0:0:
224,144,31804,1,0,0:0:0:0:
240,200,31872,1,8,0:0:0:0:
240,200,32009,1,0,0:0:0:0:
268,184,32077,1,0,0:0:0:0:
244,184,32145,1,8,0:0:0:0:
284,140,32213,1,0,0:0:0:0:
244,184,32281,1,8,0:0:0:0:
280,184,32350,1,8,0:0:0:0:
244,184,32418,1,0,0:0:0:0:
240,184,32486,1,0,0:0:0:0:
244,184,32554,1,8,0:0:0:0:
268,116,32622,1,0,0:0:0:0:
236,180,32690,1,8,0:0:0:0:
272,140,32759,1,0,0:0:0:0:
260,152,32827,1,0,0:0:0:0:
260,152,32895,1,0,0:0:0:0:
236,180,32963,1,8,0:0:0:0:
300,200,33031,1,0,0:0:0:0:
236,180,33100,1,8,0:0:0:0:
236,180,33168,1,8,0:0:0:0:
236,180,33236,1,8,0:0:0:0:
232,200,33304,1,8,0:0:0:0:
240,176,33372,1,0,0:0:0:0:
272,140,33440,1,0,0:0:0:0:
264,220,33509,1,0,0:0:0:0:
256,212,33577,1,0,0:0:0:0:
248,204,33645,1,8,0:0:0:0:
232,172,33781,1,0,0:0:0:0:
316,192,33850,1,0,0:0:0:0:
276,216,33918,1,0,0:0:0:0:
284,220,33986,1,0,0:0:0:0:
272,216,34054,1,8,0:0:0:0:
196,216,34190,1,0,0:0:0:0:
316,144,34259,1,0,0:0:0:0:
128,208,34327,1,8,0:0:0:0:
220,152,34463,1,0,0:0:0:0:
232,228,34531,1,0,0:0:0:0:
232,152,34600,1,0,0:0:0:0:
232,152,34668,1,0,0:0:0:0:
232,152,34736,1,8,0:0:0:0:
232,152,34804,1,0,0:0:0:0:
232,152,34872,1,8,0:0:0:0:
272,144,34940,1,0,0:0:0:0:
232,152,35009,1,8,0:0:0:0:
280,180,35077,1,8,0:0:0:0:
236,152,35145,1,0,0:0:0:0:
236,156,35213,1,8,0:0:0:0:
236,156,35281,1,8,0:0:0:0:
236,156,35350,1,0,0:0:0:0:
236,156,35418,1,8,0:0:0:0:
236,156,35486,1,8,0:0:0:0:
236,156,35554,1,0,0:0:0:0:
328,192,35622,1,0,0:0:0:0:
324,208,35690,1,0,0:0:0:0:
312,204,35759,1,0,0:0:0:0:
304,200,35827,1,8,0:0:0:0:
272,160,35963,1,0,0:0:0:0:
252,160,36031,1,0,0:0:0:0:
272,160,36100,1,0,0:0:0:0:
296,212,36168,1,0,0:0:0:0:
268,164,36236,1,8,0:0:0:0:
268,164,36372,1,0,0:0:0:0:
312,176,36440,1,0,0:0:0:0:
288,212,36509,1,8,0:0:0:0:
252,196,36645,1,0,0:0:0:0:
272,112,36713,1,0,0:0:0:0:
252,196,36781,1,0,0:0:0:0:
272,188,36850,1,0,0:0:0:0:
272,144,36918,1,8,0:0:0:0:
272,144,36986,1,0,0:0:0:0:
292,168,37054,1,8,0:0:0:0:
292,172,37190,1,0,0:0:0:0:
308,112,37259,1,0,0:0:0:0:
196,216,37327,1,8,0:0:0:0:
216,180,37395,1,8,0:0:0:0:
196,216,37463,1,0,0:0:0:0:
312,176,37531,1,0,0:0:0:0:
192,212,37600,1,8,0:0:0:0:
252,196,37668,1,8,0:0:0:0:
264,224,37736,1,0,0:0:0:0:
192,160,37804,1,0,0:0:0:0:
256,240,37872,1,0,0:0:0:0:
320,184,37940,1,0,0:0:0:0:
264,156,38009,1,8,0:0:0:0:
264,156,38145,1,0,0:0:0:0:
236,120,38213,1,0,0:0:0:0:
264,160,38281,1,0,0:0:0:0:
288,148,38350,1,0,0:0:0:0:
240,216,38418,1,8,0:0:0:0:
240,216,38554,1,0,0:0:0:0:
244,88,38622,1,0,0:0:0:0:
216,192,38690,1,8,0:0:0:0:
264,136,38827,1,0,0:0:0:0:
268,168,38895,1,0,0:0:0:0:
220,188,38963,1,8,0:0:0:0:
272,168,39031,1,0,0:0:0:0:
304,160,39100,1,8,0:0:0:0:
224,176,39168,1,0,0:0:0:0:
304,160,39236,1,8,0:0:0:0:
20,136,39304,1,0,0:0:0:0:
240,144,39372,1,8,0:0:0:0:
232,160,39440,1,8,0:0:0:0:
184,208,39509,1,8,0:0:0:0:
180,88,39577,1,8,0:0:0:0:
304,160,39645,1,0,0:0:0:0:
356,180,39713,1,0,0:0:0:0:
212,228,39781,1,8,0:0:0:0:
268,148,39850,1,8,0:0:0:0:
212,228,39918,1,0,0:0:0:0:
260,152,39986,1,0,0:0:0:0:
212,228,40054,1,0,0:0:0:0:
376,216,40122,1,0,0:0:0:0:
212,228,40190,1,8,0:0:0:0:
212,228,40327,1,0,0:0:0:0:
316,68,40395,1,0,0:0:0:0:
208,224,40463,1,0,0:0:0:0:
288,204,40531,1,0,0:0:0:0:
208,216,40600,1,8,0:0:0:0:
248,152,40736,1,0,0:0:0:0:
264,128,40804,1,0,0:0:0:0:
140,240,40872,1,8,0:0:0:0:
160,240,41009,1,0,0:0:0:0:
288,160,41077,1,0,0:0:0:0:
184,208,41145,1,0,0:0:0:0:
188,208,41213,1,0,0:0:0:0:
188,208,41281,1,8,0:0:0:0:
248,128,41350,1,0,0:0:0:0:
188,208,41418,1,8,0:0:0:0:
188,208,41554,1,0,0:0:0:0:
264,140,41622,1,0,0:0:0:0:
188,208,41690,1,0,0:0:0:0:
188,208,41759,1,0,0:0:0:0:
188,208,41827,1,8,0:0:0:0:
260,136,41895,1,8,0:0:0:0:
188,212,41963,1,8,0:0:0:0:
252,168,42031,1,8,0:0:0:0:
360,168,42100,1,0,0:0:0:0:
360,168,42168,1,0,0:0:0:0:
204,204,42236,1,0,0:0:0:0:
264,132,42304,1,0,0:0:0:0:
204,204,42372,1,8,0:0:0:0:
264,204,42509,1,0,0:0:0:0:
236,144,42577,1,0,0:0:0:0:
264,204,42645,1,0,0:0:0:0:
284,148,42713,1,0,0:0:0:0:
264,204,42781,1,8,0:0:0:0:
264,204,42918,1,0,0:0:0:0:
324,132,42986,1,0,0:0:0:0:
284,228,43054,1,8,0:0:0:0:
280,224,43190,1,0,0:0:0:0:
220,160,43259,1,0,0:0:0:0:
236,192,43327,1,0,0:0:0:0:
236,192,43395,1,0,0:0:0:0:
236,192,43463,1,8,0:0:0:0:
312,208,43531,1,0,0:0:0:0:
248,188,43600,1,0,0:0:0:0:
248,188,43668,1,0,0:0:0:0:
248,188,43736,1,8,0:0:0:0:
288,184,43804,1,0,0:0:0:0:
248,188,43872,1,0,0:0:0:0:
248,188,43940,1,0,0:0:0:0:
248,188,44009,1,8,0:0:0:0:
316,160,44077,1,8,0:0:0:0:
248,192,44145,1,8,0:0:0:0:
248,192,44213,1,8,0:0:0:0:
248,192,44281,1,0,0:0:0:0:
228,128,44350,1,0,0:0:0:0:
248,192,44418,1,0,0:0:0:0:
336,188,44486,1,0,0:0:0:0:
248,192,44554,1,8,0:0:0:0:
336,188,44690,1,0,0:0:0:0:
308,176,44759,1,0,0:0:0:0:
312,164,44827,1,0,0:0:0:0:
244,104,44895,1,0,0:0:0:0:
312,164,44963,1,8,0:0:0:0:
232,96,45100,1,0,0:0:0:0:
312,148,45168,1,0,0:0:0:0:
312,148,45236,1,8,0:0:0:0:
260,156,45372,1,0,0:0:0:0:
280,176,45440,1,0,0:0:0:0:
296,200,45509,1,0,0:0:0:0:
296,200,45577,1,0,0:0:0:0:
296,200,45645,1,8,0:0:0:0:
280,136,45713,1,0,0:0:0:0:
280,176,45781,1,8,0:0:0:0:
272,176,45918,1,0,0:0:0:0:
272,176,45986,1,0,0:0:0:0:
272,176,46054,1,0,0:0:0:0:
300,144,46122,1,0,0:0:0:0:
272,180,46190,1,8,0:0:0:0:
272,180,46259,1,8,0:0:0:0:
272,180,46327,1,8,0:0:0:0:
272,180,46395,1,8,0:0:0:0:
272,180,46463,1,0,0:0:0:0:
296,192,46531,1,0,0:0:0:0:
216,248,46600,1,0,0:0:0:0:
216,248,46668,1,0,0:0:0:0:
216,248,46736,1,8,0:0:0:0:
216,248,46872,1,0,0:0:0:0:
216,248,46940,1,0,0:0:0:0:
216,248,47009,1,0,0:0:0:0:
216,248,47077,1,0,0:0:0:0:
216,248,47145,1,8,0:0:0:0:
216,248,47281,1,0,0:0:0:0:
264,188,47350,1,0,0:0:0:0:
188,192,47418,1,8,0:0:0:0:
200,196,47554,1,0,0:0:0:0:
220,196,47622,1,0,0:0:0:0:
208,168,47690,1,8,0:0:0:0:
360,176,47759,1,0,0:0:0:0:
204,156,47827,1,8,0:0:0:0:
204,156,47895,1,0,0:0:0:0:
204,156,47963,1,8,0:0:0:0:
200,156,48031,1,0,0:0:0:0:
200,156,48100,1,0,0:0:0:0:
200,156,48168,1,0,0:0:0:0:
200,156,48236,1,8,0:0:0:0:
332,152,48304,1,0,0:0:0:0:
200,156,48372,1,8,0:0:0:0:
256,168,48440,1,8,0:0:0:0:
256,156,48509,1,8,0:0:0:0:
192,104,48577,1,8,0:0:0:0:
288,144,48645,1,0,0:0:0:0:
260,200,48713,1,0,0:0:0:0:
272,192,48781,1,0,0:0:0:0:
272,192,48850,1,0,0:0:0:0:
272,192,48918,1,8,0:0:0:0:
248,160,49054,1,0,0:0:0:0:
248,160,49122,1,0,0:0:0:0:
248,160,49190,1,0,0:0:0:0:
248,160,49259,1,0,0:0:0:0:
248,160,49327,1,8,0:0:0:0:
248,160,49463,1,0,0:0:0:0:
232,160,49531,1,0,0:0:0:0:
232,160,49600,1,8,0:0:0:0:
232,160,49736,1,0,0:0:0:0:
232,160,49804,1,0,0:0:0:0:
232,160,49872,1,8,0:0:0:0:
232,160,49940,1,0,0:0:0:0:
232,160,50009,1,8,0:0:0:0:
256,172,50077,1,0,0:0:0:0:
240,144,50145,1,8,0:0:0:0:
240,144,50281,1,0,0:0:0:0:
240,144,50350,1,0,0:0:0:0:
240,144,50418,1,0,0:0:0:0:
240,144,50486,1,0,0:0:0:0:
280,200,50554,1,8,0:0:0:0:
280,200,50622,1,8,0:0:0:0:
272,200,50690,1,8,0:0:0:0:
272,200,50759,1,8,0:0:0:0:
272,200,50827,1,0,0:0:0:0:
224,160,50895,1,0,0:0:0:0:
248,160,50963,1,0,0:0:0:0:
248,160,51031,1,0,0:0:0:0:
248,160,51100,1,8,0:0:0:0:
248,160,51236,1,0,0:0:0:0:
248,160,51304,1,0,0:0:0:0:
248,160,51372,1,0,0:0:0:0:
248,160,51440,1,0,0:0:0:0:
248,160,51509,1,8,0:0:0:0:
168,152,51645,1,0,0:0:0:0:
168,152,51713,1,0,0:0:0:0:
168,152,51781,1,0,0:0:0:0:
168,152,51850,1,0,0:0:0:0:
168,152,51918,1,8,0:0:0:0:
180,200,52054,1,8,0:0:0:0:
208,168,52190,1,8,0:0:0:0:
208,168,52327,1,8,0:0:0:0:
260,104,52463,1,0,0:0:0:0:
260,104,52531,1,8,0:0:0:0:
208,168,52600,1,8,0:0:0:0:
260,104,52668,1,0,0:0:0:0:
208,168,52736,1,8,0:0:0:0:
260,104,52804,1,8,0:0:0:0:
260,104,52872,1,0,0:0:0:0:
260,104,52940,1,8,0:0:0:0:
260,104,53009,1,0,0:0:0:0:
260,104,53145,1,8,0:0:0:0:
260,104,53213,1,8,0:0:0:0:
260,104,53281,1,8,0:0:0:0:
260,104,53418,1,4,0:0:0:0:
416,224,53690,1,4,0:0:0:0:
416,224,53827,1,0,0:0:0:0:
416,224,53895,1,0,0:0:0:0:
416,224,53963,1,8,0:0:0:0:
416,224,54100,1,8,0:0:0:0:
416,224,54236,1,0,0:0:0:0:
416,224,54304,1,0,0:0:0:0:
416,224,54372,1,8,0:0:0:0:
416,224,54509,1,8,0:0:0:0:
416,224,54645,1,4,0:0:0:0:
416,224,54918,1,4,0:0:0:0:
336,136,55054,1,0,0:0:0:0:
336,136,55100,1,0,0:0:0:0:
336,136,55145,1,0,0:0:0:0:
304,144,55190,1,8,0:0:0:0:
240,196,55327,1,8,0:0:0:0:
240,196,55395,1,8,0:0:0:0:
240,196,55463,1,8,0:0:0:0:
240,196,55600,1,4,0:0:0:0:
236,216,55736,1,0,0:0:0:0:
236,216,55804,1,0,0:0:0:0:
236,216,55872,1,8,0:0:0:0:
236,204,56009,1,8,0:0:0:0:
320,180,56145,1,0,0:0:0:0:
320,180,56213,1,0,0:0:0:0:
320,180,56281,1,8,0:0:0:0:
320,180,56418,1,8,0:0:0:0:
320,180,56554,1,0,0:0:0:0:
320,180,56622,1,0,0:0:0:0:
268,216,56690,1,8,0:0:0:0:
320,180,56827,1,4,0:0:0:0:
208,72,57100,1,4,0:0:0:0:
328,120,57236,1,0,0:0:0:0:
328,120,57281,1,0,0:0:0:0:
328,120,57327,1,0,0:0:0:0:
396,284,57372,1,8,0:0:0:0:
276,200,57509,1,0,0:0:0:0:
280,200,57577,1,0,0:0:0:0:
280,200,57645,1,8,0:0:0:0:
224,144,57781,1,4,0:0:0:0:
156,188,58054,1,4,0:0:0:0:
156,188,58190,1,0,0:0:0:0:
156,188,58259,1,0,0:0:0:0:
156,188,58327,1,8,0:0:0:0:
156,188,58463,1,0,0:0:0:0:
156,188,58600,1,0,0:0:0:0:
172,132,58668,1,0,0:0:0:0:
156,188,58736,1,8,0:0:0:0:
172,132,58872,1,8,0:0:0:0:
172,132,59009,1,4,0:0:0:0:
232,172,59145,1,4,0:0:0:0:
232,172,59281,1,4,0:0:0:0:
304,132,59418,1,0,0:0:0:0:
296,136,59463,1,0,0:0:0:0:
296,136,59509,1,0,0:0:0:0:
296,136,59554,1,8,0:0:0:0:
116,164,59690,1,0,0:0:0:0:
116,164,59759,1,0,0:0:0:0:
116,164,59827,1,8,0:0:0:0:
128,160,59963,1,4,0:0:0:0:
192,124,60100,1,8,0:0:0:0:
192,124,60168,1,8,0:0:0:0:
192,124,60236,1,8,0:0:0:0:
260,176,60372,1,4,0:0:0:0:
260,176,60509,1,8,0:0:0:0:
260,176,60577,1,8,0:0:0:0:
260,176,60645,1,8,0:0:0:0:
168,180,60781,1,0,0:0:0:0:
168,168,60918,1,0,0:0:0:0:
168,168,60986,1,0,0:0:0:0:
160,172,61054,1,8,0:0:0:0:
160,132,61122,1,8,0:0:0:0:
160,164,61190,1,8,0:0:0:0:
160,164,61259,1,8,0:0:0:0:
160,164,61327,1,0,0:0:0:0:
160,164,61395,1,0,0:0:0:0:
160,164,61463,1,8,0:0:0:0:
292,176,61600,1,8,0:0:0:0:
292,176,61736,1,4,0:0:0:0:
224,200,61872,1,0,0:0:0:0:
224,200,61940,1,0,0:0:0:0:
224,200,62009,1,8,0:0:0:0:
220,192,62145,1,12,0:0:0:0:
264,136,62281,1,0,0:0:0:0:
264,136,62350,1,0,0:0:0:0:
264,136,62418,1,8,0:0:0:0:
308,200,62554,1,12,0:0:0:0:
308,200,62690,1,0,0:0:0:0:
308,200,62827,1,8,0:0:0:0:
176,180,62895,1,8,0:0:0:0:
384,248,62963,1,0,0:0:0:0:
384,248,63031,1,0,0:0:0:0:
384,248,63100,1,8,0:0:0:0:
156,168,63168,1,0,0:0:0:0:
272,200,63236,1,8,0:0:0:0:
272,200,63372,1,0,0:0:0:0:
272,200,63440,1,0,0:0:0:0:
272,200,63509,1,0,0:0:0:0:
264,168,63577,1,0,0:0:0:0:
276,160,63645,1,8,0:0:0:0:
160,232,63713,1,8,0:0:0:0:
156,112,63781,1,8,0:0:0:0:
296,88,63850,1,8,0:0:0:0:
260,148,63918,1,0,0:0:0:0:
272,192,64054,1,8,0:0:0:0:
212,192,64122,1,0,0:0:0:0:
272,192,64190,1,8,0:0:0:0:
244,172,64327,1,0,0:0:0:0:
288,108,64395,1,0,0:0:0:0:
272,192,64463,1,0,0:0:0:0:
344,176,64531,1,0,0:0:0:0:
328,192,64600,1,8,0:0:0:0:
252,204,64736,1,0,0:0:0:0:
252,204,64804,1,0,0:0:0:0:
252,204,64872,1,8,0:0:0:0:
252,204,65009,1,8,0:0:0:0:
168,164,65145,1,0,0:0:0:0:
252,204,65213,1,0,0:0:0:0:
168,164,65281,1,8,0:0:0:0:
112,164,65350,1,0,0:0:0:0:
220,140,65418,1,8,0:0:0:0:
220,140,65554,1,0,0:0:0:0:
352,228,65622,1,0,0:0:0:0:
320,144,65690,1,0,0:0:0:0:
244,108,65759,1,0,0:0:0:0:
320,144,65827,1,8,0:0:0:0:
320,144,65895,1,8,0:0:0:0:
320,144,65963,1,8,0:0:0:0:
320,144,66031,1,8,0:0:0:0:
312,144,66100,1,0,0:0:0:0:
308,192,66236,1,0,0:0:0:0:
236,156,66304,1,0,0:0:0:0:
304,160,66372,1,8,0:0:0:0:
236,156,66509,1,8,0:0:0:0:
236,144,66645,1,0,0:0:0:0:
240,160,66713,1,0,0:0:0:0:
236,144,66781,1,0,0:0:0:0:
236,144,66850,1,0,0:0:0:0:
232,140,66918,1,8,0:0:0:0:
288,140,66986,1,0,0:0:0:0:
208,184,67054,1,8,0:0:0:0:
280,152,67122,1,0,0:0:0:0:
208,184,67190,1,8,0:0:0:0:
208,184,67327,1,0,0:0:0:0:
264,160,67395,1,0,0:0:0:0:
208,184,67463,1,8,0:0:0:0:
208,184,67600,1,0,0:0:0:0:
336,184,67668,1,0,0:0:0:0:
296,168,67736,1,0,0:0:0:0:
336,184,67804,1,0,0:0:0:0:
336,184,67872,1,8,0:0:0:0:
336,184,68009,1,0,0:0:0:0:
336,184,68077,1,0,0:0:0:0:
336,184,68145,1,0,0:0:0:0:
336,184,68213,1,0,0:0:0:0:
336,184,68281,1,8,0:0:0:0:
212,208,68418,1,0,0:0:0:0:
144,128,68486,1,0,0:0:0:0:
296,188,68554,1,8,0:0:0:0:
308,188,68690,1,8,0:0:0:0:
308,188,68827,1,0,0:0:0:0:
112,156,68895,1,0,0:0:0:0:
296,188,68963,1,0,0:0:0:0:
212,144,69031,1,0,0:0:0:0:
300,188,69100,1,8,0:0:0:0:
296,188,69236,1,0,0:0:0:0:
40,148,69372,1,12,0:0:0:0:
220,184,69577,1,4,0:0:0:0:
132,144,69781,1,4,0:0:0:0:
132,144,69918,1,12,0:0:0:0:
132,144,70122,1,4,0:0:0:0:
200,104,70327,1,4,0:0:0:0:
200,104,70463,1,12,0:0:0:0:
256,188,70600,1,0,0:0:0:0:
256,188,70668,1,0,0:0:0:0:
256,188,70736,1,0,0:0:0:0:
256,188,70872,1,12,0:0:0:0:
256,188,71145,1,12,0:0:0:0:
256,188,71281,1,0,0:0:0:0:
256,188,71350,1,0,0:0:0:0:
256,188,71418,1,8,0:0:0:0:
256,188,71554,1,8,0:0:0:0:
256,188,71690,1,0,0:0:0:0:
256,188,71759,1,0,0:0:0:0:
256,188,71827,1,8,0:0:0:0:
256,188,71963,1,8,0:0:0:0:
256,188,72100,1,12,0:0:0:0:
256,188,72236,1,0,0:0:0:0:
152,152,72304,1,0,0:0:0:0:
256,188,72372,1,8,0:0:0:0:
152,152,72509,1,0,0:0:0:0:
152,152,72645,1,12,0:0:0:0:
180,136,72781,1,0,0:0:0:0:
180,136,72850,1,0,0:0:0:0:
180,136,72918,1,0,0:0:0:0:
220,108,73054,1,12,0:2:0:0:
80,168,73190,1,0,0:0:0:0:
156,120,73259,1,0,0:0:0:0:
80,168,73327,1,8,0:0:0:0:
144,160,73463,1,12,0:0:0:0:
144,160,73600,1,0,0:0:0:0:
144,44,73736,1,8,0:0:0:0:
104,84,73804,1,8,0:0:0:0:
144,44,73872,1,0,0:0:0:0:
144,44,73940,1,0,0:0:0:0:
144,44,74009,1,8,0:0:0:0:
264,96,74145,1,0,0:0:0:0:
144,144,74213,1,0,0:0:0:0:
40,160,74281,1,8,0:0:0:0:
40,160,74350,1,8,0:0:0:0:
40,160,74418,1,0,0:0:0:0:
40,160,74486,1,0,0:0:0:0:
40,160,74554,1,8,0:0:0:0:
128,112,74690,1,0,0:0:0:0:
128,112,74827,1,12,0:0:0:0:
104,136,74963,1,0,0:0:0:0:
104,136,75031,1,0,0:0:0:0:
104,136,75100,1,8,0:0:0:0:
152,164,75236,1,12,0:0:0:0:
92,168,75372,1,0,0:0:0:0:
92,168,75440,1,0,0:0:0:0:
92,168,75509,1,8,0:0:0:0:
92,168,75645,1,12,0:0:0:0:
116,184,75781,1,0,0:0:0:0:
116,184,75918,1,8,0:0:0:0:
116,184,75986,1,8,0:0:0:0:
116,184,76054,1,0,0:0:0:0:
116,184,76122,1,0,0:0:0:0:
116,184,76190,1,0,0:0:0:0:
116,184,76259,1,0,0:0:0:0:
116,184,76327,1,8,0:0:0:0:
116,184,76463,1,0,0:0:0:0:
196,128,76531,1,0,0:0:0:0:
116,184,76600,1,8,0:0:0:0:
116,184,76736,1,12,0:0:0:0:
72,144,76872,1,0,0:0:0:0:
72,144,77009,1,12,0:0:0:0:
72,144,77145,1,0,0:0:0:0:
268,104,77213,1,0,0:0:0:0:
180,116,77281,1,8,0:0:0:0:
288,132,77418,1,12,0:0:0:0:
288,132,77554,1,0,0:0:0:0:
288,132,77622,1,0,0:0:0:0:
288,132,77690,1,8,0:0:0:0:
216,160,77827,1,12,0:0:0:0:
216,160,77963,1,0,0:0:0:0:
216,160,78031,1,0,0:0:0:0:
216,160,78100,1,8,0:0:0:0:
216,160,78236,1,0,0:0:0:0:
216,160,78304,1,0,0:0:0:0:
216,160,78372,1,0,0:0:0:0:
216,160,78509,1,8,0:0:0:0:
216,160,78645,1,0,0:0:0:0:
24,148,78713,1,0,0:0:0:0:
216,160,78781,1,0,0:0:0:0:
24,148,78850,1,0,0:0:0:0:
216,160,78918,1,8,0:0:0:0:
216,160,78986,1,8,0:0:0:0:
216,160,79054,1,8,0:0:0:0:
216,160,79190,1,12,0:0:0:0:
292,108,79327,1,0,0:0:0:0:
292,108,79395,1,0,0:0:0:0:
292,108,79463,1,8,0:0:0:0:
292,108,79600,1,12,0:0:0:0:
292,108,79736,1,0,0:0:0:0:
292,108,79804,1,0,0:0:0:0:
292,108,79872,1,0,0:0:0:0:
292,108,80009,1,12,0:0:0:0:
140,140,80145,1,0,0:0:0:0:
168,108,80213,1,0,0:0:0:0:
140,140,80281,1,8,0:0:0:0:
140,140,80418,1,8,0:0:0:0:
140,140,80554,1,8,0:0:0:0:
228,128,80690,1,0,0:0:0:0:
228,128,80759,1,0,0:0:0:0:
228,128,80827,1,8,0:0:0:0:
228,128,80963,1,8,0:0:0:0:
228,128,81100,1,0,0:0:0:0:
228,128,81236,1,8,0:0:0:0:
228,128,81372,1,12,0:0:0:0:
228,128,81509,1,0,0:0:0:0:
228,128,81577,1,0,0:0:0:0:
228,128,81645,1,0,0:0:0:0:
228,128,81781,1,12,0:0:0:0:
228,128,81918,1,0,0:0:0:0:
228,128,81986,1,0,0:0:0:0:
228,128,82054,1,8,0:0:0:0:
228,128,82190,1,12,0:0:0:0:
228,128,82327,1,0,0:0:0:0:
228,128,82395,1,0,0:0:0:0:
228,128,82463,1,8,0:0:0:0:
352,112,82600,1,0,0:0:0:0:
352,112,82736,1,8,0:0:0:0:
352,112,82872,1,0,0:0:0:0:
352,112,82940,1,0,0:0:0:0:
352,112,83009,1,8,0:0:0:0:
240,76,83077,1,8,0:0:0:0:
352,112,83145,1,8,0:0:0:0:
352,112,83213,1,8,0:0:0:0:
352,112,83281,1,0,0:0:0:0:
352,112,83418,1,0,0:0:0:0:
352,112,83554,1,12,0:0:0:0:
264,172,83690,1,0,0:0:0:0:
264,172,83759,1,0,0:0:0:0:
264,172,83827,1,8,0:0:0:0:
20,168,83963,1,12,0:0:0:0:
208,108,84100,1,0,0:0:0:0:
208,108,84168,1,0,0:0:0:0:
208,108,84236,1,0,0:0:0:0:
208,108,84372,1,12,0:0:0:0:
88,144,84509,1,0,0:0:0:0:
88,144,84577,1,0,0:0:0:0:
88,144,84645,1,8,0:0:0:0:
88,144,84781,1,0,0:0:0:0:
88,144,84918,1,8,0:0:0:0:
88,144,85054,1,0,0:0:0:0:
88,144,85190,1,8,0:0:0:0:
88,144,85327,1,8,0:0:0:0:
88,144,85463,1,0,0:0:0:0:
32,160,85600,1,8,0:0:0:0:
32,160,85736,1,12,0:0:0:0:
332,80,85872,1,0,0:0:0:0:
332,80,85940,1,0,0:0:0:0:
332,80,86009,1,8,0:0:0:0:
332,80,86145,1,12,0:0:0:0:
332,80,86281,1,0,0:0:0:0:
332,80,86350,1,0,0:0:0:0:
332,80,86418,1,0,0:0:0:0:
288,164,86486,1,0,0:0:0:0:
332,80,86554,1,8,0:0:0:0:
296,44,86622,1,8,0:0:0:0:
296,44,86690,1,8,0:0:0:0:
296,44,86759,1,8,0:0:0:0:
296,44,86827,1,0,0:0:0:0:
224,188,86963,1,0,0:0:0:0:
224,188,87100,1,8,0:0:0:0:
224,188,87236,1,0,0:0:0:0:
224,188,87372,1,4,0:0:0:0:
252,96,87645,1,4,0:0:0:0:
136,128,87918,1,4,0:0:0:0:
32,172,88190,1,8,0:0:0:0:
32,172,88327,1,8,0:0:0:0:
32,172,88600,1,8,0:0:0:0:
32,172,88736,1,8,0:0:0:0:
32,172,89009,1,0,0:0:0:0:
32,172,89145,1,8,0:0:0:0:
32,172,89281,1,8,0:0:0:0:
32,172,89418,1,0,0:0:0:0:
32,172,89486,1,0,0:0:0:0:
32,172,89554,1,8,0:0:0:0:
32,172,89690,1,8,0:0:0:0:
32,172,89827,1,0,0:0:0:0:
32,172,90100,1,8,0:0:0:0:
32,172,90372,1,8,0:0:0:0:
32,172,90509,1,8,0:0:0:0:
272,192,90781,1,8,0:0:0:0:
272,192,90918,1,8,0:0:0:0:
272,192,91190,1,0,0:0:0:0:
272,192,91327,1,8,0:0:0:0:
272,192,91463,1,8,0:0:0:0:
272,192,91600,1,0,0:0:0:0:
272,192,91668,1,0,0:0:0:0:
272,192,91736,1,8,0:0:0:0:
272,192,91872,1,8,0:0:0:0:
272,192,92009,1,8,0:0:0:0:
272,192,92145,1,8,0:0:0:0:
272,192,92281,1,0,0:0:0:0:
272,192,92554,1,8,0:0:0:0:
272,192,92690,1,8,0:0:0:0:
248,140,92963,1,8,0:0:0:0:
248,140,93100,1,8,0:0:0:0:
248,140,93372,1,0,0:0:0:0:
248,140,93509,1,8,0:0:0:0:
248,140,93645,1,8,0:0:0:0:
248,140,93781,1,0,0:0:0:0:
248,140,93850,1,0,0:0:0:0:
248,140,93918,1,8,0:0:0:0:
248,140,94054,1,8,0:0:0:0:
248,140,94190,1,0,0:0:0:0:
184,160,94327,1,0,0:0:0:0:
248,140,94463,1,8,0:0:0:0:
248,140,94736,1,8,0:0:0:0:
248,140,94872,1,8,0:0:0:0:
248,140,95145,1,8,0:0:0:0:
248,140,95281,1,8,0:0:0:0:
248,140,95554,1,0,0:0:0:0:
248,140,95690,1,8,0:0:0:0:
248,140,95827,1,8,0:0:0:0:
248,140,95963,1,0,0:0:0:0:
248,140,96031,1,0,0:0:0:0:
248,140,96100,1,8,0:0:0:0:
248,140,96236,1,8,0:0:0:0:
248,140,96372,1,8,0:0:0:0:
248,140,96509,1,8,0:0:0:0:
248,140,96645,1,4,0:0:0:0:
248,140,96918,1,8,0:0:0:0:
248,140,97054,1,8,0:0:0:0:
248,140,97327,1,0,0:0:0:0:
248,140,97463,1,8,0:0:0:0:
248,140,97600,1,8,0:0:0:0:
248,140,97736,1,0,0:0:0:0:
248,140,98009,1,8,0:0:0:0:
248,140,98145,1,0,0:0:0:0:
248,140,98213,1,0,0:0:0:0:
248,140,98281,1,0,0:0:0:0:
248,140,98418,1,0,0:0:0:0:
248,140,98554,1,8,0:0:0:0:
248,140,98690,1,0,0:0:0:0:
248,140,98827,1,8,0:0:0:0:
248,140,99100,1,8,0:0:0:0:
248,140,99236,1,8,0:0:0:0:
248,140,99509,1,0,0:0:0:0:
248,140,99645,1,8,0:0:0:0:
248,140,99781,1,8,0:0:0:0:
248,140,99918,1,0,0:0:0:0:
248,140,100190,1,8,0:0:0:0:
248,140,100327,1,0,0:0:0:0:
248,140,100395,1,0,0:0:0:0:
248,140,100463,1,0,0:0:0:0:
56,160,100600,1,0,0:0:0:0:
56,160,100736,1,8,0:0:0:0:
56,160,100872,1,8,0:0:0:0:
56,160,101009,1,0,0:0:0:0:
180,172,101281,1,8,0:0:0:0:
180,172,101418,1,8,0:0:0:0:
180,172,101690,1,0,0:0:0:0:
180,172,101827,1,8,0:0:0:0:
180,172,101963,1,8,0:0:0:0:
180,172,102100,1,0,0:0:0:0:
180,172,102372,1,8,0:0:0:0:
180,172,102509,1,0,0:0:0:0:
180,172,102577,1,0,0:0:0:0:
180,172,102645,1,0,0:0:0:0:
180,172,102781,1,0,0:0:0:0:
180,172,102918,1,8,0:0:0:0:
180,172,103054,1,0,0:0:0:0:
180,172,103190,1,8,0:0:0:0:
180,172,103463,1,8,0:0:0:0:
180,172,103600,1,8,0:0:0:0:
180,172,103872,1,8,0:0:0:0:
180,172,104009,1,8,0:0:0:0:
180,172,104145,1,8,0:0:0:0:
180,172,104281,1,0,0:0:0:0:
84,128,104418,1,8,0:0:0:0:
84,128,104554,1,0,0:0:0:0:
84,128,104690,1,8,0:0:0:0:
84,128,104827,1,0,0:0:0:0:
84,128,104895,1,0,0:0:0:0:
84,128,104963,1,8,0:0:0:0:
84,128,105031,1,8,0:0:0:0:
84,128,105100,1,8,0:0:0:0:
84,128,105168,1,8,0:0:0:0:
84,128,105236,1,8,0:0:0:0:
84,128,105304,1,8,0:0:0:0:
84,128,105372,1,0,0:0:0:0:
288,128,105509,1,0,0:0:0:0:
288,128,105577,1,0,0:0:0:0:
288,128,105645,1,8,0:0:0:0:
288,128,105781,1,0,0:0:0:0:
288,128,106054,1,0,0:0:0:0:
288,128,106190,1,8,0:0:0:0:
288,128,106259,1,8,0:0:0:0:
288,128,106327,1,8,0:0:0:0:
288,128,106463,1,0,0:0:0:0:
288,128,106600,1,0,0:0:0:0:
288,128,106668,1,0,0:0:0:0:
288,128,106736,1,8,0:0:0:0:
288,128,106872,1,8,0:0:0:0:
288,128,107009,1,8,0:0:0:0:
288,128,107145,1,0,0:0:0:0:
288,128,107418,1,0,0:0:0:0:
288,128,107554,1,0,0:0:0:0:
288,128,107622,1,0,0:0:0:0:
288,128,107690,1,8,0:0:0:0:
288,128,107827,1,8,0:0:0:0:
288,128,107963,1,0,0:0:0:0:
288,128,108236,1,8,0:0:0:0:
288,128,108372,1,0,0:0:0:0:
148,136,108645,1,0,0:0:0:0:
148,136,108918,1,0,0:0:0:0:
148,136,109190,1,8,0:0:0:0:
148,136,109327,1,0,0:0:0:0:
148,136,109395,1,0,0:0:0:0:
148,136,109463,1,8,0:0:0:0:
148,136,109600,1,8,0:0:0:0:
148,136,109736,1,0,0:0:0:0:
148,136,109872,1,8,0:0:0:0:
148,136,110009,1,8,0:0:0:0:
148,136,110145,1,0,0:0:0:0:
148,136,110418,1,8,0:0:0:0:
148,136,110554,1,0,0:0:0:0:
312,200,110827,1,0,0:0:0:0:
312,200,110963,1,0,0:0:0:0:
312,200,111236,1,0,0:0:0:0:
312,200,111509,1,8,0:0:0:0:
312,200,111645,1,0,0:0:0:0:
312,200,111781,1,8,0:0:0:0:
312,200,111918,1,8,0:0:0:0:
312,200,112054,1,0,0:0:0:0:
312,200,112122,1,0,0:0:0:0:
312,200,112190,1,8,0:0:0:0:
312,200,112327,1,8,0:0:0:0:
312,200,112463,1,0,0:0:0:0:
312,200,112531,1,0,0:0:0:0:
312,200,112600,1,8,0:0:0:0:
312,200,112736,1,8,0:0:0:0:
312,200,112872,1,8,0:0:0:0:
312,200,113009,1,0,0:0:0:0:
312,200,113077,1,0,0:0:0:0:
312,200,113145,1,0,0:0:0:0:
312,200,113213,1,0,0:0:0:0:
312,200,113281,1,8,0:0:0:0:
312,200,113418,1,0,0:0:0:0:
312,200,113554,1,8,0:0:0:0:
312,200,113622,1,8,0:0:0:0:
312,200,113690,1,8,0:0:0:0:
312,200,113827,1,0,0:0:0:0:
380,100,113963,1,8,0:0:0:0:
380,100,114009,1,8,0:0:0:0:
380,100,114054,1,8,0:0:0:0:
380,100,114100,1,0,0:0:0:0:
152,144,114236,1,0,0:0:0:0:
152,144,114372,1,8,0:0:0:0:
152,144,114509,1,0,0:0:0:0:
152,144,114781,1,8,0:0:0:0:
152,144,114918,1,0,0:0:0:0:
152,144,115190,1,8,0:0:0:0:
152,144,115327,1,0,0:0:0:0:
152,144,115395,1,0,0:0:0:0:
152,144,115463,1,8,0:0:0:0:
152,144,115600,1,8,0:0:0:0:
152,144,115736,1,8,0:0:0:0:
152,144,115872,1,0,0:0:0:0:
152,144,116145,1,8,0:0:0:0:
152,144,116281,1,0,0:0:0:0:
152,144,116554,1,8,0:0:0:0:
152,144,116690,1,0,0:0:0:0:
152,144,116759,1,0,0:0:0:0:
152,144,116827,1,0,0:0:0:0:
152,144,116895,1,0,0:0:0:0:
152,144,116963,1,8,0:0:0:0:
152,144,117100,1,8,0:0:0:0:
152,144,117236,1,8,0:0:0:0:
152,144,117372,1,0,0:0:0:0:
152,144,117645,1,8,0:0:0:0:
152,144,117781,1,0,0:0:0:0:
152,144,117918,1,8,0:0:0:0:
152,144,118054,1,0,0:0:0:0:
152,144,118190,1,8,0:0:0:0:
152,144,118327,1,8,0:0:0:0:
152,144,118463,1,0,0:0:0:0:
152,144,118736,1,8,0:0:0:0:
200,168,118872,1,0,0:0:0:0:
200,168,118940,1,0,0:0:0:0:
200,168,119009,1,0,0:0:0:0:
200,168,119145,1,8,0:0:0:0:
200,168,119281,1,0,0:0:0:0:
200,168,119350,1,0,0:0:0:0:
200,168,119418,1,8,0:0:0:0:
200,168,119554,1,8,0:0:0:0:
200,168,119690,1,0,0:0:0:0:
200,168,119963,1,0,0:0:0:0:
200,168,120236,1,0,0:0:0:0:
200,168,120509,1,8,0:0:0:0:
200,168,120645,1,0,0:0:0:0:
200,168,120918,1,8,0:0:0:0:
200,168,121054,1,0,0:0:0:0:
200,168,121327,1,8,0:0:0:0:
200,168,121463,1,8,0:0:0:0:
200,168,121600,1,8,0:0:0:0:
200,168,121736,1,4,0:0:0:0:
112,196,122827,1,4,0:0:0:0:
112,196,122963,1,0,0:0:0:0:
112,196,123031,1,0,0:0:0:0:
112,196,123100,1,8,0:0:0:0:
112,196,123236,1,8,0:0:0:0:
112,196,123304,1,8,0:0:0:0:
112,196,123372,1,8,0:0:0:0:
232,224,123509,1,0,0:0:0:0:
232,224,123577,1,0,0:0:0:0:
232,224,123645,1,8,0:0:0:0:
232,224,123713,1,8,0:0:0:0:
232,224,123781,1,0,0:0:0:0:
232,224,123918,1,8,0:0:0:0:
232,224,123986,1,8,0:0:0:0:
232,224,124054,1,8,0:0:0:0:
232,224,124190,1,8,0:0:0:0:
156,184,124259,1,8,0:0:0:0:
156,184,124327,1,0,0:0:0:0:
156,184,124463,1,8,0:0:0:0:
156,184,124531,1,0,0:0:0:0:
156,184,124600,1,0,0:0:0:0:
144,208,124736,1,0,0:0:0:0:
144,208,124804,1,0,0:0:0:0:
144,208,124872,1,8,0:0:0:0:
144,208,125009,1,8,0:0:0:0:
256,168,125145,1,0,0:0:0:0:
256,168,125281,1,8,0:0:0:0:
256,168,125418,1,0,0:0:0:0:
256,168,125486,1,0,0:0:0:0:
256,168,125554,1,8,0:0:0:0:
256,168,125690,1,8,0:0:0:0:
256,168,125827,1,0,0:0:0:0:
212,160,125895,1,0,0:0:0:0:
256,168,125963,1,8,0:0:0:0:
256,168,126100,1,8,0:0:0:0:
240,260,126236,1,0,0:0:0:0:
240,260,126281,1,0,0:0:0:0:
240,260,126327,1,0,0:0:0:0:
240,260,126372,1,8,0:0:0:0:
240,260,126509,1,8,0:0:0:0:
240,260,126554,1,8,0:0:0:0:
240,260,126600,1,8,0:0:0:0:
240,260,126645,1,8,0:0:0:0:
240,260,126781,1,0,0:0:0:0:
240,260,126827,1,0,0:0:0:0:
240,260,126872,1,0,0:0:0:0:
240,260,126918,1,8,0:0:0:0:
320,96,127054,1,8,0:0:0:0:
272,188,127122,1,8,0:0:0:0:
320,96,127190,1,8,0:0:0:0:
320,96,127327,1,0,0:0:0:0:
320,96,127463,1,8,0:0:0:0:
180,96,127600,1,0,0:0:0:0:
180,96,127668,1,0,0:0:0:0:
180,96,127736,1,8,0:0:0:0:
180,96,127872,1,8,0:0:0:0:
180,96,128009,1,0,0:0:0:0:
180,96,128145,1,8,0:0:0:0:
312,112,128281,1,8,0:0:0:0:
24,164,128418,1,0,0:0:0:0:
24,164,128486,1,0,0:0:0:0:
24,164,128554,1,8,0:0:0:0:
24,164,128690,1,0,0:0:0:0:
224,164,128759,1,0,0:0:0:0:
196,124,128827,1,8,0:0:0:0:
196,124,128895,1,0,0:0:0:0:
196,124,128963,1,8,0:0:0:0:
196,124,129031,1,8,0:0:0:0:
196,124,129100,1,0,0:0:0:0:
196,124,129168,1,8,0:0:0:0:
196,124,129236,1,0,0:0:0:0:
196,124,129304,1,0,0:0:0:0:
196,124,129372,1,8,0:0:0:0:
196,124,129509,1,0,0:0:0:0:
196,124,129577,1,0,0:0:0:0:
196,124,129645,1,8,0:0:0:0:
196,124,129781,1,0,0:0:0:0:
196,124,129850,1,0,0:0:0:0:
196,124,129918,1,8,0:0:0:0:
132,128,130054,1,0,0:0:0:0:
104,168,130122,1,0,0:0:0:0:
132,128,130190,1,0,0:0:0:0:
104,168,130259,1,0,0:0:0:0:
132,128,130327,1,8,0:0:0:0:
132,128,130463,1,0,0:0:0:0:
336,124,130509,1,0,0:0:0:0:
336,124,130554,1,0,0:0:0:0:
132,128,130600,1,8,0:0:0:0:
132,128,130668,1,8,0:0:0:0:
132,128,130736,1,8,0:0:0:0:
232,92,130804,1,8,0:0:0:0:
316,72,130872,1,0,0:0:0:0:
316,72,130940,1,0,0:0:0:0:
316,72,131009,1,8,0:0:0:0:
176,128,131077,1,8,0:0:0:0:
316,72,131145,1,0,0:0:0:0:
444,204,131213,1,0,0:0:0:0:
316,72,131281,1,8,0:0:0:0:
316,72,131350,1,8,0:0:0:0:
316,72,131418,1,8,0:0:0:0:
316,72,131486,1,8,0:0:0:0:
316,72,131554,1,0,0:0:0:0:
316,72,131690,1,8,0:0:0:0:
316,72,131827,1,0,0:0:0:0:
176,104,131895,1,0,0:0:0:0:
316,72,131963,1,8,0:0:0:0:
316,72,132100,1,8,0:0:0:0:
192,100,132236,1,0,0:0:0:0:
84,160,132304,1,0,0:0:0:0:
192,100,132372,1,8,0:0:0:0:
84,160,132440,1,8,0:0:0:0:
192,100,132509,1,0,0:0:0:0:
196,144,132577,1,0,0:0:0:0:
192,100,132645,1,8,0:0:0:0:
196,144,132713,1,0,0:0:0:0:
196,144,132781,1,8,0:0:0:0:
196,144,132850,1,0,0:0:0:0:
196,144,132918,1,8,0:0:0:0:
196,144,133054,1,0,0:0:0:0:
192,44,133190,1,0,0:0:0:0:
192,44,133259,1,0,0:0:0:0:
192,44,133327,1,8,0:0:0:0:
100,132,133463,1,8,0:0:0:0:
176,96,133600,1,0,0:0:0:0:
328,116,133645,1,0,0:0:0:0:
328,116,133690,1,0,0:0:0:0:
292,28,133736,1,8,0:0:0:0:
100,152,133804,1,8,0:0:0:0:
152,168,133872,1,0,0:0:0:0:
152,168,133940,1,0,0:0:0:0:
152,168,134009,1,8,0:0:0:0:
260,156,134077,1,8,0:0:0:0:
152,168,134145,1,0,0:0:0:0:
136,160,134213,1,0,0:0:0:0:
152,168,134281,1,8,0:0:0:0:
152,168,134418,1,0,0:0:0:0:
152,168,134486,1,0,0:0:0:0:
152,168,134554,1,8,0:0:0:0:
160,136,134622,1,8,0:0:0:0:
100,172,134690,1,0,0:0:0:0:
200,160,134759,1,0,0:0:0:0:
100,172,134827,1,8,0:0:0:0:
100,172,134895,1,8,0:0:0:0:
100,172,134963,1,8,0:0:0:0:
100,192,135031,1,8,0:0:0:0:
140,196,135100,1,0,0:0:0:0:
140,196,135236,1,0,0:0:0:0:
164,144,135304,1,0,0:0:0:0:
164,144,135372,1,8,0:0:0:0:
160,144,135509,1,0,0:0:0:0:
160,144,135645,1,8,0:0:0:0:
160,144,135713,1,8,0:0:0:0:
164,144,135781,1,8,0:0:0:0:
380,156,135850,1,8,0:0:0:0:
164,144,135918,1,0,0:0:0:0:
164,144,136054,1,8,0:0:0:0:
164,144,136122,1,8,0:0:0:0:
164,144,136190,1,0,0:0:0:0:
164,144,136327,1,0,0:0:0:0:
132,160,136395,1,0,0:0:0:0:
164,144,136463,1,8,0:0:0:0:
164,144,136531,1,8,0:0:0:0:
196,128,136600,1,0,0:0:0:0:
144,196,136736,1,8,0:0:0:0:
144,196,136872,1,0,0:0:0:0:
144,196,136940,1,0,0:0:0:0:
144,196,137009,1,8,0:0:0:0:
144,196,137145,1,8,0:0:0:0:
112,160,137281,1,0,0:0:0:0:
112,160,137418,1,8,0:0:0:0:
112,160,137554,1,8,0:0:0:0:
112,160,137622,1,8,0:0:0:0:
112,160,137759,1,0,0:0:0:0:
112,160,137827,1,8,0:0:0:0:
112,160,137963,1,8,0:0:0:0:
112,160,138031,1,8,0:0:0:0:
112,160,138100,1,0,0:0:0:0:
112,160,138236,1,8,0:0:0:0:
112,160,138372,1,0,0:0:0:0:
112,160,138509,1,8,0:0:0:0:
112,160,138645,1,0,0:0:0:0:
112,160,138781,1,8,0:0:0:0:
212,136,138918,1,0,0:0:0:0:
192,120,139054,2,0,L|272:120,8,70,0|0|0|0|0|0|0|0|0,0:0|0:0|0:0|0:0|0:0|0:0|0:0|0:0|0:0,0:0:0:0:
60,192,140281,5,4,0:0:0:0:
120,152,140418,1,8,0:0:0:0:
120,152,140486,1,8,0:0:0:0:
120,152,140554,1,0,0:0:0:0:
120,152,140690,1,0,0:0:0:0:
120,152,140759,1,0,0:0:0:0:
120,152,140827,1,0,0:0:0:0:
120,152,140963,1,8,0:0:0:0:
120,152,141031,1,8,0:0:0:0:
120,152,141100,1,0,0:0:0:0:
120,152,141236,1,0,0:0:0:0:
120,152,141304,1,0,0:0:0:0:
120,152,141372,1,0,0:0:0:0:
120,152,141509,1,4,0:0:0:0:
120,152,141781,1,12,0:0:0:0:
120,152,141918,1,0,0:0:0:0:
260,128,141986,1,0,0:0:0:0:
120,152,142054,1,0,0:0:0:0:
224,144,142190,1,0,0:0:0:0:
320,136,142327,1,12,0:0:0:0:
120,152,142463,1,0,0:0:0:0:
120,152,142600,1,8,0:0:0:0:
120,152,142668,1,8,0:0:0:0:
120,152,142736,1,8,0:0:0:0:
120,152,142872,1,0,0:0:0:0:
120,152,142940,1,0,0:0:0:0:
136,160,143009,1,8,0:0:0:0:
136,160,143145,1,8,0:0:0:0:
136,160,143213,1,8,0:0:0:0:
136,160,143281,1,8,0:0:0:0:
136,160,143418,1,0,0:0:0:0:
136,160,143486,1,0,0:0:0:0:
136,160,143554,1,8,0:0:0:0:
136,160,143690,1,4,0:0:0:0:
224,144,143827,1,0,0:0:0:0:
136,160,143963,1,12,0:0:0:0:
136,160,144100,1,0,0:0:0:0:
136,160,144168,1,0,0:0:0:0:
136,160,144236,1,0,0:0:0:0:
224,144,144372,1,0,0:0:0:0:
136,160,144509,1,12,0:0:0:0:
136,160,144645,1,0,0:0:0:0:
136,160,144781,1,8,0:0:0:0:
136,160,144850,1,8,0:0:0:0:
136,160,144918,1,0,0:0:0:0:
136,160,145054,1,0,0:0:0:0:
136,160,145122,1,0,0:0:0:0:
136,160,145190,1,0,0:0:0:0:
136,160,145327,1,8,0:0:0:0:
136,160,145395,1,8,0:0:0:0:
136,160,145463,1,0,0:0:0:0:
136,160,145600,1,0,0:0:0:0:
136,160,145668,1,0,0:0:0:0:
136,160,145736,1,0,0:0:0:0:
136,160,145872,1,4,0:0:0:0:
136,160,146145,1,12,0:0:0:0:
136,160,146281,1,0,0:0:0:0:
136,160,146350,1,0,0:0:0:0:
136,160,146418,1,0,0:0:0:0:
224,144,146554,1,0,0:0:0:0:
328,84,146690,1,12,0:0:0:0:
328,84,146827,1,0,0:0:0:0:
328,84,146963,1,8,0:0:0:0:
328,84,147031,1,8,0:0:0:0:
328,84,147100,1,8,0:0:0:0:
328,84,147236,1,0,0:0:0:0:
328,84,147304,1,0,0:0:0:0:
328,84,147372,1,8,0:0:0:0:
328,84,147509,1,8,0:0:0:0:
328,84,147577,1,8,0:0:0:0:
328,84,147645,1,8,0:0:0:0:
328,84,147781,1,0,0:0:0:0:
328,84,147850,1,0,0:0:0:0:
328,84,147918,1,8,0:0:0:0:
328,84,148054,1,12,0:0:0:0:
328,84,148190,1,4,0:0:0:0:
328,84,148736,1,12,0:0:0:0:
284,120,149554,1,4,0:0:0:0:
284,120,149690,1,0,0:0:0:0:
284,120,149759,1,0,0:0:0:0:
284,120,149827,1,8,0:0:0:0:
284,120,149963,1,8,0:0:0:0:
284,120,150100,1,0,0:0:0:0:
284,120,150236,1,8,0:0:0:0:
284,120,150372,1,8,0:0:0:0:
284,120,150509,1,0,0:0:0:0:
284,120,150645,1,0,0:0:0:0:
136,200,150713,1,0,0:0:0:0:
136,200,150781,1,8,0:0:0:0:
220,168,150850,1,0,0:0:0:0:
136,200,150918,1,8,0:0:0:0:
136,200,151054,1,8,0:0:0:0:
220,168,151122,1,8,0:0:0:0:
136,200,151190,1,0,0:0:0:0:
220,196,151327,1,8,0:0:0:0:
220,196,151395,1,8,0:0:0:0:
220,196,151463,1,8,0:0:0:0:
220,196,151600,1,0,0:0:0:0:
84,168,151736,1,8,0:0:0:0:
84,168,151804,1,0,0:0:0:0:
84,168,151872,1,8,0:0:0:0:
84,168,152009,1,0,0:0:0:0:
84,168,152145,1,0,0:0:0:0:
84,168,152213,1,0,0:0:0:0:
84,168,152281,1,8,0:0:0:0:
84,168,152418,1,0,0:0:0:0:
84,168,152554,1,0,0:0:0:0:
84,168,152622,1,0,0:0:0:0:
136,132,152690,1,8,0:0:0:0:
136,132,152827,1,8,0:0:0:0:
176,216,152963,1,0,0:0:0:0:
176,216,153031,1,0,0:0:0:0:
176,216,153100,1,0,0:0:0:0:
176,216,153168,1,0,0:0:0:0:
176,216,153236,1,8,0:0:0:0:
176,216,153372,1,12,0:0:0:0:
176,216,153645,1,12,0:0:0:0:
176,216,154190,1,12,0:0:0:0:
176,216,154463,1,4,0:0:0:0:
176,216,155554,1,4,0:0:0:0:
184,120,155690,1,0,0:0:0:0:
184,120,155759,1,0,0:0:0:0:
184,120,155827,1,8,0:0:0:0:
184,120,155963,1,8,0:0:0:0:
184,120,156031,1,8,0:0:0:0:
184,120,156100,1,8,0:0:0:0:
184,120,156236,1,0,0:0:0:0:
184,120,156304,1,0,0:0:0:0:
184,120,156372,1,8,0:0:0:0:
184,120,156509,1,8,0:0:0:0:
176,168,156645,1,0,0:0:0:0:
244,152,156918,2,0,L|276:156,15,23.3333333333333,0|0|0|0|0|0|0|0|0|0|0|0|0|0|0|0,0:0|0:0|0:0|0:0|0:0|0:0|0:0|0:0|0:0|0:0|0:0|0:0|0:0|0:0|0:0|0:0,0:0:0:0:
260,120,157736,1,8,0:0:0:0:
168,196,157872,1,8,0:0:0:0:
168,196,158145,1,0,0:0:0:0:
168,196,158281,1,8,0:0:0:0:
168,196,158418,1,0,0:0:0:0:
168,196,158554,1,0,0:0:0:0:
168,196,158690,1,8,0:0:0:0:
168,196,158963,1,0,0:0:0:0:
168,196,159100,1,8,0:0:0:0:
168,196,159236,1,8,0:0:0:0:
168,196,159372,1,0,0:0:0:0:
168,196,159509,1,8,0:0:0:0:
168,196,159645,1,0,0:0:0:0:
168,196,159781,1,0,0:0:0:0:
168,196,159918,1,8,0:0:0:0:
168,196,160054,1,0,0:0:0:0:
168,196,160190,1,8,0:0:0:0:
168,196,160327,1,8,0:0:0:0:
168,196,160463,1,0,0:0:0:0:
168,196,160600,1,8,0:0:0:0:
168,196,160736,1,8,0:0:0:0:
168,196,160872,1,0,0:0:0:0:
168,196,161009,1,8,0:0:0:0:
168,196,161145,1,0,0:0:0:0:
112,96,161281,1,8,0:0:0:0:
172,196,161418,1,0,0:0:0:0:
172,196,161463,1,0,0:0:0:0:
172,196,161509,1,0,0:0:0:0:
172,196,161554,1,8,0:0:0:0:
112,96,161690,1,8,0:0:0:0:
112,96,161827,1,0,0:0:0:0:
292,148,161895,1,0,0:0:0:0:
112,96,161963,1,8,0:0:0:0:
112,96,162100,1,4,0:0:0:0:
112,96,162236,1,8,0:0:0:0:
112,96,162372,1,8,0:0:0:0:
112,96,162509,1,0,0:0:0:0:
200,176,162781,1,8,0:0:0:0:
200,176,162918,1,0,0:0:0:0:
200,176,162986,1,0,0:0:0:0:
200,176,163054,1,8,0:0:0:0:
200,176,163190,1,8,0:0:0:0:
200,176,163259,1,8,0:0:0:0:
200,176,163327,1,8,0:0:0:0:
200,176,163395,1,8,0:0:0:0:
200,176,163463,1,0,0:0:0:0:
200,176,163600,1,8,0:0:0:0:
200,176,163736,1,0,0:0:0:0:
200,176,163804,1,0,0:0:0:0:
200,176,163872,1,8,0:0:0:0:
200,176,164009,1,8,0:0:0:0:
200,176,164145,1,0,0:0:0:0:
200,176,164213,1,0,0:0:0:0:
200,176,164281,1,8,0:0:0:0:
216,128,164418,1,8,0:0:0:0:
216,128,164554,1,8,0:0:0:0:
216,128,164690,1,0,0:0:0:0:
216,128,164963,1,8,0:0:0:0:
216,128,165100,1,0,0:0:0:0:
216,128,165236,1,8,0:0:0:0:
216,128,165304,1,8,0:0:0:0:
216,128,165372,1,8,0:0:0:0:
280,60,165509,1,0,0:0:0:0:
264,224,165577,1,0,0:0:0:0:
280,60,165645,1,8,0:0:0:0:
280,60,165781,1,8,0:0:0:0:
280,60,165918,1,0,0:0:0:0:
296,184,165986,1,0,0:0:0:0:
280,60,166054,1,8,0:0:0:0:
196,200,166190,1,8,0:0:0:0:
296,192,166327,1,0,0:0:0:0:
160,212,166395,1,0,0:0:0:0:
296,192,166463,1,8,0:0:0:0:
196,200,166531,1,0,0:0:0:0:
296,192,166600,1,8,0:0:0:0:
296,192,166736,1,8,0:0:0:0:
296,192,166872,1,0,0:0:0:0:
112,128,167009,1,8,0:0:0:0:
112,128,167145,1,8,0:0:0:0:
112,128,167281,1,0,0:0:0:0:
100,152,167418,1,8,0:0:0:0:
100,152,167486,1,0,0:0:0:0:
100,152,167554,1,8,0:0:0:0:
100,152,167690,1,0,0:0:0:0:
208,152,167827,1,8,0:0:0:0:
208,152,167895,1,0,0:0:0:0:
208,152,167963,1,8,0:0:0:0:
216,184,168100,1,0,0:0:0:0:
216,184,168168,1,0,0:0:0:0:
216,184,168236,1,8,0:0:0:0:
216,184,168304,1,8,0:0:0:0:
216,184,168372,1,0,0:0:0:0:
216,184,168509,1,0,0:0:0:0:
216,184,168577,1,0,0:0:0:0:
216,184,168645,1,8,0:0:0:0:
216,184,168781,1,8,0:0:0:0:
144,132,168850,1,8,0:0:0:0:
144,132,168918,1,8,0:0:0:0:
144,132,168986,1,8,0:0:0:0:
144,132,169054,1,0,0:0:0:0:
144,132,169190,1,0,0:0:0:0:
144,132,169259,1,0,0:0:0:0:
128,108,169327,1,8,0:0:0:0:
176,196,169463,1,8,0:0:0:0:
176,196,169600,1,0,0:0:0:0:
176,196,169736,1,0,0:0:0:0:
140,160,169781,1,0,0:0:0:0:
140,160,169827,1,0,0:0:0:0:
140,160,169872,1,8,0:0:0:0:
168,216,169940,1,8,0:0:0:0:
168,216,170009,1,8,0:0:0:0:
168,216,170077,1,8,0:0:0:0:
168,216,170145,1,0,0:0:0:0:
168,216,170213,1,0,0:0:0:0:
168,216,170281,1,8,0:0:0:0:
168,216,170350,1,0,0:0:0:0:
168,216,170418,1,8,0:0:0:0:
168,216,170486,1,0,0:0:0:0:
168,216,170554,1,8,0:0:0:0:
168,216,170690,1,8,0:0:0:0:
168,216,170827,1,4,0:0:0:0:
296,228,170963,1,0,0:0:0:0:
296,228,171031,1,0,0:0:0:0:
296,228,171100,1,8,0:0:0:0:
192,204,171236,1,0,0:0:0:0:
240,160,171304,1,0,0:0:0:0:
192,204,171372,1,8,0:0:0:0:
192,204,171509,1,8,0:0:0:0:
192,204,171645,1,0,0:0:0:0:
192,204,171713,1,0,0:0:0:0:
192,204,171781,1,8,0:0:0:0:
192,204,171850,1,0,0:0:0:0:
192,204,171918,1,8,0:0:0:0:
192,204,172054,1,0,0:0:0:0:
80,132,172122,1,8,0:0:0:0:
120,120,172190,1,8,0:0:0:0:
120,120,172259,1,8,0:0:0:0:
120,120,172327,1,8,0:0:0:0:
120,120,172463,1,0,0:0:0:0:
192,120,172531,1,0,0:0:0:0:
120,120,172600,1,8,0:0:0:0:
120,120,172668,1,8,0:0:0:0:
120,120,172736,1,0,0:0:0:0:
120,120,172804,1,8,0:0:0:0:
120,120,172872,1,0,0:0:0:0:
120,120,172940,1,0,0:0:0:0:
120,120,173009,1,8,0:0:0:0:
280,176,173145,1,0,0:0:0:0:
280,176,173213,1,0,0:0:0:0:
280,176,173281,1,8,0:0:0:0:
240,196,173418,1,8,0:0:0:0:
240,196,173554,1,0,0:0:0:0:
312,68,173622,1,0,0:0:0:0:
312,68,173690,1,8,0:0:0:0:
312,68,173759,1,0,0:0:0:0:
312,68,173827,1,8,0:0:0:0:
312,68,173895,1,0,0:0:0:0:
312,68,173963,1,8,0:0:0:0:
312,68,174031,1,0,0:0:0:0:
312,68,174100,1,8,0:0:0:0:
312,68,174168,1,8,0:0:0:0:
284,88,174236,1,8,0:0:0:0:
392,20,174304,1,8,0:0:0:0:
392,20,174372,1,0,0:0:0:0:
392,20,174509,1,0,0:0:0:0:
392,20,174645,1,8,0:0:0:0:
392,20,174713,1,0,0:0:0:0:
392,20,174781,1,8,0:0:0:0:
392,20,174918,1,0,0:0:0:0:
292,140,175054,1,8,0:0:0:0:
136,200,175122,1,0,0:0:0:0:
292,140,175190,1,8,0:0:0:0:
136,200,175327,1,0,0:0:0:0:
224,124,175395,1,0,0:0:0:0:
136,200,175463,1,8,0:0:0:0:
432,120,175600,1,8,0:0:0:0:
432,120,175668,1,8,0:0:0:0:
432,120,175736,1,0,0:0:0:0:
432,120,175804,1,0,0:0:0:0:
432,120,175872,1,8,0:0:0:0:
432,120,176009,1,8,0:0:0:0:
432,120,176145,1,0,0:0:0:0:
432,120,176281,1,8,0:0:0:0:
232,124,176350,1,0,0:0:0:0:
432,120,176418,1,8,0:0:0:0:
432,120,176486,1,8,0:0:0:0:
432,120,176554,1,0,0:0:0:0:
200,112,176622,1,0,0:0:0:0:
432,120,176690,1,8,0:0:0:0:
432,120,176759,1,8,0:0:0:0:
432,120,176827,1,0,0:0:0:0:
432,120,176963,1,8,0:0:0:0:
432,120,177031,1,0,0:0:0:0:
432,120,177100,1,8,0:0:0:0:
160,168,177168,1,8,0:0:0:0:
432,120,177236,1,8,0:0:0:0:
432,120,177304,1,8,0:0:0:0:
432,120,177372,1,0,0:0:0:0:
304,140,179554,1,4,0:0:0:0:
308,160,179690,1,0,0:0:0:0:
308,160,179758,1,0,0:0:0:0:
308,160,179826,1,8,0:0:0:0:
308,160,179963,1,0,0:0:0:0:
308,160,180031,1,0,0:0:0:0:
308,160,180099,1,0,0:0:0:0:
308,160,180236,1,0,0:0:0:0:
308,160,180304,1,0,0:0:0:0:
308,160,180372,1,8,0:0:0:0:
136,188,180509,1,0,0:0:0:0:
136,188,180577,1,0,0:0:0:0:
136,188,180645,1,0,0:0:0:0:
136,188,180781,1,0,0:0:0:0:
136,188,180850,1,0,0:0:0:0:
136,188,180918,1,8,0:0:0:0:
316,240,181054,1,0,0:0:0:0:
316,240,181122,1,0,0:0:0:0:
316,240,181190,1,8,0:0:0:0:
364,88,181259,1,0,0:0:0:0:
368,152,181327,1,8,0:0:0:0:
368,152,181395,1,0,0:0:0:0:
368,152,181463,1,8,0:0:0:0:
292,176,181531,1,0,0:0:0:0:
364,88,181600,1,8,0:0:0:0:
364,88,181668,1,0,0:0:0:0:
364,88,181736,1,0,0:0:0:0:
364,88,181872,1,0,0:0:0:0:
364,88,181940,1,0,0:0:0:0:
364,88,182009,1,8,0:0:0:0:
364,88,182145,1,0,0:0:0:0:
364,88,182213,1,0,0:0:0:0:
340,144,182281,1,0,0:0:0:0:
340,144,182418,1,0,0:0:0:0:
340,144,182486,1,0,0:0:0:0:
340,144,182554,1,8,0:0:0:0:
180,136,182690,1,0,0:0:0:0:
192,128,182759,1,0,0:0:0:0:
192,128,182827,1,0,0:0:0:0:
192,128,182963,1,0,0:0:0:0:
192,128,183031,1,0,0:0:0:0:
192,128,183100,1,8,0:0:0:0:
192,128,183236,1,0,0:0:0:0:
192,128,183304,1,0,0:0:0:0:
192,128,183372,1,8,0:0:0:0:
192,128,183440,1,0,0:0:0:0:
192,128,183509,1,8,0:0:0:0:
192,128,183577,1,0,0:0:0:0:
192,128,183645,1,8,0:0:0:0:
192,128,183713,1,0,0:0:0:0:
208,92,183781,1,8,0:0:0:0:
72,200,183850,1,0,0:0:0:0:
208,92,183918,1,0,0:0:0:0:
400,160,184054,1,0,0:0:0:0:
400,160,184122,1,0,0:0:0:0:
224,152,184190,1,8,0:0:0:0:
304,140,184327,1,0,0:0:0:0:
304,140,184395,1,0,0:0:0:0:
304,140,184463,1,0,0:0:0:0:
304,140,184600,1,0,0:0:0:0:
304,140,184668,1,0,0:0:0:0:
304,140,184736,1,8,0:0:0:0:
304,140,184872,1,0,0:0:0:0:
304,140,184940,1,0,0:0:0:0:
304,140,185009,1,0,0:0:0:0:
304,140,185145,1,0,0:0:0:0:
304,140,185213,1,0,0:0:0:0:
304,140,185281,1,8,0:0:0:0:
304,140,185418,1,0,0:0:0:0:
304,140,185486,1,0,0:0:0:0:
304,140,185554,1,8,0:0:0:0:
304,140,185622,1,8,0:0:0:0:
304,140,185690,1,8,0:0:0:0:
304,140,185759,1,8,0:0:0:0:
152,136,185827,1,0,0:0:0:0:
152,136,185895,1,0,0:0:0:0:
348,56,185963,1,8,0:0:0:0:
128,164,186031,1,8,0:0:0:0:
348,56,186100,1,0,0:0:0:0:
348,56,186236,1,0,0:0:0:0:
348,56,186304,1,0,0:0:0:0:
348,56,186372,1,8,0:0:0:0:
348,56,186509,1,0,0:0:0:0:
348,56,186577,1,0,0:0:0:0:
348,56,186645,1,0,0:0:0:0:
348,56,186781,1,0,0:0:0:0:
348,56,186850,1,0,0:0:0:0:
348,56,186918,1,8,0:0:0:0:
368,108,187054,1,0,0:0:0:0:
368,108,187122,1,0,0:0:0:0:
368,108,187190,1,8,0:0:0:0:
368,104,187236,1,8,0:0:0:0:
368,104,187281,1,8,0:0:0:0:
368,104,187327,1,0,0:0:0:0:
416,88,187395,1,0,0:0:0:0:
416,88,187463,1,8,0:0:0:0:
416,88,187531,1,8,0:0:0:0:
416,88,187600,1,8,0:0:0:0:
416,88,187668,1,0,0:0:0:0:
416,88,187736,1,8,0:0:0:0:
416,88,187804,1,0,0:0:0:0:
416,88,187872,1,8,0:0:0:0:
416,88,187940,1,0,0:0:0:0:
416,88,188009,1,8,0:0:0:0:
416,88,188145,1,8,0:0:0:0:
416,88,188281,1,12,0:0:0:0:
108,200,188418,1,0,0:0:0:0:
108,200,188486,1,0,0:0:0:0:
108,200,188554,1,8,0:0:0:0:
380,104,188622,1,8,0:0:0:0:
108,200,188690,1,0,0:0:0:0:
108,200,188759,1,8,0:0:0:0:
108,200,188827,1,0,0:0:0:0:
176,228,188895,1,0,0:0:0:0:
176,228,188963,1,8,0:0:0:0:
288,112,189031,1,0,0:0:0:0:
288,112,189100,1,8,0:0:0:0:
380,104,189168,1,8,0:0:0:0:
288,112,189236,1,0,0:0:0:0:
288,112,189304,1,0,0:0:0:0:
288,112,189372,1,8,0:0:0:0:
264,220,189440,1,8,0:0:0:0:
288,112,189509,1,0,0:0:0:0:
288,112,189577,1,0,0:0:0:0:
288,112,189645,1,8,0:0:0:0:
316,164,189713,1,8,0:0:0:0:
288,112,189781,1,0,0:0:0:0:
288,112,189850,1,0,0:0:0:0:
288,112,189918,1,8,0:0:0:0:
304,144,189986,1,0,0:0:0:0:
320,80,190054,1,8,0:0:0:0:
232,120,190122,1,0,0:0:0:0:
320,80,190190,1,8,0:0:0:0:
304,144,190259,1,0,0:0:0:0:
304,144,190327,1,8,0:0:0:0:
96,180,190395,1,0,0:0:0:0:
96,180,190463,1,8,0:0:0:0:
256,144,190531,1,8,0:0:0:0:
256,144,190600,1,0,0:0:0:0:
256,144,190668,1,0,0:0:0:0:
256,144,190736,1,8,0:0:0:0:
316,224,190804,1,8,0:0:0:0:
256,144,190872,1,0,0:0:0:0:
256,144,190940,1,8,0:0:0:0:
256,144,191009,1,0,0:0:0:0:
88,172,191077,1,0,0:0:0:0:
88,172,191145,1,8,0:0:0:0:
88,172,191213,1,0,0:0:0:0:
88,172,191281,1,8,0:0:0:0:
88,172,191350,1,8,0:0:0:0:
88,172,191418,1,0,0:0:0:0:
88,172,191486,1,0,0:0:0:0:
88,172,191554,1,8,0:0:0:0:
184,240,191622,1,8,0:0:0:0:
184,240,191690,1,0,0:0:0:0:
184,240,191759,1,0,0:0:0:0:
184,240,191827,1,8,0:0:0:0:
240,208,191895,1,8,0:0:0:0:
240,208,191963,1,0,0:0:0:0:
240,208,192031,1,0,0:0:0:0:
240,208,192100,1,8,0:0:0:0:
240,208,192168,1,8,0:0:0:0:
240,208,192236,1,8,0:0:0:0:
240,208,192304,1,8,0:0:0:0:
240,208,192372,1,0,0:0:0:0:
240,208,192440,1,0,0:0:0:0:
240,208,192509,1,8,0:0:0:0:
240,208,192577,1,0,0:0:0:0:
240,208,192645,1,8,0:0:0:0:
240,208,192713,1,8,0:0:0:0:
240,208,192781,1,0,0:0:0:0:
240,208,192850,1,0,0:0:0:0:
240,208,192918,1,8,0:0:0:0:
176,168,192986,1,8,0:0:0:0:
304,188,193054,1,0,0:0:0:0:
304,188,193122,1,8,0:0:0:0:
304,188,193190,1,0,0:0:0:0:
304,188,193259,1,0,0:0:0:0:
304,188,193327,1,8,0:0:0:0:
304,188,193395,1,0,0:0:0:0:
304,188,193463,1,8,0:0:0:0:
304,188,193531,1,8,0:0:0:0:
304,188,193600,1,0,0:0:0:0:
304,188,193668,1,0,0:0:0:0:
304,188,193736,1,8,0:0:0:0:
304,188,193804,1,8,0:0:0:0:
304,188,193872,1,0,0:0:0:0:
304,188,193940,1,0,0:0:0:0:
304,188,194009,1,8,0:0:0:0:
268,232,194077,1,0,0:0:0:0:
268,232,194145,1,8,0:0:0:0:
268,232,194213,1,0,0:0:0:0:
224,124,194281,1,8,0:0:0:0:
224,124,194350,1,8,0:0:0:0:
224,124,194418,1,0,0:0:0:0:
224,124,194486,1,0,0:0:0:0:
224,124,194554,1,8,0:0:0:0:
208,148,194622,1,0,0:0:0:0:
208,148,194690,1,8,0:0:0:0:
208,148,194759,1,0,0:0:0:0:
208,148,194827,1,8,0:0:0:0:
148,180,194895,1,8,0:0:0:0:
148,180,194963,1,0,0:0:0:0:
148,180,195031,1,0,0:0:0:0:
148,180,195100,1,8,0:0:0:0:
208,196,195168,1,8,0:0:0:0:
376,124,195236,1,0,0:0:0:0:
376,124,195304,1,8,0:0:0:0:
376,124,195372,1,0,0:0:0:0:
376,124,195440,1,0,0:0:0:0:
376,124,195509,1,8,0:0:0:0:
376,124,195645,1,8,0:0:0:0:
348,72,195713,1,8,0:0:0:0:
376,124,195781,1,0,0:0:0:0:
352,108,195918,1,4,0:0:0:0:
276,132,196054,1,8,0:0:0:0:
276,132,196190,1,4,0:0:0:0:
276,132,196327,1,4,0:0:0:0:
276,132,196463,1,8,0:0:0:0:
276,132,196600,1,4,0:0:0:0:
276,132,196736,1,12,0:0:0:0:
276,132,196872,1,12,0:0:0:0:
276,132,197009,1,4,0:0:0:0:
332,192,197145,1,8,0:0:0:0:
280,224,197281,1,8,0:0:0:0:
152,128,197418,1,0,0:0:0:0:
152,128,197486,1,0,0:0:0:0:
152,128,197554,1,0,0:0:0:0:
152,128,197690,1,0,0:0:0:0:
152,128,197827,1,8,0:0:0:0:
152,128,197963,1,0,0:0:0:0:
152,128,198031,1,0,0:0:0:0:
152,128,198100,1,0,0:0:0:0:
152,128,198236,1,0,0:0:0:0:
152,128,198372,1,8,0:0:0:0:
152,128,198509,1,0,0:0:0:0:
152,128,198645,1,0,0:0:0:0:
152,128,198781,1,8,0:0:0:0:
152,128,198918,1,0,0:0:0:0:
152,128,199054,1,8,0:0:0:0:
152,128,199190,1,0,0:0:0:0:
300,192,199327,1,0,0:0:0:0:
300,192,199463,1,8,0:0:0:0:
332,192,199600,1,0,0:0:0:0:
332,192,199668,1,0,0:0:0:0:
332,192,199736,1,0,0:0:0:0:
332,192,199872,1,0,0:0:0:0:
332,192,200009,1,8,0:0:0:0:
332,192,200145,1,0,0:0:0:0:
332,192,200213,1,0,0:0:0:0:
332,192,200281,1,0,0:0:0:0:
332,192,200418,1,0,0:0:0:0:
356,112,200554,1,8,0:0:0:0:
280,232,200690,1,0,0:0:0:0:
280,232,200827,1,0,0:0:0:0:
280,232,200963,1,8,0:0:0:0:
280,232,201100,1,0,0:0:0:0:
280,232,201236,1,8,0:0:0:0:
280,232,201372,1,0,0:0:0:0:
252,204,201509,1,0,0:0:0:0:
252,204,201645,1,8,0:0:0:0:
252,204,201781,1,0,0:0:0:0:
252,204,201850,1,0,0:0:0:0:
252,204,201918,1,8,0:0:0:0:
172,120,202054,1,8,0:0:0:0:
172,120,202190,1,0,0:0:0:0:
172,120,202327,1,8,0:0:0:0:
172,120,202463,1,8,0:0:0:0:
172,120,202531,1,8,0:0:0:0:
160,136,202600,1,8,0:0:0:0:
160,136,202736,1,0,0:0:0:0:
160,136,202872,1,8,0:0:0:0:
160,136,202940,1,8,0:0:0:0:
264,136,203009,1,8,0:0:0:0:
264,136,203145,1,0,0:0:0:0:
264,136,203281,1,8,0:0:0:0:
264,136,203350,1,8,0:0:0:0:
264,136,203418,1,8,0:0:0:0:
264,136,203486,1,8,0:0:0:0:
264,136,203554,1,0,0:0:0:0:
264,136,203622,1,0,0:0:0:0:
264,136,203690,1,8,0:0:0:0:
264,136,203759,1,0,0:0:0:0:
264,136,203827,1,8,0:0:0:0:
164,120,203963,1,0,0:0:0:0:
164,120,204031,1,0,0:0:0:0:
164,120,204100,1,8,0:0:0:0:
168,128,204168,1,0,0:0:0:0:
164,120,204236,1,8,0:0:0:0:
164,120,204372,1,0,0:0:0:0:
168,168,204440,1,0,0:0:0:0:
164,120,204509,1,8,0:0:0:0:
164,120,204577,1,0,0:0:0:0:
164,120,204645,1,8,0:0:0:0:
168,168,204713,1,0,0:0:0:0:
168,168,204781,1,8,0:0:0:0:
168,168,204850,1,0,0:0:0:0:
168,168,204918,1,8,0:0:0:0:
168,168,204986,1,0,0:0:0:0:
168,168,205054,1,8,0:0:0:0:
168,168,205122,1,0,0:0:0:0:
168,168,205190,1,8,0:0:0:0:
168,168,205259,1,0,0:0:0:0:
168,168,205327,1,8,0:0:0:0:
168,168,205395,1,0,0:0:0:0:
168,168,205463,1,8,0:0:0:0:
168,168,205531,1,0,0:0:0:0:
168,168,205600,1,8,0:0:0:0:
168,168,205668,1,8,0:0:0:0:
168,168,205736,1,0,0:0:0:0:
240,240,205872,1,0,0:0:0:0:
240,240,205940,1,0,0:0:0:0:
240,240,206009,1,8,0:0:0:0:
160,144,206145,1,8,0:0:0:0:
160,144,206213,1,8,0:0:0:0:
160,144,206281,1,0,0:0:0:0:
160,144,206418,1,0,0:0:0:0:
160,144,206554,1,8,0:0:0:0:
160,144,206690,1,0,0:0:0:0:
160,144,206827,1,0,0:0:0:0:
160,144,206895,1,0,0:0:0:0:
160,144,206963,1,0,0:0:0:0:
160,144,207100,1,8,0:0:0:0:
160,144,207236,1,0,0:0:0:0:
160,144,207304,1,0,0:0:0:0:
160,144,207372,1,0,0:0:0:0:
160,144,207509,1,8,0:0:0:0:
160,144,207645,1,0,0:0:0:0:
296,188,207713,1,0,0:0:0:0:
160,144,207781,1,8,0:0:0:0:
160,144,207918,1,0,0:0:0:0:
196,120,207986,1,0,0:0:0:0:
160,144,208054,1,0,0:0:0:0:
160,144,208190,1,8,0:0:0:0:
160,144,208327,1,0,0:0:0:0:
160,144,208463,1,0,0:0:0:0:
160,144,208531,1,0,0:0:0:0:
160,144,208600,1,0,0:0:0:0:
160,144,208736,1,8,0:0:0:0:
160,144,208872,1,0,0:0:0:0:
160,144,209009,1,0,0:0:0:0:
192,112,209077,1,0,0:0:0:0:
160,144,209145,1,0,0:0:0:0:
160,144,209281,1,8,0:0:0:0:
160,144,209418,1,0,0:0:0:0:
208,132,209486,1,0,0:0:0:0:
160,144,209554,1,0,0:0:0:0:
192,112,209690,1,8,0:0:0:0:
192,112,209827,1,0,0:0:0:0:
192,112,209895,1,0,0:0:0:0:
192,112,209963,1,8,0:0:0:0:
192,112,210100,1,0,0:0:0:0:
248,204,210168,1,0,0:0:0:0:
248,204,210236,1,0,0:0:0:0:
248,204,210372,1,8,0:0:0:0:
248,204,210509,1,0,0:0:0:0:
248,204,210645,1,0,0:0:0:0:
248,204,210713,1,0,0:0:0:0:
248,204,210781,1,0,0:0:0:0:
248,204,210918,1,8,0:0:0:0:
96,184,211054,1,0,0:0:0:0:
96,184,211190,1,0,0:0:0:0:
96,184,211259,1,0,0:0:0:0:
96,184,211327,1,0,0:0:0:0:
292,104,211463,1,8,0:0:0:0:
292,104,211600,1,0,0:0:0:0:
252,96,211668,1,0,0:0:0:0:
292,104,211736,1,0,0:0:0:0:
292,104,211804,1,0,0:0:0:0:
292,104,211872,1,8,0:0:0:0:
328,152,212009,1,0,0:0:0:0:
252,96,212077,1,0,0:0:0:0:
328,152,212145,1,8,0:0:0:0:
328,152,212281,1,0,0:0:0:0:
340,160,212350,1,0,0:0:0:0:
340,160,212418,1,0,0:0:0:0:
340,160,212554,1,8,0:0:0:0:
340,160,212690,1,8,0:0:0:0:
340,160,212827,1,0,0:0:0:0:
208,208,212895,1,0,0:0:0:0:
208,208,212963,1,8,0:0:0:0:
208,208,213100,1,0,0:0:0:0:
208,208,213168,1,0,0:0:0:0:
208,208,213236,1,8,0:0:0:0:
208,208,213372,1,4,0:0:0:0:
208,208,213645,1,12,0:0:0:0:
208,208,213781,1,4,0:0:0:0:
208,208,213918,1,4,0:0:0:0:
208,208,214054,1,12,0:0:0:0:
208,208,214463,1,4,0:0:0:0:
212,196,214600,1,0,0:0:0:0:
212,196,214668,1,0,0:0:0:0:
212,196,214736,1,8,0:0:0:0:
212,196,214804,1,8,0:0:0:0:
212,196,214872,1,0,0:0:0:0:
212,196,214940,1,0,0:0:0:0:
212,196,215009,1,8,0:0:0:0:
252,192,215077,1,0,0:0:0:0:
212,196,215145,1,8,0:0:0:0:
212,196,215213,1,0,0:0:0:0:
212,196,215281,1,8,0:0:0:0:
280,160,215350,1,8,0:0:0:0:
212,196,215418,1,0,0:0:0:0:
212,196,215554,1,4,0:0:0:0:
212,196,215690,1,0,0:0:0:0:
212,196,215759,1,0,0:0:0:0:
212,196,215827,1,8,0:0:0:0:
212,196,215895,1,8,0:0:0:0:
212,196,215963,1,0,0:0:0:0:
212,196,216031,1,0,0:0:0:0:
212,196,216100,1,8,0:0:0:0:
260,176,216168,1,0,0:0:0:0:
212,196,216236,1,8,0:0:0:0:
192,108,216304,1,0,0:0:0:0:
212,196,216372,1,8,0:0:0:0:
260,164,216440,1,8,0:0:0:0:
212,196,216509,1,0,0:0:0:0:
192,108,216645,1,4,0:0:0:0:
192,108,216781,1,8,0:0:0:0:
192,108,216850,1,0,0:0:0:0:
192,108,216918,1,8,0:0:0:0:
192,108,216986,1,8,0:0:0:0:
192,108,217054,1,0,0:0:0:0:
192,108,217122,1,0,0:0:0:0:
192,108,217190,1,8,0:0:0:0:
260,176,217259,1,0,0:0:0:0:
192,108,217327,1,8,0:0:0:0:
300,196,217395,1,0,0:0:0:0:
192,108,217463,1,8,0:0:0:0:
296,176,217531,1,8,0:0:0:0:
192,108,217600,1,0,0:0:0:0:
192,108,217736,1,0,0:0:0:0:
192,108,217872,1,8,0:0:0:0:
192,108,217940,1,0,0:0:0:0:
192,108,218009,1,8,0:0:0:0:
192,108,218077,1,8,0:0:0:0:
192,108,218145,1,0,0:0:0:0:
192,108,218213,1,0,0:0:0:0:
192,108,218281,1,8,0:0:0:0:
284,164,218350,1,0,0:0:0:0:
232,144,218418,1,8,0:0:0:0:
232,144,218486,1,0,0:0:0:0:
232,144,218554,1,8,0:0:0:0:
296,228,218622,1,8,0:0:0:0:
232,144,218690,1,0,0:0:0:0:
232,144,218827,1,4,0:0:0:0:
232,144,218963,1,0,0:0:0:0:
232,144,219031,1,0,0:0:0:0:
232,144,219100,1,8,0:0:0:0:
232,144,219168,1,0,0:0:0:0:
232,144,219236,1,8,0:0:0:0:
232,144,219304,1,0,0:0:0:0:
232,144,219372,1,8,0:0:0:0:
300,224,219440,1,8,0:0:0:0:
232,144,219509,1,0,0:0:0:0:
232,144,219577,1,0,0:0:0:0:
232,144,219645,1,8,0:0:0:0:
220,160,219713,1,0,0:0:0:0:
232,144,219781,1,8,0:0:0:0:
232,144,219918,1,0,0:0:0:0:
232,144,220054,1,0,0:0:0:0:
232,144,220122,1,0,0:0:0:0:
232,144,220190,1,8,0:0:0:0:
232,144,220259,1,0,0:0:0:0:
232,144,220327,1,8,0:0:0:0:
232,144,220395,1,0,0:0:0:0:
232,144,220463,1,8,0:0:0:0:
268,160,220531,1,8,0:0:0:0:
232,144,220600,1,0,0:0:0:0:
232,144,220668,1,0,0:0:0:0:
232,144,220736,1,8,0:0:0:0:
280,176,220804,1,0,0:0:0:0:
232,144,220872,1,8,0:0:0:0:
232,144,221009,1,4,0:0:0:0:
232,144,221145,1,0,0:0:0:0:
232,144,221213,1,0,0:0:0:0:
232,144,221281,1,8,0:0:0:0:
232,144,221350,1,0,0:0:0:0:
232,144,221418,1,8,0:0:0:0:
232,144,221486,1,0,0:0:0:0:
232,144,221554,1,8,0:0:0:0:
316,108,221645,1,0,0:0:0:0:
316,108,221736,1,0,0:0:0:0:
316,108,221827,1,8,0:0:0:0:
316,108,221963,1,0,0:0:0:0:
284,208,222100,1,8,0:0:0:0:
240,192,222236,1,12,0:0:0:0:
304,188,222372,1,4,0:0:0:0:
