osu file format v14

[General]
AudioFilename: 64_popstar_se.mp3
AudioLeadIn: 0
PreviewTime: 39165
Countdown: 0
SampleSet: Normal
StackLeniency: 0.7
Mode: 1
LetterboxInBreaks: 0
WidescreenStoryboard: 1

[Editor]
DistanceSpacing: 1.6
BeatDivisor: 4
GridSize: 32
TimelineZoom: 2

[Metadata]
Title:Pop Star (Super Euro Beat Version)
TitleUnicode:Pop Star (Super Euro Beat Version)
Artist:welle LICHT AWN
ArtistUnicode:welle LICHT AWN
Creator:Blackener
Version:Poyoni
Source:Kirby64
Tags:Kirby64, game
BeatmapID:1404442
BeatmapSetID:641242

[Difficulty]
HPDrainRate:5
CircleSize:2
OverallDifficulty:6
ApproachRate:6
SliderMultiplier:1.39830568828615
SliderTickRate:1

[Events]
//Background and Video events
0,0,"Kirby.Series.full.1731659.jpg",0,0
//Break Periods
//Storyboard Layer 0 (Background)
//Storyboard Layer 1 (Fail)
//Storyboard Layer 2 (Pass)
//Storyboard Layer 3 (Foreground)
//Storyboard Sound Samples

[TimingPoints]
1108.80762400505,342.857142857143,4,1,0,80,1,8
12080,-100,4,1,0,80,0,0
21851,-95.2380952380952,4,1,0,80,0,0
22108,-90.9090909090909,4,1,0,80,0,0
22365,-86.9565217391304,4,1,0,80,0,0
22537,-87.719298245614,4,1,0,80,0,0
22623,-88.4955752212389,4,1,0,80,0,0
22708,-89.2857142857143,4,1,0,80,0,0
23051,-90.0900900900901,4,1,0,80,0,0
23137,-90.9090909090909,4,1,0,80,0,0
23223,-91.743119266055,4,1,0,80,0,0
23308,-92.5925925925926,4,1,0,80,0,0
23394,-93.4579439252336,4,1,0,80,0,0
23565,-94.3396226415094,4,1,0,80,0,0
23651,-95.2380952380952,4,1,0,80,0,0
23737,-96.1538461538461,4,1,0,80,0,0
23908,-97.0873786407767,4,1,0,80,0,0
24080,-98.0392156862745,4,1,0,80,0,0
24165,-99.009900990099,4,1,0,80,0,0
24251,-100,4,1,0,80,0,0
39165,-99.009900990099,4,1,0,80,0,0
39251,-98.0392156862745,4,1,0,80,0,0
39337,-97.0873786407767,4,1,0,80,0,0
39423,-96.1538461538461,4,1,0,80,0,0
39508,-95.2380952380952,4,1,0,80,0,1
60080,-90.9090909090909,4,1,0,80,0,1
60423,-83.3333333333333,4,1,0,80,0,1
60765,-76.9230769230769,4,1,0,80,0,1
61108,-100,4,1,0,80,0,1
61451,-100,4,1,0,80,0,0
72251,-99.009900990099,4,1,0,80,0,0
72337,-98.0392156862745,4,1,0,80,0,0
72423,-97.0873786407767,4,1,0,80,0,1
72594,-96.1538461538461,4,1,0,80,0,1
72765,-95.2380952380952,4,1,0,80,0,1
92994,-90.9090909090909,4,1,0,80,0,1
93337,-83.3333333333333,4,1,0,80,0,1
93679,-76.9230769230769,4,1,0,80,0,1
94023,-100,4,1,0,80,0,1
94365,-100,4,1,0,80,0,0
115965,-99.009900990099,4,1,0,80,0,0
116051,-98.0392156862745,4,1,0,80,0,0
116137,-97.0873786407767,4,1,0,80,0,0
116223,-96.1538461538461,4,1,0,80,0,0
116308,-95.2380952380952,4,1,0,80,0,0
127280,-100,4,1,0,80,0,0
128651,-125,4,1,0,80,0,0
129337,-121.951219512195,4,1,0,80,0,0
130023,-119.047619047619,4,1,0,80,0,0
131394,-116.279069767442,4,1,0,80,0,0
131737,-113.636363636364,4,1,0,80,0,0
131908,-108.695652173913,4,1,0,80,0,0
132080,-104.166666666667,4,1,0,80,0,0
132337,-102.040816326531,4,1,0,80,0,0
132594,-100,4,1,0,80,0,0
137908,-99.009900990099,4,1,0,80,0,0
138080,-97.0873786407767,4,1,0,80,0,0
138165,-96.1538461538461,4,1,0,80,0,0
138251,-95.2380952380952,4,1,0,80,0,1
147851,-90.9090909090909,4,1,0,80,0,1
148194,-83.3333333333333,4,1,0,80,0,1
148536,-76.9230769230769,4,1,0,80,0,1
148880,-111.111111111111,4,1,0,80,0,1
149051,-111.111111111111,4,1,0,80,0,1
149223,-111.111111111111,4,1,0,80,0,0
165165,-109.89010989011,4,1,0,80,0,0
165337,-108.695652173913,4,1,0,80,0,0
165423,-107.52688172043,4,1,0,80,0,0
165508,-106.382978723404,4,1,0,80,0,0
165594,-105.263157894737,4,1,0,80,0,0
165680,-104.166666666667,4,1,0,80,0,0
165937,-103.092783505155,4,1,0,80,0,0
166023,-102.040816326531,4,1,0,80,0,0
166194,-101.010101010101,4,1,0,80,0,0
166365,-100,4,1,0,80,0,0
176480,-101.010101010101,4,1,0,80,0,0
176565,-102.040816326531,4,1,0,80,0,0
176651,-103.092783505155,4,1,0,80,0,0
176674,361.44578313253,4,1,0,80,1,8
176854,-101.010101010101,4,1,0,80,0,0
177035,-102.040816326531,4,1,0,80,0,0
177216,-103.092783505155,4,1,0,80,0,0
177396,-104.166666666667,4,1,0,80,0,0
177577,-105.263157894737,4,1,0,80,0,0
177758,-106.382978723404,4,1,0,80,0,0
177848,-107.52688172043,4,1,0,80,0,0
177939,-108.695652173913,4,1,0,80,0,0
178119,350.877192982456,4,1,0,80,1,8
178119,-111.111111111111,4,1,0,80,0,8
187943,-112.359550561798,4,1,0,80,0,0
188469,-113.636363636364,4,1,0,80,0,0
188820,-114.942528735632,4,1,0,80,0,0
188996,-116.279069767442,4,1,0,80,0,0
189171,-117.647058823529,4,1,0,80,0,0
189347,-119.047619047619,4,1,0,80,0,0
189873,-120.481927710843,4,1,0,80,0,0
190048,-121.951219512195,4,1,0,80,0,0
190399,-123.456790123457,4,1,0,80,0,0
190750,-125,4,1,0,80,0,0
196364,-123.456790123457,4,1,0,80,0,0
196540,-121.951219512195,4,1,0,80,0,0
196627,-120.481927710843,4,1,0,80,0,0
196715,-119.047619047619,4,1,0,80,0,0
196890,-117.647058823529,4,1,0,80,0,0
197066,-116.279069767442,4,1,0,80,0,0
197241,-114.942528735632,4,1,0,80,0,0
197417,-113.636363636364,4,1,0,80,0,0
197592,-112.359550561798,4,1,0,80,0,0
197768,-111.111111111111,4,1,0,80,0,0
197943,-109.89010989011,4,1,0,80,0,0
198031,-108.695652173913,4,1,0,80,0,0
198119,-107.52688172043,4,1,0,80,0,0
198294,-106.382978723404,4,1,0,80,0,0
198382,-105.263157894737,4,1,0,80,0,0
198469,-104.166666666667,4,1,0,80,0,0
198645,-103.092783505155,4,1,0,80,0,0
198820,-102.040816326531,4,1,0,80,0,0
198908,-101.010101010101,4,1,0,80,0,0
198996,-100,4,1,0,80,0,0
199083,-99.009900990099,4,1,0,80,0,0
199171,342.857142857143,4,1,0,80,1,9
199171,-99.009900990099,4,1,0,80,0,1
199342,-98.0392156862745,4,1,0,80,0,1
199428,-97.0873786407767,4,1,0,80,0,1
199513,-96.1538461538461,4,1,0,80,0,1
199685,-95.2380952380952,4,1,0,80,0,1
209799,-96.1538461538461,4,1,0,80,0,1
209885,-97.0873786407767,4,1,0,80,0,1
209971,-98.0392156862745,4,1,0,80,0,1
210056,-99.009900990099,4,1,0,80,0,1
210142,-100,4,1,0,80,0,0
230885,-95.2380952380952,4,1,0,80,0,0
231142,-90.9090909090909,4,1,0,80,0,0
231399,-86.9565217391304,4,1,0,80,0,0
231571,-86.2068965517241,4,1,0,80,0,0
231656,-85.4700854700855,4,1,0,80,0,0
231742,-84.7457627118644,4,1,0,80,0,0
232085,-83.3333333333333,4,1,0,80,0,0

[HitObjects]
256,192,1108,5,4,0:0:0:0:
256,192,1365,1,0,0:0:0:0:
256,192,1623,1,0,0:0:0:0:
256,192,1965,1,0,0:0:0:0:
256,192,2137,1,8,0:0:0:0:
256,192,2308,1,8,0:0:0:0:
256,192,2480,1,0,0:0:0:0:
256,192,2737,1,0,0:0:0:0:
256,192,2994,1,0,0:0:0:0:
256,192,3337,1,8,0:0:0:0:
256,192,3508,1,0,0:0:0:0:
256,192,3680,1,0,0:0:0:0:
256,192,3851,1,8,0:0:0:0:
256,192,4108,1,0,0:0:0:0:
256,192,4365,1,0,0:0:0:0:
256,192,4880,1,0,0:0:0:0:
256,192,4965,1,0,0:0:0:0:
256,192,5051,1,8,0:0:0:0:
256,192,5137,1,0,0:0:0:0:
256,192,5223,1,8,0:0:0:0:
256,192,5480,1,8,0:0:0:0:
256,192,5737,1,8,0:0:0:0:
256,192,6080,1,0,0:0:0:0:
256,192,6251,1,0,0:0:0:0:
256,192,6423,1,0,0:0:0:0:
256,192,6594,1,12,0:0:0:0:
256,192,6851,1,8,0:0:0:0:
256,192,7108,1,8,0:0:0:0:
256,192,7280,1,0,0:0:0:0:
256,192,7451,1,8,0:0:0:0:
288,192,7537,1,8,0:0:0:0:
256,192,7623,1,0,0:0:0:0:
288,192,7794,1,8,0:0:0:0:
288,192,7965,1,12,0:0:0:0:
288,192,8223,1,8,0:0:0:0:
288,192,8480,1,8,0:0:0:0:
288,192,8651,1,0,0:0:0:0:
288,192,8823,1,8,0:0:0:0:
288,192,8908,1,0,0:0:0:0:
288,192,8994,1,8,0:0:0:0:
288,192,9165,1,0,0:0:0:0:
288,192,9337,1,12,0:0:0:0:
288,192,9508,1,0,0:0:0:0:
288,192,9680,1,0,0:0:0:0:
288,192,9851,1,0,0:0:0:0:
288,192,10023,1,12,0:0:0:0:
288,192,10194,1,0,0:0:0:0:
288,192,10365,1,0,0:0:0:0:
288,192,10451,1,0,0:0:0:0:
288,192,10537,1,0,0:0:0:0:
288,192,10708,1,12,0:0:0:0:
288,192,10880,1,0,0:0:0:0:
288,192,11051,1,8,0:0:0:0:
288,192,11223,5,0,0:0:0:0:
288,192,11394,1,8,0:0:0:0:
288,192,11480,1,8,0:0:0:0:
288,192,11565,1,0,0:0:0:0:
288,192,11651,1,0,0:0:0:0:
288,192,11737,1,8,0:0:0:0:
288,192,11908,1,0,0:0:0:0:
288,192,11994,1,0,0:0:0:0:
288,192,12080,1,12,0:0:0:0:
288,192,12337,1,8,0:0:0:0:
288,192,12594,1,8,0:0:0:0:
256,192,12765,1,0,0:0:0:0:
288,192,12937,1,8,0:0:0:0:
256,192,13023,1,8,0:0:0:0:
256,192,13108,1,0,0:0:0:0:
256,192,13280,1,8,0:0:0:0:
288,192,13451,1,8,0:0:0:0:
288,192,13708,1,8,0:0:0:0:
288,192,13965,1,8,0:0:0:0:
288,192,14137,1,0,0:0:0:0:
288,192,14308,1,8,0:0:0:0:
288,192,14394,1,0,0:0:0:0:
288,192,14480,1,8,0:0:0:0:
288,192,14565,1,8,0:0:0:0:
288,192,14651,1,0,0:0:0:0:
288,160,14823,1,8,0:0:0:0:
288,160,15080,1,8,0:0:0:0:
288,160,15337,1,8,0:0:0:0:
288,160,15508,1,0,0:0:0:0:
288,160,15680,1,8,0:0:0:0:
288,160,15851,1,0,0:0:0:0:
288,160,15937,1,8,0:0:0:0:
288,160,16023,1,8,0:0:0:0:
288,160,16108,1,0,0:0:0:0:
288,160,16194,1,8,0:0:0:0:
288,160,16451,1,8,0:0:0:0:
288,160,16708,1,8,0:0:0:0:
256,192,16880,1,0,0:0:0:0:
288,160,17051,1,8,0:0:0:0:
288,160,17223,1,0,0:0:0:0:
288,160,17308,1,0,0:0:0:0:
288,160,17394,1,8,0:0:0:0:
288,160,17480,1,0,0:0:0:0:
288,192,17565,1,12,0:0:0:0:
288,192,17823,1,8,0:0:0:0:
288,192,18080,1,8,0:0:0:0:
288,192,18251,1,0,0:0:0:0:
288,192,18423,1,8,0:0:0:0:
256,192,18508,1,8,0:0:0:0:
256,192,18594,1,0,0:0:0:0:
256,192,18765,1,8,0:0:0:0:
288,192,18937,1,8,0:0:0:0:
288,192,19194,1,8,0:0:0:0:
288,192,19451,1,8,0:0:0:0:
288,192,19623,1,0,0:0:0:0:
256,192,19794,1,8,0:0:0:0:
256,192,19965,1,8,0:0:0:0:
256,192,20137,1,0,0:0:0:0:
256,192,20308,1,0,0:0:0:0:
256,192,20565,1,0,0:0:0:0:
256,192,20823,1,0,0:0:0:0:
256,192,21165,1,0,0:0:0:0:
256,192,21508,1,0,0:0:0:0:
256,192,21851,1,4,0:0:0:0:
256,192,22108,1,4,0:0:0:0:
256,192,22365,1,12,0:0:0:0:
256,192,22537,1,8,0:0:0:0:
256,192,22623,1,8,0:0:0:0:
256,192,22708,1,0,0:0:0:0:
256,192,23051,5,0,0:0:0:0:
256,192,23137,1,0,0:0:0:0:
256,192,23223,1,8,0:0:0:0:
256,192,23308,1,0,0:0:0:0:
256,192,23394,1,8,0:0:0:0:
256,192,23565,1,0,0:0:0:0:
256,192,23651,1,0,0:0:0:0:
256,192,23737,1,8,0:0:0:0:
256,160,23908,1,8,0:0:0:0:
256,160,24080,1,0,0:0:0:0:
256,160,24165,1,8,0:0:0:0:
256,160,24251,1,0,0:0:0:0:
256,192,24423,1,0,0:0:0:0:
256,192,24508,1,0,0:0:0:0:
256,192,24594,1,8,0:0:0:0:
256,192,24680,1,0,0:0:0:0:
256,192,24765,1,8,0:0:0:0:
256,192,24937,1,0,0:0:0:0:
256,192,25023,1,0,0:0:0:0:
256,192,25108,1,8,0:0:0:0:
256,192,25280,1,8,0:0:0:0:
256,192,25451,1,0,0:0:0:0:
256,192,25623,1,8,0:0:0:0:
256,192,25708,1,8,0:0:0:0:
256,192,25794,1,8,0:0:0:0:
256,192,25965,1,0,0:0:0:0:
256,192,26137,1,8,0:0:0:0:
256,192,26308,1,8,0:0:0:0:
256,192,26394,1,8,0:0:0:0:
256,192,26480,1,0,0:0:0:0:
256,192,26651,1,8,0:0:0:0:
256,192,26823,1,8,0:0:0:0:
256,192,26908,1,0,0:0:0:0:
256,192,26994,1,0,0:0:0:0:
256,192,27165,1,8,0:0:0:0:
256,192,27251,1,8,0:0:0:0:
256,192,27337,1,0,0:0:0:0:
256,192,27508,1,8,0:0:0:0:
256,192,27680,1,8,0:0:0:0:
256,192,27765,1,8,0:0:0:0:
256,192,27851,1,0,0:0:0:0:
256,192,28023,1,8,0:0:0:0:
256,192,28194,1,0,0:0:0:0:
256,192,28280,1,8,0:0:0:0:
256,192,28365,1,8,0:0:0:0:
256,192,28537,1,0,0:0:0:0:
256,192,28623,1,0,0:0:0:0:
256,192,28708,1,8,0:0:0:0:
256,192,28794,1,8,0:0:0:0:
256,192,28880,1,0,0:0:0:0:
256,192,29051,1,8,0:0:0:0:
256,192,29137,1,0,0:0:0:0:
256,192,29223,1,8,0:0:0:0:
256,192,29308,1,8,0:0:0:0:
256,192,29394,1,0,0:0:0:0:
256,192,29565,1,0,0:0:0:0:
256,192,29651,1,0,0:0:0:0:
256,192,29737,1,8,0:0:0:0:
256,160,29823,1,8,0:0:0:0:
256,192,29908,1,0,0:0:0:0:
256,192,30080,1,8,0:0:0:0:
256,192,30165,1,0,0:0:0:0:
256,192,30251,1,8,0:0:0:0:
256,192,30423,1,0,0:0:0:0:
256,192,30508,1,8,0:0:0:0:
256,192,30594,1,0,0:0:0:0:
256,192,30765,1,0,0:0:0:0:
256,192,30937,1,8,0:0:0:0:
256,192,31108,5,0,0:0:0:0:
256,192,31194,1,0,0:0:0:0:
256,192,31280,1,8,0:0:0:0:
256,192,31537,1,8,0:0:0:0:
256,192,31623,1,0,0:0:0:0:
256,192,31880,1,0,0:0:0:0:
256,192,31965,1,0,0:0:0:0:
256,192,32137,1,0,0:0:0:0:
256,192,32308,1,8,0:0:0:0:
256,192,32480,1,0,0:0:0:0:
256,192,32565,1,0,0:0:0:0:
256,192,32651,1,8,0:0:0:0:
256,192,32908,1,8,0:0:0:0:
256,192,32994,1,0,0:0:0:0:
256,192,33165,1,0,0:0:0:0:
256,192,33251,1,0,0:0:0:0:
256,192,33337,1,8,0:0:0:0:
256,192,33508,1,8,0:0:0:0:
256,192,33594,1,8,0:0:0:0:
256,192,33680,1,0,0:0:0:0:
256,192,33851,1,8,0:0:0:0:
256,192,34023,1,0,0:0:0:0:
256,192,34365,1,8,0:0:0:0:
256,192,34708,1,0,0:0:0:0:
256,192,34965,1,0,0:0:0:0:
256,192,35051,1,8,0:0:0:0:
256,192,35223,1,0,0:0:0:0:
256,192,35394,1,0,0:0:0:0:
256,192,35737,1,8,0:0:0:0:
256,192,36080,1,0,0:0:0:0:
256,192,36337,5,0,0:0:0:0:
256,192,36423,1,8,0:0:0:0:
256,192,36594,1,0,0:0:0:0:
256,192,36765,1,0,0:0:0:0:
256,192,36851,1,0,0:0:0:0:
256,192,36937,1,8,0:0:0:0:
256,192,37023,1,8,0:0:0:0:
256,192,37108,1,0,0:0:0:0:
256,192,37280,1,8,0:0:0:0:
256,192,37451,1,0,0:0:0:0:
256,192,37537,1,0,0:0:0:0:
256,192,37623,1,8,0:0:0:0:
256,192,37708,1,8,0:0:0:0:
256,192,37794,1,0,0:0:0:0:
256,192,37965,1,8,0:0:0:0:
256,192,38137,1,0,0:0:0:0:
256,192,38223,1,0,0:0:0:0:
256,192,38308,1,8,0:0:0:0:
256,192,38394,1,8,0:0:0:0:
256,192,38480,1,0,0:0:0:0:
256,192,38651,1,8,0:0:0:0:
256,192,38737,1,0,0:0:0:0:
256,192,38823,1,8,0:0:0:0:
256,192,38994,1,0,0:0:0:0:
256,192,39165,1,8,0:0:0:0:
256,192,39251,1,8,0:0:0:0:
256,192,39337,1,0,0:0:0:0:
256,192,39423,1,0,0:0:0:0:
256,192,39508,5,8,0:0:0:0:
256,192,39680,1,8,0:0:0:0:
256,192,39851,1,0,0:0:0:0:
256,192,40023,1,0,0:0:0:0:
256,192,40194,1,8,0:0:0:0:
256,192,40365,1,8,0:0:0:0:
256,192,40537,1,0,0:0:0:0:
256,192,40623,1,8,0:0:0:0:
256,192,40708,1,0,0:0:0:0:
256,192,40880,1,8,0:0:0:0:
256,192,41051,1,8,0:0:0:0:
256,192,41223,1,0,0:0:0:0:
256,192,41394,1,8,0:0:0:0:
256,192,41565,1,0,0:0:0:0:
256,192,41908,1,8,0:0:0:0:
256,192,42080,1,0,0:0:0:0:
256,192,42165,1,0,0:0:0:0:
256,192,42251,1,8,0:0:0:0:
256,192,42423,1,8,0:0:0:0:
256,192,42594,1,0,0:0:0:0:
256,192,42765,1,0,0:0:0:0:
256,192,42937,1,8,0:0:0:0:
256,192,43108,1,8,0:0:0:0:
256,192,43280,1,0,0:0:0:0:
256,192,43365,1,8,0:0:0:0:
256,192,43451,1,0,0:0:0:0:
256,192,43623,1,8,0:0:0:0:
256,192,43794,1,0,0:0:0:0:
256,192,43965,1,8,0:0:0:0:
256,192,44137,1,8,0:0:0:0:
256,192,44308,1,0,0:0:0:0:
256,192,44651,5,8,0:0:0:0:
256,192,44823,1,0,0:0:0:0:
256,192,44908,1,0,0:0:0:0:
256,192,44994,1,8,0:0:0:0:
256,192,45251,1,8,0:0:0:0:
256,192,45337,1,8,0:0:0:0:
256,192,45508,1,0,0:0:0:0:
256,192,45680,1,8,0:0:0:0:
256,192,45765,1,8,0:0:0:0:
256,192,45851,1,0,0:0:0:0:
256,192,46023,1,8,0:0:0:0:
256,192,46365,1,8,0:0:0:0:
256,192,46451,1,0,0:0:0:0:
256,192,46623,1,0,0:0:0:0:
256,192,46708,1,8,0:0:0:0:
256,192,46880,1,0,0:0:0:0:
256,192,47051,1,8,0:0:0:0:
256,192,47137,1,8,0:0:0:0:
256,192,47223,1,0,0:0:0:0:
256,192,47394,1,8,0:0:0:0:
256,192,47737,1,8,0:0:0:0:
256,192,47908,1,0,0:0:0:0:
256,192,47994,1,0,0:0:0:0:
256,192,48080,1,0,0:0:0:0:
256,192,48251,1,8,0:0:0:0:
256,192,48423,1,0,0:0:0:0:
256,192,48594,1,8,0:0:0:0:
256,192,48765,1,0,0:0:0:0:
256,192,48937,1,0,0:0:0:0:
256,192,49108,1,8,0:0:0:0:
256,192,49280,1,0,0:0:0:0:
256,192,49365,1,8,0:0:0:0:
256,192,49451,1,0,0:0:0:0:
256,192,49623,1,8,0:0:0:0:
256,192,49708,1,0,0:0:0:0:
256,192,49794,1,8,0:0:0:0:
256,192,50137,5,8,0:0:0:0:
256,192,50308,1,0,0:0:0:0:
256,192,50394,1,0,0:0:0:0:
256,192,50480,1,8,0:0:0:0:
256,192,50651,1,8,0:0:0:0:
256,192,50823,1,0,0:0:0:0:
256,192,50994,1,0,0:0:0:0:
256,192,51165,1,8,0:0:0:0:
256,192,51337,1,8,0:0:0:0:
256,192,51508,1,0,0:0:0:0:
256,192,51594,1,8,0:0:0:0:
256,192,51680,1,0,0:0:0:0:
256,192,51851,1,8,0:0:0:0:
256,192,52023,1,8,0:0:0:0:
256,192,52194,1,0,0:0:0:0:
256,192,52365,1,8,0:0:0:0:
256,192,52537,1,0,0:0:0:0:
256,192,52880,1,8,0:0:0:0:
256,192,53051,1,0,0:0:0:0:
256,192,53137,1,0,0:0:0:0:
256,192,53223,1,8,0:0:0:0:
256,192,53394,1,8,0:0:0:0:
256,192,53565,1,0,0:0:0:0:
256,192,53737,1,0,0:0:0:0:
256,192,53908,1,8,0:0:0:0:
256,192,54080,1,8,0:0:0:0:
256,192,54251,1,0,0:0:0:0:
256,192,54337,1,8,0:0:0:0:
256,192,54423,1,0,0:0:0:0:
256,192,54594,1,8,0:0:0:0:
256,192,54765,1,0,0:0:0:0:
256,192,54937,1,8,0:0:0:0:
256,192,55108,1,8,0:0:0:0:
256,192,55280,1,0,0:0:0:0:
256,192,55623,5,8,0:0:0:0:
256,192,55794,1,0,0:0:0:0:
256,192,55880,1,0,0:0:0:0:
256,192,55965,1,8,0:0:0:0:
256,192,56223,1,8,0:0:0:0:
256,192,56308,1,8,0:0:0:0:
256,192,56480,1,0,0:0:0:0:
256,192,56651,1,8,0:0:0:0:
256,192,56737,1,8,0:0:0:0:
256,192,56823,1,0,0:0:0:0:
256,192,56994,1,8,0:0:0:0:
256,192,57337,1,8,0:0:0:0:
256,192,57423,1,0,0:0:0:0:
256,192,57594,1,0,0:0:0:0:
256,192,57680,1,8,0:0:0:0:
256,192,57851,1,0,0:0:0:0:
256,192,58023,1,8,0:0:0:0:
256,192,58108,1,8,0:0:0:0:
256,192,58194,1,0,0:0:0:0:
256,192,58365,1,8,0:0:0:0:
256,192,58708,1,8,0:0:0:0:
256,192,58880,1,0,0:0:0:0:
256,192,58965,1,0,0:0:0:0:
256,192,59051,1,0,0:0:0:0:
256,192,59223,1,8,0:0:0:0:
256,192,59394,1,0,0:0:0:0:
256,192,59565,1,8,0:0:0:0:
256,192,59737,1,8,0:0:0:0:
256,192,59908,1,0,0:0:0:0:
256,192,60080,1,4,0:0:0:0:
256,192,60423,1,4,0:0:0:0:
256,192,60765,1,4,0:0:0:0:
256,192,61108,1,8,0:0:0:0:
256,192,61280,1,0,0:0:0:0:
256,192,61365,1,0,0:0:0:0:
256,192,61451,1,8,0:0:0:0:
256,192,61708,1,8,0:0:0:0:
256,192,61794,1,8,0:0:0:0:
256,192,61965,1,0,0:0:0:0:
256,192,62137,1,8,0:0:0:0:
256,192,62308,1,8,0:0:0:0:
256,192,62480,1,0,0:0:0:0:
256,192,62651,1,8,0:0:0:0:
256,192,62737,1,0,0:0:0:0:
256,192,62823,1,8,0:0:0:0:
256,192,62994,1,0,0:0:0:0:
256,192,63080,1,8,0:0:0:0:
256,192,63165,1,0,0:0:0:0:
256,192,63337,1,8,0:0:0:0:
256,192,63508,1,0,0:0:0:0:
256,192,63680,1,8,0:0:0:0:
256,192,63765,1,8,0:0:0:0:
256,192,63851,1,8,0:0:0:0:
256,192,64023,1,8,0:0:0:0:
256,192,64108,1,8,0:0:0:0:
256,192,64194,1,0,0:0:0:0:
256,192,64451,1,0,0:0:0:0:
256,192,64537,1,0,0:0:0:0:
256,192,64708,1,0,0:0:0:0:
256,192,64880,1,8,0:0:0:0:
256,192,65051,1,8,0:0:0:0:
256,192,65137,1,8,0:0:0:0:
256,192,65223,1,0,0:0:0:0:
256,192,65394,1,0,0:0:0:0:
256,192,65565,1,8,0:0:0:0:
256,192,65737,1,0,0:0:0:0:
256,192,65823,1,8,0:0:0:0:
256,192,65908,1,8,0:0:0:0:
256,192,66080,1,0,0:0:0:0:
256,192,66251,1,8,0:0:0:0:
256,192,66423,1,8,0:0:0:0:
256,192,66508,1,8,0:0:0:0:
256,192,66594,1,8,0:0:0:0:
256,192,66765,5,0,0:0:0:0:
256,192,66851,1,0,0:0:0:0:
256,192,66937,1,8,0:0:0:0:
256,192,67194,1,8,0:0:0:0:
256,192,67280,1,0,0:0:0:0:
256,192,67451,1,8,0:0:0:0:
256,192,67623,1,8,0:0:0:0:
256,192,67708,1,0,0:0:0:0:
256,192,67794,1,8,0:0:0:0:
256,192,67880,1,8,0:0:0:0:
256,192,67965,1,0,0:0:0:0:
256,192,68137,1,8,0:0:0:0:
256,192,68308,1,8,0:0:0:0:
256,192,68480,1,0,0:0:0:0:
256,192,68565,1,8,0:0:0:0:
256,192,68651,1,0,0:0:0:0:
256,192,68823,1,8,0:0:0:0:
256,192,68994,1,8,0:0:0:0:
256,192,69165,1,0,0:0:0:0:
256,192,69337,1,8,0:0:0:0:
256,192,69508,5,0,0:0:0:0:
256,192,69594,1,0,0:0:0:0:
256,192,69680,1,8,0:0:0:0:
256,192,69937,1,0,0:0:0:0:
256,192,70023,1,0,0:0:0:0:
256,192,70194,5,8,0:0:0:0:
256,192,70365,1,8,0:0:0:0:
256,192,70537,1,0,0:0:0:0:
256,192,70623,1,8,0:0:0:0:
256,192,70708,1,0,0:0:0:0:
256,192,70880,1,8,0:0:0:0:
256,192,70965,1,0,0:0:0:0:
256,192,71051,1,8,0:0:0:0:
256,192,71223,1,0,0:0:0:0:
256,192,71394,1,8,0:0:0:0:
256,192,71565,1,0,0:0:0:0:
256,192,71737,1,8,0:0:0:0:
256,192,71823,1,8,0:0:0:0:
256,192,71908,1,0,0:0:0:0:
256,192,72080,1,8,0:0:0:0:
256,192,72251,1,0,0:0:0:0:
256,192,72337,1,0,0:0:0:0:
256,192,72423,5,8,0:0:0:0:
256,192,72594,1,8,0:0:0:0:
256,192,72765,1,0,0:0:0:0:
256,192,72937,1,0,0:0:0:0:
256,192,73108,1,8,0:0:0:0:
256,192,73280,1,8,0:0:0:0:
256,192,73451,1,0,0:0:0:0:
256,192,73537,1,8,0:0:0:0:
256,192,73623,1,0,0:0:0:0:
256,192,73794,1,8,0:0:0:0:
256,192,73965,1,8,0:0:0:0:
256,192,74137,1,0,0:0:0:0:
256,192,74308,1,8,0:0:0:0:
256,192,74480,1,0,0:0:0:0:
256,192,74823,1,8,0:0:0:0:
256,192,74994,1,0,0:0:0:0:
256,192,75080,1,0,0:0:0:0:
256,192,75165,1,8,0:0:0:0:
256,192,75337,1,8,0:0:0:0:
256,192,75508,1,0,0:0:0:0:
256,192,75680,1,0,0:0:0:0:
256,192,75851,1,8,0:0:0:0:
256,192,76023,1,8,0:0:0:0:
256,192,76194,1,0,0:0:0:0:
256,192,76280,1,8,0:0:0:0:
256,192,76365,1,0,0:0:0:0:
256,192,76537,1,8,0:0:0:0:
256,192,76708,1,0,0:0:0:0:
256,192,76880,1,8,0:0:0:0:
256,192,77051,1,8,0:0:0:0:
256,192,77223,1,0,0:0:0:0:
256,192,77565,5,8,0:0:0:0:
256,192,77737,1,0,0:0:0:0:
256,192,77823,1,0,0:0:0:0:
256,192,77908,1,8,0:0:0:0:
256,192,78165,1,8,0:0:0:0:
256,192,78251,1,8,0:0:0:0:
256,192,78423,1,0,0:0:0:0:
256,192,78594,1,8,0:0:0:0:
256,192,78680,1,8,0:0:0:0:
256,192,78765,1,0,0:0:0:0:
256,192,78937,1,8,0:0:0:0:
256,192,79280,1,8,0:0:0:0:
256,192,79365,1,0,0:0:0:0:
256,192,79537,1,0,0:0:0:0:
256,192,79623,1,8,0:0:0:0:
256,192,79794,1,0,0:0:0:0:
256,192,79965,1,8,0:0:0:0:
256,192,80051,1,8,0:0:0:0:
256,192,80137,1,0,0:0:0:0:
256,192,80308,1,8,0:0:0:0:
256,192,80651,1,8,0:0:0:0:
256,192,80823,1,0,0:0:0:0:
256,192,80908,1,0,0:0:0:0:
256,192,80994,1,0,0:0:0:0:
256,192,81165,1,8,0:0:0:0:
256,192,81337,1,0,0:0:0:0:
256,192,81508,1,8,0:0:0:0:
256,192,81680,1,0,0:0:0:0:
256,192,81851,1,0,0:0:0:0:
256,192,82023,1,8,0:0:0:0:
256,192,82194,1,0,0:0:0:0:
256,192,82280,1,8,0:0:0:0:
256,192,82365,1,0,0:0:0:0:
256,192,82537,1,8,0:0:0:0:
256,192,82623,1,0,0:0:0:0:
256,192,82708,1,8,0:0:0:0:
256,192,83051,5,8,0:0:0:0:
256,192,83223,1,0,0:0:0:0:
256,192,83308,1,0,0:0:0:0:
256,192,83394,1,8,0:0:0:0:
256,192,83565,1,8,0:0:0:0:
256,192,83737,1,0,0:0:0:0:
256,192,83908,1,0,0:0:0:0:
256,192,84080,1,8,0:0:0:0:
256,192,84251,1,8,0:0:0:0:
256,192,84423,1,0,0:0:0:0:
256,192,84508,1,8,0:0:0:0:
256,192,84594,1,0,0:0:0:0:
256,192,84765,1,8,0:0:0:0:
256,192,84937,1,8,0:0:0:0:
256,192,85108,1,0,0:0:0:0:
256,192,85280,1,8,0:0:0:0:
256,192,85451,1,0,0:0:0:0:
256,192,85794,1,8,0:0:0:0:
256,192,85965,1,0,0:0:0:0:
256,192,86051,1,0,0:0:0:0:
256,192,86137,1,8,0:0:0:0:
256,192,86308,1,8,0:0:0:0:
256,192,86480,1,0,0:0:0:0:
256,192,86651,1,0,0:0:0:0:
256,192,86823,1,8,0:0:0:0:
256,192,86994,1,8,0:0:0:0:
256,192,87165,1,0,0:0:0:0:
256,192,87251,1,8,0:0:0:0:
256,192,87337,1,0,0:0:0:0:
256,192,87508,1,8,0:0:0:0:
256,192,87680,1,0,0:0:0:0:
256,192,87851,1,8,0:0:0:0:
256,192,88023,1,8,0:0:0:0:
256,192,88194,1,0,0:0:0:0:
256,192,88537,5,8,0:0:0:0:
256,192,88708,1,0,0:0:0:0:
256,192,88794,1,0,0:0:0:0:
256,192,88880,1,8,0:0:0:0:
256,192,89137,1,8,0:0:0:0:
256,192,89223,1,8,0:0:0:0:
256,192,89394,1,0,0:0:0:0:
256,192,89565,1,8,0:0:0:0:
256,192,89651,1,8,0:0:0:0:
256,192,89737,1,0,0:0:0:0:
256,192,89908,1,8,0:0:0:0:
256,192,90251,1,8,0:0:0:0:
256,192,90337,1,0,0:0:0:0:
256,192,90508,1,0,0:0:0:0:
256,192,90594,1,8,0:0:0:0:
256,192,90765,1,0,0:0:0:0:
256,192,90937,1,8,0:0:0:0:
256,192,91023,1,8,0:0:0:0:
256,192,91108,1,0,0:0:0:0:
256,192,91280,1,8,0:0:0:0:
256,192,91623,1,8,0:0:0:0:
256,192,91794,1,0,0:0:0:0:
256,192,91880,1,0,0:0:0:0:
256,192,91965,1,0,0:0:0:0:
256,192,92137,1,8,0:0:0:0:
256,192,92308,1,0,0:0:0:0:
256,192,92480,1,8,0:0:0:0:
256,192,92651,1,8,0:0:0:0:
256,192,92823,1,0,0:0:0:0:
256,192,92994,1,4,0:0:0:0:
256,192,93337,1,4,0:0:0:0:
256,192,93680,1,4,0:0:0:0:
256,192,94023,1,8,0:0:0:0:
256,192,94365,1,4,0:0:0:0:
256,192,94537,5,8,0:0:0:0:
256,192,94623,1,0,0:0:0:0:
256,192,94708,1,0,0:0:0:0:
256,192,94880,1,8,0:0:0:0:
256,192,95051,1,0,0:0:0:0:
256,192,95223,1,8,0:0:0:0:
256,192,95394,1,0,0:0:0:0:
256,192,95565,1,8,0:0:0:0:
256,192,95737,1,0,0:0:0:0:
256,192,95908,1,8,0:0:0:0:
256,192,95994,1,8,0:0:0:0:
256,192,96080,1,0,0:0:0:0:
256,192,96251,1,8,0:0:0:0:
256,192,96423,1,0,0:0:0:0:
256,192,96594,1,8,0:0:0:0:
256,192,96680,1,0,0:0:0:0:
256,192,96765,1,8,0:0:0:0:
256,192,96937,1,0,0:0:0:0:
256,192,97023,1,0,0:0:0:0:
256,192,97108,1,8,0:0:0:0:
256,192,97280,1,0,0:0:0:0:
256,192,97451,1,8,0:0:0:0:
256,192,97623,1,0,0:0:0:0:
256,192,97794,1,0,0:0:0:0:
256,192,97965,1,8,0:0:0:0:
256,192,98137,1,0,0:0:0:0:
256,192,98308,1,8,0:0:0:0:
256,192,98480,1,0,0:0:0:0:
256,192,98651,1,8,0:0:0:0:
256,192,98737,1,0,0:0:0:0:
256,192,98823,1,8,0:0:0:0:
256,192,98994,1,0,0:0:0:0:
256,192,99165,1,8,0:0:0:0:
256,192,99251,1,8,0:0:0:0:
256,192,99337,1,0,0:0:0:0:
256,192,99508,1,8,0:0:0:0:
256,192,99594,1,8,0:0:0:0:
256,192,99680,1,0,0:0:0:0:
256,192,99765,1,0,0:0:0:0:
256,192,99851,1,8,0:0:0:0:
256,192,100108,5,0,0:0:0:0:
256,192,100194,1,8,0:0:0:0:
256,192,100365,1,0,0:0:0:0:
256,192,100537,1,0,0:0:0:0:
256,192,100708,1,8,0:0:0:0:
256,192,100880,1,8,0:0:0:0:
256,192,101051,1,0,0:0:0:0:
256,192,101137,1,0,0:0:0:0:
256,192,101223,1,8,0:0:0:0:
256,192,101480,1,0,0:0:0:0:
256,192,101565,5,8,0:0:0:0:
256,192,101737,1,0,0:0:0:0:
256,192,101823,1,0,0:0:0:0:
256,192,101908,1,8,0:0:0:0:
256,192,102080,1,8,0:0:0:0:
256,192,102165,1,0,0:0:0:0:
256,192,102251,1,0,0:0:0:0:
256,192,102423,1,8,0:0:0:0:
256,192,102594,1,0,0:0:0:0:
256,192,102851,1,0,0:0:0:0:
256,192,102937,1,8,0:0:0:0:
256,192,103108,1,8,0:0:0:0:
256,192,103280,1,0,0:0:0:0:
256,192,103451,1,0,0:0:0:0:
256,192,103623,1,8,0:0:0:0:
256,192,103708,1,8,0:0:0:0:
256,192,103794,1,0,0:0:0:0:
256,192,103880,1,0,0:0:0:0:
256,192,103965,1,8,0:0:0:0:
256,192,104137,1,8,0:0:0:0:
256,192,104308,1,0,0:0:0:0:
256,192,104480,1,8,0:0:0:0:
256,192,104651,1,0,0:0:0:0:
256,192,104823,1,8,0:0:0:0:
256,192,104994,1,0,0:0:0:0:
256,192,105080,1,8,0:0:0:0:
256,192,105165,1,8,0:0:0:0:
256,192,105337,1,4,0:0:0:0:
256,192,105594,5,0,0:0:0:0:
256,192,105680,1,8,0:0:0:0:
256,192,105851,1,0,0:0:0:0:
256,192,106023,1,0,0:0:0:0:
256,192,106194,1,8,0:0:0:0:
256,192,106365,1,0,0:0:0:0:
256,192,106537,1,8,0:0:0:0:
256,192,106708,1,0,0:0:0:0:
256,192,106880,1,8,0:0:0:0:
256,192,106965,1,8,0:0:0:0:
256,192,107051,1,0,0:0:0:0:
256,192,107223,1,8,0:0:0:0:
256,192,107394,1,0,0:0:0:0:
256,192,107565,1,8,0:0:0:0:
256,192,107651,1,0,0:0:0:0:
256,192,107737,1,8,0:0:0:0:
256,192,107908,1,0,0:0:0:0:
256,192,107994,1,0,0:0:0:0:
256,192,108080,1,8,0:0:0:0:
256,192,108251,1,0,0:0:0:0:
256,192,108423,1,8,0:0:0:0:
256,192,108594,1,0,0:0:0:0:
256,192,108765,1,0,0:0:0:0:
256,192,108937,1,8,0:0:0:0:
256,192,109108,1,0,0:0:0:0:
256,192,109280,1,8,0:0:0:0:
256,192,109451,1,0,0:0:0:0:
256,192,109623,1,8,0:0:0:0:
256,192,109708,1,0,0:0:0:0:
256,192,109794,1,8,0:0:0:0:
256,192,109965,1,0,0:0:0:0:
256,192,110137,1,8,0:0:0:0:
256,192,110223,1,8,0:0:0:0:
256,192,110308,1,0,0:0:0:0:
256,192,110394,1,0,0:0:0:0:
256,192,110480,1,8,0:0:0:0:
256,192,110651,1,0,0:0:0:0:
256,192,110737,1,0,0:0:0:0:
256,192,110823,1,8,0:0:0:0:
256,192,111080,1,8,0:0:0:0:
256,192,111337,1,8,0:0:0:0:
256,192,111508,1,0,0:0:0:0:
256,192,111680,1,8,0:0:0:0:
256,192,111765,1,0,0:0:0:0:
256,192,111851,1,8,0:0:0:0:
256,192,112023,1,8,0:0:0:0:
256,192,112194,1,0,0:0:0:0:
256,192,112365,1,8,0:0:0:0:
256,192,112451,1,0,0:0:0:0:
256,192,112537,1,8,0:0:0:0:
256,192,112708,1,8,0:0:0:0:
256,192,112880,1,0,0:0:0:0:
256,192,113051,1,8,0:0:0:0:
256,192,113137,1,8,0:0:0:0:
256,192,113223,1,0,0:0:0:0:
256,192,113394,1,8,0:0:0:0:
256,192,113565,1,8,0:0:0:0:
256,192,113823,1,8,0:0:0:0:
256,192,114080,1,8,0:0:0:0:
256,192,114251,1,8,0:0:0:0:
256,192,114423,1,0,0:0:0:0:
256,192,114594,1,8,0:0:0:0:
256,192,114765,1,8,0:0:0:0:
256,192,114937,1,0,0:0:0:0:
256,192,115108,1,8,0:0:0:0:
256,192,115194,1,8,0:0:0:0:
256,192,115280,1,0,0:0:0:0:
256,192,115451,1,8,0:0:0:0:
256,192,115623,5,8,0:0:0:0:
256,192,115708,1,0,0:0:0:0:
256,192,115794,1,8,0:0:0:0:
256,192,115965,1,8,0:0:0:0:
256,192,116051,1,0,0:0:0:0:
256,192,116137,1,8,0:0:0:0:
256,192,116223,1,8,0:0:0:0:
256,192,116308,1,0,0:0:0:0:
256,192,116480,1,8,0:0:0:0:
256,192,116565,1,0,0:0:0:0:
256,192,116651,1,8,0:0:0:0:
256,192,116823,1,0,0:0:0:0:
256,192,116994,1,8,0:0:0:0:
256,192,117080,1,0,0:0:0:0:
256,192,117165,1,8,0:0:0:0:
256,192,117337,1,0,0:0:0:0:
256,192,117423,1,0,0:0:0:0:
256,192,117508,1,8,0:0:0:0:
256,192,117594,1,0,0:0:0:0:
256,192,117680,1,8,0:0:0:0:
256,192,117851,1,0,0:0:0:0:
256,192,118023,1,8,0:0:0:0:
256,192,118194,1,0,0:0:0:0:
256,192,118365,1,8,0:0:0:0:
256,192,118451,1,8,0:0:0:0:
256,192,118537,1,0,0:0:0:0:
256,192,118623,1,0,0:0:0:0:
256,192,118708,1,8,0:0:0:0:
256,192,118880,1,0,0:0:0:0:
256,192,118965,1,8,0:0:0:0:
256,192,119051,5,0,0:0:0:0:
256,192,119223,1,8,0:0:0:0:
256,192,119308,1,0,0:0:0:0:
256,192,119394,1,8,0:0:0:0:
256,192,119565,1,0,0:0:0:0:
256,192,119737,1,8,0:0:0:0:
256,192,119823,1,0,0:0:0:0:
256,192,119908,1,8,0:0:0:0:
256,192,120080,1,0,0:0:0:0:
256,192,120165,1,8,0:0:0:0:
256,192,120251,1,8,0:0:0:0:
256,192,120337,1,0,0:0:0:0:
256,192,120423,1,8,0:0:0:0:
256,192,120594,1,0,0:0:0:0:
256,192,120765,1,8,0:0:0:0:
256,192,120851,1,8,0:0:0:0:
256,192,120937,1,0,0:0:0:0:
256,192,121023,1,8,0:0:0:0:
256,192,121108,1,0,0:0:0:0:
256,192,121280,1,0,0:0:0:0:
256,192,121365,1,0,0:0:0:0:
256,192,121451,1,8,0:0:0:0:
256,192,121623,1,0,0:0:0:0:
256,192,121794,1,8,0:0:0:0:
256,192,121880,1,8,0:0:0:0:
256,192,121965,1,0,0:0:0:0:
256,192,122137,1,8,0:0:0:0:
256,192,122308,1,8,0:0:0:0:
256,192,122394,1,8,0:0:0:0:
256,192,122480,1,0,0:0:0:0:
256,192,122651,1,8,0:0:0:0:
256,192,122823,1,8,0:0:0:0:
256,192,122908,1,8,0:0:0:0:
256,192,122994,1,0,0:0:0:0:
256,192,123080,1,0,0:0:0:0:
256,192,123165,1,8,0:0:0:0:
256,192,123337,1,0,0:0:0:0:
256,192,123423,1,0,0:0:0:0:
256,192,123508,1,8,0:0:0:0:
256,192,123680,1,0,0:0:0:0:
256,192,123765,1,0,0:0:0:0:
256,192,123851,1,8,0:0:0:0:
256,192,124023,1,0,0:0:0:0:
256,192,124108,1,8,0:0:0:0:
256,192,124194,1,0,0:0:0:0:
256,192,124365,1,8,0:0:0:0:
256,192,124451,1,0,0:0:0:0:
256,192,124537,1,8,0:0:0:0:
256,192,124708,12,0,126937,0:0:0:0:
256,192,127280,5,4,0:0:0:0:
256,192,128651,5,4,0:0:0:0:
256,192,129337,1,12,0:0:0:0:
256,192,130023,1,4,0:0:0:0:
256,192,131394,1,4,0:0:0:0:
256,192,131737,1,0,0:0:0:0:
256,192,131908,1,0,0:0:0:0:
256,192,132080,1,12,0:0:0:0:
256,192,132337,1,12,0:0:0:0:
256,192,132594,1,0,0:0:0:0:
256,192,132680,1,0,0:0:0:0:
256,192,132765,1,8,0:0:0:0:
256,192,133023,1,8,0:0:0:0:
256,192,133108,1,8,0:0:0:0:
256,192,133280,1,0,0:0:0:0:
256,192,133451,1,8,0:0:0:0:
256,192,133537,1,8,0:0:0:0:
256,192,133623,1,0,0:0:0:0:
256,192,133794,1,8,0:0:0:0:
256,192,134137,1,8,0:0:0:0:
256,192,134223,1,0,0:0:0:0:
256,192,134394,1,0,0:0:0:0:
256,192,134480,1,8,0:0:0:0:
256,192,134651,1,0,0:0:0:0:
256,192,134823,1,8,0:0:0:0:
256,192,134908,1,8,0:0:0:0:
256,192,134994,1,0,0:0:0:0:
256,192,135165,1,8,0:0:0:0:
256,192,135508,1,8,0:0:0:0:
256,192,135680,1,0,0:0:0:0:
256,192,135765,1,0,0:0:0:0:
256,192,135851,1,0,0:0:0:0:
256,192,136023,1,8,0:0:0:0:
256,192,136194,1,0,0:0:0:0:
256,192,136365,1,8,0:0:0:0:
256,192,136537,1,0,0:0:0:0:
256,192,136708,1,0,0:0:0:0:
256,192,136880,1,8,0:0:0:0:
256,192,137051,1,0,0:0:0:0:
256,192,137137,1,8,0:0:0:0:
256,192,137223,1,0,0:0:0:0:
256,192,137394,1,8,0:0:0:0:
256,192,137480,1,0,0:0:0:0:
256,192,137565,1,8,0:0:0:0:
256,192,137908,5,8,0:0:0:0:
256,192,138080,1,0,0:0:0:0:
256,192,138165,1,0,0:0:0:0:
256,192,138251,1,8,0:0:0:0:
256,192,138423,1,8,0:0:0:0:
256,192,138594,1,0,0:0:0:0:
256,192,138765,1,0,0:0:0:0:
256,192,138937,1,8,0:0:0:0:
256,192,139108,1,8,0:0:0:0:
256,192,139280,1,0,0:0:0:0:
256,192,139365,1,8,0:0:0:0:
256,192,139451,1,0,0:0:0:0:
256,192,139623,1,8,0:0:0:0:
256,192,139794,1,8,0:0:0:0:
256,192,139965,1,0,0:0:0:0:
256,192,140137,1,8,0:0:0:0:
256,192,140308,1,0,0:0:0:0:
256,192,140651,1,8,0:0:0:0:
256,192,140823,1,0,0:0:0:0:
256,192,140908,1,0,0:0:0:0:
256,192,140994,1,8,0:0:0:0:
256,192,141165,1,8,0:0:0:0:
256,192,141337,1,0,0:0:0:0:
256,192,141508,1,0,0:0:0:0:
256,192,141680,1,8,0:0:0:0:
256,192,141851,1,8,0:0:0:0:
256,192,141937,1,8,0:0:0:0:
256,192,142108,1,8,0:0:0:0:
256,192,142194,1,0,0:0:0:0:
256,192,142365,1,8,0:0:0:0:
256,192,142537,1,0,0:0:0:0:
256,192,142708,1,8,0:0:0:0:
256,192,142880,1,8,0:0:0:0:
256,192,143051,1,0,0:0:0:0:
256,192,143394,5,8,0:0:0:0:
256,192,143565,1,0,0:0:0:0:
256,192,143651,1,0,0:0:0:0:
256,192,143737,1,8,0:0:0:0:
256,192,143994,1,8,0:0:0:0:
256,192,144080,1,8,0:0:0:0:
256,192,144251,1,0,0:0:0:0:
256,192,144423,1,8,0:0:0:0:
256,192,144508,1,8,0:0:0:0:
256,192,144594,1,0,0:0:0:0:
256,192,144765,1,8,0:0:0:0:
256,192,145108,1,8,0:0:0:0:
256,192,145194,1,0,0:0:0:0:
256,192,145365,1,0,0:0:0:0:
256,192,145451,1,8,0:0:0:0:
256,192,145623,1,0,0:0:0:0:
256,192,145794,1,8,0:0:0:0:
256,192,145880,1,8,0:0:0:0:
256,192,145965,1,0,0:0:0:0:
256,192,146137,1,8,0:0:0:0:
256,192,146480,1,8,0:0:0:0:
256,192,146651,1,0,0:0:0:0:
256,192,146737,1,0,0:0:0:0:
256,192,146823,1,0,0:0:0:0:
256,192,146994,1,8,0:0:0:0:
256,192,147165,1,0,0:0:0:0:
256,192,147337,1,8,0:0:0:0:
256,192,147508,1,8,0:0:0:0:
256,192,147680,1,0,0:0:0:0:
256,192,147851,1,4,0:0:0:0:
256,192,148194,1,4,0:0:0:0:
256,192,148537,1,4,0:0:0:0:
256,192,148880,1,8,0:0:0:0:
256,192,149051,1,0,0:0:0:0:
256,192,149137,1,0,0:0:0:0:
256,192,149223,1,8,0:0:0:0:
256,192,149565,1,8,0:0:0:0:
256,192,149737,1,8,0:0:0:0:
256,192,149908,1,0,0:0:0:0:
256,192,150251,1,8,0:0:0:0:
256,192,150423,1,0,0:0:0:0:
256,192,150508,1,0,0:0:0:0:
256,192,150594,1,8,0:0:0:0:
256,192,150765,1,8,0:0:0:0:
256,192,150937,1,0,0:0:0:0:
256,192,151108,1,0,0:0:0:0:
256,192,151280,1,8,0:0:0:0:
256,192,151451,1,12,0:0:0:0:
256,192,151623,1,12,0:0:0:0:
256,192,151794,1,0,0:0:0:0:
256,192,151880,1,0,0:0:0:0:
256,192,151965,1,8,0:0:0:0:
256,192,152137,1,8,0:0:0:0:
256,192,152308,1,0,0:0:0:0:
256,192,152480,1,8,0:0:0:0:
256,192,152651,1,8,0:0:0:0:
256,192,152823,1,8,0:0:0:0:
256,192,152994,1,0,0:0:0:0:
256,192,153165,1,8,0:0:0:0:
256,192,153337,1,8,0:0:0:0:
256,192,153508,1,8,0:0:0:0:
256,192,153680,1,0,0:0:0:0:
256,192,153851,1,0,0:0:0:0:
256,192,154023,1,8,0:0:0:0:
256,192,154194,1,8,0:0:0:0:
256,192,154280,1,8,0:0:0:0:
256,192,154365,1,8,0:0:0:0:
256,192,154537,5,0,0:0:0:0:
256,192,154623,1,0,0:0:0:0:
256,192,154708,1,8,0:0:0:0:
256,192,155051,1,8,0:0:0:0:
256,192,155223,1,8,0:0:0:0:
256,192,155394,1,0,0:0:0:0:
256,192,155737,1,8,0:0:0:0:
256,192,155908,1,0,0:0:0:0:
256,192,155994,1,0,0:0:0:0:
256,192,156080,1,8,0:0:0:0:
256,192,156251,1,8,0:0:0:0:
256,192,156423,1,0,0:0:0:0:
256,192,156594,1,0,0:0:0:0:
256,192,156765,1,8,0:0:0:0:
256,192,156937,1,12,0:0:0:0:
256,192,157108,1,12,0:0:0:0:
256,192,157280,1,0,0:0:0:0:
256,192,157365,1,0,0:0:0:0:
256,192,157451,1,8,0:0:0:0:
256,192,157623,1,8,0:0:0:0:
256,192,157794,1,0,0:0:0:0:
256,192,157965,1,8,0:0:0:0:
256,192,158137,1,8,0:0:0:0:
256,192,158308,1,8,0:0:0:0:
256,192,158480,1,0,0:0:0:0:
256,192,158651,1,8,0:0:0:0:
256,192,158823,1,8,0:0:0:0:
256,192,158994,1,8,0:0:0:0:
256,192,159165,1,0,0:0:0:0:
256,192,159337,1,0,0:0:0:0:
256,192,159508,1,8,0:0:0:0:
256,192,159680,1,8,0:0:0:0:
256,192,159765,1,8,0:0:0:0:
256,192,159851,1,8,0:0:0:0:
256,192,160023,5,0,0:0:0:0:
256,192,160108,1,0,0:0:0:0:
256,192,160194,1,8,0:0:0:0:
256,192,160537,1,8,0:0:0:0:
256,192,160708,1,8,0:0:0:0:
256,192,160880,1,0,0:0:0:0:
256,192,161223,1,8,0:0:0:0:
256,192,161394,1,0,0:0:0:0:
256,192,161480,1,0,0:0:0:0:
256,192,161565,1,8,0:0:0:0:
256,192,161737,1,8,0:0:0:0:
256,192,161908,1,0,0:0:0:0:
256,192,162080,1,0,0:0:0:0:
256,192,162251,1,8,0:0:0:0:
256,192,162423,1,0,0:0:0:0:
256,192,162508,1,8,0:0:0:0:
256,192,162594,1,8,0:0:0:0:
256,192,162680,1,0,0:0:0:0:
256,192,162765,5,8,0:0:0:0:
256,192,162937,1,8,0:0:0:0:
256,192,163108,1,0,0:0:0:0:
256,192,163280,1,8,0:0:0:0:
256,192,163451,1,8,0:0:0:0:
256,192,163623,1,0,0:0:0:0:
256,192,163794,1,0,0:0:0:0:
256,192,163965,1,8,0:0:0:0:
256,192,164137,1,0,0:0:0:0:
256,192,164223,1,0,0:0:0:0:
256,192,164308,1,8,0:0:0:0:
256,192,164480,1,8,0:0:0:0:
256,192,164651,1,0,0:0:0:0:
256,192,164823,1,0,0:0:0:0:
256,192,164994,1,8,0:0:0:0:
256,192,165165,5,0,0:0:0:0:
256,192,165337,1,8,0:0:0:0:
256,192,165423,1,8,0:0:0:0:
256,192,165508,1,0,0:0:0:0:
256,192,165594,1,0,0:0:0:0:
256,192,165680,1,8,0:0:0:0:
256,192,165937,1,8,0:0:0:0:
256,192,166023,1,8,0:0:0:0:
256,192,166194,1,0,0:0:0:0:
256,192,166365,1,8,0:0:0:0:
256,192,166451,1,0,0:0:0:0:
256,192,166537,1,8,0:0:0:0:
256,192,166708,1,0,0:0:0:0:
256,192,166880,1,0,0:0:0:0:
256,192,167051,1,8,0:0:0:0:
256,192,167137,1,8,0:0:0:0:
256,192,167308,1,8,0:0:0:0:
256,192,167394,1,0,0:0:0:0:
256,192,167565,1,8,0:0:0:0:
256,192,167737,1,0,0:0:0:0:
256,192,167908,1,8,0:0:0:0:
256,192,167994,1,8,0:0:0:0:
256,192,168080,1,0,0:0:0:0:
256,192,168251,1,8,0:0:0:0:
256,192,168423,5,8,0:0:0:0:
256,192,168594,1,0,0:0:0:0:
256,192,168765,1,8,0:0:0:0:
256,192,168937,1,8,0:0:0:0:
256,192,169023,1,0,0:0:0:0:
256,192,169108,1,0,0:0:0:0:
256,192,169280,1,8,0:0:0:0:
256,192,169451,1,8,0:0:0:0:
256,192,169623,1,0,0:0:0:0:
256,192,169794,1,0,0:0:0:0:
256,192,169965,1,8,0:0:0:0:
256,192,170137,1,8,0:0:0:0:
256,192,170308,1,0,0:0:0:0:
256,192,170480,1,8,0:0:0:0:
256,192,170651,1,0,0:0:0:0:
256,192,170823,1,8,0:0:0:0:
256,192,170994,5,0,0:0:0:0:
256,192,171080,1,0,0:0:0:0:
256,192,171165,1,8,0:0:0:0:
256,192,171337,1,0,0:0:0:0:
256,192,171508,1,0,0:0:0:0:
256,192,171680,1,8,0:0:0:0:
256,192,171765,1,0,0:0:0:0:
256,192,171851,1,0,0:0:0:0:
256,192,172023,1,8,0:0:0:0:
256,192,172194,1,8,0:0:0:0:
256,192,172365,1,0,0:0:0:0:
256,192,172537,1,0,0:0:0:0:
256,192,172708,1,8,0:0:0:0:
256,192,172880,1,8,0:0:0:0:
256,192,173051,1,0,0:0:0:0:
256,192,173223,1,8,0:0:0:0:
256,192,173394,1,0,0:0:0:0:
256,192,173565,1,8,0:0:0:0:
256,192,173737,5,0,0:0:0:0:
256,192,173823,1,8,0:0:0:0:
256,192,173908,1,8,0:0:0:0:
256,192,174165,1,0,0:0:0:0:
256,192,174251,1,8,0:0:0:0:
256,192,174508,1,0,0:0:0:0:
256,192,174594,1,8,0:0:0:0:
256,192,174851,1,0,0:0:0:0:
256,192,174937,1,8,0:0:0:0:
256,192,175194,1,0,0:0:0:0:
256,192,175280,1,8,0:0:0:0:
256,192,175537,1,0,0:0:0:0:
256,192,175623,1,8,0:0:0:0:
256,192,175880,1,0,0:0:0:0:
256,192,175965,1,8,0:0:0:0:
256,192,176137,1,8,0:0:0:0:
256,192,176308,1,8,0:0:0:0:
256,192,176480,1,0,0:0:0:0:
256,192,176565,1,0,0:0:0:0:
256,192,176651,1,8,0:0:0:0:
256,192,176854,1,8,0:0:0:0:
256,192,177035,1,0,0:0:0:0:
256,192,177216,1,0,0:0:0:0:
256,192,177396,1,8,0:0:0:0:
256,192,177577,1,8,0:0:0:0:
256,192,177758,1,0,0:0:0:0:
256,192,177848,1,8,0:0:0:0:
256,192,177939,1,0,0:0:0:0:
256,192,178119,1,8,0:0:0:0:
256,192,178294,1,8,0:0:0:0:
256,192,178469,1,0,0:0:0:0:
256,192,178645,1,8,0:0:0:0:
256,192,178820,1,0,0:0:0:0:
256,192,179347,1,0,0:0:0:0:
256,192,179434,1,0,0:0:0:0:
256,192,179522,1,8,0:0:0:0:
256,192,179697,1,8,0:0:0:0:
256,192,179873,1,0,0:0:0:0:
256,192,180048,1,0,0:0:0:0:
256,192,180224,1,8,0:0:0:0:
256,192,180399,1,8,0:0:0:0:
256,192,180575,1,0,0:0:0:0:
256,192,180662,1,8,0:0:0:0:
256,192,180750,1,0,0:0:0:0:
256,192,180926,1,8,0:0:0:0:
256,192,181101,1,0,0:0:0:0:
256,192,181276,1,8,0:0:0:0:
256,192,181452,1,8,0:0:0:0:
256,192,181627,1,8,0:0:0:0:
256,192,182154,1,0,0:0:0:0:
256,192,182241,1,0,0:0:0:0:
256,192,182329,1,8,0:0:0:0:
256,192,182592,1,8,0:0:0:0:
256,192,182680,1,8,0:0:0:0:
256,192,182855,1,0,0:0:0:0:
256,192,183031,1,8,0:0:0:0:
256,192,183119,1,8,0:0:0:0:
256,192,183206,1,0,0:0:0:0:
256,192,183382,1,8,0:0:0:0:
256,192,183733,1,8,0:0:0:0:
256,192,183820,1,0,0:0:0:0:
256,192,183996,1,0,0:0:0:0:
256,192,184083,1,8,0:0:0:0:
256,192,184259,1,0,0:0:0:0:
256,192,184434,1,8,0:0:0:0:
256,192,184522,1,8,0:0:0:0:
256,192,184610,1,0,0:0:0:0:
256,192,184785,1,8,0:0:0:0:
256,192,185136,1,8,0:0:0:0:
256,192,185311,1,0,0:0:0:0:
256,192,185399,1,0,0:0:0:0:
256,192,185487,1,0,0:0:0:0:
256,192,185662,1,8,0:0:0:0:
256,192,185838,1,0,0:0:0:0:
256,192,186013,1,8,0:0:0:0:
256,192,186189,1,0,0:0:0:0:
256,192,186364,1,0,0:0:0:0:
256,192,186540,1,8,0:0:0:0:
256,192,186715,1,0,0:0:0:0:
256,192,186803,1,8,0:0:0:0:
256,192,186890,1,0,0:0:0:0:
256,192,187066,1,8,0:0:0:0:
256,192,187154,1,0,0:0:0:0:
256,192,187241,1,8,0:0:0:0:
256,192,187943,1,8,0:0:0:0:
256,192,188469,1,8,0:0:0:0:
256,192,188820,1,8,0:0:0:0:
256,192,188996,1,8,0:0:0:0:
256,192,189171,1,8,0:0:0:0:
256,192,189347,1,8,0:0:0:0:
256,192,189873,1,8,0:0:0:0:
256,192,190048,1,8,0:0:0:0:
256,192,190399,1,8,0:0:0:0:
256,192,190750,1,8,0:0:0:0:
256,192,191276,1,8,0:0:0:0:
256,192,191627,1,8,0:0:0:0:
256,192,191803,1,8,0:0:0:0:
256,192,191978,1,8,0:0:0:0:
256,192,192154,1,8,0:0:0:0:
256,192,192680,1,8,0:0:0:0:
256,192,192855,1,8,0:0:0:0:
256,192,193206,1,8,0:0:0:0:
256,192,193557,1,8,0:0:0:0:
256,192,193820,1,8,0:0:0:0:
256,192,194083,1,8,0:0:0:0:
256,192,194259,1,8,0:0:0:0:
256,192,194610,1,0,0:0:0:0:
256,192,194961,1,8,0:0:0:0:
256,192,195224,1,8,0:0:0:0:
256,192,195487,1,8,0:0:0:0:
256,192,195662,1,8,0:0:0:0:
256,192,196013,1,0,0:0:0:0:
256,192,196364,5,8,0:0:0:0:
256,192,196540,1,0,0:0:0:0:
256,192,196627,1,0,0:0:0:0:
256,192,196715,1,0,0:0:0:0:
256,192,196890,1,8,0:0:0:0:
256,192,197066,1,0,0:0:0:0:
256,192,197241,1,8,0:0:0:0:
256,192,197417,1,8,0:0:0:0:
256,192,197592,1,0,0:0:0:0:
256,192,197768,1,8,0:0:0:0:
256,192,197943,1,0,0:0:0:0:
256,192,198031,1,8,0:0:0:0:
256,192,198119,1,0,0:0:0:0:
256,192,198294,1,8,0:0:0:0:
256,192,198382,1,0,0:0:0:0:
256,192,198469,1,8,0:0:0:0:
256,192,198645,1,0,0:0:0:0:
256,192,198820,1,8,0:0:0:0:
256,192,198908,1,8,0:0:0:0:
256,192,198996,1,0,0:0:0:0:
256,192,199083,1,0,0:0:0:0:
256,192,199171,5,12,0:0:0:0:
256,192,199342,1,0,0:0:0:0:
256,192,199428,1,8,0:0:0:0:
256,192,199513,1,0,0:0:0:0:
256,192,199685,1,8,0:0:0:0:
256,192,199771,1,8,0:0:0:0:
256,192,199856,1,0,0:0:0:0:
256,192,199942,1,8,0:0:0:0:
256,192,200028,1,0,0:0:0:0:
256,192,200199,1,8,0:0:0:0:
256,192,200371,1,0,0:0:0:0:
256,192,200456,1,8,0:0:0:0:
256,192,200542,1,0,0:0:0:0:
256,192,200713,1,8,0:0:0:0:
256,192,200799,1,0,0:0:0:0:
256,192,200885,1,8,0:0:0:0:
256,192,201056,1,0,0:0:0:0:
256,192,201142,1,0,0:0:0:0:
256,192,201228,1,8,0:0:0:0:
256,192,201313,1,8,0:0:0:0:
256,192,201399,1,0,0:0:0:0:
256,192,201571,1,8,0:0:0:0:
256,192,201742,1,0,0:0:0:0:
256,192,201828,1,0,0:0:0:0:
256,192,201913,1,8,0:0:0:0:
256,192,202085,1,0,0:0:0:0:
256,192,202171,1,8,0:0:0:0:
256,192,202342,1,0,0:0:0:0:
256,192,202428,1,8,0:0:0:0:
256,192,202513,1,8,0:0:0:0:
256,192,202599,1,0,0:0:0:0:
256,192,202771,1,8,0:0:0:0:
256,192,202942,1,0,0:0:0:0:
256,192,203028,1,8,0:0:0:0:
256,224,203113,1,8,0:0:0:0:
256,192,203199,1,8,0:0:0:0:
256,192,203285,1,0,0:0:0:0:
256,192,203456,1,8,0:0:0:0:
256,192,203628,1,0,0:0:0:0:
256,192,203799,1,8,0:0:0:0:
256,192,203885,1,0,0:0:0:0:
256,192,203971,1,8,0:0:0:0:
256,192,204142,1,0,0:0:0:0:
256,192,204228,1,0,0:0:0:0:
256,192,204313,1,8,0:0:0:0:
256,192,204656,5,8,0:0:0:0:
256,192,204828,1,0,0:0:0:0:
256,192,204913,1,8,0:0:0:0:
256,192,205085,1,0,0:0:0:0:
256,192,205171,1,8,0:0:0:0:
256,192,205256,1,0,0:0:0:0:
256,192,205342,1,8,0:0:0:0:
256,192,205513,1,0,0:0:0:0:
256,192,205685,1,8,0:0:0:0:
256,192,205771,1,0,0:0:0:0:
256,192,205856,1,8,0:0:0:0:
256,192,205942,1,8,0:0:0:0:
256,192,206028,1,0,0:0:0:0:
256,192,206199,1,8,0:0:0:0:
256,192,206371,1,0,0:0:0:0:
256,192,206456,1,0,0:0:0:0:
256,192,206542,1,8,0:0:0:0:
256,192,206628,1,8,0:0:0:0:
256,192,206713,1,8,0:0:0:0:
256,192,206885,1,0,0:0:0:0:
256,192,206971,1,8,0:0:0:0:
256,192,207142,1,0,0:0:0:0:
256,192,207228,1,8,0:0:0:0:
256,192,207313,1,0,0:0:0:0:
256,192,207399,1,8,0:0:0:0:
256,192,207571,1,0,0:0:0:0:
256,192,207656,1,8,0:0:0:0:
256,192,207828,1,0,0:0:0:0:
256,192,207913,1,8,0:0:0:0:
256,192,207999,1,8,0:0:0:0:
256,192,208085,1,0,0:0:0:0:
256,192,208256,1,8,0:0:0:0:
256,192,208428,1,0,0:0:0:0:
256,192,208513,1,0,0:0:0:0:
256,192,208599,1,8,0:0:0:0:
256,192,208685,1,0,0:0:0:0:
256,192,208771,1,8,0:0:0:0:
256,192,208942,1,0,0:0:0:0:
256,192,209028,1,8,0:0:0:0:
256,192,209199,1,0,0:0:0:0:
256,192,209285,1,8,0:0:0:0:
256,192,209371,1,8,0:0:0:0:
256,192,209456,1,0,0:0:0:0:
256,192,209628,5,8,0:0:0:0:
256,192,209799,1,0,0:0:0:0:
256,192,209885,1,0,0:0:0:0:
256,192,209971,1,8,0:0:0:0:
256,192,210056,1,0,0:0:0:0:
256,192,210142,1,12,0:0:0:0:
256,192,210313,1,8,0:0:0:0:
256,192,210485,1,0,0:0:0:0:
256,192,210656,1,8,0:0:0:0:
256,192,210828,1,8,0:0:0:0:
256,192,210999,1,0,0:0:0:0:
256,192,211171,1,8,0:0:0:0:
256,192,211256,1,8,0:0:0:0:
256,192,211342,1,0,0:0:0:0:
256,192,211428,1,0,0:0:0:0:
256,192,211513,1,8,0:0:0:0:
256,192,211771,1,8,0:0:0:0:
256,192,212028,1,8,0:0:0:0:
256,192,212199,1,0,0:0:0:0:
256,192,212285,1,0,0:0:0:0:
256,192,212371,1,8,0:0:0:0:
256,192,212542,1,8,0:0:0:0:
256,192,212628,1,8,0:0:0:0:
256,192,212713,1,0,0:0:0:0:
256,192,212799,1,0,0:0:0:0:
256,192,212885,1,8,0:0:0:0:
256,192,213056,5,8,0:0:0:0:
256,192,213228,1,0,0:0:0:0:
256,192,213399,1,8,0:0:0:0:
256,192,213571,1,8,0:0:0:0:
256,192,213742,1,0,0:0:0:0:
256,192,213913,1,8,0:0:0:0:
256,192,213999,1,8,0:0:0:0:
256,192,214085,1,0,0:0:0:0:
256,192,214171,1,8,0:0:0:0:
256,192,214256,1,8,0:0:0:0:
256,192,214513,1,8,0:0:0:0:
256,192,214685,1,0,0:0:0:0:
256,192,214771,1,8,0:0:0:0:
256,192,214856,1,8,0:0:0:0:
256,192,214942,1,0,0:0:0:0:
256,192,215113,1,8,0:0:0:0:
256,192,215285,1,0,0:0:0:0:
256,192,215371,1,0,0:0:0:0:
256,192,215456,1,8,0:0:0:0:
256,192,215542,1,0,0:0:0:0:
256,192,215628,1,8,0:0:0:0:
256,192,215799,5,8,0:0:0:0:
256,192,215971,1,0,0:0:0:0:
256,192,216142,1,8,0:0:0:0:
256,192,216313,1,8,0:0:0:0:
256,192,216485,1,0,0:0:0:0:
256,192,216656,1,8,0:0:0:0:
256,192,216742,1,8,0:0:0:0:
256,192,216828,1,0,0:0:0:0:
256,192,216913,1,0,0:0:0:0:
256,192,216999,1,8,0:0:0:0:
256,192,217256,1,8,0:0:0:0:
256,192,217513,1,8,0:0:0:0:
256,192,217685,1,0,0:0:0:0:
256,192,217771,1,0,0:0:0:0:
256,192,217856,1,8,0:0:0:0:
256,192,218028,1,8,0:0:0:0:
256,192,218113,1,8,0:0:0:0:
256,192,218199,1,0,0:0:0:0:
256,192,218285,1,0,0:0:0:0:
256,192,218371,1,8,0:0:0:0:
256,192,218542,5,8,0:0:0:0:
256,192,218713,1,0,0:0:0:0:
256,192,218885,1,8,0:0:0:0:
256,192,219056,1,8,0:0:0:0:
256,192,219228,1,8,0:0:0:0:
256,192,219399,1,0,0:0:0:0:
256,192,219485,1,0,0:0:0:0:
256,192,219571,1,8,0:0:0:0:
256,192,219656,1,8,0:0:0:0:
256,192,219742,1,8,0:0:0:0:
256,192,219999,1,8,0:0:0:0:
256,192,220171,1,0,0:0:0:0:
256,192,220256,1,8,0:0:0:0:
256,192,220342,1,8,0:0:0:0:
256,192,220428,1,0,0:0:0:0:
256,192,220599,1,8,0:0:0:0:
256,192,220771,1,0,0:0:0:0:
256,192,220856,1,8,0:0:0:0:
256,192,220942,1,8,0:0:0:0:
256,192,221028,1,0,0:0:0:0:
256,192,221113,1,12,0:0:0:0:
256,192,221285,5,8,0:0:0:0:
256,192,221456,1,0,0:0:0:0:
256,192,221628,1,8,0:0:0:0:
256,192,221799,1,8,0:0:0:0:
256,192,221971,1,0,0:0:0:0:
256,192,222142,1,8,0:0:0:0:
256,192,222228,1,8,0:0:0:0:
256,192,222313,1,0,0:0:0:0:
256,192,222399,1,0,0:0:0:0:
256,192,222485,1,8,0:0:0:0:
256,192,222742,1,8,0:0:0:0:
256,192,222999,1,8,0:0:0:0:
256,192,223171,1,0,0:0:0:0:
256,192,223256,1,0,0:0:0:0:
256,192,223342,1,8,0:0:0:0:
256,192,223513,1,8,0:0:0:0:
256,192,223599,1,8,0:0:0:0:
256,192,223685,1,0,0:0:0:0:
256,192,223771,1,0,0:0:0:0:
256,192,223856,1,8,0:0:0:0:
256,192,224028,5,8,0:0:0:0:
256,192,224199,1,0,0:0:0:0:
256,192,224371,1,8,0:0:0:0:
256,192,224542,1,8,0:0:0:0:
256,192,224713,1,0,0:0:0:0:
256,192,224885,1,8,0:0:0:0:
256,192,224971,1,8,0:0:0:0:
256,192,225056,1,0,0:0:0:0:
256,192,225142,1,8,0:0:0:0:
256,192,225228,1,8,0:0:0:0:
256,192,225485,1,8,0:0:0:0:
256,192,225656,1,0,0:0:0:0:
256,192,225742,1,8,0:0:0:0:
256,192,225828,1,8,0:0:0:0:
256,192,225913,1,0,0:0:0:0:
256,192,226085,1,8,0:0:0:0:
256,192,226256,1,0,0:0:0:0:
256,192,226342,1,0,0:0:0:0:
256,192,226428,1,8,0:0:0:0:
256,192,226513,1,0,0:0:0:0:
256,192,226599,1,8,0:0:0:0:
256,192,226771,5,8,0:0:0:0:
256,192,226942,1,0,0:0:0:0:
256,192,227113,1,8,0:0:0:0:
256,192,227285,1,8,0:0:0:0:
256,192,227456,1,0,0:0:0:0:
256,192,227628,1,8,0:0:0:0:
256,192,227713,1,8,0:0:0:0:
256,192,227799,1,0,0:0:0:0:
256,192,227885,1,0,0:0:0:0:
256,192,227971,1,8,0:0:0:0:
256,192,228228,1,8,0:0:0:0:
256,192,228485,1,8,0:0:0:0:
256,192,228656,1,0,0:0:0:0:
256,192,228742,1,0,0:0:0:0:
256,192,228828,1,8,0:0:0:0:
256,192,228999,1,8,0:0:0:0:
256,192,229171,1,8,0:0:0:0:
256,192,229342,1,0,0:0:0:0:
256,192,229599,1,0,0:0:0:0:
256,192,229856,1,0,0:0:0:0:
256,192,230199,1,0,0:0:0:0:
256,192,230542,1,0,0:0:0:0:
256,192,230885,1,4,0:0:0:0:
256,192,231142,1,4,0:0:0:0:
256,192,231399,1,12,0:0:0:0:
256,192,231571,1,8,0:0:0:0:
256,192,231656,1,0,0:0:0:0:
256,192,231742,1,0,0:0:0:0:
256,192,232085,1,4,0:0:0:0:
256,192,232256,12,0,238771,0:0:0:0:
