osu file format v14

[General]
AudioFilename: audio.mp3
AudioLeadIn: 0
PreviewTime: 87170
Countdown: 0
SampleSet: Soft
StackLeniency: 0.4
Mode: 0
LetterboxInBreaks: 0
WidescreenStoryboard: 1

[Editor]
Bookmarks: 22404,39253,60586,81920,108586,140586,161920,188586,188920,189253,189586,189920,190253,190586,190920,191253,191586,191920,192253,192586,192920,193253,193586,193920,194253,194586,194920,195253,195586,195920,196253,196586,196920,197253,197586,197920,198253,198586,198920,199253,220586,241920,276586,303253
DistanceSpacing: 1
BeatDivisor: 4
GridSize: 4
TimelineZoom: 2.7

[Metadata]
Title:own phrases
TitleUnicode:own phrases
Artist:wavforme x Annabel
ArtistUnicode:wavforme x Annabel
Creator:captin1
Version:Abyss
Source:LACKGIRL BIRTH IN THE DARK
Tags:ラックガール バース・イン・ザ・ダーク pv main theme song taishi lavender collab
BeatmapID:1870002
BeatmapSetID:894919

[Difficulty]
HPDrainRate:5
CircleSize:4
OverallDifficulty:8.9
ApproachRate:9.4
SliderMultiplier:1.8
SliderTickRate:1

[Events]
//Background and Video events
0,0,"BG06.jpg",0,0
//Break Periods
2,188786,198713
//Storyboard Layer 0 (Background)
//Storyboard Layer 1 (Fail)
//Storyboard Layer 2 (Pass)
//Storyboard Layer 3 (Foreground)
//Storyboard Sound Samples

[TimingPoints]
2768,545.454545454546,4,2,1,30,1,0
2768,-200,4,2,1,30,0,0
22376,552.995391705069,4,2,1,30,1,0
24587,333.333333333333,4,2,1,60,1,0
24587,-62.5,4,2,1,60,0,0
25087,-133.333333333333,4,2,1,60,0,0
25587,-83.3333333333333,4,2,1,60,0,0
27086,-62.5,4,2,1,60,0,0
27586,-83.3333333333333,4,2,1,60,0,0
37753,-400,4,2,1,60,0,0
39253,-100,4,2,1,60,0,0
48586,-133.333333333333,4,2,1,60,0,0
49253,-100,4,2,1,40,0,0
49586,-100,4,2,1,60,0,0
49920,-90.9090909090909,4,2,1,60,0,0
50753,-76.9230769230769,4,2,1,60,0,0
55253,-83.3333333333333,4,2,1,60,0,0
57920,-71.4285714285714,4,2,1,60,0,0
59920,-71.4285714285714,4,2,1,40,0,0
60253,-71.4285714285714,4,2,1,50,0,0
60586,-100,4,2,1,60,0,0
61586,-133.333333333333,4,2,1,60,0,0
62086,-83.3333333333333,4,2,1,60,0,0
64253,-133.333333333333,4,2,1,60,0,0
64753,-83.3333333333333,4,2,1,60,0,0
65920,-76.9230769230769,4,2,1,60,0,0
71253,-100,4,2,1,60,0,0
76586,-66.6666666666667,4,2,1,60,0,0
77086,-76.9230769230769,4,2,1,60,0,0
81920,-133.333333333333,4,2,1,30,0,0
82586,-133.333333333333,4,2,1,40,0,0
82920,-133.333333333333,4,2,1,50,0,0
83253,-100,4,2,1,60,0,0
83920,-100,4,2,1,40,0,0
84253,-100,4,2,1,50,0,0
84586,-76.9230769230769,4,2,1,60,0,0
86586,-333.333333333333,4,2,1,60,0,0
87253,-76.9230769230769,4,2,1,70,0,1
95253,-71.4285714285714,4,2,1,70,0,1
97086,-55.5555555555556,4,2,1,70,0,1
97253,-71.4285714285714,4,2,1,70,0,1
97920,-76.9230769230769,4,2,1,70,0,1
99586,-62.5,4,2,1,70,0,1
99920,-76.9230769230769,4,2,1,70,0,1
100586,-62.5,4,2,1,70,0,1
101753,-76.9230769230769,4,2,1,70,0,1
105920,-55.5555555555556,4,2,1,70,0,1
106170,-83.3333333333333,4,2,1,70,0,1
106586,-55.5555555555556,4,2,1,70,0,1
106836,-83.3333333333333,4,2,1,70,0,1
108586,-100,4,2,1,60,0,0
129253,-100,4,2,1,50,0,0
129920,-66.6666666666667,4,2,1,60,0,0
130253,-76.9230769230769,4,2,1,60,0,0
138420,-55.5555555555556,4,2,1,60,0,0
138753,-76.9230769230769,4,2,1,60,0,0
139086,-55.5555555555556,4,2,1,60,0,0
139920,-55.5555555555556,4,2,1,60,0,0
140586,-250.000000000001,4,2,1,60,0,0
145920,-333.333333333334,4,2,1,60,0,0
148586,-250.000000000001,4,2,1,60,0,0
150586,-166.666666666667,4,2,1,40,0,0
151253,-100,4,2,1,60,0,0
156586,-66.6666666666667,4,2,1,60,0,0
156920,-76.9230769230769,4,2,1,60,0,0
161920,-133.333333333333,4,2,1,30,0,0
162586,-133.333333333333,4,2,1,40,0,0
162920,-133.333333333333,4,2,1,50,0,0
163253,-133.333333333333,4,2,1,60,0,0
163920,-133.333333333333,4,2,1,40,0,0
164253,-133.333333333333,4,2,1,50,0,0
164586,-76.9230769230769,4,2,1,60,0,0
166586,-333.333333333333,4,2,1,60,0,0
167253,-76.9230769230769,4,2,1,70,0,1
168420,-66.6666666666667,4,2,1,70,0,1
168753,-76.9230769230769,4,2,1,70,0,1
175253,-62.5,4,2,1,70,0,1
175753,-133.333333333333,4,2,1,70,0,1
176253,-62.5,4,2,1,70,0,1
177920,-76.9230769230769,4,2,1,70,0,1
178920,-62.5,4,2,1,70,0,1
181753,-100,4,2,1,70,0,1
183253,-76.9230769230769,4,2,1,70,0,1
185920,-50,4,2,1,70,0,1
186170,-100,4,2,1,70,0,1
186586,-50,4,2,1,70,0,1
186836,-100,4,2,1,70,0,1
188586,-76.9230769230769,4,2,1,60,0,0
217920,-66.6666666666667,4,2,1,60,0,0
220586,-200,4,2,1,50,0,0
223253,-125,4,2,1,50,0,0
225253,-166.666666666667,4,2,1,50,0,0
225920,-100,4,2,1,50,0,0
228586,-104.166666666667,4,2,1,50,0,0
230253,-117.647058823529,4,2,1,50,0,0
233920,-93.4579439252336,4,2,1,40,0,0
242920,-93.4579439252336,4,2,1,45,0,0
243920,-93.4579439252336,4,2,1,50,0,0
244586,-66.6666666666667,4,2,1,60,0,0
249920,-200,4,2,1,60,0,0
251253,-83.3333333333333,4,2,1,40,0,0
251920,-83.3333333333333,4,2,1,50,0,0
252253,-83.3333333333333,4,2,1,60,0,0
252586,-83.3333333333333,4,1,1,60,0,0
254920,-66.6666666666667,4,2,1,60,0,0
255253,-66.6666666666667,4,2,1,70,0,1
263253,-58.8235294117647,4,2,1,70,0,1
265086,-50,4,2,1,70,0,1
265920,-66.6666666666667,4,2,1,70,0,1
268586,-58.8235294117647,4,2,1,70,0,1
269753,-76.9230769230769,4,2,1,70,0,1
271253,-66.6666666666667,4,2,1,70,0,1
275420,-58.8235294117647,4,2,1,70,0,1
276503,-58.8235294117647,4,2,1,70,0,0
276586,-58.8235294117647,4,2,1,70,0,1
280420,-83.3333333333333,4,2,1,70,0,1
280920,-58.8235294117647,4,2,1,70,0,1
285086,-66.6666666666667,4,2,1,70,0,1
285920,-58.8235294117647,4,2,1,70,0,1
302586,-76.9230769230769,4,2,1,70,0,1
303253,-76.9230769230769,4,2,1,60,0,0
312920,-76.9230769230769,4,2,1,40,0,0
313253,-76.9230769230769,4,2,1,50,0,0
313586,-76.9230769230769,4,2,1,60,0,0
313920,-66.6666666666667,4,2,1,60,0,0
315086,-400,4,2,1,60,0,0
317753,-400,4,2,1,5,0,0

[Colours]
Combo1 : 255,0,255
Combo2 : 128,255,255
Combo3 : 255,128,255
Combo4 : 128,128,255

[HitObjects]
55,119,2768,5,2,0:0:0:0:
65,207,4949,5,2,0:0:0:0:
75,295,7131,5,2,0:0:0:0:
65,207,9313,5,2,0:0:0:0:
153,197,11495,5,2,0:0:0:0:
153,197,13677,6,0,B|198:173|251:201|220:211|277:237|329:203,1,180,2|2,0:0|0:0,0:0:0:0:
346,122,18040,5,2,0:0:0:0:
273,74,20222,5,2,0:0:0:0:
256,192,22376,5,2,0:0:0:0:
256,192,22514,12,4,24587,1:0:0:0:
58,128,25087,6,0,P|122:142|172:100,1,135.000005149842,4|0,1:2|0:0,0:0:0:0:
200,79,25503,1,0,0:0:0:0:
200,79,25587,2,0,L|208:139,1,53.9999983520508,8|0,1:2|0:0,0:0:0:0:
374,148,25753,2,0,L|368:201,1,53.9999983520508,0|0,1:0|0:0,0:0:0:0:
255,282,25920,6,0,B|313:272|313:272|356:292|356:292|410:282,1,161.999995056153,4|0,1:0|0:0,0:0:0:0:
428,295,26253,1,8,1:2:0:0:
288,162,26420,1,0,0:0:0:0:
298,361,26586,1,2,1:2:0:0:
421,195,26753,1,0,0:0:0:0:
421,195,26836,1,0,0:0:0:0:
421,195,26920,2,0,L|367:201,1,53.9999983520508,8|0,0:0|0:0,0:0:0:0:
164,304,27086,6,0,B|99:326|99:326|121:176|121:176|176:214,1,288,0|0,0:0|0:0,0:0:0:0:
255,282,27586,2,0,P|256:255|260:228,1,53.9999983520508,8|0,1:2|0:0,0:0:0:0:
363,22,27753,2,0,P|361:48|357:75,1,53.9999983520508,0|0,0:0|0:0,0:0:0:0:
217,144,27920,6,0,B|273:136|273:136|320:157,1,107.999996704102,2|0,1:2|0:0,0:0:0:0:
378,212,28170,1,2,0:0:0:0:
388,224,28253,1,8,0:0:0:0:
253,51,28420,1,2,0:0:0:0:
147,207,28586,6,0,B|122:159|122:159|131:105,1,107.999996704102,2|0,1:2|0:0,0:0:0:0:
217,144,28920,1,8,1:2:0:0:
60,243,29086,1,2,0:0:0:0:
248,349,29253,2,0,L|244:295,1,53.9999983520508,0|0,1:0|0:0,0:0:0:0:
239,211,29420,2,0,L|235:157,1,53.9999983520508,0|0,0:0|0:0,0:0:0:0:
158,318,29586,1,8,0:0:0:0:
339,266,29753,6,0,B|387:262|421:240|421:240|414:279|419:315,1,161.999995056153,2|0,0:0|0:0,0:0:0:0:
418,334,30086,2,0,P|444:325|471:320,1,53.9999983520508,2|0,0:0|0:0,0:0:0:0:
358,147,30253,2,0,P|378:128|393:105,1,53.9999983520508,10|0,1:2|0:0,0:0:0:0:
444,215,30420,2,0,L|494:195,1,53.9999983520508,0|0,0:0|0:0,0:0:0:0:
232,368,30586,5,2,1:2:0:0:
198,225,30753,1,0,0:0:0:0:
339,266,30920,1,8,0:0:0:0:
261,292,31086,5,2,0:2:0:0:
261,292,31170,1,0,0:0:0:0:
261,292,31253,2,0,B|208:272|208:272|157:283,1,107.999996704102,4|0,1:0|0:0,0:0:0:0:
67,121,31586,1,8,1:2:0:0:
8,191,31753,2,0,B|61:211|61:211|111:199,1,107.999996704102,2|0,0:2|1:0,0:0:0:0:
202,362,32086,1,0,0:0:0:0:
259,181,32253,1,8,0:0:0:0:
104,290,32420,5,0,0:0:0:0:
104,290,32503,1,8,0:0:0:0:
104,290,32586,2,0,L|157:282,1,53.9999983520508,4|0,1:0|0:0,0:0:0:0:
255,269,32753,2,0,L|308:261,1,53.9999983520508,0|0,0:0|0:0,0:0:0:0:
111,199,32920,5,8,1:2:0:0:
146,374,33086,1,0,0:0:0:0:
290,94,33253,5,0,1:0:0:0:
255,269,33419,1,2,0:0:0:0:
84,67,33586,1,8,0:0:0:0:
259,181,33753,5,0,0:0:0:0:
259,181,33836,1,0,0:0:0:0:
259,181,33920,2,0,L|205:189,1,53.9999983520508,4|0,1:2|0:0,0:0:0:0:
166,266,34086,2,0,L|112:257,1,53.9999983520508,0|0,1:0|0:0,0:0:0:0:
64,180,34253,1,8,0:0:0:0:
273,148,34420,6,0,L|219:156,1,53.9999983520508,4|0,1:2|0:0,0:0:0:0:
184,296,34586,2,0,L|130:287,1,53.9999983520508,0|0,1:0|0:0,0:0:0:0:
55,147,34753,1,8,0:0:0:0:
287,115,34920,6,0,L|233:123,1,53.9999983520508,4|0,1:2|0:0,0:0:0:0:
46,114,35086,1,2,1:2:0:0:
46,114,35170,1,2,1:2:0:0:
46,114,35253,1,6,1:2:0:0:
195,319,35420,1,0,1:0:0:0:
195,65,35586,1,8,0:0:0:0:
46,270,35753,1,4,1:0:0:0:
287,192,35920,5,8,0:0:0:0:
251,210,36003,1,0,1:0:0:0:
210,214,36087,1,0,1:0:0:0:
173,200,36170,1,0,1:0:0:0:
144,173,36253,1,0,1:0:0:0:
124,154,36336,1,0,1:0:0:0:
99,143,36419,1,0,1:0:0:0:
72,141,36503,1,0,1:0:0:0:
47,149,36587,5,8,1:2:0:0:
226,122,36753,2,0,L|233:59,2,53.9999983520508,0|0|0,1:0|1:0|1:0,0:0:0:0:
173,200,37086,5,4,1:0:0:0:
352,173,37253,2,0,L|358:119,2,53.9999983520508,0|0|8,1:0|1:0|0:0,0:0:0:0:
306,252,37586,5,8,1:2:0:0:
310,30,37753,2,0,P|236:51|169:13,1,157.5,12|0,1:2|0:0,0:0:0:0:
170,14,39253,6,0,L|182:108,1,90,4|0,1:0|0:0,0:0:0:0:
449,202,39586,1,0,1:0:0:0:
359,141,39753,2,0,L|347:235,1,90,0|0,0:0|1:0,0:0:0:0:
364,337,40086,1,0,0:0:0:0:
259,171,40253,1,0,1:0:0:0:
364,337,40420,1,0,0:0:0:0:
177,352,40586,6,0,L|83:342,1,90,0|0,1:0|0:0,0:0:0:0:
27,118,40920,1,0,1:0:0:0:
129,129,41086,2,0,L|223:139,1,90,0|0,0:0|1:0,0:0:0:0:
415,210,41420,1,0,0:0:0:0:
375,132,41586,1,0,1:0:0:0:
336,155,41670,1,0,0:0:0:0:
315,194,41753,1,0,0:0:0:0:
323,238,41836,1,0,0:0:0:0:
353,271,41920,5,0,1:0:0:0:
448,73,42086,1,0,0:0:0:0:
448,73,42253,1,0,1:0:0:0:
465,340,42420,2,0,P|449:295|438:240,1,90,0|0,0:0|1:0,0:0:0:0:
341,43,42753,1,0,0:0:0:0:
180,127,42920,1,0,1:0:0:0:
206,25,43086,1,0,0:0:0:0:
50,103,43253,6,0,L|68:213,1,90,2|0,1:2|0:0,0:0:0:0:
367,359,43586,2,0,L|349:249,1,90,0|2,1:0|0:2,0:0:0:0:
180,127,43920,1,0,1:0:0:0:
341,43,44087,1,0,0:0:0:0:
207,265,44253,1,2,1:2:0:0:
162,269,44336,1,0,1:0:0:0:
116,273,44420,1,0,1:0:0:0:
71,277,44503,1,0,1:0:0:0:
26,281,44586,6,0,B|37:326|37:326|24:372,1,90,4|0,1:0|0:0,0:0:0:0:
180,127,44920,1,0,1:0:0:0:
92,85,45086,2,0,B|81:130|81:130|94:176,1,90,0|0,0:0|1:0,0:0:0:0:
320,354,45420,1,0,0:0:0:0:
348,149,45586,1,0,1:0:0:0:
320,354,45753,1,0,0:0:0:0:
170,216,45920,6,0,L|181:108,1,90,0|0,1:0|0:0,0:0:0:0:
411,343,46253,2,0,L|400:235,1,90,0|0,1:0|0:0,0:0:0:0:
151,204,46586,2,0,L|162:96,1,90,0|0,1:0|0:0,0:0:0:0:
251,50,46920,1,0,1:0:0:0:
106,310,47086,1,0,0:0:0:0:
326,204,47253,6,0,L|210:220,1,90,0|0,1:0|0:0,0:0:0:0:
187,281,47503,1,0,0:0:0:0:
187,281,47586,1,0,1:0:0:0:
27,102,47753,1,2,0:0:0:0:
47,93,47836,1,0,0:0:0:0:
69,89,47920,1,0,1:0:0:0:
91,89,48003,1,0,0:0:0:0:
112,93,48086,1,0,0:0:0:0:
132,102,48170,1,0,0:0:0:0:
151,113,48253,1,0,1:0:0:0:
171,122,48336,1,0,0:0:0:0:
193,125,48420,1,0,0:0:0:0:
215,125,48503,1,0,0:0:0:0:
236,120,48586,6,0,P|286:67|283:167,1,236.250009012223,2|0,1:2|0:0,0:0:0:0:
229,220,49253,5,0,1:0:0:0:
242,248,49336,1,0,1:0:0:0:
247,279,49420,1,0,1:0:0:0:
240,309,49503,1,0,1:0:0:0:
222,335,49586,5,0,1:0:0:0:
271,328,49670,1,0,1:0:0:0:
312,300,49753,1,0,1:0:0:0:
360,293,49836,1,0,1:0:0:0:
399,262,49920,6,0,L|512:283,1,99.0000030212403,4|0,1:0|0:0,0:0:0:0:
372,183,50170,1,0,0:0:0:0:
365,161,50253,1,8,1:2:0:0:
161,275,50420,1,2,0:0:0:0:
150,314,50503,1,0,0:0:0:0:
147,354,50586,1,0,1:0:0:0:
44,165,50753,2,0,L|35:104,1,58.4999973220826,2|0,0:0|0:0,0:0:0:0:
239,92,50920,2,0,L|230:31,1,58.4999973220826,8|0,0:0|0:0,0:0:0:0:
0,75,51086,2,0,L|8:135,1,58.4999973220826,2|0,0:0|0:0,0:0:0:0:
139,191,51253,6,0,L|123:76,1,116.999994644165,0|2,1:0|0:0,0:0:0:0:
440,110,51586,2,0,L|368:99,1,58.4999973220826,8|0,0:0|0:0,0:0:0:0:
250,172,51753,2,0,L|322:161,1,58.4999973220826,2|0,0:0|0:0,0:0:0:0:
469,196,51920,1,0,1:0:0:0:
214,90,52086,1,0,0:0:0:0:
354,254,52253,1,10,0:2:0:0:
360,280,52336,1,0,0:0:0:0:
357,307,52420,1,0,0:0:0:0:
341,329,52503,1,0,0:0:0:0:
316,340,52586,5,2,1:2:0:0:
73,279,52753,1,2,0:0:0:0:
73,279,52836,1,0,0:0:0:0:
73,279,52920,2,0,L|150:263,1,58.4999973220826,8|0,1:2|0:0,0:0:0:0:
254,153,53086,2,0,L|235:240,1,58.4999973220826,2|0,0:0|0:0,0:0:0:0:
203,349,53253,1,0,1:0:0:0:
301,362,53420,1,2,0:0:0:0:
135,173,53586,1,10,0:0:0:0:
365,294,53753,1,0,0:0:0:0:
371,258,53836,1,0,0:0:0:0:
378,223,53920,6,0,L|360:107,1,116.999994644165,2|0,1:2|0:0,0:0:0:0:
459,224,54170,1,0,0:0:0:0:
478,235,54253,1,10,1:2:0:0:
245,188,54420,2,0,L|235:129,1,58.4999973220826,2|0,0:0|0:0,0:0:0:0:
210,26,54586,1,0,1:0:0:0:
48,142,54753,1,2,0:0:0:0:
74,165,54836,1,0,0:0:0:0:
87,198,54920,1,10,0:0:0:0:
85,233,55003,1,0,0:0:0:0:
65,263,55086,1,2,0:0:0:0:
47,257,55170,1,0,0:0:0:0:
30,250,55253,6,0,B|75:253|114:241|114:241|135:262|135:262|175:256|175:256|193:273|235:285,1,215.999993408203,4|8,1:0|1:2,0:0:0:0:
469,151,55753,1,2,0:0:0:0:
469,151,55836,1,0,0:0:0:0:
469,151,55920,2,0,P|400:157|364:182,1,107.999996704102,0|2,1:0|0:0,0:0:0:0:
335,253,56170,1,0,0:0:0:0:
335,253,56253,2,0,L|343:313,1,53.9999983520508,10|0,0:0|0:0,0:0:0:0:
387,83,56420,2,0,L|379:23,1,53.9999983520508,0|0,0:0|0:0,0:0:0:0:
145,132,56586,6,0,L|265:148,1,107.999996704102,0|0,1:0|0:0,0:0:0:0:
328,142,56836,1,0,0:0:0:0:
333,163,56920,1,10,1:2:0:0:
87,198,57086,1,2,0:0:0:0:
87,198,57170,1,0,0:0:0:0:
87,198,57253,2,0,P|59:149|76:78,1,107.999996704102,0|2,1:0|0:0,0:0:0:0:
131,43,57503,1,0,0:0:0:0:
131,43,57586,2,0,L|194:33,1,53.9999983520508,10|0,0:0|0:0,0:0:0:0:
222,251,57753,1,0,0:0:0:0:
214,293,57836,1,0,0:0:0:0:
205,334,57920,6,0,B|276:322|276:322|316:328|316:328|398:309,1,188.999994232178,4|0,1:0|0:0,0:0:0:0:
512,244,58253,2,0,L|449:232,1,62.9999980773926,8|0,1:3|0:0,0:0:0:0:
329,47,58420,2,0,P|298:102|376:196,1,188.999994232178,4|0,1:0|0:0,0:0:0:0:
295,299,58753,2,0,L|278:233,1,62.9999980773926,0|0,1:0|0:0,0:0:0:0:
81,43,58920,1,8,0:0:0:0:
23,279,59086,6,0,B|114:303|114:303|208:241,1,188.999994232178,4|0,1:0|0:0,0:0:0:0:
271,344,59420,1,0,1:0:0:0:
382,110,59586,1,8,0:0:0:0:
441,360,59753,1,0,0:0:0:0:
507,229,59920,5,0,1:0:0:0:
459,198,60003,1,0,1:0:0:0:
402,197,60086,1,0,1:0:0:0:
352,225,60170,1,0,1:0:0:0:
322,272,60253,5,0,1:0:0:0:
328,247,60336,1,0,1:0:0:0:
330,221,60420,1,0,1:0:0:0:
327,196,60503,1,0,1:0:0:0:
319,170,60586,5,4,1:0:0:0:
101,215,60753,1,0,0:0:0:0:
274,351,60920,1,0,0:0:0:0:
126,72,61086,1,4,1:2:0:0:
319,170,61253,1,0,0:0:0:0:
141,288,61420,1,0,0:0:0:0:
229,55,61586,6,0,P|221:122|218:189,1,135.000005149842,4|0,1:0|0:0,0:0:0:0:
221,206,62086,5,2,0:0:0:0:
313,191,62253,1,2,0:0:0:0:
405,176,62420,1,0,0:0:0:0:
485,228,62586,2,0,B|502:281|502:281|481:329,1,107.999996704102,2|0,0:0|0:0,0:0:0:0:
254,117,62920,2,0,B|237:64|237:64|257:15,1,107.999996704102,2|0,0:0|0:0,0:0:0:0:
444,62,63253,5,4,1:0:0:0:
401,278,63420,1,0,0:0:0:0:
254,117,63586,1,0,0:0:0:0:
406,177,63753,1,4,1:2:0:0:
257,15,63920,1,0,0:0:0:0:
230,258,64086,1,0,0:0:0:0:
445,96,64253,6,0,B|337:64|355:160|254:117,1,202.500007724762,4|0,1:0|0:0,0:0:0:0:
225,104,64920,2,0,P|230:130|234:157,3,53.9999983520508
207,207,65253,5,0,0:0:0:0:
159,238,65336,1,0,0:0:0:0:
102,239,65419,1,0,0:0:0:0:
52,211,65503,1,0,0:0:0:0:
17,178,65586,5,0,0:0:0:0:
21,166,65669,1,0,0:0:0:0:
25,154,65753,1,0,0:0:0:0:
29,142,65836,1,0,0:0:0:0:
32,130,65920,6,0,P|91:130|144:152,1,116.999994644165,4|0,1:0|0:0,0:0:0:0:
230,309,66253,1,8,1:2:0:0:
239,218,66420,5,0,0:0:0:0:
239,218,66503,1,0,0:0:0:0:
239,218,66586,2,0,L|242:159,1,58.4999973220826,0|0,1:0|0:0,0:0:0:0:
244,68,66753,1,0,0:0:0:0:
435,167,66920,1,8,0:0:0:0:
144,152,67086,1,0,0:0:0:0:
337,74,67253,2,0,L|334:190,1,116.999994644165,0|0,1:0|0:0,0:0:0:0:
469,311,67586,38,0,B|417:284|417:284|359:298,1,116.999994644165,8|0,1:2|0:0,0:0:0:0:
330,307,67836,1,0,0:0:0:0:
330,307,67920,2,0,L|333:191,1,116.999994644165,0|0,1:0|0:0,0:0:0:0:
405,382,68253,1,8,0:0:0:0:
221,339,68420,1,0,0:0:0:0:
221,339,68503,1,0,0:0:0:0:
221,339,68586,22,0,L|229:164,1,175.499991966248,4|0,1:0|0:0,0:0:0:0:
210,76,68919,2,0,P|240:77|267:87,1,58.4999973220826,8|0,1:2|0:0,0:0:0:0:
460,226,69086,2,0,P|433:238|404:241,1,58.4999973220826
275,260,69253,1,0,1:0:0:0:
420,132,69420,1,0,0:0:0:0:
455,344,69586,1,8,0:0:0:0:
280,49,69753,6,0,B|330:33|330:33|393:53|393:53|446:32,1,175.499991966248,4|0,1:0|0:0,0:0:0:0:
463,21,70086,2,0,L|455:78,1,58.4999973220826,0|0,1:0|0:0,0:0:0:0:
420,253,70253,2,0,L|412:311,1,58.4999973220826,8|0,1:2|0:0,0:0:0:0:
282,146,70420,1,0,1:0:0:0:
475,175,70586,5,0,1:0:0:0:
433,161,70669,1,0,1:0:0:0:
390,165,70752,1,0,1:0:0:0:
352,186,70835,1,0,1:0:0:0:
325,220,70920,5,8,0:0:0:0:
298,229,71003,1,0,1:0:0:0:
269,229,71086,1,0,1:0:0:0:
242,218,71169,1,0,1:0:0:0:
219,200,71253,6,0,P|221:155|229:110,2,90,4|0|0,1:0|0:0|0:0,0:0:0:0:
36,243,71753,1,0,1:0:0:0:
28,221,71920,2,0,P|15:177|-1:135,1,90,8|0,0:0|0:0,0:0:0:0:
134,297,72253,1,0,1:0:0:0:
130,272,72420,2,0,L|110:90,1,180,8|8,0:0|0:0,0:0:0:0:
305,6,72920,6,0,B|351:-1|351:-1|390:18,1,90,0|0,1:0|0:0,0:0:0:0:
367,172,73253,2,0,B|321:179|321:179|281:159,1,90,8|0,0:0|0:0,0:0:0:0:
136,56,73586,2,0,L|224:69,1,90,0|0,1:0|0:0,0:0:0:0:
347,172,73920,6,0,P|329:132|336:88,2,90,4|0|0,1:0|0:0|1:0,0:0:0:0:
428,325,74420,1,0,0:0:0:0:
495,274,74586,2,0,P|459:247|415:242,1,90,8|0,0:0|0:0,0:0:0:0:
188,236,74920,1,0,1:0:0:0:
166,316,75086,2,0,P|254:321|321:264,1,180,8|8,0:0|0:0,0:0:0:0:
242,48,75586,2,0,L|153:66,1,90,0|0,1:0|0:0,0:0:0:0:
70,85,75920,5,8,0:0:0:0:
251,147,76086,1,4,1:2:0:0:
79,184,76254,2,0,L|167:165,1,90,4|0,1:2|0:0,0:0:0:0:
355,122,76586,6,0,B|346:267|346:267|313:220,1,202.500007724762,0|0,1:0|0:0,0:0:0:0:
313,220,76920,2,0,L|380:212,1,67.5000025749208,8|0,1:2|0:0,0:0:0:0:
348,360,77086,1,0,0:0:0:0:
348,360,77170,1,0,0:0:0:0:
348,360,77253,1,0,0:0:0:0:
251,147,77420,1,2,1:2:0:0:
198,318,77586,1,8,0:0:0:0:
313,220,77753,1,2,0:0:0:0:
145,240,77920,6,0,B|196:223|196:223|255:239|255:239|312:219,1,175.499991966248,0|0,1:0|0:0,0:0:0:0:
312,218,78253,1,8,1:2:0:0:
198,318,78420,2,0,L|194:377,2,58.4999973220826,0|0|0,0:0|0:0|1:0,0:0:0:0:
211,64,78753,1,0,1:0:0:0:
204,225,78920,1,8,0:0:0:0:
251,147,79086,1,0,0:0:0:0:
108,179,79253,6,0,P|115:236|118:295,1,116.999994644165,0|0,1:0|0:0,0:0:0:0:
388,327,79586,2,0,P|388:268|397:211,1,116.999994644165,8|2,1:2|0:0,0:0:0:0:
418,11,79920,6,0,P|361:26|303:27,1,116.999994644165,0|2,1:0|0:0,0:0:0:0:
67,81,80253,2,0,P|125:81|182:92,1,116.999994644165,8|2,0:0|0:0,0:0:0:0:
300,0,80586,5,0,1:0:0:0:
304,28,80669,1,0,0:0:0:0:
309,57,80752,1,0,0:0:0:0:
313,86,80835,1,0,0:0:0:0:
356,105,80920,5,8,1:2:0:0:
351,133,81003,1,0,0:0:0:0:
346,162,81086,1,0,0:0:0:0:
341,191,81169,1,0,0:0:0:0:
347,237,81253,5,0,1:0:0:0:
314,207,81336,1,0,0:0:0:0:
273,194,81419,1,0,0:0:0:0:
230,200,81502,1,0,0:0:0:0:
193,224,81586,5,8,1:2:0:0:
136,217,81669,1,0,1:0:0:0:
91,181,81752,1,0,1:0:0:0:
72,127,81835,1,0,1:0:0:0:
86,71,81920,6,0,L|71:16,15,33.7500012874604,4|0|0|0|0|0|0|0|0|0|0|0|0|0|0|0,1:0|0:0|0:0|0:0|0:0|0:0|0:0|0:0|0:0|0:0|0:0|0:0|0:0|0:0|0:0|0:0,0:0:0:0:
162,74,83253,5,0,0:0:0:0:
172,88,83336,1,0,0:0:0:0:
178,105,83420,1,0,0:0:0:0:
180,122,83503,1,0,0:0:0:0:
148,139,83586,5,0,0:0:0:0:
133,172,83670,1,0,0:0:0:0:
125,206,83753,1,0,0:0:0:0:
123,241,83836,1,0,0:0:0:0:
95,276,83920,5,0,1:0:0:0:
128,264,84003,1,0,1:0:0:0:
163,264,84086,1,0,1:0:0:0:
194,282,84170,1,0,1:0:0:0:
217,320,84253,5,0,1:0:0:0:
255,351,84336,1,0,1:0:0:0:
304,353,84420,1,0,1:0:0:0:
344,325,84503,1,0,1:0:0:0:
361,275,84586,6,0,L|430:289,1,58.4999973220826,0|0,1:0|0:0,0:0:0:0:
239,56,84753,1,0,1:0:0:0:
204,264,84920,1,0,1:0:0:0:
372,111,85086,6,0,L|441:97,1,58.4999973220826,0|0,1:0|0:0,0:0:0:0:
304,353,85253,1,0,1:0:0:0:
196,158,85420,1,0,1:0:0:0:
453,281,85586,6,0,L|395:269,1,58.4999973220826,4|0,1:2|0:0,0:0:0:0:
170,284,85753,1,0,1:0:0:0:
275,111,85920,1,0,1:0:0:0:
12,231,86086,6,0,L|69:219,1,58.4999973220826,4|0,1:2|0:0,0:0:0:0:
282,262,86253,1,0,1:0:0:0:
119,76,86420,1,0,1:0:0:0:
153,329,86586,6,0,P|169:274|175:225,1,94.4999971160889,4|0,1:0|0:0,0:0:0:0:
148,206,87253,6,0,L|81:220,1,58.4999973220826,0|0,1:0|0:0,0:0:0:0:
36,153,87420,1,2,0:0:0:0:
18,156,87503,1,0,0:0:0:0:
1,160,87586,1,8,1:2:0:0:
185,47,87753,1,2,0:0:0:0:
197,60,87836,1,0,0:0:0:0:
210,73,87920,2,0,L|221:145,1,58.4999973220826,0|0,1:0|0:0,0:0:0:0:
399,217,88086,2,0,L|388:145,1,58.4999973220826,2|0,0:0|0:0,0:0:0:0:
322,54,88253,1,8,0:0:0:0:
322,54,88420,6,0,B|294:93|294:93|309:185,1,116.999994644165,2|0,0:0|1:0,0:0:0:0:
277,243,88670,1,0,0:0:0:0:
286,258,88753,1,2,0:0:0:0:
34,159,88920,2,0,B|136:156|95:220|212:220,1,175.499991966248,8|0,1:2|0:0,0:0:0:0:
168,357,89253,2,0,L|153:224,1,116.999994644165,0|2,1:0|0:0,0:0:0:0:
211,146,89503,1,0,0:0:0:0:
218,130,89586,1,8,0:0:0:0:
432,268,89753,1,2,0:0:0:0:
347,60,89920,6,0,B|304:135|304:135|360:233,1,175.499991966248,0|0,1:0|0:0,0:0:0:0:
348,212,90253,1,8,1:2:0:0:
245,377,90420,2,0,L|260:244,1,116.999994644165,2|0,0:0|1:0,0:0:0:0:
119,45,90753,1,2,0:0:0:0:
90,64,90836,1,0,0:0:0:0:
74,95,90920,1,8,0:0:0:0:
78,129,91003,1,0,0:0:0:0:
98,157,91086,2,0,L|165:149,1,58.4999973220826,2|0,0:0|0:0,0:0:0:0:
310,210,91253,6,0,L|194:227,1,116.999994644165,0|2,1:0|0:0,0:0:0:0:
95,339,91586,1,8,1:2:0:0:
235,122,91753,1,2,0:0:0:0:
230,104,91836,1,0,0:0:0:0:
226,86,91920,1,0,1:0:0:0:
322,305,92086,1,2,0:0:0:0:
112,242,92253,2,0,L|40:233,1,58.4999973220826,8|0,0:0|0:0,0:0:0:0:
275,197,92420,2,0,L|347:206,1,58.4999973220826,2|0,0:0|1:0,0:0:0:0:
219,351,92586,6,0,B|201:234|201:234|218:259|249:276,1,175.499991966248,4|0,1:0|0:0,0:0:0:0:
242,272,92920,1,8,1:2:0:0:
420,218,93086,1,2,0:0:0:0:
426,252,93170,1,0,0:0:0:0:
412,284,93253,1,0,1:0:0:0:
255,159,93420,1,2,0:0:0:0:
235,130,93503,1,0,0:0:0:0:
231,95,93586,1,8,0:0:0:0:
245,62,93670,1,0,0:0:0:0:
274,43,93753,2,0,L|343:32,1,58.4999973220826,2|0,0:0|1:0,0:0:0:0:
478,169,93920,6,0,B|351:154|351:154|323:102,1,175.499991966248,4|0,1:0|0:0,0:0:0:0:
328,112,94253,2,0,L|343:40,1,58.4999973220826,8|0,1:2|0:0,0:0:0:0:
136,220,94420,2,0,L|121:147,1,58.4999973220826,2|0,0:0|0:0,0:0:0:0:
276,269,94586,1,0,1:0:0:0:
280,304,94670,1,0,0:0:0:0:
284,338,94753,1,2,0:0:0:0:
399,183,94920,1,8,0:0:0:0:
198,355,95086,1,2,0:0:0:0:
145,347,95170,1,0,0:0:0:0:
89,339,95253,6,0,L|24:349,1,62.9999980773926,4|0,1:0|0:0,0:0:0:0:
199,123,95420,2,0,L|134:133,1,62.9999980773926,0|0,1:0|0:0,0:0:0:0:
62,314,95586,2,0,L|0:323,1,62.9999980773926,0|0,1:0|0:0,0:0:0:0:
288,225,95753,6,0,L|150:246,1,125.999996154785,4|0,1:0|0:0,0:0:0:0:
92,216,96003,1,0,0:0:0:0:
92,216,96086,1,8,0:0:0:0:
330,314,96253,5,4,1:2:0:0:
371,286,96336,1,0,0:0:0:0:
389,238,96420,1,8,0:0:0:0:
385,187,96503,1,8,0:0:0:0:
351,149,96586,6,0,L|280:134,1,62.9999980773926,4|0,1:0|0:0,0:0:0:0:
26,76,96753,1,0,0:0:0:0:
26,76,96836,1,0,0:0:0:0:
26,76,96920,2,0,L|97:61,1,62.9999980773926,8|0,0:0|0:0,0:0:0:0:
143,302,97086,6,0,B|160:267|160:267|153:212,1,80.9999975280763,4|0,1:2|0:0,0:0:0:0:
286,32,97253,5,0,1:0:0:0:
296,81,97336,1,0,1:0:0:0:
306,130,97420,1,0,1:0:0:0:
316,178,97503,1,0,1:0:0:0:
304,200,97586,5,0,1:0:0:0:
325,187,97670,1,0,1:0:0:0:
350,185,97753,1,0,1:0:0:0:
374,188,97836,1,0,1:0:0:0:
396,198,97920,6,0,L|414:273,1,58.4999973220826,0|0,1:0|0:0,0:0:0:0:
478,305,98086,1,2,0:0:0:0:
476,322,98170,1,0,0:0:0:0:
474,339,98253,1,8,1:2:0:0:
442,122,98420,1,2,0:0:0:0:
442,122,98503,1,0,0:0:0:0:
442,122,98586,2,0,L|516:102,1,58.4999973220826,0|0,1:0|0:0,0:0:0:0:
335,275,98753,2,0,L|317:350,1,58.4999973220826,2|0,0:0|0:0,0:0:0:0:
261,104,98920,1,8,0:0:0:0:
318,42,99086,6,0,B|349:92|349:92|325:173,1,116.999994644165,6|0,0:0|1:0,0:0:0:0:
264,189,99336,1,0,0:0:0:0:
269,205,99420,1,2,0:0:0:0:
130,354,99586,2,0,B|89:323|30:309|30:309|89:293|138:250,1,216,8|0,1:2|0:0,0:0:0:0:
183,200,99920,1,0,1:0:0:0:
108,65,100086,1,2,0:0:0:0:
113,99,100170,1,0,0:0:0:0:
118,133,100253,1,8,0:0:0:0:
379,338,100420,1,2,0:0:0:0:
256,335,100586,6,0,L|245:248,1,72,4|0,1:0|0:0,0:0:0:0:
302,189,100753,2,0,L|291:102,1,72,0|0,1:0|1:0,0:0:0:0:
348,43,100920,1,8,1:2:0:0:
115,217,101086,5,4,1:2:0:0:
86,209,101420,5,4,1:2:0:0:
58,201,101753,6,0,B|88:269|86:358|86:358|121:291,1,233.999989288331,4|0,1:2|1:0,0:0:0:0:
192,339,102253,5,8,1:2:0:0:
231,329,102336,1,0,0:0:0:0:
271,319,102420,1,0,0:0:0:0:
310,309,102503,1,0,0:0:0:0:
297,270,102586,5,0,1:0:0:0:
336,280,102669,1,0,0:0:0:0:
376,290,102753,1,0,1:0:0:0:
415,300,102836,1,0,1:0:0:0:
427,351,102920,5,8,0:0:0:0:
464,314,103003,1,0,1:0:0:0:
471,262,103086,1,0,1:0:0:0:
446,214,103170,1,0,1:0:0:0:
394,202,103253,6,0,L|217:226,1,175.499991966248,0|0,1:0|0:0,0:0:0:0:
220,225,103586,2,0,L|228:155,1,58.4999973220826,8|0,1:2|0:0,0:0:0:0:
87,55,103753,1,2,0:0:0:0:
181,303,103920,1,0,1:0:0:0:
325,183,104086,1,2,0:0:0:0:
331,148,104170,1,0,0:0:0:0:
337,113,104253,2,0,L|330:54,1,58.4999973220826,8|0,0:0|0:0,0:0:0:0:
408,241,104420,2,0,L|415:300,1,58.4999973220826,2|0,0:0|0:0,0:0:0:0:
138,231,104586,6,0,B|99:208|99:208|123:351|123:351|158:307,1,233.999989288331,4|8,1:0|1:2,0:0:0:0:
331,278,105003,1,0,0:0:0:0:
331,278,105086,1,2,0:0:0:0:
331,278,105170,1,0,0:0:0:0:
331,278,105253,2,0,L|194:263,1,116.999994644165,0|2,1:0|0:0,0:0:0:0:
75,286,105503,1,0,0:0:0:0:
75,286,105586,2,0,L|14:278,1,58.4999973220826,8|0,0:0|0:0,0:0:0:0:
274,34,105753,1,2,0:0:0:0:
284,48,105836,1,0,0:0:0:0:
293,63,105920,6,0,B|231:95|211:150|211:150|260:135,1,161.999995056153,4|0,1:0|0:0,0:0:0:0:
258,342,106170,6,0,B|261:272|223:227|223:227|212:277,1,161.999995056153,4|0,1:0|1:0,0:0:0:0:
34,170,106503,5,0,1:0:0:0:
34,170,106586,2,0,B|92:207|150:197|150:197|112:162,1,161.999995056153,4|0,1:0|0:0,0:0:0:0:
410,228,106836,6,0,B|351:190|293:200|293:200|331:235,1,161.999995056153,4|0,1:0|1:0,0:0:0:0:
366,295,107170,1,0,1:0:0:0:
366,295,107253,5,8,1:2:0:0:
195,33,107475,1,0,1:0:0:0:
54,313,107698,1,0,1:0:0:0:
313,126,107920,5,8,1:2:0:0:
78,138,108142,1,0,1:0:0:0:
207,335,108364,1,0,1:0:0:0:
199,199,108586,6,0,P|154:205|110:217,1,90,0|2,1:0|0:0,0:0:0:0:
276,147,108920,2,0,P|292:105|304:61,1,90,8|2,1:2|0:0,0:0:0:0:
278,239,109253,2,0,P|306:274|337:306,1,90,0|2,1:0|0:0,0:0:0:0:
190,109,109586,1,8,0:0:0:0:
19,262,109753,6,0,P|89:313|175:295,1,180,2|2,0:0|0:0,0:0:0:0:
245,186,110253,2,0,P|286:170|331:169,1,90,8|2,1:2|0:0,0:0:0:0:
397,272,110586,2,0,P|352:271|310:255,1,90,0|2,1:0|0:0,0:0:0:0:
190,109,110920,1,8,0:0:0:0:
355,317,111253,5,0,1:0:0:0:
174,349,111420,1,2,0:0:0:0:
331,220,111586,5,8,1:2:0:0:
129,220,111753,1,2,0:0:0:0:
355,123,111920,5,0,1:0:0:0:
174,91,112087,1,2,0:0:0:0:
241,271,112253,1,8,0:0:0:0:
421,196,112420,6,0,P|451:114|407:38,1,180,2|2,0:0|0:0,0:0:0:0:
174,91,112920,2,0,L|185:187,1,90,8|2,1:2|0:0,0:0:0:0:
291,240,113253,1,0,1:0:0:0:
279,151,113420,1,2,0:0:0:0:
85,179,113586,1,8,0:0:0:0:
97,269,113753,1,2,0:0:0:0:
97,269,113836,1,0,0:0:0:0:
96,269,113920,6,0,P|139:257|183:265,1,90,4|2,1:0|0:0,0:0:0:0:
362,289,114253,2,0,P|320:272|290:239,1,90,8|2,1:2|0:0,0:0:0:0:
213,100,114586,2,0,L|222:189,1,90,0|2,1:0|0:0,0:0:0:0:
239,327,114920,1,8,0:0:0:0:
403,136,115086,5,2,0:0:0:0:
403,136,115170,1,0,1:0:0:0:
403,135,115253,2,0,P|360:147|315:143,1,90,4|2,1:0|0:0,0:0:0:0:
147,117,115586,2,0,P|177:149|218:168,1,90,8|2,1:2|0:0,0:0:0:0:
351,63,115920,2,0,P|340:106|314:143,1,90,0|2,1:0|0:0,0:0:0:0:
138,204,116253,2,0,P|181:193|218:167,1,90,8|2,0:0|0:0,0:0:0:0:
248,81,116503,1,0,0:0:0:0:
248,81,116586,5,4,1:0:0:0:
294,269,116753,1,2,0:0:0:0:
403,222,116920,5,8,1:2:0:0:
217,167,117087,1,2,0:0:0:0:
174,276,117253,5,0,1:0:0:0:
314,142,117420,1,2,0:0:0:0:
318,359,117586,1,8,0:0:0:0:
121,200,117753,6,0,B|174:182|174:182|240:209|240:209|291:193,1,180,4|0,1:0|0:0,0:0:0:0:
306,183,118170,1,0,0:0:0:0:
319,169,118253,1,0,1:0:0:0:
326,149,118336,1,0,1:0:0:0:
324,130,118420,1,0,1:0:0:0:
313,111,118503,1,0,1:0:0:0:
296,96,118586,5,0,1:0:0:0:
262,90,118669,1,0,1:0:0:0:
229,85,118752,1,0,1:0:0:0:
195,80,118835,1,0,1:0:0:0:
162,75,118920,5,0,1:0:0:0:
217,65,119003,1,0,1:0:0:0:
273,54,119086,1,0,1:0:0:0:
328,44,119169,1,0,1:0:0:0:
383,34,119253,5,4,1:0:0:0:
358,327,119586,1,4,1:0:0:0:
358,327,119753,1,4,1:0:0:0:
128,34,121920,5,0,1:0:0:0:
144,222,122086,1,0,1:0:0:0:
141,190,122169,1,0,1:0:0:0:
138,159,122252,1,0,1:0:0:0:
154,327,122420,1,0,1:0:0:0:
154,327,123253,5,0,0:0:0:0:
335,234,123420,1,0,1:0:0:0:
134,202,123586,1,0,1:0:0:0:
278,346,123753,1,0,1:0:0:0:
246,145,123920,2,0,B|239:117|232:103|232:103|255:62|255:62|243:42|244:-1,2,135,0|0|0,1:0|1:0|1:0,0:0:0:0:
256,235,124586,5,4,1:0:0:0:
94,213,124920,1,4,1:0:0:0:
418,257,125087,1,4,1:0:0:0:
256,41,127253,5,4,1:2:0:0:
256,41,127420,1,0,1:0:0:0:
94,63,127587,1,0,1:0:0:0:
418,19,127754,1,4,1:0:0:0:
175,155,128086,5,0,1:0:0:0:
337,133,128253,1,0,1:0:0:0:
256,230,128419,1,8,1:2:0:0:
229,15,129253,5,0,1:0:0:0:
274,49,129336,1,0,1:0:0:0:
294,103,129419,1,0,1:0:0:0:
283,160,129502,1,0,1:0:0:0:
249,187,129586,5,0,1:0:0:0:
230,226,129669,1,0,1:0:0:0:
230,269,129752,1,0,1:0:0:0:
248,310,129835,1,0,1:0:0:0:
279,343,129920,6,0,B|337:333|413:310|413:310|373:360,1,202.500007724762,4|0,1:0|0:0,0:0:0:0:
373,360,130253,2,0,L|367:301,1,58.4999973220826,8|0,1:2|0:0,0:0:0:0:
431,80,130420,1,2,0:0:0:0:
431,80,130503,1,0,0:0:0:0:
431,80,130586,2,0,L|425:139,1,58.4999973220826,0|0,1:0|0:0,0:0:0:0:
315,224,130753,5,2,0:0:0:0:
355,210,130836,1,0,0:0:0:0:
396,221,130920,1,8,0:0:0:0:
436,231,131003,1,0,0:0:0:0:
477,215,131086,1,2,0:0:0:0:
301,85,131253,5,0,1:0:0:0:
221,264,131420,2,0,L|213:206,1,58.4999973220826,2|0,0:0|0:0,0:0:0:0:
144,47,131586,2,0,L|136:104,1,58.4999973220826,8|0,1:2|0:0,0:0:0:0:
60,321,131753,1,2,0:0:0:0:
60,321,131836,1,0,0:0:0:0:
60,321,131920,2,0,L|45:247,1,58.4999973220826,0|0,1:0|0:0,0:0:0:0:
46,125,132086,5,2,0:0:0:0:
58,151,132169,1,0,0:0:0:0:
77,173,132252,1,10,0:0:0:0:
102,187,132336,1,0,0:0:0:0:
131,194,132419,1,0,0:0:0:0:
160,191,132502,1,0,0:0:0:0:
187,180,132586,6,0,B|257:193|257:193|298:173,1,116.999994644165,2|0,1:2|0:0,0:0:0:0:
400,73,132836,1,0,0:0:0:0:
397,107,132920,2,0,L|383:223,1,116.999994644165,10|2,1:2|0:0,0:0:0:0:
340,315,133170,1,0,0:0:0:0:
340,315,133253,6,0,P|368:308|397:310,1,58.4999973220826,0|0,1:0|0:0,0:0:0:0:
187,180,133420,2,0,P|157:181|129:175,1,58.4999973220826,2|0,0:0|0:0,0:0:0:0:
298,173,133586,2,0,L|302:114,1,58.4999973220826,10|0,0:0|0:0,0:0:0:0:
225,326,133753,2,0,L|229:385,1,58.4999973220826,0|0,0:0|0:0,0:0:0:0:
158,89,133920,5,0,1:0:0:0:
383,223,134086,1,0,0:0:0:0:
387,193,134170,1,0,0:0:0:0:
391,163,134253,1,10,1:2:0:0:
207,238,134420,1,2,0:0:0:0:
197,209,134504,1,0,0:0:0:0:
187,180,134587,1,0,1:0:0:0:
283,97,134753,5,2,0:0:0:0:
283,97,134836,1,0,0:0:0:0:
283,97,134920,2,0,L|288:155,1,58.4999973220826,10|0,0:0|0:0,0:0:0:0:
307,264,135086,1,0,0:0:0:0:
312,293,135169,1,0,0:0:0:0:
318,324,135253,6,0,B|250:340|250:340|165:299|165:299|97:316,1,233.999989288331,4|8,1:0|1:2,0:0:0:0:
1,149,135753,1,2,0:0:0:0:
1,149,135836,1,0,0:0:0:0:
0,148,135920,2,0,P|58:150|110:175,1,116.999994644165,0|2,1:0|0:0,0:0:0:0:
134,250,136170,1,0,0:0:0:0:
134,250,136253,2,0,L|126:307,1,58.4999973220826,10|0,0:0|0:0,0:0:0:0:
82,79,136420,2,0,L|88:20,1,58.4999973220826,0|0,0:0|0:0,0:0:0:0:
267,129,136586,5,0,1:0:0:0:
204,190,136753,1,0,0:0:0:0:
184,152,136836,1,0,0:0:0:0:
184,107,136920,1,10,0:2:0:0:
330,68,137086,1,2,0:0:0:0:
350,106,137169,1,0,0:0:0:0:
350,151,137253,1,0,1:0:0:0:
306,270,137420,6,0,L|290:213,1,58.4999973220826,2|0,0:0|0:0,0:0:0:0:
267,129,137586,2,0,L|251:72,1,58.4999973220826,10|0,0:0|0:0,0:0:0:0:
137,183,137753,1,0,0:0:0:0:
136,217,137836,1,0,0:0:0:0:
135,245,137920,6,0,B|173:237|203:248|203:248|241:205|241:205|262:212|289:213,1,175.499991966248,4|0,1:0|0:0,0:0:0:0:
325,136,138253,2,0,P|295:133|266:128,1,58.4999973220826,8|0,1:3|0:0,0:0:0:0:
163,147,138420,2,0,P|89:85|183:70,1,242.999992584229,4|0,1:0|0:0,0:0:0:0:
276,301,138753,1,0,1:0:0:0:
390,39,138920,1,8,0:0:0:0:
441,234,139086,6,0,B|361:248|361:248|298:208|298:208|212:223,1,242.999992584229,4|0,1:2|0:0,0:0:0:0:
153,293,139420,1,0,1:0:0:0:
255,71,139586,1,12,0:0:0:0:
12,94,139753,1,0,0:0:0:0:
180,179,139920,5,0,1:0:0:0:
222,191,140003,1,0,1:0:0:0:
254,197,140086,1,0,1:0:0:0:
282,200,140170,1,0,1:0:0:0:
305,200,140253,1,0,1:0:0:0:
327,198,140336,1,0,1:0:0:0:
342,195,140420,1,0,1:0:0:0:
354,193,140503,1,0,1:0:0:0:
362,189,140586,6,0,B|342:220|342:240|342:240|313:257|305:293,2,107.999996704102,4|0|0,1:0|0:0|0:0,0:0:0:0:
362,189,142586,1,2,0:0:0:0:
150,195,143253,6,0,B|170:164|170:144|170:144|199:127|207:91,2,107.999996704102,0|0|0,1:0|0:0|0:0,0:0:0:0:
150,195,145253,1,2,0:0:0:0:
259,298,145920,6,0,B|228:278|208:278|208:278|191:249|155:241,2,107.999996704102,0|0|0,1:0|0:0|0:0,0:0:0:0:
259,298,147920,1,2,0:0:0:0:
253,86,148586,6,0,B|284:106|304:106|304:106|321:135|357:143,2,107.999996704102,0|0|0,1:0|0:0|0:0,0:0:0:0:
222,16,149920,1,2,0:0:0:0:
256,192,150586,6,0,L|248:160,7,26.9999991760254,0|0|0|0|0|0|0|0,0:0|0:0|0:0|0:0|0:0|0:0|0:0|0:0,0:0:0:0:
288,211,151253,6,0,P|279:258|262:302,1,90,4|0,1:0|0:0,0:0:0:0:
449,135,151586,2,0,P|457:179|472:221,1,90,0|0,0:0|1:0,0:0:0:0:
363,139,151920,2,0,L|386:334,1,180,8|0,0:0|1:0,0:0:0:0:
201,230,152420,6,0,P|147:252|108:262,1,90,8|0,0:0|0:0,0:0:0:0:
254,124,152753,1,8,0:0:0:0:
254,124,152920,2,0,P|210:111|169:93,1,90,0|0,1:0|0:0,0:0:0:0:
301,309,153253,2,0,P|261:330|224:356,1,90,8|0,0:0|0:0,0:0:0:0:
224,356,153503,1,0,0:0:0:0:
224,356,153586,1,0,1:0:0:0:
406,303,153753,1,0,0:0:0:0:
443,142,153920,6,0,B|406:114|406:114|354:118,1,90,4|0,1:0|0:0,0:0:0:0:
488,286,154253,2,0,B|444:289|444:289|407:261,1,90,0|0,1:0|0:0,0:0:0:0:
300,53,154586,2,0,P|274:116|345:206,1,180,8|0,0:0|1:0,0:0:0:0:
452,52,155086,6,0,L|441:153,1,90,8|0,0:0|0:0,0:0:0:0:
268,276,155420,1,8,0:0:0:0:
268,276,155586,2,0,L|277:365,1,90,0|0,1:0|0:0,0:0:0:0:
138,124,155920,1,8,0:0:0:0:
79,344,156086,1,4,1:2:0:0:
54,151,156253,2,0,L|69:266,1,90,4|0,1:2|0:0,0:0:0:0:
379,297,156586,6,0,B|357:152|357:152|325:214,1,202.500007724762,0|0,1:0|0:0,0:0:0:0:
331,201,156920,1,0,0:0:0:0:
331,201,157086,1,0,0:0:0:0:
102,120,157253,1,2,0:0:0:0:
102,120,157420,1,0,0:0:0:0:
248,289,157586,2,0,L|237:211,1,58.4999973220826,2|0,0:0|0:0,0:0:0:0:
225,142,157753,1,2,1:2:0:0:
225,142,157836,1,0,1:0:0:0:
225,142,157920,5,4,1:2:0:0:
339,269,158086,1,0,0:0:0:0:
504,65,158253,1,0,0:0:0:0:
504,65,158420,2,0,L|431:79,1,58.4999973220826,6|0,1:2|0:0,0:0:0:0:
367,92,158586,1,0,0:0:0:0:
494,262,158753,1,0,0:0:0:0:
494,262,158920,2,0,L|421:255,1,58.4999973220826,4|0,1:0|0:0,0:0:0:0:
316,354,159086,1,0,0:0:0:0:
205,184,159253,5,4,1:0:0:0:
132,358,159420,1,2,0:0:0:0:
273,228,159586,5,8,1:2:0:0:
200,54,159753,1,2,0:0:0:0:
203,267,159920,5,4,1:2:0:0:
377,194,160087,1,2,0:0:0:0:
271,311,160253,5,8,0:0:0:0:
97,238,160420,1,2,0:0:0:0:
230,121,160586,5,4,1:0:0:0:
253,116,160670,1,0,0:0:0:0:
276,119,160753,1,0,0:0:0:0:
297,128,160836,1,0,0:0:0:0:
303,162,160920,5,8,1:2:0:0:
334,148,161003,1,0,0:0:0:0:
370,144,161086,1,0,0:0:0:0:
404,151,161170,1,0,0:0:0:0:
434,115,161253,5,4,1:2:0:0:
458,155,161336,1,0,0:0:0:0:
461,202,161420,1,0,0:0:0:0:
436,241,161503,1,0,0:0:0:0:
378,251,161586,5,8,1:2:0:0:
321,234,161670,1,0,1:0:0:0:
270,262,161753,1,0,1:0:0:0:
247,315,161836,1,0,1:0:0:0:
266,370,161920,6,0,L|232:364,15,33.7500012874604,4|0|0|0|0|0|0|0|0|0|0|0|0|0|0|0,1:0|0:0|0:0|0:0|0:0|0:0|0:0|0:0|0:0|0:0|0:0|0:0|0:0|0:0|0:0|0:0,0:0:0:0:
150,367,163253,5,0,0:0:0:0:
140,353,163336,1,0,0:0:0:0:
134,336,163420,1,0,0:0:0:0:
132,319,163503,1,0,0:0:0:0:
164,302,163586,5,0,0:0:0:0:
179,269,163670,1,0,0:0:0:0:
187,235,163753,1,0,0:0:0:0:
189,200,163836,1,0,0:0:0:0:
168,160,163920,5,0,1:0:0:0:
201,172,164003,1,0,1:0:0:0:
236,172,164086,1,0,1:0:0:0:
267,154,164170,1,0,1:0:0:0:
290,116,164253,5,0,1:0:0:0:
328,85,164336,1,0,1:0:0:0:
377,83,164420,1,0,1:0:0:0:
417,111,164503,1,0,1:0:0:0:
443,153,164586,6,0,P|435:181|430:210,1,58.4999973220826,4|0,1:0|0:0,0:0:0:0:
212,91,164753,1,0,1:0:0:0:
310,242,164920,1,0,1:0:0:0:
126,219,165086,6,0,P|134:247|139:276,1,58.4999973220826,4|0,1:0|0:0,0:0:0:0:
357,164,165253,1,0,1:0:0:0:
259,315,165420,1,0,1:0:0:0:
212,91,165586,6,0,P|240:84|269:79,1,58.4999973220826,4|0,1:2|0:0,0:0:0:0:
385,283,165753,1,0,1:0:0:0:
483,99,165920,1,0,1:0:0:0:
288,264,166086,6,0,P|260:257|231:252,1,58.4999973220826,4|0,1:0|0:0,0:0:0:0:
380,61,166253,1,0,1:0:0:0:
491,189,166420,1,0,1:0:0:0:
297,188,166586,6,0,P|339:167|386:170,1,94.4999971160889,4|0,1:0|0:0,0:0:0:0:
386,170,167253,6,0,B|349:170|325:157|325:157|277:175|277:175|250:166|216:173,1,175.499991966248,0|0,1:0|0:0,0:0:0:0:
243,260,167587,2,0,P|272:264|301:260,1,58.4999973220826,8|0,1:2|0:0,0:0:0:0:
380,84,167753,1,2,0:0:0:0:
380,84,167837,1,0,0:0:0:0:
380,84,167920,2,0,P|380:54|383:25,1,58.4999973220826,0|0,1:0|0:0,1:0:0:0:
191,31,168086,2,0,P|194:60|193:89,1,58.4999973220826,2|0,0:0|0:0,1:0:0:0:
468,58,168253,1,8,0:0:0:0:
285,66,168420,6,0,B|287:137|284:212|284:212|305:184|321:169,1,202.500007724762,2|0,0:0|0:0,0:0:0:0:
320,169,168753,2,0,L|246:165,1,57.5999982421876,2|0,0:0|0:0,0:0:0:0:
134,92,168920,2,0,L|193:89,1,58.4999973220826,8|0,1:2|0:0,0:0:0:0:
382,75,169086,1,2,0:0:0:0:
237,286,169253,6,0,B|294:302|294:302|343:273,1,116.999994644165,0|2,1:0|0:0,0:0:0:0:
420,233,169503,1,0,0:0:0:0:
420,233,169586,2,0,P|415:205|412:176,1,58.4999973220826,8|0,0:0|0:0,0:0:0:0:
294,29,169753,2,0,P|293:57|289:86,1,57.5999982421876,2|0,0:0|0:0,0:0:0:0:
275,208,169920,5,0,1:0:0:0:
398,56,170086,1,2,0:0:0:0:
190,141,170253,1,8,1:2:0:0:
412,255,170420,1,2,0:0:0:0:
412,255,170503,1,0,0:0:0:0:
412,255,170586,2,0,L|407:197,1,58.4999973220826,0|0,1:0|0:0,0:0:0:0:
283,144,170753,2,0,L|288:86,1,58.4999973220826,2|0,0:0|0:0,0:0:0:0:
366,7,170920,1,8,0:0:0:0:
357,220,171086,6,0,P|366:293|387:198,1,292.499986610413,2|0,0:0|0:0,0:0:0:0:
351,140,171586,6,0,B|278:131|306:164|237:152,1,116.999994644165,8|2,1:2|0:0,0:0:0:0:
259,16,171836,1,0,0:0:0:0:
259,16,171920,2,0,L|250:73,1,58.4999973220826,0|0,1:0|0:0,0:0:0:0:
223,233,172086,2,0,L|214:290,1,58.4999973220826,2|0,0:0|0:0,0:0:0:0:
51,66,172253,2,0,L|56:135,1,58.4999973220826,8|0,0:0|0:0,0:0:0:0:
62,215,172420,1,2,0:0:0:0:
64,244,172503,1,0,1:0:0:0:
66,273,172586,6,0,B|131:275|192:242|192:242|183:293,1,175.499991966248,4|0,1:0|0:0,0:0:0:0:
274,267,172920,2,0,B|283:209|283:209|252:166|252:166|262:97,1,175.499991966248,8|0,1:2|0:0,0:0:0:0:
261,102,173253,2,0,L|319:97,1,57.5999982421876,0|0,1:0|0:0,0:0:0:0:
428,249,173420,2,0,L|371:255,1,58.4999973220826,2|0,0:0|0:0,0:0:0:0:
192,243,173587,1,8,0:0:0:0:
398,163,173754,5,2,0:0:0:0:
398,163,173836,1,0,1:0:0:0:
398,163,173920,2,0,B|384:215|384:215|417:301,1,116.999994644165,4|2,1:0|0:0,0:0:0:0:
479,350,174170,1,0,0:0:0:0:
479,350,174254,2,0,P|484:321|490:293,1,57.5999982421876,8|0,1:2|0:0,0:0:0:0:
308,311,174420,2,0,P|304:282|300:254,1,57.5999982421876,2|0,0:0|0:0,0:0:0:0:
484,211,174587,1,0,1:0:0:0:
377,360,174754,1,2,0:0:0:0:
284,170,174920,1,8,0:0:0:0:
495,106,175086,5,2,0:0:0:0:
495,106,175169,1,0,0:0:0:0:
495,106,175253,2,0,L|488:177,1,72.0000027465821,4|0,1:0|0:0,0:0:0:0:
275,276,175420,2,0,L|268:204,1,72,0|0,1:0|0:0,0:0:0:0:
474,120,175586,2,0,L|467:191,1,72.0000027465821,0|0,1:0|0:0,0:0:0:0:
367,255,175753,6,0,L|371:120,1,135,4|8,1:0|0:0,0:0:0:0:
289,51,176253,6,0,B|252:73|186:73|186:73|239:91|273:145,1,216.000008239746,4|8,1:2|0:0,0:0:0:0:
145,157,176586,2,0,B|228:164|183:211|267:219,1,144.000005493164,4|0,1:0|0:0,0:0:0:0:
371,120,176920,2,0,P|406:116|442:111,1,72,8|0,0:0|0:0,0:0:0:0:
418,308,177086,2,0,P|453:313|489:316,1,72,4|0,1:2|0:0,0:0:0:0:
476,231,177253,5,0,1:0:0:0:
432,207,177336,1,0,1:0:0:0:
382,213,177419,1,0,1:0:0:0:
345,245,177503,1,0,1:0:0:0:
318,286,177586,1,0,1:0:0:0:
271,303,177669,1,0,1:0:0:0:
222,287,177753,1,0,1:0:0:0:
189,248,177836,1,0,1:0:0:0:
180,197,177920,6,0,B|268:175|244:251|346:223,1,175.499991966248,0|0,1:0|0:0,0:0:0:0:
367,128,178253,2,0,L|279:143,1,57.5999982421876,8|0,1:2|0:0,0:0:0:0:
207,286,178420,1,2,0:0:0:0:
207,286,178503,1,0,0:0:0:0:
207,286,178586,1,0,1:0:0:0:
380,304,178753,1,2,0:0:0:0:
229,73,178920,2,0,L|221:144,1,72,8|0,0:0|0:0,0:0:0:0:
207,286,179086,6,0,B|221:144|221:144|265:203,1,216,6|0,0:0|0:0,0:0:0:0:
265,203,179420,2,0,P|229:206|193:209,1,72,2|0,0:0|0:0,0:0:0:0:
61,108,179586,2,0,P|96:111|132:114,1,72,8|0,1:2|0:0,0:0:0:0:
316,121,179753,1,2,0:0:0:0:
113,273,179920,5,0,1:0:0:0:
226,109,180086,1,2,0:0:0:0:
228,91,180170,1,0,0:0:0:0:
229,73,180253,1,8,0:0:0:0:
301,299,180420,1,2,0:0:0:0:
87,184,180586,6,0,P|122:178|158:176,1,72,0|0,1:0|0:0,0:0:0:0:
387,129,180753,1,0,1:0:0:0:
387,129,180836,1,0,1:0:0:0:
387,129,180920,2,0,P|351:127|315:120,1,72,8|0,1:2|0:0,0:0:0:0:
107,12,181086,5,4,1:2:0:0:
115,41,181420,5,4,1:2:0:0:
123,70,181753,6,0,B|177:62|177:62|243:93|243:93|294:84,1,180,4|0,1:2|1:0,0:0:0:0:
373,8,182253,5,8,1:2:0:0:
378,47,182336,1,0,0:0:0:0:
384,88,182420,1,0,0:0:0:0:
390,128,182503,1,0,0:0:0:0:
433,106,182586,5,0,1:0:0:0:
428,145,182669,1,0,0:0:0:0:
422,186,182753,1,0,1:0:0:0:
416,226,182836,1,0,1:0:0:0:
420,279,182920,5,8,0:0:0:0:
383,242,183003,1,0,1:0:0:0:
331,235,183086,1,0,1:0:0:0:
283,260,183170,1,0,1:0:0:0:
271,312,183253,6,0,L|260:136,1,175.499991966248,0|0,1:0|0:0,0:0:0:0:
183,78,183586,6,0,B|160:127|160:127|178:187,1,116.999994644165,8|2,1:2|0:0,0:0:0:0:
105,227,183836,1,0,0:0:0:0:
105,227,183919,2,0,L|47:219,1,58.4999973220826,0|0,1:0|0:0,0:0:0:0:
16,294,184086,2,0,L|73:303,1,58.4999973220826,2|0,0:0|0:0,0:0:0:0:
158,312,184252,1,8,0:0:0:0:
46,136,184420,1,2,0:0:0:0:
256,0,184586,6,0,L|256:175,1,175.499991966248,4|2,1:0|0:0,0:0:0:0:
168,187,184920,2,0,L|171:128,1,58.4999973220826,8|0,1:2|0:0,0:0:0:0:
90,93,185086,6,0,B|65:147|65:147|79:202,1,116.999994644165,2|0,0:0|1:0,0:0:0:0:
344,187,185420,2,0,L|341:128,1,58.4999973220826,2|0,0:0|0:0,0:0:0:0:
422,93,185586,6,0,B|447:147|447:147|432:202,1,116.999994644165,8|2,0:0|0:0,0:0:0:0:
344,187,185836,1,0,0:0:0:0:
344,187,185920,6,0,L|301:174,1,45,4|0,1:0|0:0,0:0:0:0:
47,152,186170,6,0,P|109:127|174:107,1,135,4|0,1:0|0:0,0:0:0:0:
341,50,186503,1,0,1:0:0:0:
341,50,186586,6,0,L|315:86,1,45,4|0,1:0|0:0,0:0:0:0:
217,321,186836,6,0,P|212:253|213:186,1,135,4|0,1:0|0:0,0:0:0:0:
238,47,187170,1,0,1:0:0:0:
238,47,187253,5,8,1:2:0:0:
343,126,187475,1,0,1:2:0:0:
470,160,187698,1,0,1:2:0:0:
359,231,187920,5,8,1:2:0:0:
228,252,188142,1,0,1:2:0:0:
99,220,188364,1,0,1:2:0:0:
228,348,188586,5,4,0:1:0:0:
150,80,199253,5,0,1:0:0:0:
124,111,199336,1,0,0:0:0:0:
117,151,199420,1,2,0:0:0:0:
138,185,199503,1,0,0:0:0:0:
173,204,199586,2,0,L|288:177,1,116.999994644165,8|2,1:2|0:0,0:0:0:0:
376,35,199920,1,0,1:0:0:0:
344,297,200086,1,2,0:0:0:0:
219,138,200253,1,8,0:0:0:0:
390,179,200420,1,2,0:0:0:0:
141,285,200586,6,0,L|83:280,2,38.9999982147218,0|0|0,1:0|0:0|0:0,0:0:0:0:
313,137,200920,2,0,B|286:188|286:188|305:267,1,116.999994644165,8|2,1:2|0:0,0:0:0:0:
462,354,201253,2,0,P|425:321|312:328,1,155.999992858887,0|0,1:0|0:0,0:0:0:0:
331,350,201586,2,0,L|212:331,1,116.999994644165,8|2,0:0|0:0,0:0:0:0:
56,62,201920,6,0,B|43:124|43:124|78:189,1,116.999994644165,0|2,1:0|0:0,0:0:0:0:
238,145,202253,2,0,B|251:83|251:83|216:18,1,116.999994644165,8|2,1:2|0:0,0:0:0:0:
57,202,202586,1,0,1:0:0:0:
275,362,202753,1,2,0:0:0:0:
271,344,202836,1,0,0:0:0:0:
267,326,202920,1,8,0:0:0:0:
264,308,203003,1,0,0:0:0:0:
261,290,203086,1,2,0:0:0:0:
258,272,203170,1,0,0:0:0:0:
255,254,203253,6,0,P|335:234|399:302,1,175.499991966248,0|0,1:0|0:0,0:0:0:0:
406,320,203586,2,0,L|422:198,1,116.999994644165,8|2,1:2|0:0,0:0:0:0:
411,79,203920,2,0,L|393:102,4,29.2499986610413,0|0|0|0|2,1:0|0:0|0:0|0:0|0:0,0:0:0:0:
206,47,204253,1,8,0:0:0:0:
329,266,204420,1,2,0:0:0:0:
329,266,204503,1,0,0:0:0:0:
329,266,204586,6,0,L|317:338,3,38.9999982147218,4|0|0|2,1:0|0:0|0:0|0:0,0:0:0:0:
292,334,204836,1,0,0:0:0:0:
292,334,204920,2,0,B|239:306|239:306|173:319,1,116.999994644165,8|2,1:2|0:0,0:0:0:0:
11,189,205253,2,0,B|64:217|64:217|130:204,1,116.999994644165,0|2,1:0|0:0,0:0:0:0:
134,180,205503,1,0,0:0:0:0:
162,184,205586,1,8,0:0:0:0:
191,188,205670,1,0,0:0:0:0:
219,192,205753,1,2,0:0:0:0:
247,196,205836,1,0,0:0:0:0:
276,200,205920,5,0,1:0:0:0:
486,82,206086,1,2,0:0:0:0:
486,82,206170,1,0,0:0:0:0:
486,82,206253,2,0,P|428:80|374:120,1,116.999994644165,8|2,1:2|0:0,0:0:0:0:
376,374,206586,2,0,B|424:333|424:333|436:212,1,175.499991966248,0|0,1:0|0:0,0:0:0:0:
456,194,206920,2,0,L|340:216,1,116.999994644165,8|2,0:0|0:0,0:0:0:0:
90,123,207253,5,0,1:0:0:0:
220,322,207420,1,2,0:0:0:0:
220,322,207503,1,0,0:0:0:0:
220,322,207586,1,8,1:2:0:0:
29,227,207753,1,2,0:0:0:0:
29,227,207836,2,0,B|54:239|54:239|77:230|77:230|129:245|129:245|207:224,1,175.499991966248,0|2,0:0|0:0,0:0:0:0:
252,164,208170,1,0,0:0:0:0:
252,164,208253,2,0,B|290:208|290:208|263:283,1,116.999994644165,8|2,0:0|0:0,0:0:0:0:
410,71,208586,6,0,L|430:192,1,116.999994644165,0|2,1:0|0:0,0:0:0:0:
377,254,208836,1,0,0:0:0:0:
377,254,208920,1,8,1:2:0:0:
80,153,209086,2,0,B|135:128|165:155|194:179|271:159,1,175.499991966248,2|0,0:0|0:0,0:0:0:0:
276,140,209420,2,0,L|266:70,1,58.4999973220826,2|0,0:0|0:0,0:0:0:0:
117,231,209586,2,0,L|107:301,1,58.4999973220826,8|0,0:0|0:0,0:0:0:0:
287,360,209753,1,2,0:0:0:0:
280,331,209836,1,0,0:0:0:0:
273,302,209920,5,4,1:0:0:0:
306,325,210003,1,0,0:0:0:0:
345,334,210086,1,2,0:0:0:0:
384,321,210170,1,0,0:0:0:0:
409,288,210253,2,0,L|391:226,1,58.4999973220826,8|0,1:2|0:0,0:0:0:0:
466,85,210420,1,2,0:0:0:0:
466,85,210503,1,0,0:0:0:0:
466,85,210586,2,0,L|456:153,1,58.4999973220826,0|0,1:0|0:0,0:0:0:0:
301,184,210753,2,0,L|157:161,1,116.999994644165,2|8,0:0|0:0,0:0:0:0:
6,273,211086,1,2,0:0:0:0:
105,115,211253,6,0,L|89:194,1,58.4999973220826,0|0,1:0|0:0,0:0:0:0:
44,352,211420,1,2,0:0:0:0:
275,259,211586,1,8,1:2:0:0:
119,275,211753,1,2,0:0:0:0:
353,328,211920,6,0,B|376:296|376:296|376:213,1,116.999994644165,0|2,1:0|0:0,0:0:0:0:
338,128,212170,1,0,0:0:0:0:
338,128,212253,2,0,L|354:55,2,58.4999973220826,8|0|2,0:0|0:0|0:0,0:0:0:0:
90,184,212586,6,0,B|101:194|139:187|139:187|151:218|174:229|174:229|203:207|203:207|231:253|276:259,1,233.999989288331,0|8,1:0|1:2,0:0:0:0:
423,61,213086,1,2,0:0:0:0:
421,306,213253,2,0,P|365:247|352:142,1,175.499991966248,0|0,1:0|0:0,0:0:0:0:
239,91,213586,2,0,B|254:146|254:146|217:213,1,116.999994644165,8|2,0:0|0:0,0:0:0:0:
76,363,213920,6,0,B|34:330|34:330|16:205,1,175.499991966248,0|0,1:0|0:0,0:0:0:0:
33,183,214253,1,8,1:2:0:0:
274,258,214420,1,2,0:0:0:0:
122,281,214586,1,0,1:0:0:0:
85,100,214753,1,2,0:0:0:0:
85,100,214836,1,0,0:0:0:0:
85,100,214920,1,8,0:0:0:0:
210,344,215086,1,2,0:0:0:0:
353,113,215253,6,0,B|411:90|411:90|463:195|365:269,1,233.999989288331,4|8,1:0|1:2,0:0:0:0:
198,120,215753,2,0,P|174:68|162:9,1,116.999994644165,2|0,0:0|1:0,0:0:0:0:
258,254,216086,1,2,0:0:0:0:
258,254,216170,1,0,0:0:0:0:
258,254,216253,2,0,L|232:373,1,116.999994644165,8|2,0:0|0:0,0:0:0:0:
4,229,216586,5,0,1:0:0:0:
27,219,216669,1,0,0:0:0:0:
51,213,216752,1,2,0:0:0:0:
76,215,216836,1,0,0:0:0:0:
107,240,216919,5,8,1:2:0:0:
132,241,217002,1,0,0:0:0:0:
155,234,217086,1,2,0:0:0:0:
178,222,217169,1,0,0:0:0:0:
198,186,217253,5,0,1:0:0:0:
203,145,217336,1,0,0:0:0:0:
180,110,217420,1,2,0:0:0:0:
140,98,217503,1,0,0:0:0:0:
106,145,217586,5,8,0:0:0:0:
164,139,217670,1,0,0:0:0:0:
222,133,217753,1,2,0:0:0:0:
280,128,217836,1,0,0:0:0:0:
338,123,217920,6,0,L|474:141,1,135.000005149842,4|0,1:2|0:0,0:0:0:0:
444,329,218170,2,0,B|399:278|399:278|394:199,1,135.000005149842,8|0,1:2|0:0,0:0:0:0:
280,62,218420,5,0,1:0:0:0:
280,62,218503,1,0,1:0:0:0:
280,62,218586,2,0,P|249:127|275:181,1,135.000005149842,4|0,1:2|0:0,0:0:0:0:
472,248,218836,2,0,L|314:278,1,135.000005149842,8|0,1:2|0:0,0:0:0:0:
71,300,219086,5,0,1:0:0:0:
71,300,219170,1,0,1:0:0:0:
71,300,219253,2,0,L|150:315,1,67.5000025749208,4|0,1:2|0:0,0:0:0:0:
482,105,219503,6,0,L|403:120,1,67.5000025749208,12|0,1:2|0:0,0:0:0:0:
39,55,219753,6,0,L|118:70,1,67.5000025749208,4|0,1:0|0:0,0:0:0:0:
106,68,220586,6,0,B|96:190|85:292|85:292|153:284|219:279,1,360,2|0,0:0|0:0,0:0:0:0:
277,0,222753,1,0,0:0:0:0:
254,74,222920,1,0,0:0:0:0:
276,149,223086,1,0,0:0:0:0:
358,185,223253,6,0,B|407:188|449:188|449:188|433:268|374:320|190:302|237:116|297:91|370:95|370:95|427:98,1,576,2|2,0:0|0:0,0:0:0:0:
358,185,225253,2,0,L|250:197,1,107.999996704102,2|0,0:0|0:0,0:0:0:0:
14,211,225920,6,0,B|251:200|224:48|199:41|129:11|51:34|73:135|119:253|130:342|130:342|157:278|191:246,1,720,2|0,0:0|0:0,0:0:0:0:
256,45,228086,1,2,0:0:0:0:
265,147,228253,1,0,0:0:0:0:
256,45,228420,1,0,0:0:0:0:
257,248,228586,6,0,B|293:211|316:196|366:155|404:151|434:172|449:248|423:319|358:359|299:315|275:226|256:170|236:101|234:85|200:73|144:87|127:119|113:154|131:214|170:222|200:214|237:175|265:148,1,691.2,2|0,0:0|0:0,0:0:0:0:
265,147,230253,2,0,P|269:181|276:200,2,38.4,0|0|0,0:0|0:0|0:0,0:0:0:0:
49,178,230586,2,0,P|52:212|49:232,2,38.4,0|0|0,0:0|0:0|0:0,0:0:0:0:
162,203,230920,2,0,L|173:256,2,38.2500007295609,0|0|0,0:0|0:0|0:0,0:0:0:0:
120,2,231253,6,0,L|142:114,1,114.750002188683,0|0,1:0|0:0,0:0:0:0:
142,114,231586,1,0,1:0:0:0:
180,111,231753,1,0,0:0:0:0:
92,210,231920,1,0,1:0:0:0:
54,213,232087,1,0,0:0:0:0:
168,284,232253,1,0,1:0:0:0:
206,281,232420,1,0,0:0:0:0:
238,107,232586,5,0,1:0:0:0:
180,111,232753,1,0,0:0:0:0:
304,245,232920,1,0,1:0:0:0:
362,249,233087,1,0,0:0:0:0:
321,12,233253,1,0,1:0:0:0:
263,16,233420,1,0,0:0:0:0:
454,168,233586,1,0,1:0:0:0:
512,172,233753,1,0,0:0:0:0:
414,0,233920,6,0,P|406:47|406:112,1,96,0|0,1:0|0:0,0:0:0:0:
308,247,234253,1,0,1:0:0:0:
316,170,234420,1,0,0:0:0:0:
394,376,234586,1,0,1:0:0:0:
402,299,234753,1,0,0:0:0:0:
215,287,234920,1,0,1:0:0:0:
207,364,235087,1,0,0:0:0:0:
308,247,235253,5,0,1:0:0:0:
300,170,235420,1,0,0:0:0:0:
132,281,235586,1,0,1:0:0:0:
124,358,235753,1,0,0:0:0:0:
210,144,235920,1,0,1:0:0:0:
202,67,236086,1,0,0:0:0:0:
39,187,236253,1,0,1:0:0:0:
47,264,236420,1,0,0:0:0:0:
302,247,236586,6,0,P|260:237|195:229,1,96,0|2,1:0|0:0,0:0:0:0:
174,140,236920,1,0,1:0:0:0:
263,107,237086,1,2,0:0:0:0:
118,262,237253,1,0,1:0:0:0:
207,229,237419,1,2,0:0:0:0:
142,52,237586,1,0,1:0:0:0:
53,85,237752,1,2,0:0:0:0:
207,229,237920,5,0,1:0:0:0:
174,140,238086,1,2,0:0:0:0:
294,272,238253,1,0,1:0:0:0:
261,361,238419,1,2,0:0:0:0:
369,164,238586,1,0,1:0:0:0:
336,75,238752,5,2,0:0:0:0:
199,285,238920,1,0,1:0:0:0:
432,354,239086,1,2,0:0:0:0:
266,147,239253,6,0,L|122:161,1,144.449995591736,0|0,1:0|0:0,0:0:0:0:
122,161,239586,5,0,1:0:0:0:
307,225,239753,1,2,0:0:0:0:
366,94,239920,5,0,1:0:0:0:
219,222,240087,1,2,0:0:0:0:
304,339,240253,5,0,1:0:0:0:
265,144,240420,1,2,0:0:0:0:
435,189,240586,6,0,B|389:209|389:209|343:200,1,96.2999970611573,0|2,1:0|0:0,0:0:0:0:
210,77,240920,1,0,1:0:0:0:
174,157,241086,6,0,B|219:165|219:165|265:145,1,96.2999970611573,2|0,0:0|1:0,0:0:0:0:
465,59,241420,1,2,0:0:0:0:
370,29,241586,5,0,1:0:0:0:
372,52,241669,1,0,1:0:0:0:
375,76,241752,1,0,1:0:0:0:
377,100,241836,1,0,1:0:0:0:
380,124,241920,6,0,L|372:189,23,48.1499985305787,4|0|0|0|0|0|0|0|0|0|0|0|0|0|0|0|0|0|0|0|0|0|0|0,1:0|0:0|0:0|0:0|0:0|0:0|0:0|0:0|0:0|0:0|0:0|0:0|0:0|0:0|0:0|0:0|0:0|0:0|0:0|0:0|0:0|0:0|0:0|0:0,0:0:0:0:
430,237,243920,6,0,L|494:227,3,48.1499985305787,0|0|0|0,0:0|0:0|0:0|0:0,0:0:0:0:
294,177,244253,6,0,L|230:167,3,48.1499985305787,0|0|0|0,0:0|0:0|0:0|0:0,0:0:0:0:
197,106,244586,5,4,1:0:0:0:
134,339,244753,1,0,1:0:0:0:
134,339,244920,1,0,1:0:0:0:
35,154,245086,6,0,L|126:174,1,67.5000025749208,0|0,1:0|0:0,0:0:0:0:
303,92,245253,1,0,1:0:0:0:
303,92,245420,1,0,1:0:0:0:
368,339,245586,6,0,L|379:252,1,67.5000025749208,4|0,1:2|0:0,0:0:0:0:
482,112,245753,1,0,1:0:0:0:
482,112,245920,1,0,1:0:0:0:
203,229,246086,6,0,L|272:219,1,67.5000025749208,4|0,1:0|0:0,0:0:0:0:
476,218,246253,1,0,1:0:0:0:
476,218,246420,1,0,1:0:0:0:
341,32,246586,5,4,1:2:0:0:
196,344,246753,1,0,1:0:0:0:
171,32,246920,5,4,1:2:0:0:
316,344,247087,1,0,1:0:0:0:
368,62,247253,5,4,1:0:0:0:
238,276,247420,1,0,1:0:0:0:
177,49,247586,1,0,1:0:0:0:
333,242,247753,6,0,L|315:173,1,67.5000025749208,0|0,1:0|0:0,0:0:0:0:
272,15,247919,1,0,1:0:0:0:
142,229,248086,1,0,1:0:0:0:
399,160,248253,6,0,L|316:141,1,67.5000025749208,4|0,1:2|0:0,0:0:0:0:
98,120,248420,1,0,1:0:0:0:
231,313,248586,1,0,1:0:0:0:
174,84,248753,6,0,L|159:8,1,67.5000025749208,4|0,1:0|0:0,0:0:0:0:
336,257,248920,1,0,1:0:0:0:
120,313,249086,1,0,1:0:0:0:
346,65,249253,5,4,1:2:0:0:
45,181,249420,1,0,1:0:0:0:
45,181,249503,1,0,1:0:0:0:
45,181,249586,1,0,1:0:0:0:
45,181,249670,1,0,1:0:0:0:
45,181,249753,1,0,1:0:0:0:
45,181,249836,1,0,1:0:0:0:
45,181,249920,6,0,B|112:166|112:166|145:184|145:184|200:172|200:172|234:123|234:123|306:145|306:145|260:160,1,337.5,4|0,1:0|0:0,0:0:0:0:
248,232,251253,6,0,P|241:261|222:296,3,53.9999983520508,0|0|0|0,0:0|0:0|0:0|0:0,0:0:0:0:
279,343,251586,5,0,0:0:0:0:
294,338,251670,1,0,0:0:0:0:
309,333,251753,1,0,0:0:0:0:
324,328,251836,1,0,0:0:0:0:
355,336,251920,5,0,0:0:0:0:
336,309,252003,1,0,0:0:0:0:
330,277,252086,1,0,0:0:0:0:
337,245,252170,1,0,0:0:0:0:
367,207,252253,5,0,0:0:0:0:
392,165,252336,1,0,0:0:0:0:
383,116,252420,1,0,0:0:0:0:
353,77,252503,1,0,0:0:0:0:
304,75,252586,5,4,0:0:0:0:
412,343,252753,1,0,0:0:0:0:
438,348,252836,1,0,0:0:0:0:
464,354,252920,1,0,0:0:0:0:
117,250,253086,5,8,0:2:0:0:
437,142,253253,1,0,0:0:0:0:
88,28,253420,1,0,0:0:0:0:
451,35,253586,5,4,0:2:0:0:
102,145,253753,1,0,0:0:0:0:
76,140,253836,1,0,0:0:0:0:
50,134,253920,1,0,0:0:0:0:
424,246,254086,5,4,0:2:0:0:
130,357,254253,1,0,0:0:0:0:
256,133,254420,1,0,0:0:0:0:
302,359,254586,5,12,0:2:0:0:
270,338,254670,1,0,0:0:0:0:
252,304,254753,1,0,0:0:0:0:
255,266,254836,1,0,0:0:0:0:
277,235,254920,2,0,B|422:258|422:258|388:204,1,202.500007724762,12|0,0:2|0:0,0:0:0:0:
308,82,255253,6,0,L|322:162,1,67.5000025749208,0|0,1:0|0:0,0:0:0:0:
411,303,255420,1,2,0:0:0:0:
415,322,255503,1,0,0:0:0:0:
419,341,255586,1,8,1:2:0:0:
182,243,255753,1,2,0:0:0:0:
414,184,255920,1,0,1:0:0:0:
414,184,256003,1,0,0:0:0:0:
414,184,256086,2,0,L|428:108,1,67.5000025749208,2|0,0:0|0:0,0:0:0:0:
315,293,256253,2,0,L|329:369,1,67.5000025749208,8|0,0:0|0:0,0:0:0:0:
81,292,256420,6,0,B|125:267|125:267|221:280,1,135.000005149842,2|0,0:0|1:0,0:0:0:0:
267,108,256753,1,2,0:0:0:0:
379,288,256920,2,0,B|343:285|343:285|316:294|316:294|275:258|275:258|243:269|243:269|194:261,1,202.500007724762,8|0,1:2|0:0,0:0:0:0:
195,262,257253,2,0,L|212:178,1,67.5000025749208,0|0,1:0|0:0,0:0:0:0:
26,172,257420,2,0,L|9:89,1,67.5000025749208,2|0,0:0|0:0,0:0:0:0:
112,28,257586,2,0,B|144:67|144:67|119:175,1,135.000005149842,8|2,0:0|0:0,0:0:0:0:
79,246,257836,1,0,0:0:0:0:
79,246,257920,6,0,L|172:238,1,67.5000025749208,0|0,1:0|0:0,0:0:0:0:
239,228,258086,1,2,0:0:0:0:
481,298,258253,1,8,1:2:0:0:
274,132,258420,2,0,L|283:204,1,67.5000025749208,2|0,0:0|0:0,0:0:0:0:
178,356,258586,1,0,1:0:0:0:
381,286,258753,1,2,0:0:0:0:
340,281,258836,1,0,0:0:0:0:
299,275,258920,1,8,0:0:0:0:
452,378,259086,1,2,0:0:0:0:
381,109,259253,5,0,1:0:0:0:
216,263,259420,1,2,0:0:0:0:
500,263,259586,2,0,B|441:230|441:230|363:249,1,135.000005149842,8|2,1:2|0:0,0:0:0:0:
303,279,259836,1,0,0:0:0:0:
303,279,259920,2,0,P|302:245|298:211,1,67.5000025749208,0|0,1:0|0:0,0:0:0:0:
465,90,260086,2,0,P|460:126|460:161,1,67.5000025749208,2|0,0:0|0:0,0:0:0:0:
428,319,260253,1,8,0:0:0:0:
142,171,260420,1,2,0:0:0:0:
130,175,260503,1,0,1:0:0:0:
120,181,260586,6,0,L|112:259,1,67.5000025749208,4|0,1:0|0:0,0:0:0:0:
29,343,260753,1,2,0:0:0:0:
23,294,260836,1,0,0:0:0:0:
18,246,260920,1,8,1:2:0:0:
244,85,261086,2,0,B|266:131|266:131|251:227,1,135.000005149842,2|0,0:0|1:0,0:0:0:0:
228,290,261336,1,0,0:0:0:0:
228,290,261420,2,0,L|305:281,1,67.5000025749208,2|0,0:0|0:0,0:0:0:0:
397,153,261586,1,8,0:0:0:0:
181,142,261753,1,2,0:0:0:0:
439,71,261920,6,0,B|326:43|355:121|240:83,1,202.500007724762,4|0,1:0|0:0,0:0:0:0:
193,22,262253,2,0,P|227:7|267:7,1,67.5000025749208,8|0,1:2|0:0,0:0:0:0:
338,211,262420,1,2,0:0:0:0:
123,145,262586,1,0,1:0:0:0:
104,108,262670,1,0,0:0:0:0:
107,67,262753,1,2,0:0:0:0:
352,34,262920,1,8,0:0:0:0:
219,251,263086,1,2,0:0:0:0:
219,251,263170,1,0,0:0:0:0:
219,251,263253,6,0,L|231:331,1,76.5000014591217,4|0,1:0|0:0,0:0:0:0:
432,189,263420,2,0,L|420:269,1,76.5000014591217,0|0,1:0|0:0,0:0:0:0:
204,275,263586,2,0,L|216:355,1,76.5000014591217,0|0,1:0|0:0,0:0:0:0:
292,147,263753,6,0,B|330:186|330:186|313:289,1,153.000002918243,4|0,1:0|0:0,0:0:0:0:
346,351,264003,1,0,0:0:0:0:
353,366,264086,1,8,0:0:0:0:
202,118,264253,5,4,1:2:0:0:
227,78,264336,1,0,0:0:0:0:
268,54,264420,1,8,0:0:0:0:
314,58,264503,1,8,0:0:0:0:
354,81,264586,6,0,L|371:158,1,76.5000014591217,4|0,1:0|0:0,0:0:0:0:
187,349,264753,1,0,0:0:0:0:
187,349,264836,1,0,0:0:0:0:
187,349,264920,2,0,L|204:271,1,76.5000014591217,8|0,0:0|0:0,0:0:0:0:
69,59,265086,6,0,B|64:103|64:103|99:144,1,90,0|0,1:0|0:0,0:0:0:0:
365,331,265253,5,0,1:0:0:0:
395,297,265336,1,0,1:0:0:0:
404,252,265420,1,0,1:0:0:0:
388,209,265503,1,0,1:0:0:0:
372,200,265586,5,0,1:0:0:0:
389,195,265670,1,0,1:0:0:0:
406,190,265753,1,0,1:0:0:0:
423,185,265836,1,0,1:0:0:0:
436,181,265920,6,0,L|509:191,1,67.5000025749208,0|0,1:0|0:0,0:0:0:0:
323,259,266086,1,2,0:0:0:0:
302,256,266169,1,0,0:0:0:0:
282,253,266252,1,8,1:2:0:0:
95,367,266420,1,2,0:0:0:0:
203,165,266586,2,0,L|192:244,1,67.5000025749208,0|0,1:0|0:0,0:0:0:0:
209,383,266753,2,0,L|220:304,1,67.5000025749208,2|0,0:0|0:0,0:0:0:0:
137,106,266920,1,8,0:0:0:0:
363,53,267086,6,0,B|404:94|404:94|375:198,1,135.000005149842,6|0,0:0|1:0,0:0:0:0:
325,342,267420,1,2,0:0:0:0:
115,163,267586,2,0,B|222:156|192:245|316:231,1,202.500007724762,8|0,1:2|0:0,0:0:0:0:
326,247,267920,2,0,L|309:162,1,67.5000025749208,0|0,1:0|0:0,0:0:0:0:
457,39,268087,1,2,0:0:0:0:
454,59,268170,1,0,0:0:0:0:
451,79,268253,1,8,0:0:0:0:
264,47,268420,1,2,0:0:0:0:
409,205,268586,6,0,L|483:221,1,76.5000014591217,0|0,1:0|0:0,0:0:0:0:
125,322,268753,1,0,1:0:0:0:
125,322,268836,1,0,1:0:0:0:
125,322,268920,2,0,L|48:339,1,76.5000014591217,8|0,1:2|0:0,0:0:0:0:
259,141,269086,5,4,1:2:0:0:
254,167,269420,5,4,1:2:0:0:
246,190,269753,6,0,B|206:148|125:150|156:206|76:220|27:172,1,233.999989288331,4|0,1:2|1:0,0:0:0:0:
87,115,270253,5,8,1:2:0:0:
93,155,270336,1,0,0:0:0:0:
99,195,270419,1,0,0:0:0:0:
106,235,270503,1,0,0:0:0:0:
104,276,270586,5,0,1:0:0:0:
144,270,270669,1,0,0:0:0:0:
184,264,270752,1,0,1:0:0:0:
224,257,270836,1,0,1:0:0:0:
248,310,270920,5,8,0:0:0:0:
295,341,271003,1,0,1:0:0:0:
353,340,271086,1,0,1:0:0:0:
400,306,271169,1,0,1:0:0:0:
417,255,271253,6,0,P|345:294|248:227,1,202.500007724762,0|0,1:0|0:0,0:0:0:0:
251,235,271586,1,8,1:2:0:0:
318,10,271753,1,2,0:0:0:0:
339,55,271836,1,0,0:0:0:0:
328,104,271920,1,0,1:0:0:0:
316,153,272003,1,0,0:0:0:0:
339,197,272086,1,2,0:0:0:0:
177,81,272253,2,0,L|258:67,1,67.5000025749208,8|0,0:0|0:0,0:0:0:0:
484,155,272420,2,0,L|403:145,1,67.5000025749208,2|0,0:0|0:0,0:0:0:0:
139,278,272586,6,0,B|269:253|269:253|237:285|222:305,1,202.500007724762,4|0,1:0|0:0,0:0:0:0:
222,305,272920,2,0,L|216:211,1,67.5000025749208,8|0,1:2|0:0,0:0:0:0:
405,253,273086,1,2,0:0:0:0:
405,253,273170,1,0,0:0:0:0:
405,253,273253,1,0,1:0:0:0:
149,147,273420,1,2,0:0:0:0:
300,63,273586,2,0,L|305:145,1,67.5000025749208,8|0,0:0|0:0,0:0:0:0:
311,222,273753,2,0,L|316:304,1,67.5000025749208,2|0,0:0|0:0,0:0:0:0:
464,55,273920,5,12,1:2:0:0:
426,331,274086,1,0,1:0:0:0:
304,130,274253,1,0,1:0:0:0:
91,286,274420,5,12,1:2:0:0:
382,247,274586,1,0,1:0:0:0:
203,59,274753,1,0,1:0:0:0:
166,348,274920,5,12,1:2:0:0:
116,146,275086,1,0,1:0:0:0:
116,146,275170,1,0,1:0:0:0:
116,146,275253,1,0,1:0:0:0:
366,263,275420,6,0,L|273:252,1,76.5000014591217,4|0,1:0|0:0,0:0:0:0:
113,272,275586,2,0,L|20:261,1,76.5000014591217,0|0,0:0|0:0,0:0:0:0:
281,164,275753,1,0,1:0:0:0:
281,164,275836,1,0,1:0:0:0:
281,164,275920,2,0,L|292:71,1,76.5000014591217,0|0,1:0|0:0,0:0:0:0:
209,309,276086,2,0,L|198:402,1,76.5000014591217,0|0,1:0|0:0,0:0:0:0:
430,210,276253,5,0,1:0:0:0:
475,176,276336,1,0,1:0:0:0:
496,123,276419,1,0,1:0:0:0:
485,68,276502,1,0,1:0:0:0:
447,26,276586,6,0,B|391:66|391:66|307:56,1,153.000002918243,0|2,1:0|0:0,0:0:0:0:
158,172,276836,1,0,0:0:0:0:
143,183,276920,2,0,L|128:108,1,76.5000014591217,8|0,1:2|0:0,0:0:0:0:
214,48,277086,2,0,L|228:122,1,76.5000014591217,2|0,0:0|0:0,0:0:0:0:
255,279,277253,1,0,1:0:0:0:
100,230,277420,2,0,L|175:215,1,76.5000014591217,2|0,0:0|0:0,0:0:0:0:
329,189,277586,1,8,0:0:0:0:
127,107,277753,6,0,B|208:119|208:119|256:176|256:176|328:188,1,229.500004377365,2|0,0:0|0:0,0:0:0:0:
328,188,278086,2,0,B|331:150|331:150|320:112,1,76.5000014591217,2|0,0:0|0:0,0:0:0:0:
100,230,278253,2,0,B|97:268|97:268|107:305,1,76.5000014591217,8|0,1:2|0:0,0:0:0:0:
181,42,278420,1,2,0:0:0:0:
207,282,278586,6,0,L|191:129,1,153.000002918243,0|2,1:0|0:0,0:0:0:0:
87,126,278836,1,0,0:0:0:0:
91,154,278920,2,0,L|99:229,1,76.5000014591217,8|0,0:0|0:0,0:0:0:0:
298,199,279086,2,0,L|289:123,1,76.5000014591217,2|0,0:0|0:0,0:0:0:0:
278,33,279253,5,0,1:0:0:0:
113,238,279420,1,2,0:0:0:0:
113,238,279503,1,0,0:0:0:0:
113,238,279586,2,0,L|189:229,1,76.5000014591217,8|0,1:2|0:0,0:0:0:0:
331,304,279753,1,2,0:0:0:0:
166,72,279920,1,0,1:0:0:0:
156,319,280087,2,0,P|194:320|230:332,1,76.5000014591217,2|0,0:0|0:0,0:0:0:0:
317,113,280254,2,0,P|271:127|233:128,1,76.5000014591217,8|0,0:0|0:0,0:0:0:0:
190,230,280420,6,0,B|224:223|240:213|240:213|287:229|287:229|317:208|317:208|355:225|405:220,1,216.000008239746,2|2,0:0|0:0,0:0:0:0:
450,75,280920,6,0,P|364:40|396:132,1,229.500004377365,8|0,1:2|0:0,0:0:0:0:
476,259,281253,2,0,P|479:220|473:183,1,76.5000014591217,0|0,1:0|0:0,0:0:0:0:
267,108,281420,1,2,0:0:0:0:
450,75,281586,1,8,0:0:0:0:
391,298,281754,1,2,0:0:0:0:
391,298,281836,1,0,0:0:0:0:
391,298,281920,6,0,L|378:138,1,153.000002918243,4|2,1:0|0:0,0:0:0:0:
370,58,282170,1,0,0:0:0:0:
370,57,282253,2,0,P|333:69|295:74,1,76.5000014591217,8|0,1:2|0:0,0:0:0:0:
112,163,282420,2,0,P|149:168|186:179,1,76.5000014591217,2|0,0:0|0:0,0:0:0:0:
298,334,282586,1,0,1:0:0:0:
200,67,282753,1,2,0:0:0:0:
356,253,282920,2,0,B|293:235|293:235|212:268,1,153.000002918243,8|2,0:0|0:0,0:0:0:0:
136,305,283170,1,0,0:0:0:0:
119,312,283253,5,4,1:0:0:0:
436,289,283420,1,2,0:0:0:0:
217,344,283586,2,0,P|216:305|211:267,1,76.5000014591217,8|0,1:2|0:0,0:0:0:0:
313,207,283752,2,0,P|315:169|318:131,1,76.5000014591217,2|0,0:0|0:0,0:0:0:0:
338,374,283919,1,0,1:0:0:0:
225,191,284086,1,2,0:0:0:0:
197,188,284169,1,0,0:0:0:0:
172,201,284252,1,8,0:0:0:0:
412,164,284419,1,2,0:0:0:0:
412,164,284503,1,0,0:0:0:0:
412,164,284586,5,4,1:0:0:0:
119,312,284753,1,0,1:0:0:0:
226,35,284920,1,0,1:0:0:0:
415,259,285086,6,0,B|377:254|352:235|352:235|281:270|281:270|253:255|228:253,1,202.500007724762,4|0,1:0|0:0,0:0:0:0:
148,222,285420,1,8,0:0:0:0:
384,81,285586,1,4,1:2:0:0:
227,42,285753,1,8,0:0:0:0:
227,42,285836,1,8,0:0:0:0:
227,41,285920,6,0,B|267:24|299:9|299:9|292:85|289:159,1,229.500004377365,4|0,1:0|0:0,0:0:0:0:
198,202,286253,2,0,L|202:126,1,76.5000014591217,8|0,0:0|0:0,0:0:0:0:
383,80,286420,2,0,L|380:157,1,76.5000014591217,0|0,1:0|0:0,0:0:0:0:
247,273,286586,5,0,1:0:0:0:
202,288,286669,1,0,1:0:0:0:
156,277,286752,1,0,1:0:0:0:
122,244,286835,1,0,1:0:0:0:
112,198,286919,1,0,1:0:0:0:
127,154,287002,1,0,1:0:0:0:
163,124,287085,1,0,1:0:0:0:
210,118,287169,1,0,1:0:0:0:
253,137,287253,6,0,B|408:155|408:155|351:108,1,229.500004377365,4|0,1:0|0:0,0:0:0:0:
351,108,287586,2,0,L|358:184,1,76.5000014591217,8|0,1:2|0:0,0:0:0:0:
368,289,287753,1,2,0:0:0:0:
163,124,287920,1,0,1:0:0:0:
129,338,288086,2,0,L|205:330,1,76.5000014591217,2|0,0:0|0:0,0:0:0:0:
271,246,288253,1,8,0:0:0:0:
55,230,288420,6,0,B|95:228|126:214|126:214|175:248|175:248|218:232|270:245,1,229.500004377365,6|0,0:0|0:0,0:0:0:0:
270,245,288753,2,0,L|279:169,1,76.5000014591217,2|0,0:0|0:0,0:0:0:0:
66,65,288920,2,0,L|75:140,1,76.5000014591217,8|0,1:2|0:0,0:0:0:0:
293,72,289086,1,2,0:0:0:0:
55,230,289253,1,0,1:0:0:0:
268,292,289420,1,2,0:0:0:0:
268,292,289503,1,0,0:0:0:0:
268,292,289586,1,8,0:0:0:0:
169,101,289753,1,2,0:0:0:0:
18,316,289920,6,0,B|105:341|95:278|182:302,1,153.000002918243,0|0,1:0|1:0,0:0:0:0:
245,351,290170,1,0,1:0:0:0:
262,369,290253,2,0,L|269:292,1,76.5000014591217,8|0,1:2|0:0,0:0:0:0:
512,0,290420,5,4,1:2:0:0:
497,20,290753,5,4,1:2:0:0:
481,39,291086,6,0,P|462:160|385:66,1,306.000005836487,4|0,1:2|1:0,0:0:0:0:
310,0,291586,5,8,1:2:0:0:
305,39,291669,1,0,0:0:0:0:
299,80,291753,1,0,0:0:0:0:
293,120,291836,1,0,0:0:0:0:
250,98,291919,5,0,1:0:0:0:
255,137,292002,1,0,0:0:0:0:
261,178,292086,1,0,1:0:0:0:
267,218,292169,1,0,1:0:0:0:
294,303,292253,5,8,0:0:0:0:
257,266,292336,1,0,1:0:0:0:
205,259,292419,1,0,1:0:0:0:
157,284,292503,1,0,1:0:0:0:
120,320,292586,6,0,B|125:157|125:157|166:208,1,229.500004377365,0|0,1:0|0:0,0:0:0:0:
166,208,292920,2,0,L|90:206,1,76.5000014591217,8|0,1:2|0:0,0:0:0:0:
5,205,293086,1,2,0:0:0:0:
194,92,293253,5,0,1:0:0:0:
40,29,293420,2,0,P|78:31|116:31,1,76.5000014591217,2|0,0:0|0:0,0:0:0:0:
252,160,293586,2,0,P|260:197|263:236,1,76.5000014591217,8|0,0:0|0:0,0:0:0:0:
288,8,293753,1,2,0:0:0:0:
288,8,293836,1,0,0:0:0:0:
288,8,293920,6,0,B|356:2|356:2|423:41|423:41|506:30,1,229.500004377365,4|0,1:0|0:0,0:0:0:0:
506,30,294253,2,0,P|498:67|495:106,1,76.5000014591217,8|0,1:2|0:0,0:0:0:0:
263,236,294420,2,0,P|260:197|252:160,1,76.5000014591217,2|0,0:0|0:0,0:0:0:0:
412,255,294586,1,0,1:0:0:0:
249,60,294753,1,2,0:0:0:0:
219,315,294920,1,8,0:0:0:0:
87,175,295086,5,2,1:2:0:0:
87,175,295170,1,0,1:0:0:0:
87,175,295253,2,0,B|169:169,1,76.5000014591217,0|0,1:0|0:0,0:0:0:0:
339,109,295420,1,2,0:0:0:0:
117,347,295586,1,8,1:2:0:0:
167,73,295753,1,2,0:0:0:0:
385,329,295920,6,0,L|308:323,1,76.5000014591217,0|0,1:0|0:0,0:0:0:0:
219,315,296086,1,2,0:0:0:0:
463,276,296253,1,8,0:0:0:0:
463,276,296336,1,0,0:0:0:0:
463,276,296420,2,0,P|464:232|474:184,1,76.5000014591217,2|0,0:0|0:0,0:0:0:0:
339,62,296586,6,0,B|376:115|377:186|377:186|389:134|438:115,1,229.500004377365,4|0,1:0|0:0,0:0:0:0:
454,107,296920,1,8,1:2:0:0:
167,73,297086,1,2,0:0:0:0:
263,280,297253,1,0,1:0:0:0:
339,62,297420,5,0,1:0:0:0:
290,139,297503,1,0,1:0:0:0:
228,182,297586,1,0,1:0:0:0:
169,199,297670,1,0,1:0:0:0:
123,200,297753,1,0,1:0:0:0:
93,195,297836,1,0,1:0:0:0:
78,190,297920,5,0,1:0:0:0:
78,190,298253,5,0,1:0:0:0:
87,208,298420,1,0,1:0:0:0:
155,143,298586,5,0,1:0:0:0:
169,199,298753,1,0,1:0:0:0:
248,96,298920,5,0,1:0:0:0:
256,213,299087,1,0,1:0:0:0:
359,57,299253,5,4,1:0:0:0:
351,236,299420,1,0,1:0:0:0:
248,96,299586,5,0,1:0:0:0:
445,196,299753,1,0,1:0:0:0:
245,0,299920,5,0,1:0:0:0:
351,236,300086,1,0,1:0:0:0:
473,0,300253,1,0,1:0:0:0:
272,170,300420,1,0,1:0:0:0:
272,170,300503,1,0,0:0:0:0:
272,170,300586,6,0,B|343:136|343:136|413:158,1,153.000002918243,4|0,1:0|0:0,0:0:0:0:
425,165,300836,2,0,L|419:127,1,38.2500007295609,4|0,1:0|0:0,0:0:0:0:
205,299,301086,5,0,0:0:0:0:
205,299,301170,1,0,1:0:0:0:
205,299,301253,2,0,B|276:265|276:265|346:287,1,153.000002918243,4|0,1:0|0:0,0:0:0:0:
358,294,301503,2,0,L|352:256,1,38.2500007295609,4|0,1:0|0:0,0:0:0:0:
268,71,301753,1,0,1:0:0:0:
268,71,301836,1,0,1:0:0:0:
267,71,301920,6,0,P|218:87|168:83,1,102.000001945496,8|0,1:2|0:0,0:0:0:0:
38,80,302142,6,0,P|75:113|98:159,1,102.000001945496,0|0,1:2|0:0,0:0:0:0:
161,274,302364,6,0,P|171:224|199:182,1,102.000001945496,0|0,1:2|0:0,0:0:0:0:
297,196,302586,6,0,L|373:181,1,77.9999964294435,8|0,1:2|0:0,0:0:0:0:
441,125,302809,2,0,P|442:86|432:48,1,77.9999964294435,0|0,1:2|0:0,0:0:0:0:
434,243,303031,2,0,P|423:280|425:319,1,77.9999964294435,0|0,1:2|0:0,0:0:0:0:
505,188,303253,6,0,L|328:165,1,175.499991966248,0|0,1:0|0:0,0:0:0:0:
297,196,303586,1,8,1:2:0:0:
254,25,303753,1,2,0:0:0:0:
229,277,303920,1,0,1:0:0:0:
274,110,304086,1,2,0:0:0:0:
109,155,304253,1,8,0:0:0:0:
297,196,304420,6,0,P|327:245|333:308,1,116.999994644165,2|0,0:0|1:0,0:0:0:0:
118,117,304753,1,2,0:0:0:0:
42,203,304920,2,0,P|95:226|153:224,1,116.999994644165,8|2,1:2|0:0,0:0:0:0:
270,0,305253,2,0,P|223:34|195:85,1,116.999994644165,0|2,1:0|0:0,0:0:0:0:
254,334,305586,1,8,0:0:0:0:
297,196,305753,1,2,0:0:0:0:
481,265,305920,5,0,1:0:0:0:
327,275,306086,1,2,0:0:0:0:
480,170,306253,1,8,1:2:0:0:
321,147,306420,1,2,0:0:0:0:
486,296,306586,1,0,1:0:0:0:
405,107,306753,1,2,0:0:0:0:
290,271,306920,1,8,0:0:0:0:
121,179,307086,6,0,L|245:161,1,116.999994644165,2|0,0:0|1:0,0:0:0:0:
465,283,307420,1,2,0:0:0:0:
354,368,307586,2,0,B|323:317|323:317|328:259,1,116.999994644165,8|2,1:2|0:0,0:0:0:0:
397,29,307920,1,0,1:0:0:0:
328,259,308086,1,2,0:0:0:0:
160,80,308253,1,8,0:0:0:0:
390,159,308420,1,2,1:2:0:0:
412,151,308503,1,0,1:0:0:0:
434,143,308586,6,0,L|413:269,1,116.999994644165,4|2,1:0|0:0,0:0:0:0:
68,98,308920,2,0,L|89:224,1,116.999994644165,8|2,1:2|0:0,0:0:0:0:
296,296,309253,1,0,1:0:0:0:
250,84,309420,1,2,0:0:0:0:
215,344,309586,1,8,0:0:0:0:
443,207,309753,1,6,1:2:0:0:
443,207,309836,1,0,1:0:0:0:
443,207,309920,6,0,B|379:195|379:195|339:213|339:213|262:200,1,175.499991966248,4|0,1:0|0:0,0:0:0:0:
239,177,310253,1,8,1:2:0:0:
296,381,310420,1,2,0:0:0:0:
336,126,310586,1,0,1:0:0:0:
132,183,310753,1,2,0:0:0:0:
387,223,310920,1,8,0:0:0:0:
330,19,311087,1,2,0:0:0:0:
330,19,311170,1,0,0:0:0:0:
330,19,311253,5,4,1:0:0:0:
242,233,311420,1,0,0:0:0:0:
468,171,311586,1,0,1:0:0:0:
220,254,311753,1,0,0:0:0:0:
329,52,311920,1,0,1:0:0:0:
199,277,312086,1,0,0:0:0:0:
435,346,312253,1,0,1:0:0:0:
250,151,312420,6,0,B|78:132|78:132|126:180,1,233.999989288331,4|0,1:0|0:0,0:0:0:0:
49,213,312920,5,0,1:0:0:0:
53,236,313004,1,0,1:0:0:0:
57,258,313087,1,0,1:0:0:0:
61,280,313170,1,0,1:0:0:0:
38,320,313253,5,0,1:0:0:0:
77,294,313336,1,0,1:0:0:0:
122,281,313420,1,0,1:0:0:0:
166,295,313503,1,0,1:0:0:0:
213,328,313586,5,0,1:0:0:0:
271,321,313670,1,0,1:0:0:0:
317,285,313753,1,0,1:0:0:0:
329,228,313836,1,0,1:0:0:0:
309,172,313920,6,0,B|200:191|200:191|212:154,1,135.000005149842,12|0,1:2|0:0,0:0:0:0:
220,9,314170,2,0,B|208:51|208:51|230:94|230:94|212:158,1,135.000005149842,4|0,1:0|0:0,0:0:0:0:
38,94,314420,5,0,1:0:0:0:
38,94,314503,1,0,1:0:0:0:
38,94,314586,2,0,P|110:92|182:72,1,135.000005149842,12|0,1:2|0:0,0:0:0:0:
378,160,314836,2,0,P|306:158|234:138,1,135.000005149842,4|0,1:0|0:0,0:0:0:0:
103,298,315086,6,0,B|118:335|159:364|159:364|198:276|140:176|140:176|183:175|208:213,1,360,12|0,1:2|0:0,0:0:0:0:
