osu file format v14

[General]
AudioFilename: audio.mp3
AudioLeadIn: 0
PreviewTime: 87140
Countdown: 0
SampleSet: Soft
StackLeniency: 0.7
Mode: 0
LetterboxInBreaks: 0
WidescreenStoryboard: 0

[Editor]
Bookmarks: 22374
DistanceSpacing: 1.2
BeatDivisor: 4
GridSize: 4
TimelineZoom: 2.899999

[Metadata]
Title:own phrases
TitleUnicode:own phrases
Artist:wavforme x Annabel
ArtistUnicode:wavforme x Annabel
Creator:Narcissu
Version:Scars
Source:LACKGIRL BIRTH IN THE DARK
Tags:ラックガール バース・イン・ザ・ダーク pv main theme song taishi
BeatmapID:1853589
BeatmapSetID:886649

[Difficulty]
HPDrainRate:6
CircleSize:4
OverallDifficulty:8
ApproachRate:9.2
SliderMultiplier:1
SliderTickRate:1

[Events]
//Background and Video events
0,0,"BG04.jpg",0,0
//Break Periods
2,119923,121320
2,125256,126653
2,140756,142653
2,143423,145320
2,146090,147986
2,148756,150653
2,188756,198653
2,220756,222653
2,223423,225320
2,226090,227986
2,228756,230653
//Storyboard Layer 0 (Background)
//Storyboard Layer 1 (Fail)
//Storyboard Layer 2 (Pass)
//Storyboard Layer 3 (Foreground)
//Storyboard Sound Samples

[TimingPoints]
2738,545.454545454546,4,2,1,60,1,0
24557,333.333333333333,4,2,1,60,1,0
24557,-62.5,4,2,1,60,0,0
25057,-100,4,2,1,60,0,0
25890,-58.8235294117647,4,2,1,70,0,0
37723,-111.111111111111,4,2,1,40,0,0
39223,-71.4285714285714,4,2,1,60,0,0
49890,-58.8235294117647,4,2,1,70,0,0
60556,-58.8235294117647,4,2,1,40,0,0
61556,-100,4,2,1,40,0,0
62223,-58.8235294117647,4,2,1,40,0,0
64223,-100,4,2,1,40,0,0
64890,-58.8235294117647,4,2,1,40,0,0
65890,-58.8235294117647,4,2,1,70,0,0
71223,-58.8235294117647,4,2,1,40,0,0
76556,-58.8235294117647,4,2,1,70,0,0
81890,-100,4,2,1,40,0,0
83223,-58.8235294117647,4,2,1,40,0,0
84556,-58.8235294117647,4,2,1,70,0,0
87223,-55.5555555555556,4,2,1,80,0,1
100556,-44.4444444444445,4,2,1,80,0,1
100890,-55.5555555555556,4,2,1,80,0,1
108556,-58.8235294117647,4,2,1,70,0,0
140556,-100,4,2,1,40,0,0
151223,-100,4,2,1,40,0,0
153890,-83.3333333333333,4,2,1,40,0,0
155890,-58.8235294117647,4,2,1,70,0,0
161890,-125,4,2,1,40,0,0
163223,-58.8235294117647,4,2,1,40,0,0
164556,-58.8235294117647,4,2,1,70,0,0
167223,-55.5555555555556,4,2,1,80,0,1
180556,-44.4444444444445,4,2,1,80,0,1
180890,-55.5555555555556,4,2,1,80,0,1
188556,-100,4,2,1,40,0,0
199223,-55.5555555555556,4,2,1,80,0,0
220556,-100,4,2,1,60,0,0
231223,-71.4285714285714,4,2,1,70,0,0
236556,-62.5,4,2,1,70,0,0
241890,-166.666666666667,4,2,1,60,0,0
243223,-58.8235294117647,4,2,1,80,0,0
244556,-55.5555555555556,4,2,1,80,0,0
249890,-125,4,2,1,60,0,0
251890,-55.5555555555556,4,2,1,80,0,0
255223,-53.1914893617021,4,2,1,88,0,1
268556,-41.6666666666667,4,2,1,88,0,1
268890,-53.1914893617021,4,2,1,88,0,1
276473,-53.1914893617021,4,2,1,88,0,0
276556,-52.0833333333333,4,2,1,92,0,1
289890,-40,4,2,1,92,0,1
290223,-52.0833333333333,4,2,1,92,0,1
303223,-52.0833333333333,4,2,1,92,0,0

[Colours]
Combo1 : 255,0,255
Combo2 : 128,255,255
Combo3 : 255,128,255
Combo4 : 128,128,255

[HitObjects]
256,192,22328,5,2,0:1:0:0:
256,192,22510,12,0,24419,0:0:0:0:
120,32,24557,6,0,P|156:88|160:196,1,160,0|0,1:0|0:0,0:0:0:0:
200,168,25057,2,0,P|176:224|176:276,1,100,4|0,0:0|0:0,0:0:0:0:
184,352,25557,1,8,0:1:0:0:
184,352,25723,1,8,0:0:0:0:
496,232,25890,6,0,B|460:264|460:264|368:268,1,127.50000243187,4|2,1:0|0:0,0:0:0:0:
356,244,26223,2,0,P|312:236|256:240,1,85.0000016212464,8|2,0:0|0:0,0:0:0:0:
16,288,26556,2,0,P|58:272|104:241,1,85.0000016212464,0|2,1:0|2:0,2:0:0:0:
280,144,26890,2,0,P|242:123|210:96,1,85.0000016212464,8|2,0:0|0:0,0:0:0:0:
119,159,27223,6,0,P|170:197|184:257,1,127.50000243187,0|2,1:0|0:0,1:0:0:0:
188,261,27556,2,0,P|188:312|208:368,1,85.0000016212464,8|2,0:0|0:0,0:0:0:0:
428,292,27890,2,0,L|440:204,1,85.0000016212464,0|2,1:0|0:0,0:0:0:0:
472,196,28140,1,2,0:0:0:0:
476,200,28223,2,0,L|488:112,1,85.0000016212464,10|2,0:0|0:0,0:0:0:0:
320,164,28556,6,0,P|272:152|232:120,1,85.0000016212464,0|2,1:0|0:0,0:0:0:0:
380,76,28890,2,0,P|423:51|453:10,1,85.0000016212464,8|2,0:0|0:0,0:0:0:0:
144,100,29223,2,0,P|143:149|163:196,1,85.0000016212464,0|2,1:0|0:0,0:0:0:0:
248,256,29556,1,8,0:0:0:0:
13,234,29723,6,0,B|29:216|29:216|35:193|35:193|58:193|58:193|98:169|170:184,1,170.000003242493,2|2,1:2|0:0,0:0:0:0:
248,256,30223,1,10,0:0:0:0:
260,156,30390,1,2,0:0:0:0:
376,284,30556,1,2,1:2:0:0:
360,184,30723,1,2,0:0:0:0:
484,240,30890,1,10,0:0:0:0:
456,132,31056,1,2,0:0:0:0:
460,136,31140,1,10,0:0:0:0:
464,140,31223,6,0,P|412:80|304:80,1,170.000003242493,6|8,1:2|0:0,0:0:0:0:
240,123,31723,2,0,P|255:162|261:205,1,85.0000016212464,2|0,0:0|1:0,0:0:0:0:
152,68,32056,1,2,0:0:0:0:
72,280,32223,1,8,0:0:0:0:
160,196,32390,2,0,P|160:224|156:244,1,42.5000008106232,2|8,0:0|0:0,0:0:0:0:
72,280,32556,6,0,P|156:288|196:336,1,127.50000243187,0|2,1:0|0:0,0:0:0:0:
220,324,32890,2,0,P|260:324|320:308,1,85.0000016212464,8|2,0:0|0:0,0:0:0:0:
476,300,33223,2,0,P|444:328|408:350,1,85.0000016212464,0|2,1:0|0:0,0:0:0:0:
272,180,33556,2,0,P|306:200|366:216,1,85.0000016212464,8|2,0:0|0:0,0:0:0:0:
349,213,33806,1,8,0:0:0:0:
349,213,33890,5,0,1:0:0:0:
337,113,34056,1,0,1:0:0:0:
321,13,34223,1,8,0:0:0:0:
430,153,34390,5,0,1:0:0:0:
337,113,34556,1,0,1:0:0:0:
242,77,34723,1,8,0:0:0:0:
419,53,34890,5,0,1:0:0:0:
259,177,35056,1,0,1:0:0:0:
259,177,35140,1,0,1:0:0:0:
259,177,35223,5,8,0:0:0:0:
96,56,35390,1,0,1:0:0:0:
60,244,35556,1,8,0:0:0:0:
160,144,35723,5,4,1:2:0:0:
312,280,35890,1,0,3:0:0:0:
337,283,35973,1,0,3:0:0:0:
362,280,36056,1,0,3:0:0:0:
386,272,36140,1,0,3:0:0:0:
408,259,36223,1,0,3:0:0:0:
427,242,36306,1,0,3:0:0:0:
441,220,36390,1,0,3:0:0:0:
450,197,36473,1,0,3:0:0:0:
456,172,36556,6,0,L|448:68,2,85.0000016212464,2|2|8,1:2|0:0|0:0,0:0:0:0:
204,308,37056,2,0,L|212:204,2,85.0000016212464,2|2|8,1:2|0:0|0:0,0:0:0:0:
272,64,37556,2,0,L|276:120,1,42.5000008106232
344,176,37723,6,2,B|304:168|304:168|280:148|280:148|212:180|152:172|152:172|100:148|100:148|52:140|-8:168,1,359.999989013672,4|0,3:0|0:0,0:0:0:0:
184,72,39223,5,2,1:3:0:0:
256,272,39556,1,2,1:2:0:0:
184,72,39890,1,2,1:2:0:0:
256,272,40223,1,2,1:2:0:0:
280,124,40556,5,2,1:2:0:0:
156,240,40890,1,2,1:2:0:0:
280,124,41223,1,2,1:2:0:0:
156,240,41556,2,0,B|160:208|160:208|200:180,1,69.9999978637696,2|0,1:2|0:0,0:0:0:0:
280,124,41890,6,0,P|292:92|292:40,1,69.9999978637696,2|0,1:2|0:0,0:0:0:0:
100,20,42223,2,0,P|102:54|114:87,1,69.9999978637696,2|0,1:2|0:0,0:0:0:0:
340,256,42556,2,0,P|308:244|256:244,1,69.9999978637696,2|0,1:2|0:0,0:0:0:0:
16,196,42890,2,0,P|50:193|83:181,1,69.9999978637696,2|0,1:2|0:0,0:0:0:0:
192,44,43223,5,2,1:2:0:0:
252,148,43390,1,2,0:2:0:0:
273,66,43556,1,2,1:2:0:0:
170,126,43723,1,2,0:2:0:0:
354,88,43890,2,0,L|438:80,1,69.9999978637696,2|0,1:2|0:0,0:0:0:0:
388,272,44223,1,0,3:0:0:0:
388,272,44306,1,0,3:0:0:0:
388,272,44390,2,0,L|384:336,1,34.9999989318848,0|0,1:0|1:0,0:0:0:0:
476,172,44556,5,2,1:2:0:0:
276,244,44889,1,2,1:2:0:0:
476,172,45223,1,2,1:2:0:0:
276,244,45556,1,2,1:2:0:0:
400,48,45889,5,2,1:2:0:0:
385,306,46223,1,2,1:2:0:0:
400,48,46556,1,2,1:2:0:0:
385,306,46889,2,0,B|382:273|382:273|364:236,1,69.9999978637696,2|0,1:2|0:0,0:0:0:0:
120,300,47223,6,0,P|156:308|204:312,1,69.9999978637696,2|0,1:2|0:0,0:0:0:0:
340,144,47556,2,0,P|304:152|256:156,1,69.9999978637696,2|0,1:2|0:0,0:0:0:0:
48,208,47889,2,0,P|81:202|126:176,1,69.9999978637696,2|0,1:2|0:0,0:0:0:0:
232,68,48223,2,0,P|204:87|181:114,1,69.9999978637696,2|0,1:2|0:0,0:0:0:0:
464,252,48556,1,2,1:2:0:0:
464,252,49223,6,0,L|460:220,6,17.4999994659424,2|2|2|2|2|2|2,0:0|0:0|0:0|0:0|0:0|0:0|0:0,0:0:0:0:
376,216,49556,2,0,L|372:248,6,17.4999994659424,2|2|2|2|2|2|2,0:0|0:0|0:0|0:0|0:0|0:0|0:0,0:0:0:0:
452,120,49890,6,0,B|412:88|412:88|272:80,1,170.000003242493,4|10,1:0|0:0,0:0:0:0:
44,168,50390,2,0,P|88:168|152:144,1,85.0000016212464,2|2,1:2|0:0,0:0:0:0:
188,76,50723,1,2,1:2:0:0:
232,228,50890,1,10,0:0:0:0:
312,112,51056,1,2,0:0:0:0:
127,157,51223,6,0,P|83:157|19:133,1,85.0000016212464,2|2,1:2|0:0,0:0:0:0:
272,224,51556,2,0,P|310:246|353:298,1,85.0000016212464,10|2,1:2|0:0,0:0:0:0:
92,272,51890,2,0,P|51:282|14:304,1,85.0000016212464,2|2,1:2|0:0,0:0:0:0:
240,332,52223,1,10,0:0:0:0:
127,157,52390,1,2,0:0:0:0:
272,224,52556,6,0,P|368:216|440:156,1,170.000003242493,2|10,1:2|0:0,0:0:0:0:
480,88,53056,2,0,L|488:4,1,85.0000016212464,2|2,1:2|0:0,0:0:0:0:
320,116,53390,1,2,1:2:0:0:
426,174,53556,2,0,L|434:262,1,85.0000016212464,10|2,0:0|0:0,0:0:0:0:
372,28,53890,6,0,P|331:16|288:17,1,85.0000016212464,2|2,1:2|0:0,0:0:0:0:
194,256,54223,2,0,P|234:245|271:223,1,85.0000016212464,10|2,1:2|0:0,0:0:0:0:
83,141,54556,2,0,P|62:105|52:64,1,85.0000016212464,2|2,1:2|0:0,0:0:0:0:
188,146,54890,1,10,0:0:0:0:
34,281,55057,1,2,0:0:0:0:
34,281,55140,1,10,0:0:0:0:
34,281,55223,6,0,P|110:245|218:269,1,170.000003242493,6|8,1:2|0:0,0:0:0:0:
452,308,55723,2,0,P|412:320|360:320,1,85.0000016212464,2|2,1:2|0:0,0:0:0:0:
280,128,56056,1,2,1:2:0:0:
216,236,56223,1,10,0:0:0:0:
396,216,56389,1,2,0:0:0:0:
352,52,56556,6,0,P|313:30|246:18,1,85.0000016212464,2|2,1:2|0:0,0:0:0:0:
396,216,56889,2,0,P|434:194|500:182,1,85.0000016212464,10|2,1:2|0:0,0:0:0:0:
280,128,57223,2,0,P|237:127|196:138,1,85.0000016212464,2|2,1:2|0:0,0:0:0:0:
473,183,57556,1,10,1:2:0:0:
384,360,57723,1,2,0:0:0:0:
384,360,57806,1,10,0:0:0:0:
384,360,57889,6,0,B|368:320|368:320|376:256|376:256|372:193,1,170.000003242493,6|10,1:2|0:0,0:0:0:0:
284,264,58306,1,0,3:0:0:0:
284,264,58389,2,0,L|272:348,1,85.0000016212464,2|2,1:2|0:0,0:0:0:0:
16,304,58723,1,2,1:2:0:0:
184,212,58890,1,10,0:0:0:0:
124,296,59056,1,4,1:2:0:0:
124,296,59390,5,0,1:0:0:0:
184,212,59556,2,0,P|180:168|168:116,1,85.0000016212464,10|2,0:0|0:0,0:0:0:0:
32,32,59890,2,0,P|23:73|19:115,1,85.0000016212464,2|2,1:2|3:2,0:0:0:0:
72,204,60140,1,2,3:2:0:0:
72,204,60223,1,2,3:2:0:0:
72,204,60306,1,2,3:2:0:0:
72,204,60390,1,2,3:2:0:0:
72,204,60473,1,2,3:2:0:0:
72,204,60556,6,0,B|100:272|80:328|80:328|12:352,1,170.000003242493,12|0,1:0|1:0,0:0:0:0:
39,342,61056,2,0,B|156:304|156:304|224:320,1,170.000003242493,8|0,1:0|1:0,0:0:0:0:
201,314,61556,2,0,B|259:325|299:305|299:305|327:313|355:305,1,150,8|2,1:0|0:0,0:0:0:0:
440,168,62223,5,2,0:0:0:0:
368,88,62390,1,2,0:0:0:0:
464,160,62556,1,2,0:0:0:0:
436,272,62723,1,2,0:0:0:0:
488,152,62890,1,2,0:0:0:0:
392,76,63056,1,2,0:0:0:0:
464,264,63223,6,0,B|400:284|340:264|340:264|312:212,1,170.000003242493,12|0,1:0|1:0,0:0:0:0:
319,225,63723,2,0,B|236:208|236:208|144:232,1,170.000003242493,8|0,1:0|1:0,0:0:0:0:
153,229,64223,2,0,B|112:224|56:248|56:248|64:220|60:184,1,150,8|2,1:0|0:0,0:0:0:0:
104,40,64890,5,0,3:0:0:0:
104,40,64973,1,0,3:0:0:0:
104,40,65056,2,0,L|112:96,1,42.5000008106232,0|0,3:0|0:0,0:0:0:0:
204,68,65223,1,0,3:0:0:0:
204,68,65306,1,0,3:0:0:0:
204,68,65389,2,0,L|202:124,1,42.5000008106232,0|0,3:0|0:0,0:0:0:0:
300,112,65556,1,0,3:0:0:0:
300,112,65639,1,0,3:0:0:0:
300,112,65722,2,0,L|288:167,1,42.5000008106232,0|0,3:0|0:0,0:0:0:0:
432,80,65890,6,0,P|413:144|437:228,1,127.50000243187,6|2,1:2|0:0,0:0:0:0:
453,220,66223,2,0,P|465:264|465:320,1,85.0000016212464,10|2,0:0|0:0,0:0:0:0:
290,153,66556,2,0,P|309:115|319:74,1,85.0000016212464,2|2,1:2|0:0,0:0:0:0:
332,280,66890,2,0,P|299:312|251:340,1,85.0000016212464,10|2,0:0|0:0,0:0:0:0:
32,208,67223,6,0,P|104:200|172:232,1,127.50000243187,2|2,1:2|0:0,0:0:0:0:
188,208,67556,2,0,P|176:168|184:104,1,85.0000016212464,10|2,0:0|0:0,0:0:0:0:
305,54,67890,1,2,1:2:0:0:
290,153,68056,1,2,0:0:0:0:
162,26,68223,1,10,0:0:0:0:
177,125,68389,1,2,0:0:0:0:
305,54,68556,6,0,B|360:40|360:40|480:56,1,170.000003242493,6|10,1:2|0:0,0:0:0:0:
448,224,69056,1,2,0:0:0:0:
448,224,69223,2,0,L|344:228,1,85.0000016212464,2|2,1:2|0:0,0:0:0:0:
460,88,69556,1,10,0:0:0:0:
208,192,69723,1,2,1:2:0:0:
208,192,70057,5,0,1:0:0:0:
264,108,70223,2,0,P|260:64|248:12,1,85.0000016212464,10|2,0:0|0:0,0:0:0:0:
116,144,70557,2,0,P|107:185|103:227,1,85.0000016212464,2|2,1:2|3:2,0:0:0:0:
144,320,70807,1,2,3:2:0:0:
144,320,70890,1,2,3:2:0:0:
144,320,70973,1,2,3:2:0:0:
144,320,71057,1,2,3:2:0:0:
144,320,71140,1,2,3:2:0:0:
144,320,71223,6,0,B|224:312|224:312|236:316|236:316|328:308,1,170.000003242493,12|0,1:0|1:0,0:0:0:0:
312,309,71723,1,0,1:0:0:0:
364,220,71890,2,0,B|322:210|322:210|264:212,1,85.0000016212464,8|0,0:1|0:0,0:0:0:0:
280,212,72223,1,0,1:0:0:0:
420,308,72390,2,0,P|468:244|440:140,1,170.000003242493,8|8,0:1|1:0,0:0:0:0:
328,32,72890,5,0,1:0:0:0:
472,72,73223,1,8,0:1:0:0:
360,176,73556,1,0,1:0:0:0:
312,68,73890,6,0,B|268:52|268:52|188:56|188:56|128:84,1,170.000003242493,4|0,1:0|1:0,0:0:0:0:
148,74,74390,1,0,1:0:0:0:
148,176,74557,2,0,P|104:168|64:136,1,85.0000016212464,8|0,0:1|0:0,0:0:0:0:
71,145,74890,1,0,1:0:0:0:
244,152,75057,2,0,P|332:160|404:120,1,170.000003242493,8|8,0:1|1:0,0:0:0:0:
408,20,75557,1,0,1:0:0:0:
408,20,75890,5,2,1:2:0:0:
440,248,76056,1,6,0:0:0:0:
320,116,76223,1,10,0:0:0:0:
492,154,76390,1,2,1:2:0:0:
320,116,76556,6,0,B|220:112|220:112|176:136,1,127.50000243187,2|2,1:2|0:0,0:0:0:0:
168,144,76890,2,0,L|56:152,1,85.0000016212464,10|2,0:0|0:0,0:0:0:0:
24,36,77223,2,0,L|136:44,1,85.0000016212464,2|2,1:2|0:0,0:0:0:0:
112,264,77556,2,0,L|27:257,1,85.0000016212464,10|2,0:0|0:0,0:0:0:0:
168,144,77890,6,0,P|244:184|340:160,1,170.000003242493,2|10,1:2|0:0,0:0:0:0:
256,92,78390,2,0,P|256:56|272:-4,1,85.0000016212464,2|2,0:0|1:2,0:0:0:0:
488,40,78723,1,2,1:2:0:0:
356,196,78890,1,10,0:0:0:0:
360,64,79056,1,2,1:2:0:0:
500,144,79223,6,0,L|512:256,1,85.0000016212464,6|2,1:2|0:2,0:0:0:0:
224,240,79556,2,0,L|212:352,1,85.0000016212464,2|2,1:2|0:2,0:0:0:0:
408,284,79890,2,0,L|420:396,1,85.0000016212464,2|2,1:2|0:2,0:0:0:0:
328,60,80223,2,0,L|316:172,1,85.0000016212464,2|2,1:2|0:2,0:0:0:0:
176,96,80556,5,2,1:2:0:0:
176,96,80640,1,2,0:0:0:0:
176,96,80723,2,0,L|128:88,1,42.5000008106232,2|2,0:0|0:0,0:0:0:0:
192,220,80890,1,2,1:2:0:0:
192,220,80974,1,2,0:0:0:0:
192,220,81057,2,0,L|240:212,1,42.5000008106232,2|2,0:0|0:0,0:0:0:0:
100,176,81223,5,2,1:2:0:0:
67,184,81306,1,2,0:0:0:0:
40,205,81389,1,2,0:0:0:0:
22,234,81472,1,2,0:0:0:0:
17,267,81556,1,2,3:2:0:0:
24,300,81639,1,2,3:2:0:0:
42,328,81722,1,2,3:2:0:0:
70,347,81806,1,2,3:2:0:0:
103,355,81890,6,2,P|300:312|488:332,1,375,2|0,0:3|0:0,0:0:0:0:
471,327,83223,6,0,L|468:280,3,42.5000008106232,2|2|2|2,0:0|0:0|0:0|0:0,0:0:0:0:
376,292,83556,2,0,L|364:244,3,42.5000008106232,2|2|2|2,0:0|0:0|0:0|0:0,0:0:0:0:
496,188,83890,5,0,3:0:0:0:
496,188,83973,1,0,3:0:0:0:
496,188,84056,2,0,L|500:125,1,42.5000008106232,0|0,3:0|0:0,0:0:0:0:
400,152,84223,1,0,3:0:0:0:
400,152,84306,1,0,3:0:0:0:
400,152,84389,2,0,L|387:90,1,42.5000008106232,0|0,3:0|0:0,0:0:0:0:
260,48,84556,5,2,1:2:0:0:
156,220,84723,1,0,1:0:0:0:
71,95,84890,1,0,1:0:0:0:
264,72,85056,5,4,1:3:0:0:
160,196,85223,1,0,1:0:0:0:
85,75,85390,1,0,1:0:0:0:
268,96,85557,5,8,0:0:0:0:
164,172,85724,1,0,1:0:0:0:
102,57,85891,1,0,1:0:0:0:
272,120,86056,5,4,1:2:0:0:
168,148,86223,1,0,1:0:0:0:
117,38,86390,1,0,1:0:0:0:
276,144,86556,1,2,0:1:0:0:
276,143,87223,6,0,B|316:116|316:116|392:104|436:153,1,179.999994506836,4|8,1:0|0:0,0:0:0:0:
196,216,87723,2,0,P|174:176|168:132,1,89.9999972534181,2|0,0:2|1:0,0:0:0:0:
380,236,88056,1,0,0:0:0:0:
284,284,88223,1,8,0:0:0:0:
408,132,88390,6,0,P|452:125|491:103,1,89.9999972534181,2|0,1:2|0:0,0:0:0:0:
300,112,88723,1,2,1:2:0:0:
380,236,88890,2,0,P|421:252|466:253,1,89.9999972534181,10|0,0:0|0:0,0:0:0:0:
300,112,89223,1,2,1:2:0:0:
315,311,89390,1,2,0:0:0:0:
315,311,89473,1,2,0:0:0:0:
315,311,89556,1,10,0:0:0:0:
436,160,89723,1,2,0:0:0:0:
208,256,89890,6,0,B|80:248|80:248|40:212,1,179.999994506836,2|10,1:2|0:0,0:0:0:0:
119,58,90390,2,0,P|119:103|128:148,1,89.9999972534181,2|0,1:2|0:0,0:0:0:0:
315,311,90723,2,0,P|323:266|324:222,1,89.9999972534181,2|8,1:2|0:0,0:0:0:0:
119,58,91056,6,0,P|192:104|292:92,1,179.999994506836,2|0,1:2|1:0,0:0:0:0:
500,128,91556,1,8,0:0:0:0:
372,32,91723,1,2,1:2:0:0:
372,32,91806,1,2,3:2:0:0:
372,32,91890,1,2,3:2:0:0:
400,188,92056,1,2,0:0:0:0:
492,100,92223,1,10,0:0:0:0:
260,123,92390,2,0,L|212:119,1,44.999998626709,2|8,1:2|0:0,0:0:0:0:
400,188,92556,6,0,B|412:268|412:268|408:284|408:284|420:320|416:384,1,179.999994506836,6|10,1:2|0:0,0:0:0:0:
112,320,93056,2,0,P|116:272|128:204,1,89.9999972534181,2|0,1:2|0:0,0:0:0:0:
216,120,93390,1,2,1:2:0:0:
32,168,93556,1,10,0:0:0:0:
120,56,93723,1,2,0:0:0:0:
120,56,93806,1,10,0:0:0:0:
120,56,93890,6,0,B|160:80|160:80|308:72,1,179.999994506836,6|10,1:2|0:0,0:0:0:0:
478,105,94390,2,0,P|436:90|399:64,1,89.9999972534181,2|0,1:2|0:0,0:0:0:0:
448,208,94723,1,2,1:2:0:0:
448,208,94806,1,2,0:0:0:0:
448,208,94890,2,0,P|476:242|495:283,1,89.9999972534181,10|0,0:0|0:0,0:0:0:0:
216,120,95223,5,6,1:2:0:0:
392,304,95390,1,2,1:2:0:0:
392,100,95556,1,10,0:0:0:0:
124,320,95723,1,6,1:2:0:0:
124,320,96056,1,10,1:2:0:0:
28,268,96223,2,0,P|16:220|24:160,1,89.9999972534181,6|0,0:0|3:0,0:0:0:0:
76,120,96473,1,0,3:0:0:0:
76,120,96556,6,0,L|188:104,1,89.9999972534181,6|0,0:0|0:0,0:0:0:0:
360,152,96890,1,10,0:0:0:0:
279,47,97056,2,0,L|271:91,1,44.999998626709,6|0,0:0|0:0,0:0:0:0:
445,37,97223,5,2,3:2:0:0:
471,61,97306,1,2,3:2:0:0:
490,92,97389,1,2,3:2:0:0:
501,126,97472,1,2,3:2:0:0:
503,161,97556,1,2,3:2:0:0:
497,197,97639,1,2,3:2:0:0:
482,229,97722,1,2,3:2:0:0:
459,257,97806,1,2,3:2:0:0:
430,279,97890,6,0,B|224:292,1,179.999994506836,4|8,1:0|0:0,0:0:0:0:
0,208,98390,2,0,L|112:220,1,89.9999972534181,2|0,0:2|1:0,0:0:0:0:
276,48,98723,1,0,0:0:0:0:
244,152,98890,1,8,0:0:0:0:
124,32,99057,6,0,P|128:84|140:124,1,89.9999972534181,6|0,1:2|0:0,0:0:0:0:
244,152,99390,1,2,1:2:0:0:
32,148,99556,2,0,P|61:191|91:219,1,89.9999972534181,10|0,0:0|0:0,0:0:0:0:
244,152,99890,1,2,1:2:0:0:
328,284,100056,1,2,0:2:0:0:
328,284,100140,1,2,0:0:0:0:
328,284,100223,1,10,0:0:0:0:
204,308,100390,1,2,0:0:0:0:
452,264,100556,6,0,B|476:224|476:224|472:192|472:192|492:144|460:72,1,168.750006437302,6|0,1:2|1:0,0:0:0:0:
471,103,100890,1,0,1:0:0:0:
244,152,101057,2,0,L|268:156,1,22.4999993133545,2|0,1:2|0:0,0:0:0:0:
336,56,101390,2,0,L|358:52,1,22.4999993133545,2|0,1:2|0:0,0:0:0:0:
104,48,101723,6,0,B|60:80|60:80|36:148|88:216,1,179.999994506836,6|2,1:2|1:2,0:0:0:0:
152,208,102140,1,2,0:0:0:0:
157,213,102223,2,0,L|260:220,1,89.9999972534181,10|2,0:0|1:2,0:0:0:0:
304,160,102473,1,2,3:2:0:0:
308,164,102556,2,0,L|411:157,1,89.9999972534181,2|2,3:2|1:2,0:0:0:0:
476,152,102806,1,2,3:2:0:0:
480,156,102890,1,2,3:2:0:0:
404,80,103056,2,0,L|408:24,1,44.999998626709,2|2,3:2|3:2,0:0:0:0:
484,160,103223,6,0,B|496:220|496:220|508:248|508:248|504:276|504:276|508:356,1,179.999994506836,6|10,1:2|0:0,0:0:0:0:
400,264,103723,2,0,P|352:268|304:296,1,89.9999972534181,2|0,0:2|1:0,0:0:0:0:
132,168,104056,2,0,P|172:187|216:190,1,89.9999972534181,2|10,0:2|0:0,0:0:0:0:
304,124,104390,1,2,0:0:0:0:
92,67,104556,6,0,P|28:126|32:213,1,179.999994506836,6|10,1:2|0:0,0:0:0:0:
304,124,105056,2,0,L|300:28,1,89.9999972534181,2|0,0:2|1:0,0:0:0:0:
212,280,105390,2,0,L|208:376,1,89.9999972534181,2|10,0:2|0:0,0:0:0:0:
132,168,105723,1,8,0:0:0:0:
312,344,105890,6,0,B|360:344|360:344|380:296,1,89.9999972534181,6|0,1:2|0:0,0:0:0:0:
317,213,106140,2,0,B|300:263|300:263|312:311|312:311|312:355,1,134.999995880127,2|0,1:2|0:0,0:0:0:0:
136,298,106556,2,0,B|88:298|88:298|68:250,1,89.9999972534181,6|0,1:2|0:0,0:0:0:0:
132,167,106806,2,0,B|148:217|148:217|136:265|136:265|136:309,1,134.999995880127,2|0,1:2|0:0,0:0:0:0:
284,140,107223,6,0,P|316:132|368:128,1,59.9999981689454,4|0,1:2|0:0,0:0:0:0:
297,167,107445,2,0,P|329:170|380:184,1,59.9999981689454,0|0,1:0|0:0,0:0:0:0:
300,198,107668,2,0,P|329:212|372:242,1,59.9999981689454,0|0,1:0|0:0,0:0:0:0:
236,272,107890,6,0,P|216:248|200:200,1,59.9999981689454,8|0,0:0|0:0,0:0:0:0:
176,200,108112,2,0,P|170:169|180:119,1,59.9999981689454,0|0,1:0|0:0,0:0:0:0:
160,108,108334,2,0,P|170:78|204:40,1,59.9999981689454,0|0,1:0|0:0,0:0:0:0:
328,100,108556,6,0,P|424:96|496:40,1,170.000003242493,6|10,1:2|0:0,0:0:0:0:
460,216,109056,1,0,0:0:0:0:
460,216,109223,2,0,P|416:204|368:204,1,85.0000016212464,2|0,1:2|0:0,0:0:0:0:
404,300,109556,2,0,P|359:311|318:335,1,85.0000016212464,10|0,0:0|0:0,0:0:0:0:
192,304,109890,5,2,1:2:0:0:
216,204,110056,1,2,0:0:0:0:
192,304,110223,2,0,P|144:316|84:316,1,85.0000016212464,10|2,0:2|0:0,0:0:0:0:
4,132,110556,1,2,1:2:0:0:
108,204,110722,1,2,0:2:0:0:
20,248,110890,1,10,0:2:0:0:
0,104,111056,1,2,0:2:0:0:
200,160,111223,6,0,P|240:153|284:132,1,85.0000016212464,2|0,1:2|0:0,0:0:0:0:
124,80,111556,2,0,P|91:53|65:13,1,85.0000016212464,10|0,0:0|0:0,0:0:0:0:
360,52,111890,1,2,1:2:0:0:
216,36,112056,1,2,0:2:0:0:
396,56,112223,1,10,0:2:0:0:
279,134,112390,6,0,P|260:224|292:308,1,170.000003242493,2|0,1:2|1:0,0:0:0:0:
380,256,112890,2,0,L|492:248,1,85.0000016212464,10|0,0:0|0:0,0:0:0:0:
304,324,113223,1,2,1:2:0:0:
384,160,113390,1,2,0:0:0:0:
484,276,113556,1,10,0:0:0:0:
384,160,113723,2,0,L|388:100,1,42.5000008106232,0|8,0:0|0:0,0:0:0:0:
280,200,113890,6,0,P|216:176|112:192,1,170.000003242493,6|10,1:2|0:0,0:0:0:0:
56,108,114390,1,0,0:0:0:0:
117,189,114556,2,0,P|117:237|101:297,1,85.0000016212464,2|0,1:2|0:0,0:0:0:0:
56,108,114890,1,10,0:0:0:0:
208,132,115056,2,0,P|220:160|224:184,1,42.5000008106232,0|8,0:0|0:0,0:0:0:0:
148,48,115223,6,0,B|196:28|196:28|320:40,1,170.000003242493,6|10,1:2|0:0,0:0:0:0:
484,76,115724,1,0,0:0:0:0:
388,108,115890,2,0,P|380:152|380:192,1,85.0000016212464,2|0,1:2|0:0,0:0:0:0:
484,76,116223,1,10,0:0:0:0:
313,39,116390,2,0,P|298:64|289:87,1,42.5000008106232,0|8,0:0|0:0,0:0:0:0:
388,108,116556,6,0,B|416:152|416:152|428:284,1,170.000003242493,6|10,1:2|0:0,0:0:0:0:
268,360,117056,1,0,0:0:0:0:
268,360,117223,2,0,L|276:260,1,85.0000016212464,2|0,1:2|0:0,0:0:0:0:
284,172,117556,1,0,0:0:0:0:
168,320,117723,6,0,B|100:352|40:324|40:324|16:280,1,170.000003242493,6|0,1:2|1:0,0:0:0:0:
50,153,118223,2,0,L|56:196,3,42.5000008106232,0|0|0|0,3:0|3:0|3:0|3:0,0:0:0:0:
144,132,118556,2,0,L|138:174,3,42.5000008106232,0|0|0|0,1:0|1:0|1:0|1:0,0:0:0:0:
236,136,118890,2,0,L|219:175,3,42.5000008106232,0|0|0|0,1:0|1:0|1:0|1:0,0:0:0:0:
320,160,119223,5,6,1:2:0:0:
484,120,119556,1,0,1:0:0:0:
484,120,119723,1,0,1:0:0:0:
496,252,121890,6,0,P|456:244|400:212,1,85.0000016212464,0|0,1:0|3:0,0:0:0:0:
408,192,122140,1,0,3:0:0:0:
408,192,122223,1,0,3:0:0:0:
312,264,122390,1,8,0:0:0:0:
56,164,123223,6,0,L|59:248,1,85.0000016212464,0|0,1:0|3:0,0:0:0:0:
148,124,123556,1,8,0:0:0:0:
312,164,123723,1,0,1:0:0:0:
244,88,123890,1,0,3:0:0:0:
244,88,123973,1,0,3:0:0:0:
244,88,124056,2,0,L|248:24,1,42.5000008106232,0|0,3:0|0:0,0:0:0:0:
412,148,124223,1,0,3:0:0:0:
312,164,124390,1,0,3:0:0:0:
452,16,124556,5,4,1:2:0:0:
460,44,124890,1,4,1:2:0:0:
308,192,125056,1,4,1:2:0:0:
456,128,127223,6,0,B|344:132|344:132|324:148|324:148|328:128|328:108,1,170.000003242493,8|0,0:0|1:0,0:0:0:0:
56,128,127723,2,0,B|168:124|168:124|188:108|188:108|184:128|184:148,1,170.000003242493,8|0,0:0|1:0,0:0:0:0:
256,36,128223,1,0,1:0:0:0:
256,240,128390,1,8,0:0:0:0:
141,204,129223,6,0,L|162:202,6,21.2500004053116,2|2|2|2|2|2|2,0:0|0:0|0:0|0:0|0:0|0:0|0:0,0:0:0:0:
143,292,129556,2,0,L|121:289,6,21.2500004053116,2|2|2|2|2|2|2,0:0|0:0|0:0|0:0|0:0|0:0|0:0,0:0:0:0:
255,240,129890,6,0,P|252:157|190:102,1,170.000003242493,4|10,1:0|0:0,0:0:0:0:
9,89,130390,2,0,P|45:110|88:112,1,85.0000016212464,2|2,1:2|0:0,0:0:0:0:
232,8,130723,1,2,1:2:0:0:
284,144,130890,1,10,0:0:0:0:
190,102,131056,1,2,0:0:0:0:
372,88,131223,6,0,P|383:128|382:171,1,85.0000016212464,2|2,1:2|0:0,0:0:0:0:
512,64,131556,2,0,P|482:33|445:12,1,85.0000016212464,10|2,1:2|0:0,0:0:0:0:
379,272,131890,2,0,P|420:261|457:239,1,85.0000016212464,2|2,1:2|0:0,0:0:0:0:
304,344,132223,1,10,0:0:0:0:
381,171,132390,1,2,0:0:0:0:
219,284,132556,6,0,B|148:308|100:272|100:272|84:216,1,170.000003242493,2|10,1:2|0:0,0:0:0:0:
216,80,133056,2,0,L|202:163,1,85.0000016212464,2|2,1:2|0:0,0:0:0:0:
20,152,133390,1,2,1:2:0:0:
104,15,133556,2,0,L|107:99,1,85.0000016212464,10|2,0:0|0:0,0:0:0:0:
44,299,133890,6,0,P|56:263|88:227,1,85.0000016212464,2|2,1:2|0:0,0:0:0:0:
328,220,134223,2,0,P|317:180|295:143,1,85.0000016212464,10|2,1:2|0:0,0:0:0:0:
0,124,134556,2,0,P|36:102|77:92,1,85.0000016212464,2|2,1:2|0:0,0:0:0:0:
208,220,134890,1,10,0:0:0:0:
212,64,135057,1,2,0:0:0:0:
212,64,135140,1,10,0:0:0:0:
212,64,135223,6,0,B|252:92|252:92|400:92,1,170.000003242493,6|8,1:2|0:0,0:0:0:0:
436,316,135723,2,0,L|340:312,1,85.0000016212464,2|2,1:2|0:0,0:0:0:0:
204,188,136056,1,2,1:2:0:0:
400,224,136223,1,10,0:0:0:0:
232,308,136389,1,2,0:0:0:0:
293,141,136556,6,0,P|300:183|295:226,1,85.0000016212464,2|2,1:2|0:0,0:0:0:0:
484,164,136889,2,0,P|491:122|516:80,1,85.0000016212464,10|2,1:2|0:0,0:0:0:0:
324,0,137223,2,0,P|361:35|384:80,1,85.0000016212464,2|2,1:2|0:0,0:0:0:0:
204,192,137556,1,10,0:0:0:0:
124,48,137723,1,2,0:0:0:0:
124,48,137806,1,10,0:0:0:0:
124,48,137890,6,0,B|116:140|116:140|96:168|96:168|104:236,1,170.000003242493,6|10,1:2|0:0,0:0:0:0:
32,96,138306,1,0,3:0:0:0:
32,96,138389,2,0,L|28:12,1,85.0000016212464,2|2,1:2|0:0,0:0:0:0:
204,192,138723,1,2,1:2:0:0:
0,232,138890,1,10,0:0:0:0:
160,296,139056,1,4,1:2:0:0:
160,296,139390,5,0,1:0:0:0:
88,136,139556,2,0,P|46:127|4:123,1,85.0000016212464,10|2,0:0|0:0,0:0:0:0:
240,216,139890,2,0,P|282:212|323:202,1,85.0000016212464,2|2,1:2|3:2,0:0:0:0:
412,192,140140,1,2,3:2:0:0:
412,192,140223,1,2,3:2:0:0:
412,192,140306,1,2,3:2:0:0:
412,192,140390,1,2,3:2:0:0:
412,192,140473,1,2,3:2:0:0:
412,192,140556,1,2,0:1:0:0:
108,148,143223,5,4,0:3:0:0:
392,72,145890,5,6,0:1:0:0:
136,40,148556,5,4,0:3:0:0:
92,272,151223,6,0,B|184:312|184:312|212:264,1,150,8|0,1:0|1:0,0:0:0:0:
209,269,151890,2,0,P|260:256|320:268,1,100,8|0,0:1|0:0,0:0:0:0:
306,262,152390,2,0,L|300:148,1,100,8|8,0:1|1:0,0:0:0:0:
296,84,152890,5,0,1:0:0:0:
476,112,153223,1,8,0:1:0:0:
384,156,153556,1,0,1:0:0:0:
198,59,153890,6,0,B|318:56,1,119.999996337891,0|0,1:0|1:0,0:0:0:0:
140,164,154557,2,0,B|65:154|65:154|63:130|55:90,1,119.999996337891,8|0,0:1|0:0,0:0:0:0:
59,111,155056,2,0,P|68:176|68:244,1,119.999996337891,8|8,0:1|0:1,0:0:0:0:
56,312,155556,1,0,1:0:0:0:
56,312,155890,5,2,1:2:0:0:
236,240,156056,1,6,0:0:0:0:
108,100,156223,1,10,0:0:0:0:
296,160,156390,1,2,0:0:0:0:
131,203,156556,6,0,P|130:266|161:321,1,127.50000243187,2|2,1:2|0:0,0:0:0:0:
192,336,156890,2,0,L|304:344,1,85.0000016212464,10|2,0:0|0:0,0:0:0:0:
439,267,157223,2,0,L|448:352,1,85.0000016212464,2|2,1:2|0:0,0:0:0:0:
344,128,157556,2,0,L|432:136,1,85.0000016212464,10|2,0:0|0:0,0:0:0:0:
428,135,157806,1,8,0:0:0:0:
428,135,157890,5,6,1:2:0:0:
268,196,158056,1,2,1:2:0:0:
328,28,158223,1,2,1:2:0:0:
216,104,158390,2,0,P|174:114|132:112,1,85.0000016212464,2|2,1:2|0:2,0:0:0:0:
52,48,158723,1,2,1:2:0:0:
128,212,158890,1,10,0:0:0:0:
0,156,159056,1,2,1:2:0:0:
132,112,159223,6,0,L|232:116,1,85.0000016212464,6|2,1:2|2:2,0:0:0:0:
404,268,159556,2,0,L|520:252,1,85.0000016212464,2|2,1:2|2:2,0:0:0:0:
332,36,159890,2,0,L|436:64,1,85.0000016212464,2|2,1:2|2:2,0:0:0:0:
224,152,160223,2,0,L|320:148,1,85.0000016212464,2|2,1:2|2:2,0:0:0:0:
236,268,160556,5,2,1:2:0:0:
236,268,160640,1,2,0:0:0:0:
236,268,160723,2,0,L|228:316,1,42.5000008106232,2|2,0:0|0:0,0:0:0:0:
400,248,160890,1,2,1:2:0:0:
400,248,160974,1,2,0:0:0:0:
400,248,161057,2,0,L|392:200,1,42.5000008106232,2|2,0:0|0:0,0:0:0:0:
308,148,161223,5,2,1:2:0:0:
279,166,161306,1,2,0:2:0:0:
246,173,161389,1,2,0:2:0:0:
212,170,161473,1,2,0:2:0:0:
182,156,161556,1,2,3:2:0:0:
157,133,161639,1,2,3:2:0:0:
141,102,161723,1,2,3:2:0:0:
137,69,161806,1,2,3:2:0:0:
143,36,161890,6,2,P|128:196|68:340,1,300,2|2,0:3|0:0,0:0:0:0:
76,324,163223,6,0,L|24:327,3,42.5000008106232,2|2|2|2,0:0|0:0|0:0|0:0,0:0:0:0:
100,228,163556,2,0,L|52:220,3,42.5000008106232,2|2|2|2,0:0|0:0|0:0|0:0,0:0:0:0:
200,312,163890,5,0,3:0:0:0:
200,312,163973,1,0,3:0:0:0:
200,312,164056,2,0,L|204:364,1,42.5000008106232,0|0,3:0|0:0,0:0:0:0:
212,176,164223,1,0,3:0:0:0:
212,176,164306,1,0,3:0:0:0:
212,176,164389,2,0,L|216:128,1,42.5000008106232,0|0,3:0|0:0,0:0:0:0:
448,264,164556,5,2,1:2:0:0:
344,92,164723,1,0,1:0:0:0:
276,256,164890,1,0,1:0:0:0:
452,240,165056,5,4,1:3:0:0:
348,116,165223,1,0,1:0:0:0:
300,259,165390,1,0,1:0:0:0:
456,216,165557,5,8,0:0:0:0:
352,140,165724,1,0,1:0:0:0:
324,264,165891,1,0,1:0:0:0:
460,192,166056,5,4,1:2:0:0:
356,164,166223,1,0,1:0:0:0:
348,268,166390,1,0,1:0:0:0:
464,168,166556,1,2,0:1:0:0:
464,168,167223,6,0,B|436:152|436:152|404:160|404:160|356:128|272:152,1,179.999994506836,4|8,1:0|0:0,0:0:0:0:
156,188,167723,2,0,B|184:164|184:164|191:111,1,89.9999972534181,2|0,0:2|1:0,0:0:0:0:
168,296,168056,1,0,0:0:0:0:
48,180,168223,1,8,0:0:0:0:
293,146,168390,6,0,L|309:246,1,89.9999972534181,2|0,1:2|0:0,0:0:0:0:
191,111,168723,1,2,1:2:0:0:
408,80,168890,2,0,L|400:169,1,89.9999972534181,10|0,0:0|0:0,0:0:0:0:
312,268,169223,1,2,1:2:0:0:
504,216,169390,1,2,0:0:0:0:
504,216,169473,1,2,0:0:0:0:
504,216,169556,1,10,0:0:0:0:
399,169,169723,1,2,0:0:0:0:
412,312,169890,5,2,1:2:0:0:
312,268,170056,1,2,0:0:0:0:
204,284,170223,1,10,0:0:0:0:
120,352,170390,2,0,P|68:352|12:332,1,89.9999972534181,2|0,1:2|0:0,0:0:0:0:
131,152,170723,2,0,P|175:139|220:141,1,89.9999972534181,2|8,1:2|0:0,0:0:0:0:
90,250,171056,6,0,P|32:185|39:96,1,179.999994506836,2|0,1:2|1:0,0:0:0:0:
256,24,171556,1,8,0:0:0:0:
232,180,171723,1,2,1:2:0:0:
232,180,171806,1,2,3:2:0:0:
232,180,171890,1,2,3:2:0:0:
368,84,172056,1,2,0:0:0:0:
140,124,172223,1,10,0:0:0:0:
368,84,172390,2,0,L|416:88,1,44.999998626709,2|8,1:2|0:0,0:0:0:0:
344,188,172556,6,0,B|320:260|360:316|360:316|402:333,1,179.999994506836,6|10,1:2|0:0,0:0:0:0:
240,288,173056,2,0,P|196:284|144:292,1,89.9999972534181,2|0,1:2|0:0,0:0:0:0:
44,88,173390,1,2,1:2:0:0:
159,189,173556,1,10,0:0:0:0:
24,192,173724,1,2,0:0:0:0:
24,192,173807,1,10,0:0:0:0:
24,192,173890,6,0,P|109:171|152:96,1,179.999994506836,6|10,1:2|0:0,0:0:0:0:
344,63,174390,2,0,P|302:82|258:89,1,89.9999972534181,2|0,1:2|0:0,0:0:0:0:
465,205,174723,1,2,1:2:0:0:
465,205,174806,1,2,0:0:0:0:
465,205,174890,2,0,P|449:163|444:119,1,89.9999972534181,10|0,0:0|0:0,0:0:0:0:
348,300,175223,5,6,1:2:0:0:
244,60,175390,1,2,1:2:0:0:
443,118,175556,1,10,0:0:0:0:
64,196,175723,1,6,1:2:0:0:
64,196,176056,1,10,0:0:0:0:
108,292,176223,2,0,P|152:284|208:280,1,89.9999972534181,6|0,0:0|3:0,0:0:0:0:
252,340,176473,1,0,3:0:0:0:
252,340,176556,6,0,B|300:344|300:344|348:332,1,89.9999972534181,6|0,0:0|0:0,0:0:0:0:
372,152,176890,1,10,0:0:0:0:
477,233,177056,2,0,L|472:296,1,44.999998626709,6|0,0:0|0:0,0:0:0:0:
487,67,177223,5,2,3:2:0:0:
463,41,177306,1,2,3:2:0:0:
432,22,177389,1,2,3:2:0:0:
398,11,177472,1,2,3:2:0:0:
363,9,177556,1,2,3:2:0:0:
327,15,177639,1,2,3:2:0:0:
295,30,177722,1,2,3:2:0:0:
267,53,177806,1,2,3:2:0:0:
245,82,177890,6,0,B|208:116|208:116|192:112|192:112|144:128|56:124,1,179.999994506836,4|8,1:0|0:0,0:0:0:0:
372,152,178390,2,0,P|416:160|468:188,1,89.9999972534181,2|0,0:2|1:0,0:0:0:0:
252,328,178723,1,0,0:0:0:0:
284,224,178890,1,8,0:0:0:0:
384,264,179057,6,0,P|407:302|415:346,1,89.9999972534181,6|0,1:2|0:0,0:0:0:0:
284,224,179390,1,2,1:2:0:0:
180,244,179556,2,0,P|135:245|92:230,1,89.9999972534181,10|0,0:0|0:0,0:0:0:0:
272,112,179890,1,2,0:2:0:0:
296,344,180056,1,2,1:2:0:0:
296,344,180140,1,2,0:0:0:0:
296,344,180223,1,10,0:0:0:0:
156,268,180390,1,2,0:0:0:0:
392,204,180557,6,0,B|440:240|504:232|504:232|488:260|492:296,1,168.750006437302,6|0,1:2|1:0,0:0:0:0:
491,280,180890,1,0,1:0:0:0:
416,108,181057,2,0,L|412:84,1,22.4999993133545,2|0,1:2|0:0,0:0:0:0:
404,320,181390,2,0,L|400:342,1,22.4999993133545,2|0,1:2|0:0,0:0:0:0:
260,128,181723,6,0,B|284:176|284:176|288:248|288:248|260:312,1,179.999994506836,6|2,1:2|1:2,0:0:0:0:
188,312,182140,1,2,0:0:0:0:
192,316,182223,2,0,L|89:323,1,89.9999972534181,10|2,0:0|1:2,0:0:0:0:
48,228,182473,1,2,3:2:0:0:
52,232,182556,2,0,L|155:239,1,89.9999972534181,2|2,3:2|1:2,0:0:0:0:
176,164,182806,1,2,3:2:0:0:
180,168,182890,1,2,3:2:0:0:
68,108,183056,2,0,L|64:52,1,44.999998626709,2|2,3:2|3:2,0:0:0:0:
216,88,183223,6,0,B|288:84|288:84|300:80|300:80|408:84,1,179.999994506836,6|10,1:2|0:0,0:0:0:0:
309,190,183723,2,0,L|316:280,1,89.9999972534181,2|0,0:2|1:0,0:0:0:0:
505,129,184056,2,0,L|512:40,1,89.9999972534181,2|10,0:2|0:0,0:0:0:0:
432,232,184390,1,2,0:0:0:0:
395,83,184556,6,0,P|308:96|212:48,1,179.999994506836,6|10,1:2|0:0,0:0:0:0:
41,64,185056,2,0,P|85:72|124:96,1,89.9999972534181,2|0,0:2|1:0,0:0:0:0:
376,112,185390,2,0,P|332:120|293:143,1,89.9999972534181,2|10,0:2|0:0,0:0:0:0:
152,252,185723,1,8,0:0:0:0:
368,328,185890,6,0,B|376:384|376:384|344:371,1,89.9999972534181,6|0,1:2|0:0,0:0:0:0:
298,244,186140,2,0,B|355:251|355:251|367:327,1,134.999995880127,2|0,1:2|0:0,0:0:0:0:
152,252,186556,2,0,B|144:308|144:308|175:295,1,89.9999972534181,6|0,1:2|0:0,0:0:0:0:
221,168,186806,2,0,B|164:176|164:176|152:252,1,134.999995880127,2|0,1:2|0:0,0:0:0:0:
376,128,187223,6,0,L|392:48,1,59.9999981689454,4|0,1:2|0:0,0:0:0:0:
264,84,187445,2,0,L|264:8,1,59.9999981689454,0|0,1:0|0:0,0:0:0:0:
144,64,187668,2,0,L|132:0,1,59.9999981689454,0|0,1:0|0:0,0:0:0:0:
172,148,187890,6,0,L|160:216,1,59.9999981689454,8|0,0:0|0:0,0:0:0:0:
252,188,188112,2,0,L|252:248,1,59.9999981689454,0|0,1:0|0:0,0:0:0:0:
336,208,188334,2,0,L|348:288,1,59.9999981689454,0|0,1:0|0:0,0:0:0:0:
432,280,188556,5,6,1:2:0:0:
400,80,199223,6,0,L|332:84,1,44.999998626709,2|2,0:0|0:0,0:0:0:0:
296,152,199390,2,0,L|232:144,1,44.999998626709,2|2,0:0|0:0,0:0:0:0:
152,88,199556,2,0,B|108:96|108:96|56:140|80:224,1,179.999994506836,10|2,0:0|0:0,0:0:0:0:
116,240,199973,1,2,0:0:0:0:
116,240,200056,2,0,P|128:288|128:344,1,89.9999972534181,2|10,0:0|0:0,0:0:0:0:
251,146,200390,1,2,0:0:0:0:
251,146,200473,1,2,0:0:0:0:
251,146,200556,6,0,P|253:101|264:57,1,89.9999972534181,2|2,0:0|0:0,0:0:0:0:
300,56,200806,1,2,0:0:0:0:
300,56,200890,2,0,B|360:52|360:52|400:28,1,89.9999972534181,10|2,0:0|0:0,0:0:0:0:
488,188,201223,2,0,B|462:172|462:172|402:168,1,89.9999972534181,2|2,0:0|0:0,0:0:0:0:
364,168,201473,1,2,0:0:0:0:
364,168,201556,1,10,0:0:0:0:
428,264,201723,1,2,0:0:0:0:
280,248,201890,6,0,P|244:184|264:108,1,134.999995880127,2|2,0:0|0:0,0:0:0:0:
280,100,202223,2,0,P|224:100|176:84,1,89.9999972534181,10|2,0:0|0:0,0:0:0:0:
48,168,202556,2,0,L|104:164,1,44.999998626709,2|2,0:0|0:0,0:0:0:0:
68,248,202723,2,0,L|124:244,1,44.999998626709,2|2,0:0|0:0,0:0:0:0:
92,328,202890,1,10,0:0:0:0:
96,332,202973,1,2,0:0:0:0:
100,336,203056,2,0,L|44:332,1,44.999998626709,2|2,0:0|0:0,0:0:0:0:
220,312,203223,6,0,B|208:264|208:264|200:248|200:248|208:228|208:228|220:160,1,134.999995880127,2|2,0:0|0:0,0:0:0:0:
248,168,203556,2,0,B|256:120|256:120|248:56,1,89.9999972534181,10|2,0:0|0:0,0:0:0:0:
312,252,203890,2,0,P|356:256|404:248,1,89.9999972534181,2|2,0:0|0:0,0:0:0:0:
436,236,204140,1,2,0:0:0:0:
436,236,204223,1,10,0:0:0:0:
392,72,204390,2,0,L|340:68,1,44.999998626709,2|2,0:0|0:0,0:0:0:0:
460,16,204556,6,0,B|492:80|452:140|452:140|396:156,1,179.999994506836,6|10,0:0|0:0,0:0:0:0:
144,60,205056,1,2,0:0:0:0:
347,68,205223,1,2,0:0:0:0:
244,156,205390,1,2,0:0:0:0:
244,156,205473,1,2,0:0:0:0:
244,156,205556,2,0,L|252:88,1,44.999998626709,10|2,0:0|0:0,0:0:0:0:
144,60,205723,2,0,L|152:128,1,44.999998626709,2|2,0:0|0:0,0:0:0:0:
184,252,205890,6,0,P|144:204|60:204,1,134.999995880127,2|2,0:0|0:0,0:0:0:0:
44,216,206223,2,0,L|50:126,1,89.9999972534181,10|2,0:0|0:0,0:0:0:0:
120,304,206556,2,0,L|268:296,1,134.999995880127,2|2,0:0|0:0,0:0:0:0:
276,328,206890,2,0,P|312:352|376:348,1,89.9999972534181,10|2,0:0|0:0,0:0:0:0:
361,182,207223,6,0,P|376:224|404:260,1,89.9999972534181,2|2,0:0|0:0,0:0:0:0:
512,276,207556,1,10,0:0:0:0:
508,100,207723,1,2,0:0:0:0:
508,100,207806,1,2,0:0:0:0:
508,100,207890,2,0,P|492:142|465:177,1,89.9999972534181,2|2,0:0|0:0,0:0:0:0:
408,96,208140,1,0,0:0:0:0:
408,96,208223,2,0,L|412:32,1,44.999998626709,10|2,0:0|0:0,0:0:0:0:
304,72,208390,2,0,L|296:16,1,44.999998626709,2|2,0:0|0:0,0:0:0:0:
196,68,208556,5,2,0:0:0:0:
296,168,208723,1,2,0:0:0:0:
88,88,208890,1,10,0:0:0:0:
196,68,209056,2,0,L|200:16,1,44.999998626709,2|2,0:0|0:0,0:0:0:0:
72,208,209223,2,0,B|120:208|120:208|172:180,1,89.9999972534181,2|2,0:0|0:0,0:0:0:0:
188,168,209473,1,2,0:0:0:0:
188,168,209556,1,10,0:0:0:0:
184,284,209723,1,2,0:0:0:0:
184,284,209806,1,2,0:0:0:0:
184,284,209890,6,0,L|188:340,1,44.999998626709,2|2,0:0|0:0,0:0:0:0:
340,308,210056,2,0,L|384:300,1,44.999998626709,2|2,0:0|0:0,0:0:0:0:
272,248,210223,2,0,L|284:140,1,89.9999972534181,10|2,0:0|0:0,0:0:0:0:
452,24,210556,2,0,B|476:64|476:64|484:180,1,134.999995880127,2|2,0:0|0:0,0:0:0:0:
484,188,210890,2,0,L|376:180,1,89.9999972534181,10|2,0:0|0:0,0:0:0:0:
180,60,211223,5,2,0:0:0:0:
272,248,211390,1,2,0:0:0:0:
368,88,211556,1,10,0:0:0:0:
288,224,211723,1,2,0:0:0:0:
276,96,211890,2,0,P|248:136|176:160,1,89.9999972534181,2|2,0:0|0:0,0:0:0:0:
176,152,212140,1,2,0:0:0:0:
176,152,212223,2,0,B|116:160|116:160|84:184,1,89.9999972534181,10|2,0:0|0:0,0:0:0:0:
108,296,212556,6,0,B|168:304|168:304|200:328,1,89.9999972534181,2|2,0:0|0:0,0:0:0:0:
216,348,212806,1,2,0:0:0:0:
216,348,212890,2,0,L|312:340,1,89.9999972534181,10|2,0:0|0:0,0:0:0:0:
496,200,213223,2,0,P|430:196|388:256,1,134.999995880127,2|2,0:0|0:0,0:0:0:0:
352,244,213556,2,0,L|252:236,1,89.9999972534181,10|2,0:0|0:0,0:0:0:0:
360,24,213890,5,2,0:0:0:0:
416,156,214056,1,2,0:0:0:0:
416,156,214140,1,2,0:0:0:0:
416,156,214223,1,10,0:0:0:0:
360,24,214390,1,2,0:0:0:0:
144,96,214556,2,0,P|192:108|236:104,1,89.9999972534181,2|2,0:0|0:0,0:0:0:0:
268,96,214806,1,2,0:0:0:0:
268,96,214890,1,10,0:0:0:0:
308,208,215056,2,0,L|244:212,1,44.999998626709,2|2,0:0|0:0,0:0:0:0:
86,212,215223,6,0,B|150:220|150:220|210:204|210:204|263:210,1,179.999994506836,6|10,0:0|0:0,0:0:0:0:
488,188,215723,1,2,0:0:0:0:
396,244,215890,2,0,P|380:288|380:368,1,89.9999972534181,2|2,0:0|0:0,0:0:0:0:
360,32,216223,1,10,0:0:0:0:
360,32,216306,1,2,0:0:0:0:
360,32,216390,1,2,0:0:0:0:
452,87,216556,6,0,P|420:118|379:137,1,89.9999972534181,2|2,0:0|0:0,0:0:0:0:
344,140,216806,1,2,0:0:0:0:
344,140,216890,2,0,P|302:123|269:93,1,89.9999972534181,10|2,0:0|0:0,0:0:0:0:
68,96,217223,2,0,L|128:84,1,44.999998626709,2|2,0:0|0:0,0:0:0:0:
232,192,217390,2,0,L|172:180,1,44.999998626709,2|2,0:0|0:0,0:0:0:0:
56,120,217556,2,0,L|116:108,1,44.999998626709,10|2,0:0|0:0,0:0:0:0:
244,216,217723,2,0,L|184:204,1,44.999998626709,2|2,0:0|0:0,0:0:0:0:
96,336,217890,6,0,B|48:336|48:336|28:288,1,89.9999972534181,6|0,1:2|0:0,0:0:0:0:
91,205,218140,2,0,B|108:255|108:255|96:303|96:303|96:347,1,134.999995880127,2|0,1:2|0:0,0:0:0:0:
312,320,218556,6,0,B|364:298|364:298|337:277,1,89.9999972534181,6|0,1:2|0:0,0:0:0:0:
204,301,218806,2,0,B|238:346|238:346|310:319,1,134.999995880127,2|0,1:2|0:0,0:0:0:0:
460,244,219223,6,0,L|456:284,1,22.4999993133545,8|0,0:0|0:0,0:0:0:0:
476,252,219473,2,0,L|472:292,1,22.4999993133545,8|0,0:0|0:0,0:0:0:0:
492,260,219723,2,0,L|488:300,1,22.4999993133545,12|0,0:0|0:0,0:0:0:0:
508,268,220556,5,2,0:1:0:0:
48,240,223223,5,4,0:3:0:0:
412,136,225890,5,2,0:1:0:0:
112,72,228556,5,4,0:3:0:0:
256,100,231223,5,4,1:0:0:0:
252,124,231556,1,0,1:2:0:0:
248,148,231890,1,0,1:2:0:0:
244,172,232223,1,0,1:2:0:0:
80,60,232556,5,2,1:2:0:0:
92,144,232890,1,0,1:2:0:0:
104,228,233223,1,0,1:2:0:0:
116,312,233556,1,0,1:2:0:0:
416,276,233890,5,2,1:2:0:0:
336,138,234223,1,0,1:2:0:0:
306,246,234556,1,0,1:2:0:0:
444,167,234890,1,0,1:2:0:0:
194,252,235223,5,2,1:2:0:0:
241,77,235556,1,0,1:2:0:0:
306,246,235890,1,2,1:2:0:0:
154,147,236223,1,0,1:2:0:0:
336,138,236556,6,0,P|296:128|256:104,1,80,4|0,1:0|0:0,0:0:0:0:
80,272,236890,2,0,P|120:262|160:238,1,80,2|0,1:2|0:0,0:0:0:0:
288,292,237223,2,0,P|268:257|259:218,1,80,2|0,1:2|0:0,0:0:0:0:
128,140,237556,2,0,P|147:105|156:66,1,80,2|0,1:2|0:0,0:0:0:0:
262,109,237890,6,0,B|320:104|320:104|350:85,1,80,2|0,1:2|0:0,0:0:0:0:
156,66,238223,2,0,B|97:61|97:61|68:42,1,80,2|0,1:2|0:0,0:0:0:0:
304,196,238556,2,0,B|320:228|320:228|324:296,1,80,2|0,1:2|0:0,0:0:0:0:
108,160,238890,2,0,B|92:192|92:192|88:260,1,80,2|0,1:2|0:0,0:0:0:0:
212,344,239223,6,0,L|204:256,1,80,2|0,1:2|0:0,0:0:0:0:
444,192,239556,2,0,L|436:104,1,80,2|0,1:2|0:0,0:0:0:0:
268,172,239890,2,0,L|260:84,1,80,2|0,1:2|0:0,0:0:0:0:
384,368,240223,2,0,L|376:280,1,80,2|0,1:2|0:0,0:0:0:0:
500,108,240556,6,0,P|436:168|348:152,1,160,2|2,1:2|1:2,0:0:0:0:
260,92,241056,2,0,B|224:64|224:64|168:60|88:72,1,160,2|2,1:2|1:2,0:0:0:0:
184,168,241556,1,2,3:2:0:0:
184,168,241640,1,2,3:2:0:0:
184,168,241723,2,0,L|180:228,1,40,2|0,3:2|0:0,0:0:0:0:
71,75,241890,6,2,P|183:63|295:67,1,224.999993133545,2|0,3:0|0:0,0:0:0:0:
295,67,243223,6,0,L|303:15,3,42.5000008106232,2|2|2|2,0:0|0:0|0:0|0:0,0:0:0:0:
392,68,243556,2,0,L|412:24,3,42.5000008106232,2|2|2|2,0:0|0:0|0:0|0:0,0:0:0:0:
448,148,243890,5,2,0:0:0:0:
448,148,243973,1,2,0:0:0:0:
448,148,244056,2,0,L|392:168,1,42.5000008106232,2|2,0:0|0:0,0:0:0:0:
444,248,244223,1,2,0:0:0:0:
444,248,244306,1,2,0:0:0:0:
444,248,244390,2,0,L|376:256,1,42.5000008106232,2|2,0:0|0:0,0:0:0:0:
288,100,244556,5,4,1:2:0:0:
104,236,244723,1,0,1:2:0:0:
288,284,244890,1,0,1:2:0:0:
259,105,245056,5,8,0:0:0:0:
133,241,245223,1,0,1:2:0:0:
293,255,245390,1,0,1:2:0:0:
230,111,245556,5,4,1:2:0:0:
162,247,245723,1,0,1:2:0:0:
299,226,245890,1,0,1:2:0:0:
202,116,246056,5,4,1:3:0:0:
190,252,246223,1,0,1:2:0:0:
304,198,246390,1,0,1:2:0:0:
173,122,246556,5,8,0:1:0:0:
408,152,246723,1,0,1:2:0:0:
173,122,246890,1,8,0:1:0:0:
408,152,247057,1,0,1:2:0:0:
276,85,247223,5,4,1:2:0:0:
280,312,247390,1,0,1:2:0:0:
96,180,247557,1,0,1:2:0:0:
283,112,247723,5,8,0:2:0:0:
257,292,247890,1,0,1:2:0:0:
124,171,248057,1,0,1:2:0:0:
290,141,248223,5,4,1:2:0:0:
233,273,248390,1,0,1:2:0:0:
151,160,248557,1,0,1:2:0:0:
297,169,248723,5,4,1:3:0:0:
212,255,248890,1,0,1:2:0:0:
178,150,249057,1,0,1:2:0:0:
304,198,249223,6,0,P|348:208|404:204,1,89.9999972534181,8|0,0:1|3:0,0:0:0:0:
428,196,249473,1,0,3:0:0:0:
428,196,249556,2,0,B|448:236|448:236|452:300,1,89.9999972534181,8|0,3:1|3:0,0:0:0:0:
500,88,249890,6,2,B|456:56|400:64|400:64|356:96|356:96|280:120|168:92|168:92|148:96|148:96|96:88|56:64,1,460,2|0,0:1|0:0,0:0:0:0:
40,96,251890,6,0,L|32:144,3,44.999998626709,2|2|2|2,0:0|0:0|0:0|0:0,0:0:0:0:
112,196,252223,2,0,L|116:252,3,44.999998626709,2|2|2|2,0:0|0:0|0:0|0:0,0:0:0:0:
232,272,252556,5,6,1:2:0:0:
183,90,252723,1,2,1:2:0:0:
364,139,252890,1,2,1:2:0:0:
155,195,253056,5,10,0:2:0:0:
335,244,253223,1,2,1:2:0:0:
287,63,253390,1,2,1:2:0:0:
232,272,253556,5,6,1:2:0:0:
183,90,253723,1,2,1:2:0:0:
364,139,253890,1,2,1:2:0:0:
155,195,254056,5,10,0:2:0:0:
335,244,254223,1,2,1:2:0:0:
287,63,254390,1,2,1:2:0:0:
232,272,254556,6,0,L|216:332,1,44.999998626709,8|0,0:0|0:0,0:0:0:0:
259,168,254723,1,0,3:0:0:0:
259,168,254806,1,0,3:0:0:0:
259,168,254890,1,8,0:0:0:0:
259,168,255223,6,0,B|128:160|128:160|83:124,1,187.999997131348,4|10,1:0|0:0,0:0:0:0:
343,91,255723,2,0,P|363:134|371:180,1,93.9999985656739,2|0,0:2|1:0,0:0:0:0:
144,264,256056,1,0,0:0:0:0:
204,64,256223,1,8,0:0:0:0:
370,179,256390,6,0,P|417:177|461:159,1,93.9999985656739,2|0,1:2|0:0,0:0:0:0:
204,64,256723,1,2,1:2:0:0:
264,224,256890,2,0,P|292:260|332:286,1,93.9999985656739,10|0,0:2|0:0,0:0:0:0:
392,68,257223,1,2,1:2:0:0:
172,168,257390,1,2,0:0:0:0:
172,168,257473,1,2,0:0:0:0:
172,168,257556,1,10,0:0:0:0:
420,264,257723,1,2,0:0:0:0:
320,176,257890,6,0,B|285:214|285:214|276:360,1,187.999997131348,2|10,1:2|0:0,0:0:0:0:
488,196,258390,2,0,L|479:98,1,93.9999985656739,2|0,1:2|0:0,0:0:0:0:
232,16,258723,2,0,L|223:109,1,93.9999985656739,2|8,1:2|0:0,0:0:0:0:
408,292,259056,6,0,P|328:236|240:240,1,187.999997131348,2|0,1:2|1:0,0:0:0:0:
60,180,259556,1,8,0:0:0:0:
196,328,259723,1,2,1:2:0:0:
196,328,259806,1,2,3:2:0:0:
196,328,259890,1,2,3:2:0:0:
104,84,260056,1,2,0:0:0:0:
16,276,260223,1,10,0:0:0:0:
238,192,260390,2,0,L|242:256,1,46.9999992828369,2|8,1:2|0:0,0:0:0:0:
289,85,260556,6,0,B|209:89|209:89|197:93|197:93|157:77|103:83,1,187.999997131348,6|10,1:2|0:0,0:0:0:0:
90,273,261056,2,0,P|117:235|136:192,1,93.9999985656739,2|0,1:2|0:0,0:0:0:0:
368,208,261390,1,2,1:2:0:0:
376,340,261556,1,10,0:0:0:0:
240,238,261723,1,2,0:0:0:0:
240,238,261806,1,10,0:0:0:0:
239,238,261890,6,0,P|252:146|320:84,1,187.999997131348,6|10,1:2|0:0,0:0:0:0:
368,208,262390,2,0,B|400:228|400:228|456:231,1,93.9999985656739,2|0,1:2|0:0,0:0:0:0:
212,128,262723,1,2,1:2:0:0:
212,128,262806,1,2,0:0:0:0:
212,128,262890,2,0,B|180:108|180:108|123:104,1,93.9999985656739,10|0,0:2|0:0,0:0:0:0:
92,272,263223,5,6,1:2:0:0:
440,80,263390,1,2,1:2:0:0:
456,231,263556,1,10,0:0:0:0:
144,80,263723,1,6,1:2:0:0:
144,80,264056,1,10,0:0:0:0:
0,172,264223,2,0,L|96:168,1,93.9999985656739,6|0,0:0|3:0,0:0:0:0:
116,192,264473,1,0,3:0:0:0:
115,191,264556,6,0,P|162:191|206:175,1,93.9999985656739,6|0,0:0|0:0,0:0:0:0:
320,84,264890,1,10,0:0:0:0:
408,288,265056,2,0,L|456:296,1,46.9999992828369,6|0,0:0|0:0,0:0:0:0:
480,168,265223,5,2,3:2:0:0:
442,162,265306,1,2,3:2:0:0:
405,166,265389,1,2,3:2:0:0:
369,178,265472,1,2,3:2:0:0:
338,198,265556,1,2,3:2:0:0:
311,224,265639,1,2,3:2:0:0:
292,257,265722,1,2,3:2:0:0:
281,292,265806,1,2,3:2:0:0:
278,330,265890,6,0,B|248:292|248:292|172:264|104:320,1,187.999997131348,4|10,1:0|0:0,0:0:0:0:
20,80,266390,2,0,P|68:100|124:104,1,93.9999985656739,2|0,0:2|1:0,0:0:0:0:
268,196,266723,1,0,0:0:0:0:
304,32,266890,1,8,0:0:0:0:
192,132,267057,6,0,L|84:140,1,93.9999985656739,2|0,1:2|0:0,0:0:0:0:
304,32,267390,1,2,1:2:0:0:
412,208,267556,2,0,L|505:214,1,93.9999985656739,10|0,0:0|0:0,0:0:0:0:
396,96,267890,1,2,1:2:0:0:
248,320,268056,1,2,0:2:0:0:
248,320,268140,1,2,0:0:0:0:
248,320,268223,1,10,0:0:0:0:
420,240,268390,1,2,0:0:0:0:
268,128,268557,6,0,B|192:104|128:136|128:136|124:160|112:188,1,179.999994506836,6|0,1:2|1:0,0:0:0:0:
118,170,268890,1,0,1:0:0:0:
32,132,269057,2,0,L|28:108,1,23.4999996414185,2|0,1:2|0:0,0:0:0:0:
96,264,269390,2,0,L|92:288,1,23.4999996414185,2|0,1:2|0:0,0:0:0:0:
436,288,269723,6,0,B|448:252|448:252|432:224|432:224|452:156|416:88,1,187.999997131348,6|2,1:2|1:2,0:0:0:0:
336,172,270140,1,2,0:0:0:0:
340,176,270223,2,0,L|232:172,1,93.9999985656739,10|2,0:0|1:2,0:0:0:0:
280,56,270473,1,2,3:2:0:0:
284,60,270556,2,0,L|176:68,1,93.9999985656739,2|2,3:2|1:2,0:0:0:0:
132,200,270806,1,2,3:2:0:0:
136,204,270890,1,2,3:2:0:0:
52,128,271056,2,0,L|48:72,1,46.9999992828369,2|2,3:2|3:2,0:0:0:0:
44,264,271223,6,0,B|136:244|136:244|232:264,1,187.999997131348,6|10,1:2|0:0,0:0:0:0:
404,332,271723,2,0,L|388:232,1,93.9999985656739,2|0,0:2|1:0,0:0:0:0:
232,40,272056,2,0,L|215:132,1,93.9999985656739,2|10,0:2|0:0,0:0:0:0:
260,272,272390,1,2,0:0:0:0:
344,120,272556,6,0,P|444:120|504:184,1,187.999997131348,6|10,1:2|0:0,0:0:0:0:
216,156,273056,2,0,P|172:140|124:96,1,93.9999985656739,2|0,0:2|1:0,0:0:0:0:
400,220,273390,2,0,P|429:256|445:300,1,93.9999985656739,2|10,0:2|0:0,0:0:0:0:
116,264,273723,1,8,0:0:0:0:
215,155,273890,6,0,B|216:184|204:208|204:208|217:274|217:274|209:306|209:306|221:338,1,187.999997131348,6|10,0:0|0:0,0:0:0:0:
394,154,274390,2,0,B|408:204|384:252|384:252|344:268|344:268|312:300,1,187.999997131348,6|10,0:0|0:0,0:0:0:0:
42,121,274890,2,0,B|58:156|58:156|66:180|58:216|58:216|74:260|74:260|116:264,1,187.999997131348,6|10,0:0|0:0,0:0:0:0:
328,60,275390,5,6,1:2:0:0:
156,176,275556,1,2,1:2:0:0:
324,88,275723,1,2,1:2:0:0:
148,40,275890,5,6,1:2:0:0:
308,196,276056,1,2,1:2:0:0:
152,44,276223,1,8,0:0:0:0:
156,48,276306,1,8,0:0:0:0:
160,52,276390,2,0,L|164:120,1,46.9999992828369,8|0,0:0|0:0,0:0:0:0:
332,32,276556,6,0,B|384:40|384:40|440:92|424:188,1,192.0000046875,4|8,1:0|0:0,0:0:0:0:
180,336,277056,2,0,P|192:292|228:244,1,96.0000023437501,2|0,0:2|1:0,0:0:0:0:
444,280,277389,1,0,0:0:0:0:
268,136,277556,1,8,0:0:0:0:
448,276,277723,6,0,L|344:264,1,96.0000023437501,2|0,1:2|0:0,0:0:0:0:
268,136,278056,1,2,1:2:0:0:
508,160,278223,2,0,L|392:172,1,96.0000023437501,10|0,0:0|0:0,0:0:0:0:
220,251,278556,1,2,1:2:0:0:
192,28,278723,1,2,0:0:0:0:
192,28,278806,1,2,0:0:0:0:
192,28,278889,1,10,0:0:0:0:
100,188,279056,1,2,0:0:0:0:
312,80,279223,5,2,1:2:0:0:
196,68,279389,1,2,0:0:0:0:
80,52,279556,1,10,0:0:0:0:
312,80,279723,2,0,P|360:64|408:24,1,96.0000023437501,2|0,1:2|0:0,0:0:0:0:
100,188,280056,2,0,P|61:159|16:144,1,96.0000023437501,2|8,1:2|0:0,0:0:0:0:
224,172,280389,6,0,P|224:272|280:348,1,192.0000046875,2|0,1:2|1:0,0:0:0:0:
480,292,280889,1,8,0:0:0:0:
336,248,281056,1,2,0:2:0:0:
336,248,281139,1,2,0:2:0:0:
336,248,281223,1,2,1:2:0:0:
468,84,281389,1,2,0:0:0:0:
336,248,281556,1,10,0:0:0:0:
468,84,281723,2,0,L|473:36,1,48.000001171875,2|8,1:2|0:0,0:0:0:0:
308,140,281889,6,0,B|232:168|172:124|172:124|156:68,1,192.0000046875,6|10,1:2|0:0,0:0:0:0:
450,202,282390,2,0,P|471:244|479:291,1,96.0000023437501,2|0,0:2|1:0,0:0:0:0:
196,264,282723,1,2,0:2:0:0:
272,32,282889,1,10,0:0:0:0:
328,164,283057,1,2,0:0:0:0:
328,164,283140,1,10,0:0:0:0:
328,164,283223,6,0,B|256:148|256:148|236:140|236:140|212:140|212:140|120:124,1,192.0000046875,6|10,1:2|0:0,0:0:0:0:
40,328,283723,2,0,B|108:320|108:320|136:332,1,96.0000023437501,2|0,0:2|1:0,0:0:0:0:
36,200,284056,1,2,0:2:0:0:
36,200,284139,1,2,0:0:0:0:
36,200,284223,2,0,P|16:152|16:100,1,96.0000023437501,10|0,0:0|0:0,0:0:0:0:
200,32,284556,5,6,1:2:0:0:
432,276,284723,1,2,1:2:0:0:
476,48,284889,1,10,0:0:0:0:
104,288,285056,1,6,1:2:0:0:
104,288,285389,1,10,0:0:0:0:
220,272,285556,2,0,P|236:228|240:168,1,96.0000023437501,6|0,0:0|3:0,0:0:0:0:
208,156,285806,1,0,3:0:0:0:
208,156,285889,6,0,B|184:128|184:128|176:60,1,96.0000023437501,6|0,0:0|0:0,0:0:0:0:
476,48,286223,1,10,0:0:0:0:
336,232,286389,2,0,L|330:279,1,48.000001171875,6|0,0:0|0:0,0:0:0:0:
448,180,286556,5,2,3:2:0:0:
425,149,286639,1,2,3:2:0:0:
393,127,286722,1,2,3:2:0:0:
357,115,286805,1,2,3:2:0:0:
319,115,286889,1,2,3:2:0:0:
282,127,286972,1,2,3:2:0:0:
251,149,287055,1,2,3:2:0:0:
228,179,287139,1,2,3:2:0:0:
216,215,287223,6,0,B|180:248|180:248|112:280|24:212,1,192.0000046875,4|8,1:0|0:0,0:0:0:0:
280,320,287723,2,0,P|328:320|384:300,1,96.0000023437501,2|0,0:2|1:0,0:0:0:0:
393,127,288056,1,0,0:0:0:0:
216,215,288223,1,8,0:0:0:0:
481,203,288390,6,0,P|503:160|511:113,1,96.0000023437501,6|0,1:2|0:0,0:0:0:0:
216,215,288723,1,2,1:2:0:0:
393,126,288890,2,0,P|391:79|374:34,1,96.0000023437501,10|0,0:2|0:0,0:0:0:0:
332,224,289223,1,2,1:2:0:0:
100,208,289389,1,2,0:2:0:0:
100,208,289473,1,2,0:0:0:0:
100,208,289556,1,10,0:0:0:0:
264,120,289723,1,2,0:0:0:0:
216,336,289890,6,0,B|144:344|96:316|96:316|60:332|4:340,1,187.5,6|0,1:2|1:0,0:0:0:0:
35,334,290223,1,0,1:0:0:0:
216,236,290390,2,0,L|224:200,1,24.0000005859375,2|0,1:2|0:0,0:0:0:0:
72,164,290723,2,0,L|76:200,1,24.0000005859375,2|0,1:2|0:0,0:0:0:0:
152,68,291056,6,0,B|196:80|196:80|232:60|232:60|336:48,1,192.0000046875,6|2,1:2|1:2,0:0:0:0:
400,156,291473,1,2,0:0:0:0:
404,160,291556,2,0,L|512:168,1,96.0000023437501,10|2,0:0|1:2,0:0:0:0:
452,284,291806,1,2,3:2:0:0:
456,288,291889,2,0,L|352:292,1,96.0000023437501,2|2,3:2|1:2,0:0:0:0:
272,144,292139,1,2,3:2:0:0:
276,148,292223,1,2,3:2:0:0:
196,304,292389,2,0,L|189:351,1,48.000001171875,2|2,3:2|3:2,0:0:0:0:
88,240,292556,6,0,B|48:208|48:208|12:136|72:48,1,192.0000046875,6|10,1:2|0:0,0:0:0:0:
280,152,293056,2,0,L|288:260,1,96.0000023437501,2|0,0:2|1:0,0:0:0:0:
472,120,293389,2,0,L|478:24,1,96.0000023437501,2|10,0:2|0:0,0:0:0:0:
464,236,293723,1,2,0:0:0:0:
371,83,293889,6,0,P|289:40|199:68,1,192.0000046875,6|10,1:2|0:0,0:0:0:0:
68,212,294389,2,0,P|115:212|162:201,1,96.0000023437501,2|0,0:2|1:0,0:0:0:0:
464,236,294723,2,0,P|417:225|369:225,1,96.0000023437501,2|10,0:2|0:0,0:0:0:0:
260,264,295056,1,8,0:0:0:0:
260,264,295140,1,8,0:0:0:0:
260,264,295223,6,0,P|272:216|268:152,1,96.0000023437501,6|2,1:2|0:0,0:0:0:0:
48,24,295556,2,0,P|65:68|94:106,1,96.0000023437501,10|2,0:0|0:0,0:0:0:0:
363,92,295890,2,0,P|321:65|258:49,1,96.0000023437501,2|2,1:2|0:0,0:0:0:0:
69,219,296223,2,0,P|116:215|162:200,1,96.0000023437501,10|2,0:0|0:0,0:0:0:0:
372,248,296556,6,0,L|380:360,1,96.0000023437501,6|2,1:2|0:0,0:0:0:0:
480,144,296890,2,0,L|488:32,1,96.0000023437501,10|2,0:0|0:0,0:0:0:0:
271,169,297223,1,2,1:2:0:0:
378,16,297390,1,2,3:2:0:0:
378,16,297473,1,2,3:2:0:0:
378,16,297556,1,2,3:2:0:0:
378,16,297640,1,2,3:2:0:0:
378,16,297723,1,2,3:2:0:0:
378,16,297806,1,2,3:2:0:0:
378,16,297890,6,0,L|372:112,1,96.0000023437501,6|2,1:2|0:0,0:0:0:0:
64,136,298223,2,0,L|58:232,1,96.0000023437501,2|2,1:2|0:0,0:0:0:0:
304,248,298556,2,0,L|298:344,1,96.0000023437501,2|2,1:2|0:0,0:0:0:0:
184,20,298890,2,0,L|178:116,1,96.0000023437501,2|2,1:2|0:0,0:0:0:0:
168,272,299223,5,6,1:2:0:0:
200,144,299390,1,2,0:0:0:0:
408,252,299556,1,10,0:0:0:0:
380,120,299723,1,2,0:0:0:0:
276,252,299890,1,2,1:2:0:0:
288,112,300056,1,10,0:0:0:0:
500,216,300223,1,10,0:0:0:0:
480,76,300390,1,10,0:0:0:0:
500,216,300556,6,0,B|492:280|492:280|436:288,1,96.0000023437501,6|0,1:2|0:0,0:0:0:0:
347,232,300806,2,0,P|383:312|351:388,1,144.000003515625,2|0,1:2|0:0,0:0:0:0:
7,205,301223,6,0,B|15:269|15:269|71:277,1,96.0000023437501,6|0,1:2|0:0,0:0:0:0:
160,221,301473,2,0,P|124:301|156:377,1,144.000003515625,2|0,1:2|0:0,0:0:0:0:
264,64,301890,6,0,P|262:32|257:0,1,64.0000015625,4|0,1:2|0:0,0:0:0:0:
347,232,302112,2,0,P|375:246|405:257,1,64.0000015625,0|0,1:0|0:0,0:0:0:0:
160,221,302335,2,0,P|133:238|108:258,1,64.0000015625,0|0,1:0|0:0,0:0:0:0:
303,150,302557,6,0,P|331:134|356:115,1,64.0000015625,8|0,0:0|0:0,0:0:0:0:
254,223,302779,2,0,P|253:254|257:286,1,64.0000015625,0|0,1:0|0:0,0:0:0:0:
215,144,303001,2,0,P|187:127|158:115,1,64.0000015625,0|0,1:0|0:0,0:0:0:0:
347,232,303223,6,0,P|443:228|512:160,1,192.0000046875,6|10,1:2|0:0,0:0:0:0:
385,39,303723,1,0,0:0:0:0:
385,39,303890,2,0,P|400:84|400:132,1,96.0000023437501,2|0,1:2|0:0,0:0:0:0:
228,30,304223,2,0,P|264:62|288:104,1,96.0000023437501,10|0,0:2|0:0,0:0:0:0:
176,136,304557,5,2,1:2:0:0:
72,92,304723,1,2,0:0:0:0:
176,136,304890,2,0,L|176:252,1,96.0000023437501,10|2,0:2|0:0,0:0:0:0:
40,340,305223,1,2,1:2:0:0:
84,192,305389,1,2,0:2:0:0:
40,340,305557,1,10,0:2:0:0:
84,192,305723,1,2,0:2:0:0:
176,328,305890,6,0,L|284:320,1,96.0000023437501,2|0,1:2|0:0,0:0:0:0:
372,260,306223,2,0,L|466:274,1,96.0000023437501,10|0,0:0|0:0,0:0:0:0:
348,148,306557,1,2,1:2:0:0:
464,136,306723,1,2,0:2:0:0:
232,160,306890,1,10,0:2:0:0:
368,16,307057,6,0,P|304:60|180:52,1,192.0000046875,2|0,1:2|1:0,0:0:0:0:
84,96,307557,2,0,L|68:208,1,96.0000023437501,10|0,0:0|0:0,0:0:0:0:
248,300,307890,1,2,1:2:0:0:
180,184,308057,1,2,0:0:0:0:
32,296,308223,1,10,0:0:0:0:
180,184,308390,2,0,L|176:120,1,48.000001171875,0|8,0:0|0:0,0:0:0:0:
248,300,308557,6,0,B|296:328|296:328|368:336|428:264,1,192.0000046875,6|10,1:2|0:0,0:0:0:0:
428,160,309057,1,0,0:0:0:0:
324,112,309223,2,0,P|303:71|299:7,1,96.0000023437501,2|0,1:2|0:0,0:0:0:0:
428,160,309557,1,10,0:0:0:0:
416,276,309723,2,0,L|412:332,1,48.000001171875,0|8,0:0|0:0,0:0:0:0:
316,224,309890,6,0,B|240:220|240:220|208:228|208:228|116:220,1,192.0000046875,6|10,1:2|0:0,0:0:0:0:
48,136,310391,1,0,0:0:0:0:
125,220,310557,2,0,P|116:272|85:324,1,96.0000023437501,2|0,1:2|0:0,0:0:0:0:
48,136,310890,1,10,0:0:0:0:
120,48,311057,2,0,L|128:0,1,48.000001171875,0|8,0:0|0:0,0:0:0:0:
212,112,311223,6,0,P|316:116|396:64,1,192.0000046875,6|10,1:2|0:0,0:0:0:0:
501,229,311723,1,0,0:0:0:0:
501,229,311890,2,0,P|486:183|484:136,1,96.0000023437501,2|0,1:2|0:0,0:0:0:0:
316,156,312223,1,8,0:0:0:0:
408,288,312390,6,0,B|340:252|264:284|264:284|236:332,1,192.0000046875,6|0,1:2|1:0,0:0:0:0:
128,312,312890,2,0,L|70:303,3,48.000001171875,0|0|0|0,3:0|3:0|3:0|3:0,0:0:0:0:
120,208,313223,2,0,L|68:192,3,48.000001171875,0|0|0|0,1:0|1:0|1:0|1:0,0:0:0:0:
124,100,313557,2,0,L|84:72,3,48.000001171875,0|0|0|0,1:0|1:0|1:0|1:0,0:0:0:0:
224,40,313890,6,0,P|240:88|228:160,1,96.0000023437501,6|0,1:2|0:0,0:0:0:0:
237,132,314140,2,0,L|416:120,1,144.000003515625,2|8,1:2|0:0,0:0:0:0:
460,112,314473,1,8,0:0:0:0:
464,116,314556,6,0,L|468:156,1,24.0000005859375,8|0,0:0|0:0,0:0:0:0:
224,280,314806,2,0,L|228:240,1,24.0000005859375,8|0,0:0|0:0,0:0:0:0:
372,16,315056,2,0,L|376:56,1,24.0000005859375,12|0,0:0|0:0,0:0:0:0:
256,192,315223,12,0,317890,0:0:0:0:
