osu file format v14

[General]
AudioFilename: audio.mp3
AudioLeadIn: 0
PreviewTime: 167114
Countdown: 0
SampleSet: Soft
StackLeniency: 0.7
Mode: 0
LetterboxInBreaks: 0
WidescreenStoryboard: 0

[Editor]
DistanceSpacing: 0.6
BeatDivisor: 4
GridSize: 32
TimelineZoom: 2.899999

[Metadata]
Title:own phrases
TitleUnicode:own phrases
Artist:wavforme x Annabel
ArtistUnicode:wavforme × Annabel
Creator:Mordred
Version:Silence
Source:LACKGIRL BIRTH IN THE DARK
Tags:ラックガール バース・イン・ザ・ダーク pv main theme song taishi full version narcissu
BeatmapID:1868302
BeatmapSetID:894026

[Difficulty]
HPDrainRate:8
CircleSize:4
OverallDifficulty:9
ApproachRate:9.5
SliderMultiplier:1.8
SliderTickRate:1

[Events]
//Background and Video events
0,0,"img_002.jpg",0,0
//Break Periods
//Storyboard Layer 0 (Background)
//Storyboard Layer 1 (Fail)
//Storyboard Layer 2 (Pass)
//Storyboard Layer 3 (Foreground)
//Storyboard Sound Samples

[TimingPoints]
2730,545.454545454546,4,2,5,20,1,0
20184,535.714285714286,4,2,5,30,1,0
22326,-100,4,2,5,40,0,0
24469,-100,4,2,5,5,0,0
24543,333.333333333333,4,2,5,70,1,0
24543,-125,4,2,5,60,0,0
25876,-83.3333333333333,4,2,5,70,0,0
35209,-71.4285714285714,4,2,5,70,0,0
37709,-333.333333333333,4,2,5,70,0,0
39209,-100,4,2,5,50,0,0
44209,-100,4,2,5,60,0,0
44542,-83.3333333333333,4,2,5,70,0,0
44876,-100,4,2,5,50,0,0
48542,-250,4,2,5,50,0,0
49209,-125,4,2,5,50,0,0
49876,-83.3333333333333,4,2,5,60,0,0
50376,-100,4,2,5,60,0,0
52542,-83.3333333333333,4,2,5,60,0,0
53209,-100,4,2,5,60,0,0
55209,-83.3333333333333,4,2,5,60,0,0
56542,-100,4,2,5,60,0,0
57876,-71.4285714285714,4,2,5,70,0,0
59876,-71.4285714285714,4,2,5,60,0,0
60209,-71.4285714285714,4,2,5,70,0,0
60542,-100,4,2,5,60,0,0
61542,-200,4,2,5,60,0,0
62876,-133.333333333333,4,2,5,60,0,0
63209,-100,4,2,5,60,0,0
64209,-200,4,2,5,60,0,0
64709,-200,4,2,5,30,0,0
64792,-200,4,2,5,33,0,0
64876,-200,4,2,5,36,0,0
64959,-200,4,2,5,39,0,0
65042,-200,4,2,5,42,0,0
65126,-200,4,2,5,45,0,0
65209,-200,4,2,5,48,0,0
65292,-200,4,2,5,51,0,0
65376,-200,4,2,5,54,0,0
65459,-200,4,2,5,57,0,0
65542,-200,4,2,5,60,0,0
65626,-200,4,2,5,63,0,0
65709,-200,4,2,5,66,0,0
65792,-200,4,2,5,70,0,0
65876,-83.3333333333333,4,2,5,60,0,0
66542,-100,4,2,5,60,0,0
69709,-83.3333333333333,4,2,5,60,0,0
71209,-100,4,2,5,60,0,0
71876,-125,4,2,5,60,0,0
73876,-100,4,2,5,60,0,0
76042,-71.4285714285714,4,2,5,60,0,0
76542,-100,4,2,5,60,0,0
79209,-100,4,2,5,70,0,0
80542,-83.3333333333333,4,2,5,70,0,0
80876,-83.3333333333333,4,2,5,50,0,0
80959,-83.3333333333333,4,2,5,52,0,0
81042,-83.3333333333333,4,2,5,54,0,0
81126,-83.3333333333333,4,2,5,57,0,0
81209,-83.3333333333333,4,2,5,60,0,0
81292,-83.3333333333333,4,2,5,62,0,0
81376,-83.3333333333333,4,2,5,64,0,0
81459,-83.3333333333333,4,2,5,67,0,0
81542,-83.3333333333333,4,2,5,70,0,0
81626,-83.3333333333333,4,2,5,72,0,0
81709,-83.3333333333333,4,2,5,74,0,0
81792,-83.3333333333333,4,2,5,77,0,0
81876,-83.3333333333333,4,2,5,80,0,0
81917,-83.3333333333333,4,2,5,20,0,0
82542,-83.3333333333333,4,2,5,25,0,0
82876,-83.3333333333333,4,2,5,30,0,0
83209,-83.3333333333333,4,2,5,35,0,0
83542,-83.3333333333333,4,2,5,40,0,0
83876,-83.3333333333333,4,2,5,50,0,0
84209,-83.3333333333333,4,2,5,60,0,0
84542,-83.3333333333333,4,2,5,80,0,0
86542,-200,4,2,5,70,0,0
87209,-66.6666666666667,4,2,5,80,0,1
87709,-83.3333333333333,4,2,5,80,0,1
89876,-71.4285714285714,4,2,5,80,0,1
90376,-83.3333333333333,4,2,5,80,0,1
92542,-66.6666666666667,4,2,5,80,0,1
93376,-83.3333333333333,4,2,5,80,0,1
93876,-66.6666666666667,4,2,5,80,0,1
96209,-83.3333333333333,4,2,5,80,0,1
96542,-66.6666666666667,4,2,5,80,0,1
97792,-66.6666666666667,4,2,5,80,0,0
97876,-66.6666666666667,4,2,5,80,0,1
98376,-83.3333333333333,4,2,5,80,0,1
100542,-71.4285714285714,4,2,5,80,0,1
101042,-100,4,2,5,80,0,1
101709,-66.6666666666667,4,2,5,80,0,1
103709,-83.3333333333333,4,2,5,80,0,1
104542,-66.6666666666667,4,2,5,80,0,1
105042,-83.3333333333333,4,2,5,80,0,1
105876,-66.6666666666667,4,2,5,80,0,1
106126,-200,4,2,5,80,0,1
106542,-66.6666666666667,4,2,5,80,0,1
106792,-200,4,2,5,80,0,1
107209,-200,4,2,5,70,0,1
107876,-200,4,2,5,60,0,1
108542,-83.3333333333333,4,2,5,70,0,0
108626,-83.3333333333333,4,2,5,60,0,0
117709,-71.4285714285714,4,2,5,70,0,0
118209,-71.4285714285714,4,2,5,50,0,0
118542,-71.4285714285714,4,2,5,52,0,0
118626,-71.4285714285714,4,2,5,54,0,0
118709,-71.4285714285714,4,2,5,56,0,0
118792,-71.4285714285714,4,2,5,58,0,0
118876,-71.4285714285714,4,2,5,60,0,0
118959,-71.4285714285714,4,2,5,65,0,0
119042,-71.4285714285714,4,2,5,70,0,0
119126,-71.4285714285714,4,2,5,75,0,0
119209,-100,4,2,5,80,0,0
119542,-100,4,2,5,60,0,0
125542,-142.857142857143,4,2,5,60,0,0
127209,-71.4285714285714,4,2,5,70,0,0
128376,-250,4,2,5,70,0,0
129209,-125,4,2,5,60,0,0
129876,-83.3333333333333,4,2,5,60,0,0
130542,-100,4,2,5,60,0,0
132542,-83.3333333333333,4,2,5,60,0,0
133209,-100,4,2,5,60,0,0
135209,-83.3333333333333,4,2,5,60,0,0
136542,-100,4,2,5,60,0,0
137876,-71.4285714285714,4,2,5,70,0,0
139876,-71.4285714285714,4,2,5,60,0,0
140209,-71.4285714285714,4,2,5,70,0,0
140542,-166.666666666667,4,2,5,50,0,0
149542,-125,4,2,5,50,0,0
149876,-166.666666666667,4,2,5,50,0,0
150876,-100,4,2,5,50,0,0
151209,-100,4,2,5,60,0,0
156042,-71.4285714285714,4,2,5,60,0,0
156542,-100,4,2,5,60,0,0
159209,-100,4,2,5,70,0,0
160542,-83.3333333333333,4,2,5,70,0,0
160876,-83.3333333333333,4,2,5,50,0,0
160959,-83.3333333333333,4,2,5,52,0,0
161042,-83.3333333333333,4,2,5,54,0,0
161126,-83.3333333333333,4,2,5,57,0,0
161209,-83.3333333333333,4,2,5,60,0,0
161292,-83.3333333333333,4,2,5,62,0,0
161376,-83.3333333333333,4,2,5,64,0,0
161459,-83.3333333333333,4,2,5,67,0,0
161542,-83.3333333333333,4,2,5,70,0,0
161626,-83.3333333333333,4,2,5,72,0,0
161709,-83.3333333333333,4,2,5,74,0,0
161792,-83.3333333333333,4,2,5,77,0,0
161876,-83.3333333333333,4,2,5,80,0,0
161917,-83.3333333333333,4,2,5,20,0,0
162542,-83.3333333333333,4,2,5,25,0,0
162876,-83.3333333333333,4,2,5,30,0,0
163209,-83.3333333333333,4,2,5,35,0,0
163542,-83.3333333333333,4,2,5,40,0,0
163876,-83.3333333333333,4,2,5,50,0,0
164209,-83.3333333333333,4,2,5,60,0,0
164542,-83.3333333333333,4,2,5,80,0,0
166542,-200,4,2,5,70,0,0
167209,-66.6666666666667,4,2,5,80,0,1
167709,-83.3333333333333,4,2,5,80,0,1
172542,-66.6666666666667,4,2,5,80,0,1
173709,-83.3333333333333,4,2,5,80,0,1
173876,-66.6666666666667,4,2,5,80,0,1
176209,-83.3333333333333,4,2,5,80,0,1
176542,-66.6666666666667,4,2,5,80,0,1
177792,-66.6666666666667,4,2,5,80,0,0
177876,-66.6666666666667,4,2,5,80,0,1
178376,-83.3333333333333,4,2,5,80,0,1
180542,-71.4285714285714,4,2,5,80,0,1
181042,-100,4,2,5,80,0,1
181709,-66.6666666666667,4,2,5,80,0,1
183709,-83.3333333333333,4,2,5,80,0,1
184542,-66.6666666666667,4,2,5,80,0,1
185042,-83.3333333333333,4,2,5,80,0,1
185876,-66.6666666666667,4,2,5,80,0,1
186126,-200,4,2,5,80,0,1
186542,-66.6666666666667,4,2,5,80,0,1
186792,-200,4,2,5,80,0,1
187209,-200,4,2,5,70,0,1
187876,-200,4,2,5,60,0,1
188542,-142.857142857143,4,2,5,50,0,0
198376,-142.857142857143,4,2,5,55,0,0
198542,-142.857142857143,4,2,5,60,0,0
198876,-142.857142857143,4,2,5,65,0,0
199209,-100,4,2,5,70,0,0
201209,-83.3333333333333,4,2,5,70,0,0
204542,-100,4,2,5,70,0,0
208542,-83.3333333333333,4,2,5,70,0,0
216209,-71.4285714285714,4,2,5,70,0,0
216542,-71.4285714285714,4,2,5,60,0,0
216876,-71.4285714285714,4,2,5,70,0,0
217209,-71.4285714285714,4,2,5,80,0,0
217542,-71.4285714285714,4,2,5,90,0,0
217876,-66.6666666666667,4,2,5,90,0,0
218126,-200,4,2,5,90,0,0
218542,-66.6666666666667,4,2,5,90,0,0
218792,-200,4,2,5,90,0,0
219209,-66.6666666666667,4,2,5,90,0,0
219709,-200,4,2,5,90,0,0
220209,-200,4,2,5,40,0,0
220542,-166.666666666667,4,2,5,50,0,0
231209,-125,4,2,5,60,0,0
236542,-100,4,2,5,70,0,0
241917,-100,4,2,5,20,0,0
242876,-100,4,2,5,30,0,0
243209,-100,4,2,5,40,0,0
243542,-100,4,2,5,50,0,0
243876,-100,4,2,5,60,0,0
243917,-100,4,2,5,50,0,0
244209,-100,4,2,5,60,0,0
244251,-100,4,2,5,50,0,0
244542,-100,4,2,5,80,0,1
249876,-100,4,2,5,80,0,0
252459,-100,4,2,5,5,0,0
252542,-100,4,2,5,80,0,1
252626,-100,4,2,5,80,0,0
253542,-100,4,2,5,80,0,1
253626,-100,4,2,5,80,0,0
254542,-100,4,2,5,80,0,1
254626,-100,4,2,5,80,0,0
255209,-62.5,4,2,5,80,0,1
255709,-76.9230769230769,4,2,5,80,0,1
257876,-66.6666666666667,4,2,5,80,0,1
258376,-76.9230769230769,4,2,5,80,0,1
260542,-62.5,4,2,5,80,0,1
261376,-76.9230769230769,4,2,5,80,0,1
261876,-62.5,4,2,5,80,0,1
264209,-76.9230769230769,4,2,5,80,0,1
264542,-62.5,4,2,5,80,0,1
265792,-62.5,4,2,5,80,0,0
265876,-62.5,4,2,5,80,0,1
266542,-76.9230769230769,4,2,5,80,0,1
268542,-66.6666666666667,4,2,5,80,0,1
269042,-90.9090909090909,4,2,5,80,0,1
269709,-62.5,4,2,5,80,0,1
271709,-76.9230769230769,4,2,5,80,0,1
272542,-62.5,4,2,5,80,0,1
273042,-76.9230769230769,4,2,5,80,0,1
273876,-76.9230769230769,4,2,5,90,0,1
276459,-76.9230769230769,4,2,5,90,0,0
276542,-62.5,4,2,5,80,0,1
277042,-76.9230769230769,4,2,5,80,0,1
281876,-62.5,4,2,5,80,0,1
282876,-76.9230769230769,4,2,5,80,0,1
285876,-62.5,4,2,5,80,0,1
286376,-76.9230769230769,4,2,5,80,0,1
287126,-76.9230769230769,4,2,5,80,0,0
287209,-62.5,4,2,5,80,0,1
287709,-76.9230769230769,4,2,5,80,0,1
289876,-66.6666666666667,4,2,5,80,0,1
290376,-100,4,2,5,80,0,1
291042,-62.5,4,2,5,80,0,1
293042,-76.9230769230769,4,2,5,80,0,1
293876,-62.5,4,2,5,80,0,1
294376,-76.9230769230769,4,2,5,80,0,1
297542,-76.9230769230769,4,2,5,82,0,1
297626,-76.9230769230769,4,2,5,84,0,1
297709,-76.9230769230769,4,2,5,86,0,1
297792,-76.9230769230769,4,2,5,88,0,1
297876,-62.5,4,2,5,80,0,1
298209,-62.5,4,2,5,50,0,1
298376,-62.5,4,2,5,55,0,1
298542,-62.5,4,2,5,60,0,1
298709,-62.5,4,2,5,65,0,1
298876,-62.5,4,2,5,70,0,1
299042,-62.5,4,2,5,75,0,1
299209,-62.5,4,2,5,80,0,1
299542,-62.5,4,2,5,50,0,1
299709,-62.5,4,2,5,55,0,1
299876,-62.5,4,2,5,60,0,1
300042,-62.5,4,2,5,65,0,1
300209,-62.5,4,2,5,70,0,1
300376,-62.5,4,2,5,75,0,1
300542,-66.6666666666667,4,2,5,80,0,1
300792,-250,4,2,5,80,0,1
301209,-66.6666666666667,4,2,5,80,0,1
301459,-250,4,2,5,80,0,1
301876,-250,4,2,5,70,0,1
302542,-250,4,2,5,60,0,1
303209,-83.3333333333333,4,2,5,70,0,0
312376,-71.4285714285714,4,2,5,70,0,0
312876,-71.4285714285714,4,2,5,50,0,0
313209,-71.4285714285714,4,2,5,52,0,0
313293,-71.4285714285714,4,2,5,54,0,0
313376,-71.4285714285714,4,2,5,56,0,0
313459,-71.4285714285714,4,2,5,58,0,0
313543,-71.4285714285714,4,2,5,60,0,0
313626,-71.4285714285714,4,2,5,65,0,0
313709,-71.4285714285714,4,2,5,70,0,0
313793,-71.4285714285714,4,2,5,75,0,0
313876,-71.4285714285714,4,2,5,80,0,0
314126,-200,4,2,5,80,0,0
314542,-71.4285714285714,4,2,5,80,0,0
317709,-71.4285714285714,4,2,5,5,0,0

[Colours]
Combo1 : 255,128,0
Combo2 : 255,128,128
Combo3 : 255,128,64
Combo4 : 162,81,81

[HitObjects]
95,79,2730,5,2,0:2:0:0:
97,105,4911,5,2,0:2:0:0:
99,131,7093,5,2,0:2:0:0:
101,158,9275,5,2,0:2:0:0:
103,184,11457,5,2,0:2:0:0:
105,210,13639,5,2,0:2:0:0:
416,256,14730,1,2,0:2:0:0:
417,273,18002,5,2,0:2:0:0:
104,337,20184,5,2,0:2:0:0:
192,128,22326,5,2,0:2:0:0:
256,192,22460,12,0,24469,0:2:0:0:
128,32,24543,6,0,P|120:79|108:191,1,144,12|0,1:2|1:2,0:2:0:0:
0,288,25043,2,0,L|168:298,1,144,12|0,1:2|1:2,0:2:0:0:
256,384,25543,1,0,1:2:0:0:
256,384,25709,1,0,1:2:0:0:
448,352,25876,6,0,B|475:302|475:302|456:193,1,161.999995056153,14|0,0:2|0:2,0:2:0:0:
402,145,26209,2,0,L|282:137,1,107.999996704102,0|0,1:2|0:2,0:2:0:0:
190,281,26542,1,10,0:2:0:0:
190,281,26709,1,0,0:2:0:0:
378,233,26876,1,0,1:2:0:0:
378,233,27042,1,0,0:2:0:0:
233,370,27209,2,0,L|126:373,1,107.999996704102,8|0,0:2|0:2,0:2:0:0:
0,192,27542,5,2,1:2:0:0:
246,121,27709,1,2,0:2:0:0:
88,32,27876,1,10,0:2:0:0:
88,32,27959,1,0,1:2:0:0:
157,280,28126,1,2,0:2:0:0:
157,280,28209,1,0,1:2:0:0:
0,192,28376,1,2,0:2:0:0:
246,121,28542,2,0,P|308:108|380:101,1,107.999996704102,10|0,0:2|0:2,0:2:0:0:
512,224,28876,1,0,1:2:0:0:
288,384,29042,6,0,B|241:342|241:342|224:263|293:175,1,215.999993408203,2|0,0:2|0:2,0:2:0:0:
445,152,29542,1,0,1:2:0:0:
227,6,29709,5,2,1:2:0:0:
227,6,29792,1,0,1:2:0:0:
227,6,29876,1,8,1:2:0:0:
32,96,30042,6,0,L|28:151,1,53.9999983520508,2|0,0:2|0:2,0:2:0:0:
160,320,30209,1,2,1:2:0:0:
227,6,30376,6,0,L|223:59,1,53.9999983520508,2|0,0:2|0:2,0:2:0:0:
160,320,30542,1,10,0:2:0:0:
129,50,30709,6,0,L|125:103,1,53.9999983520508,2|0,0:2|0:2,0:2:0:0:
160,320,30876,1,2,1:2:0:0:
309,188,31042,1,2,1:2:0:0:
385,171,31126,1,0,1:2:0:0:
460,195,31209,6,0,B|469:248|469:248|497:281|497:281|510:348,1,161.999995056153,14|0,0:2|0:2,0:2:0:0:
509,344,31542,1,2,1:2:0:0:
288,384,31709,1,2,0:2:0:0:
288,384,31792,1,2,0:2:0:0:
288,384,31876,2,0,P|234:385|169:374,1,107.999996704102,8|0,0:2|0:2,0:2:0:0:
0,288,32209,2,0,P|54:289|119:278,1,107.999996704102,0|0,1:2|0:2,0:2:0:0:
228,198,32459,5,0,1:2:0:0:
228,198,32542,1,14,1:2:0:0:
99,149,32709,1,2,0:2:0:0:
147,20,32876,1,2,1:2:0:0:
276,69,33043,1,2,0:2:0:0:
294,61,33209,5,10,0:2:0:0:
139,3,33376,1,2,0:2:0:0:
81,157,33542,1,2,1:2:0:0:
236,215,33710,1,2,1:2:0:0:
212,162,33792,1,0,1:2:0:0:
188,109,33876,5,14,1:2:0:0:
108,320,34042,1,2,0:2:0:0:
33,50,34209,1,2,1:2:0:0:
193,301,34376,5,14,1:2:0:0:
448,244,34542,1,2,0:2:0:0:
89,234,34709,1,2,1:2:0:0:
320,0,34876,5,14,1:2:0:0:
297,368,35042,1,2,1:2:0:0:
375,383,35126,1,2,1:2:0:0:
451,363,35209,6,0,B|469:321|469:321|448:244,1,125.999996154785,12|0,0:2|0:2,0:2:0:0:
205,133,35542,1,0,1:2:0:0:
480,32,35709,1,12,0:2:0:0:
227,215,35876,5,14,2:2:0:0:
170,218,35959,1,8,2:2:0:0:
113,222,36042,1,8,2:2:0:0:
57,226,36126,1,8,2:2:0:0:
0,230,36209,5,6,0:3:0:0:
68,198,36292,5,4,0:3:0:0:
137,165,36376,5,4,0:3:0:0:
205,133,36459,5,4,0:3:0:0:
273,101,36542,6,0,L|352:92,1,62.9999980773926,14|0,0:2|0:2,0:2:0:0:
512,320,36709,1,8,0:2:0:0:
227,215,36876,1,0,1:2:0:0:
512,32,37042,6,0,L|432:23,1,62.9999980773926,14|0,0:2|0:2,0:2:0:0:
227,215,37209,1,8,0:2:0:0:
505,155,37376,1,0,1:2:0:0:
505,155,37459,1,0,1:2:0:0:
505,155,37542,6,0,L|425:164,1,62.9999980773926,6|0,0:2|0:2,0:2:0:0:
385,98,37709,6,0,L|410:326,1,229.499992996216,6|0,0:2|0:2,0:2:0:0:
403,344,39209,6,0,B|356:330|356:330|258:343,1,135,14|0,1:2|0:2,0:2:0:0:
270,341,39542,1,10,0:2:0:0:
128,384,39709,2,0,L|28:376,1,90,2|8,0:2|0:2,0:2:0:0:
0,224,40042,5,2,0:2:0:0:
0,224,40209,1,10,0:2:0:0:
0,224,40376,2,0,L|100:216,1,90,2|8,0:2|0:2,0:2:0:0:
224,288,40709,5,2,0:2:0:0:
224,288,40876,1,10,0:2:0:0:
224,288,41042,2,0,L|324:296,1,90,2|8,0:2|0:2,0:2:0:0:
512,285,41376,1,2,0:2:0:0:
410,233,41542,1,10,0:2:0:0:
415,347,41709,1,2,0:2:0:0:
507,171,41876,6,0,P|501:116|488:32,1,135,10|0,0:2|0:2,0:2:0:0:
488,37,42209,1,10,0:2:0:0:
319,0,42376,2,0,P|314:53|311:107,1,90,2|8,0:2|0:2,0:2:0:0:
410,233,42709,1,2,0:2:0:0:
410,233,42876,2,0,P|365:236|320:241,1,90,10|0,0:2|0:2,0:2:0:0:
129,299,43209,5,10,0:2:0:0:
79,213,43376,1,2,0:2:0:0:
236,179,43542,1,10,0:2:0:0:
226,278,43709,1,2,0:2:0:0:
146,138,43876,2,0,L|140:46,1,90,10|0,0:2|0:2,0:2:0:0:
123,40,44126,1,0,1:2:0:0:
105,32,44209,5,2,1:2:0:0:
38,72,44292,5,0,1:2:0:0:
7,143,44375,5,2,1:2:0:0:
21,219,44459,5,0,1:2:0:0:
76,274,44542,6,0,B|119:304|119:304|237:276,1,161.999995056153,14|0,1:2|0:2,0:2:0:0:
225,278,44876,1,10,0:2:0:0:
419,254,45042,2,0,L|513:261,1,90,2|8,0:2|0:2,0:2:0:0:
402,146,45376,1,2,0:2:0:0:
316,214,45542,1,10,0:2:0:0:
212,173,45709,1,2,0:2:0:0:
212,173,45876,6,0,P|206:129|210:85,1,90,8|0,0:2|0:2,0:2:0:0:
96,0,46209,2,0,L|299:9,1,180,8|8,0:2|0:2,0:2:0:0:
427,74,46709,1,2,0:2:0:0:
352,192,46876,1,10,0:2:0:0:
367,0,47042,1,2,0:2:0:0:
487,148,47209,6,0,P|495:210|503:292,1,135,10|0,0:2|0:2,0:2:0:0:
502,282,47542,1,10,0:2:0:0:
377,363,47709,1,2,3:2:0:0:
341,356,47792,1,0,3:2:0:0:
305,350,47876,1,8,3:2:0:0:
269,344,47959,1,0,3:2:0:0:
233,338,48042,2,0,L|178:344,1,45,2|0,3:2|3:2,0:2:0:0:
103,381,48209,2,0,L|70:336,1,45,10|0,3:2|3:2,0:2:0:0:
0,289,48376,2,0,L|22:238,1,45,2|0,3:2|3:2,0:2:0:0:
28,153,48542,6,0,L|164:138,1,126,2|0,1:2|0:2,0:2:0:0:
202,194,49209,6,0,L|198:211,1,18,2|0,1:2|0:2,0:2:0:0:
269,233,49292,6,0,L|265:250,1,18,2|0,1:2|0:2,0:2:0:0:
345,248,49376,6,0,L|342:266,1,18,2|0,1:2|0:2,0:2:0:0:
423,249,49459,6,0,L|419:266,1,18,2|0,1:2|0:2,0:2:0:0:
477,192,49542,6,0,L|480:174,1,18,2|0,1:2|0:2,0:2:0:0:
410,153,49625,6,0,L|413:135,1,18,2|0,1:2|0:2,0:2:0:0:
333,137,49709,6,0,L|336:119,1,18,2|0,1:2|0:2,0:2:0:0:
256,137,49792,6,0,L|259:119,1,18,2|0,1:2|0:2,0:2:0:0:
205,198,49876,6,0,B|178:273|178:273|200:362,1,161.999995056153,14|0,1:2|0:2,0:2:0:0:
197,352,50209,2,0,L|141:347,1,53.9999983520508,2|0,1:2|0:2,0:2:0:0:
32,384,50376,5,2,0:2:0:0:
32,384,50459,1,2,0:2:0:0:
32,384,50542,2,0,L|37:286,1,90,10|2,0:2|0:2,0:2:0:0:
36,294,50792,1,2,0:2:0:0:
36,294,50876,2,0,L|94:289,1,45,2|0,1:2|0:2,0:2:0:0:
192,224,51042,2,0,P|198:173|194:127,1,90,2|8,0:2|0:2,0:2:0:0:
36,12,51376,5,2,0:2:0:0:
36,12,51459,1,2,0:2:0:0:
36,12,51542,2,0,L|41:110,1,90,2|2,1:2|0:2,0:2:0:0:
40,101,51792,1,2,0:2:0:0:
40,101,51876,2,0,L|98:106,1,45,10|0,0:2|0:2,0:2:0:0:
199,4,52042,1,2,0:2:0:0:
199,4,52209,2,0,L|243:0,1,45,2|0,1:2|0:2,0:2:0:0:
319,51,52376,2,0,L|363:47,1,45,2|0,0:2|0:2,0:2:0:0:
495,66,52542,6,0,L|498:121,1,53.9999983520508,10|0,0:2|0:2,0:2:0:0:
319,179,52708,2,0,L|323:240,1,53.9999983520508,2|0,0:2|0:2,0:2:0:0:
480,286,52876,2,0,L|483:342,1,53.9999983520508,2|0,1:2|0:2,0:2:0:0:
352,384,53042,5,2,0:2:0:0:
352,384,53126,1,2,0:2:0:0:
352,384,53209,2,0,L|255:380,1,90,10|2,0:2|0:2,0:2:0:0:
262,380,53459,1,2,0:2:0:0:
262,380,53542,2,0,L|254:328,1,45,2|0,1:2|0:2,0:2:0:0:
244,234,53709,1,2,0:2:0:0:
134,365,53876,6,0,P|74:370|-16:380,1,135,10|0,0:2|0:2,0:2:0:0:
0,378,54209,2,0,L|1:330,1,45,2|0,1:2|0:2,0:2:0:0:
12,171,54376,1,2,0:2:0:0:
12,171,54459,1,2,0:2:0:0:
12,171,54542,1,10,0:2:0:0:
110,270,54709,1,2,0:2:0:0:
244,234,54876,1,2,1:2:0:0:
146,135,55042,1,2,1:2:0:0:
128,203,55126,1,0,1:2:0:0:
110,270,55209,6,0,B|119:324|119:324|162:358|245:346,1,161.999995056153,14|0,1:2|0:2,0:2:0:0:
220,348,55542,1,2,1:2:0:0:
384,384,55709,1,2,0:2:0:0:
384,384,55792,1,2,0:2:0:0:
384,384,55876,1,10,0:2:0:0:
244,234,56042,1,2,0:2:0:0:
416,288,56209,1,2,1:2:0:0:
480,128,56376,5,0,0:2:0:0:
480,128,56459,1,2,0:2:0:0:
480,128,56542,2,0,L|374:135,1,90,10|2,0:2|0:2,0:2:0:0:
390,133,56792,1,2,0:2:0:0:
390,133,56876,2,0,L|375:37,1,90,2|2,1:2|0:2,0:2:0:0:
376,45,57126,1,2,0:2:0:0:
376,45,57209,1,10,0:2:0:0:
224,0,57376,6,0,L|228:55,1,45,2|0,0:2|0:2,0:2:0:0:
288,128,57542,2,0,L|284:183,1,45,2|0,1:2|0:2,0:2:0:0:
178,368,57709,1,2,1:2:0:0:
149,294,57792,1,0,1:2:0:0:
181,222,57876,6,0,B|245:204|245:204|374:224,1,188.999994232178,6|0,1:2|0:2,0:2:0:0:
480,320,58209,1,2,1:2:0:0:
408,352,58293,1,0,1:2:0:0:
334,323,58376,6,0,B|310:264|310:264|327:88,1,188.999994232178,6|0,1:2|0:2,0:2:0:0:
366,32,58709,2,0,L|437:29,1,62.9999980773926,2|0,1:2|1:2,0:2:0:0:
512,192,58876,2,0,L|449:194,1,62.9999980773926,2|0,1:2|1:2,0:2:0:0:
264,67,59042,6,0,B|198:55|198:55|115:123|160:227,1,251.999992309571,6|0,1:2|0:2,0:2:0:0:
32,384,59542,2,0,P|40:317|38:255,1,125.999996154785,6|0,1:2|0:2,0:2:0:0:
0,64,59876,1,10,0:2:0:0:
33,46,59959,1,8,0:2:0:0:
70,45,60042,1,8,0:2:0:0:
105,57,60126,1,8,0:2:0:0:
133,82,60209,5,2,1:2:0:0:
182,131,60292,5,0,1:2:0:0:
252,156,60376,5,0,1:2:0:0:
333,143,60459,5,0,1:2:0:0:
399,86,60542,6,0,P|402:31|397:-22,1,90,14|0,1:2|0:2,0:2:0:0:
105,57,60876,1,2,0:2:0:0:
320,288,61042,6,0,L|427:293,1,90,14|0,1:2|0:2,0:2:0:0:
277,47,61376,1,2,0:2:0:0:
64,224,61542,6,0,P|57:276|51:358,1,135,14|0,1:2|0:2,0:2:0:0:
144,384,62209,1,0,0:2:0:0:
221,313,62376,1,0,0:2:0:0:
242,317,62459,1,0,0:2:0:0:
263,321,62542,1,0,0:2:0:0:
285,325,62626,1,0,0:2:0:0:
306,329,62709,1,0,0:2:0:0:
327,334,62792,1,0,0:2:0:0:
349,339,62876,2,0,L|418:333,1,67.5,0|0,0:2|0:2,0:2:0:0:
512,87,63209,6,0,P|457:84|404:89,1,90,14|0,1:2|0:2,0:2:0:0:
192,192,63543,1,2,0:2:0:0:
477,265,63709,6,0,L|470:175,1,90,14|0,1:2|0:2,0:2:0:0:
288,0,64042,1,2,0:2:0:0:
247,291,64209,6,0,P|201:295|105:308,1,135,14|0,1:2|1:2,0:2:0:0:
107,316,64792,1,0,1:2:0:0:
106,331,64876,1,0,1:2:0:0:
114,349,64959,1,0,1:2:0:0:
135,361,65042,1,0,1:2:0:0:
164,361,65126,1,0,1:2:0:0:
189,338,65209,1,0,1:2:0:0:
201,302,65292,1,0,1:2:0:0:
195,259,65376,1,0,1:2:0:0:
162,225,65459,1,0,1:2:0:0:
110,219,65542,1,0,1:2:0:0:
57,199,65626,1,0,1:2:0:0:
26,147,65709,1,0,1:2:0:0:
38,82,65792,1,0,1:2:0:0:
96,35,65876,6,0,P|170:37|272:45,1,161.999995056153,12|0,0:2|0:2,0:2:0:0:
257,43,66209,1,2,1:2:0:0:
448,128,66376,1,2,0:2:0:0:
448,128,66459,1,2,0:2:0:0:
448,128,66542,2,0,L|458:233,1,90,8|0,0:0|0:2,0:2:0:0:
240,240,66876,2,0,L|248:150,1,90,0|0,1:2|0:2,0:2:0:0:
416,352,67209,2,0,L|314:362,1,90,8|0,0:0|0:2,0:2:0:0:
20,366,67542,6,0,P|-4:319|13:259,1,90,2|0,1:2|0:2,0:2:0:0:
240,240,67876,2,0,P|211:284|150:299,1,90,10|0,0:2|0:2,0:2:0:0:
21,113,68209,2,0,P|73:115|117:160,1,90,2|0,1:2|0:2,0:2:0:0:
240,240,68459,1,0,1:2:0:0:
240,240,68542,6,0,B|308:232|308:232|344:251|344:251|441:242,1,180,14|2,1:2|1:2,0:2:0:0:
512,96,69042,1,2,0:2:0:0:
512,96,69126,1,2,0:2:0:0:
512,96,69209,2,0,L|412:102,1,90,8|0,0:2|0:2,0:2:0:0:
128,0,69542,1,0,1:2:0:0:
384,0,69709,6,0,L|372:184,1,161.999995056153,12|0,1:2|0:2,0:2:0:0:
373,161,70042,1,8,0:2:0:0:
298,362,70209,1,0,1:2:0:0:
192,224,70376,1,8,0:2:0:0:
216,213,70459,1,8,0:2:0:0:
242,209,70542,1,8,0:2:0:0:
269,215,70625,1,8,0:2:0:0:
291,229,70709,5,0,1:2:0:0:
317,247,70792,5,0,1:2:0:0:
358,260,70876,5,0,1:2:0:0:
411,254,70959,5,0,1:2:0:0:
463,216,71042,5,0,1:2:0:0:
485,143,71126,5,0,1:2:0:0:
451,63,71209,6,0,B|388:57|388:57|346:77|346:77|258:65,1,180,14|0,1:2|0:2,0:2:0:0:
128,0,71709,1,10,0:2:0:0:
0,96,71876,2,0,L|94:90,1,72,0|0,1:2|0:2,0:2:0:0:
224,192,72209,1,10,0:2:0:0:
224,192,72376,2,0,L|77:182,1,144,0|0,1:2|1:2,0:2:0:0:
160,352,72876,2,0,L|168:258,1,72,10|0,0:2|0:2,0:2:0:0:
64,384,73209,1,0,1:2:0:0:
256,352,73376,1,0,0:2:0:0:
256,352,73459,1,0,0:2:0:0:
256,352,73542,2,0,L|350:358,1,72,8|0,0:2|0:2,0:2:0:0:
480,384,73876,6,0,B|448:337|448:337|470:188,1,180,14|0,1:2|0:2,0:2:0:0:
512,64,74376,1,10,0:2:0:0:
352,192,74542,2,0,L|258:198,1,90,0|0,1:2|0:2,0:2:0:0:
64,128,74876,1,10,0:2:0:0:
215,298,75042,2,0,L|226:114,1,180,0|0,1:2|1:2,0:2:0:0:
19,237,75542,2,0,L|113:243,1,90,8|0,0:2|0:2,0:2:0:0:
322,354,75876,1,0,1:2:0:0:
322,354,76042,6,0,L|326:291,1,62.9999980773926,14|0,0:2|0:2,0:2:0:0:
468,210,76209,2,0,L|463:272,1,62.9999980773926,10|0,0:2|0:2,0:2:0:0:
328,128,76376,2,0,L|333:46,1,62.9999980773926,10|0,0:2|0:2,0:2:0:0:
109,243,76542,5,6,1:2:0:0:
80,337,76709,1,2,0:2:0:0:
175,366,76876,1,0,1:2:0:0:
203,271,77042,1,2,0:2:0:0:
14,215,77209,5,2,0:2:0:0:
70,26,77376,1,2,0:2:0:0:
260,82,77542,1,2,1:2:0:0:
203,271,77709,1,2,0:2:0:0:
137,149,77876,5,2,0:2:0:0:
137,149,77959,1,2,0:2:0:0:
137,149,78042,1,2,0:2:0:0:
326,205,78209,1,2,1:2:0:0:
383,16,78376,2,0,L|281:23,1,90,2|0,0:2|0:2,0:2:0:0:
232,177,78709,5,2,0:2:0:0:
421,233,78876,1,2,1:2:0:0:
232,177,79042,1,2,0:2:0:0:
420,109,79209,5,14,0:2:0:0:
291,335,79376,1,2,0:2:0:0:
487,177,79542,1,10,0:2:0:0:
224,267,79709,1,2,0:2:0:0:
426,97,79876,5,14,0:2:0:0:
284,346,80043,1,2,0:2:0:0:
500,172,80209,1,10,0:2:0:0:
210,271,80376,1,2,0:2:0:0:
353,23,80542,6,0,L|468:15,1,107.999996704102,12|0,0:2|0:2,0:2:0:0:
500,172,80876,1,10,0:2:0:0:
501,193,80959,1,2,0:2:0:0:
496,215,81042,1,2,0:2:0:0:
477,242,81126,1,2,0:2:0:0:
440,251,81209,1,10,0:2:0:0:
397,242,81292,1,2,0:2:0:0:
361,208,81376,1,2,0:2:0:0:
331,163,81459,1,2,0:2:0:0:
273,122,81542,5,10,1:2:0:0:
198,108,81626,5,2,1:2:0:0:
120,130,81709,5,2,1:2:0:0:
62,190,81792,5,2,1:2:0:0:
41,274,81876,6,0,L|37:312,38,26.9999991760254,14|0|0|0|0|0|0|0|0|0|0|0|0|0|0|0|0|0|0|0|0|0|0|0|0|0|0|0|0|0|0|0|0|0|0|0|0|0|0,1:2|0:2|0:2|0:2|0:2|0:2|0:2|0:2|0:2|0:2|0:2|0:2|0:2|0:2|0:2|0:2|0:2|0:2|0:2|0:2|0:2|0:2|0:2|0:2|0:2|0:2|0:2|0:2|0:2|0:2|0:2|0:2|0:2|0:2|0:2|0:2|0:2|0:2|0:2,0:2:0:0:
95,362,83542,5,0,1:2:0:0:
111,361,83626,1,0,1:2:0:0:
127,360,83709,1,0,1:2:0:0:
143,359,83792,1,0,1:2:0:0:
159,358,83876,5,2,1:2:0:0:
182,309,83959,1,0,1:2:0:0:
188,256,84042,1,0,1:2:0:0:
173,204,84125,1,0,1:2:0:0:
142,161,84209,5,2,1:2:0:0:
131,234,84292,1,0,1:2:0:0:
170,297,84375,1,0,1:2:0:0:
241,320,84458,1,0,1:2:0:0:
309,292,84542,5,14,0:2:0:0:
160,0,84709,1,0,1:2:0:0:
96,352,84876,1,0,1:2:0:0:
299,62,85042,5,14,0:2:0:0:
448,354,85209,1,0,1:2:0:0:
512,2,85376,1,0,1:2:0:0:
117,68,85542,5,14,0:2:0:0:
409,217,85709,1,0,1:2:0:0:
57,281,85876,1,0,1:2:0:0:
349,132,86042,5,14,0:2:0:0:
57,281,86209,1,0,1:2:0:0:
409,345,86376,1,0,1:2:0:0:
176,144,86542,6,0,P|169:209|162:318,1,157.5,14|0,1:2|0:2,0:2:0:0:
61,333,87209,6,0,B|156:317|156:317|208:359|208:359|325:352,1,270.000010299683,14|0,1:2|1:2,0:2:0:0:
491,272,87709,1,2,0:2:0:0:
496,241,87792,1,2,0:2:0:0:
499,215,87876,2,0,L|488:100,1,107.999996704102,8|2,0:2|0:2,0:2:0:0:
488,107,88126,1,2,0:2:0:0:
488,107,88209,1,0,1:2:0:0:
288,256,88376,6,0,P|229:266|159:274,1,107.999996704102,2|8,0:2|0:2,0:2:0:0:
0,96,88709,1,2,0:2:0:0:
196,0,88876,2,0,P|206:59|214:129,1,107.999996704102,2|0,1:2|0:2,0:2:0:0:
0,352,89209,6,0,B|48:338|48:338|127:358,1,107.999996704102,10|0,0:2|0:2,0:2:0:0:
285,271,89459,2,0,B|236:285|236:285|181:271,1,107.999996704102,2|0,0:2|0:2,0:2:0:0:
95,207,89709,1,2,0:2:0:0:
352,64,89876,6,0,P|425:43|476:149,1,188.999994232178,10|0,0:2|0:2,0:2:0:0:
482,125,90209,1,2,1:2:0:0:
384,352,90376,2,0,L|375:232,1,107.999996704102,2|8,0:2|0:2,0:2:0:0:
128,192,90709,1,2,3:2:0:0:
101,187,90792,1,0,1:2:0:0:
74,182,90876,1,0,1:2:0:0:
256,0,91042,6,0,L|239:216,1,215.999993408203,10|0,1:2|0:2,0:2:0:0:
117,337,91542,1,0,1:2:0:0:
320,384,91709,6,0,L|324:329,1,53.9999983520508,2|0,0:2|0:2,0:2:0:0:
336,168,91876,1,2,1:2:0:0:
480,352,92042,6,0,L|484:297,1,53.9999983520508,2|0,0:2|0:2,0:2:0:0:
496,136,92209,1,2,1:2:0:0:
288,0,92376,1,2,1:2:0:0:
209,11,92459,1,0,1:2:0:0:
161,75,92542,6,0,B|139:142|139:142|162:286,1,202.500007724762,14|0,1:2|0:2,0:2:0:0:
159,272,92876,1,2,1:2:0:0:
384,224,93042,1,2,3:2:0:0:
411,219,93126,1,0,1:2:0:0:
438,214,93209,1,8,1:2:0:0:
161,75,93376,5,2,1:2:0:0:
465,209,93542,1,2,1:2:0:0:
192,384,93709,2,0,L|101:389,1,53.9999983520508,2|0,1:2|1:2,0:2:0:0:
392,100,93876,6,0,B|414:167|414:167|399:221|399:221|427:304,1,202.500007724762,14|0,1:2|0:2,0:2:0:0:
423,292,94209,1,2,1:2:0:0:
156,247,94376,1,2,0:2:0:0:
352,384,94542,1,10,0:2:0:0:
299,114,94709,1,2,0:2:0:0:
192,352,94876,1,2,1:2:0:0:
32,192,95042,1,0,1:2:0:0:
20,112,95125,1,0,1:2:0:0:
49,38,95209,5,14,1:2:0:0:
416,128,95376,1,10,1:2:0:0:
49,38,95542,1,10,1:2:0:0:
192,352,95709,1,14,1:2:0:0:
192,352,96042,1,8,1:2:0:0:
0,256,96209,2,0,L|132:264,1,107.999996704102,14|0,1:2|0:2,0:2:0:0:
416,384,96542,6,0,B|391:329|391:329|416:165,1,202.500007724762,14|0,1:2|0:2,0:2:0:0:
455,146,96876,2,0,P|415:149|363:147,1,67.5000025749208,14|0,1:2|0:2,0:2:0:0:
224,0,97042,2,0,P|221:40|223:92,1,67.5000025749208,14|0,1:2|0:2,0:2:0:0:
153,291,97209,5,0,1:2:0:0:
135,334,97292,1,0,1:2:0:0:
101,366,97375,1,0,1:2:0:0:
56,380,97458,1,0,1:2:0:0:
10,373,97542,5,4,0:3:0:0:
3,298,97626,5,4,0:3:0:0:
31,222,97709,5,4,0:3:0:0:
93,160,97792,5,4,0:3:0:0:
183,131,97876,6,0,B|219:124|258:125|258:125|295:241|197:323,1,270.000010299683,14|0,1:2|1:2,0:2:0:0:
9,138,98376,1,2,0:2:0:0:
5,111,98459,1,2,0:2:0:0:
3,82,98542,2,0,L|119:71,1,107.999996704102,8|2,0:2|0:2,0:2:0:0:
110,71,98792,1,2,0:2:0:0:
110,71,98876,1,0,1:2:0:0:
320,160,99042,6,0,P|391:167|437:164,1,107.999996704102,2|8,0:2|0:2,0:2:0:0:
224,0,99376,1,2,0:2:0:0:
128,224,99542,2,0,P|121:295|124:341,1,107.999996704102,2|0,1:2|0:2,0:2:0:0:
427,373,99876,6,0,B|413:325|413:325|433:246,1,107.999996704102,10|0,0:2|0:2,0:2:0:0:
512,160,100126,2,0,B|463:174|463:174|408:160,1,107.999996704102,2|0,0:2|0:2,0:2:0:0:
304,80,100376,1,2,0:2:0:0:
194,366,100542,6,0,L|53:372,1,125.999996154785,14|8,0:2|0:2,0:2:0:0:
43,351,100792,1,8,0:2:0:0:
18,330,100876,2,0,L|11:246,1,62.9999980773926,10|0,0:2|0:2,0:2:0:0:
95,25,101042,6,0,L|88:88,1,45,2|0,1:2|0:2,0:2:0:0:
416,357,101376,2,0,L|422:304,1,45,2|0,1:2|0:2,0:2:0:0:
224,32,101709,6,0,L|246:236,1,202.500007724762,14|0,1:2|0:2,0:2:0:0:
245,233,102042,1,8,0:2:0:0:
473,159,102209,5,2,1:2:0:0:
439,155,102292,1,0,3:2:0:0:
406,151,102375,1,0,3:2:0:0:
372,147,102458,1,0,3:2:0:0:
317,86,102542,5,2,1:2:0:0:
283,90,102625,1,0,3:2:0:0:
250,94,102708,1,0,3:2:0:0:
216,98,102791,1,0,3:2:0:0:
161,37,102876,5,2,1:2:0:0:
133,96,102959,1,0,1:2:0:0:
157,157,103042,1,0,1:2:0:0:
218,180,103125,1,0,1:2:0:0:
277,151,103209,6,0,L|70:157,1,202.500007724762,14|0,1:2|0:2,0:2:0:0:
75,156,103542,1,2,1:2:0:0:
0,352,103709,2,0,P|79:345|135:344,1,107.999996704102,2|8,0:2|0:2,0:2:0:0:
314,377,104042,1,2,3:2:0:0:
367,382,104125,1,0,1:2:0:0:
421,384,104208,1,0,1:2:0:0:
512,256,104376,1,0,1:2:0:0:
261,372,104542,6,0,B|229:316|229:316|245:168,1,202.500007724762,14|0,1:2|0:2,0:2:0:0:
243,178,104876,1,2,1:2:0:0:
480,64,105042,2,0,P|426:61|372:56,1,107.999996704102,2|8,0:2|0:2,0:2:0:0:
64,32,105376,2,0,P|117:26|171:24,1,107.999996704102,2|0,0:2|1:2,0:2:0:0:
416,160,105709,1,0,1:2:0:0:
445,235,105792,1,0,1:2:0:0:
433,315,105876,6,0,L|288:328,1,135.000005149842,14|0,1:2|0:2,0:2:0:0:
258,375,106126,6,0,P|261:315|255:272,1,90,14|0,1:2|1:2,0:2:0:0:
58,129,106542,6,0,L|203:142,1,135.000005149842,14|0,1:2|0:2,0:2:0:0:
233,189,106792,6,0,P|230:129|236:86,1,90,14|0,1:2|1:2,0:2:0:0:
293,14,107209,5,14,1:2:0:0:
320,192,107431,1,10,0:2:0:0:
347,370,107654,1,10,0:2:0:0:
488,258,107876,5,14,1:2:0:0:
334,281,108098,1,10,0:2:0:0:
179,304,108320,1,10,0:2:0:0:
19,327,108542,6,0,B|-8:277|-8:277|11:168,1,161.999995056153,14|0,1:2|0:2,0:2:0:0:
65,120,108875,2,0,L|185:112,1,107.999996704102,0|0,1:2|0:2,0:2:0:0:
340,164,109209,1,10,0:2:0:0:
221,27,109376,1,2,0:2:0:0:
185,224,109542,1,2,1:2:0:0:
382,260,109709,1,2,0:2:0:0:
382,260,109792,1,2,0:2:0:0:
382,260,109876,1,8,0:2:0:0:
173,113,110042,5,2,0:2:0:0:
288,322,110209,1,2,1:2:0:0:
281,96,110376,1,2,0:2:0:0:
115,319,110542,1,10,0:2:0:0:
163,95,110709,1,2,0:2:0:0:
301,338,110876,2,0,L|434:341,1,107.999996704102,2|0,1:2|0:2,0:2:0:0:
490,211,111209,6,0,L|422:218,1,53.9999983520508,10|0,0:2|0:2,0:2:0:0:
275,233,111376,1,2,0:2:0:0:
501,121,111542,6,0,L|433:128,1,53.9999983520508,2|0,1:2|0:2,0:2:0:0:
286,143,111709,1,2,0:2:0:0:
512,32,111876,6,0,L|458:37,1,53.9999983520508,10|0,0:2|0:2,0:2:0:0:
350,58,112042,2,0,L|297:53,1,53.9999983520508,2|0,0:2|0:2,0:2:0:0:
188,31,112209,2,0,L|134:36,1,53.9999983520508,2|0,1:2|0:2,0:2:0:0:
26,57,112376,2,0,L|18:185,1,107.999996704102,2|8,0:2|0:2,0:2:0:0:
32,384,112709,2,0,L|85:378,1,53.9999983520508,2|0,0:2|0:2,0:2:0:0:
194,358,112876,6,0,L|202:230,1,107.999996704102,2|0,1:2|0:2,0:2:0:0:
112,112,113209,2,0,L|165:117,1,53.9999983520508,10|0,0:2|0:2,0:2:0:0:
273,138,113375,2,0,L|326:132,1,53.9999983520508,2|0,0:2|0:2,0:2:0:0:
436,111,113542,2,0,L|489:116,1,53.9999983520508,2|0,1:2|0:2,0:2:0:0:
512,273,113709,1,2,1:2:0:0:
484,339,113792,1,0,1:2:0:0:
414,349,113876,5,14,1:2:0:0:
160,273,114042,1,2,0:2:0:0:
353,92,114209,1,2,1:2:0:0:
265,384,114376,1,2,0:2:0:0:
204,126,114542,1,10,0:2:0:0:
457,203,114709,1,2,0:2:0:0:
160,273,114876,1,2,1:2:0:0:
414,349,115042,1,2,1:2:0:0:
484,339,115126,1,0,1:2:0:0:
512,273,115209,6,0,L|517:164,1,107.999996704102,12|2,1:2|0:2,0:2:0:0:
384,0,115542,1,2,1:2:0:0:
160,32,115709,1,2,0:2:0:0:
454,83,115876,1,10,0:2:0:0:
263,313,116042,1,2,0:2:0:0:
308,16,116209,1,2,1:2:0:0:
196,348,116376,1,2,1:2:0:0:
122,355,116459,1,0,1:2:0:0:
50,333,116542,5,14,1:2:0:0:
15,18,116709,1,2,0:2:0:0:
122,355,116876,1,10,0:2:0:0:
86,39,117043,1,2,0:2:0:0:
196,348,117209,1,10,0:2:0:0:
160,32,117376,1,2,0:2:0:0:
263,313,117542,1,10,0:2:0:0:
512,96,117709,6,0,B|425:81|425:81|374:113|374:113|264:95,1,251.999992309571,14|0,0:2|0:2,0:2:0:0:
83,189,118209,5,2,1:2:0:0:
114,192,118292,1,0,1:2:0:0:
145,195,118376,1,0,1:2:0:0:
176,199,118459,1,0,1:2:0:0:
207,203,118542,5,2,1:2:0:0:
166,162,118626,1,0,1:2:0:0:
125,122,118709,1,0,1:2:0:0:
85,82,118792,1,0,1:2:0:0:
44,41,118876,5,2,1:2:0:0:
36,122,118959,5,0,1:2:0:0:
28,203,119042,5,0,1:2:0:0:
19,285,119126,5,0,1:2:0:0:
15,370,119209,5,14,1:2:0:0:
15,370,119542,5,10,0:2:0:0:
44,41,119709,1,14,1:2:0:0:
192,352,120209,6,0,L|294:358,1,90,2|0,0:2|0:2,0:2:0:0:
480,224,120709,2,0,L|378:230,1,90,2|0,0:2|0:2,0:2:0:0:
96,128,121209,2,0,L|198:134,1,90,2|0,0:2|0:2,0:2:0:0:
384,96,121542,1,0,0:2:0:0:
384,96,121626,1,0,0:2:0:0:
384,96,121709,1,2,0:2:0:0:
288,0,121876,5,2,1:2:0:0:
284,34,121959,1,0,1:2:0:0:
281,69,122042,1,0,1:2:0:0:
278,105,122126,1,0,1:2:0:0:
275,140,122209,1,0,1:2:0:0:
493,52,122376,1,2,1:2:0:0:
446,308,122876,1,2,0:2:0:0:
423,311,122959,1,0,0:2:0:0:
400,314,123042,1,0,0:2:0:0:
377,317,123126,1,0,0:2:0:0:
354,320,123209,5,2,0:2:0:0:
160,256,123376,1,10,0:2:0:0:
416,224,123542,1,2,1:2:0:0:
248,352,123709,1,2,3:2:0:0:
251,329,123792,1,0,3:2:0:0:
254,306,123875,1,0,3:2:0:0:
257,283,123959,1,0,3:2:0:0:
261,258,124042,6,0,L|255:196,1,45,10|0,3:2|3:2,3:2:0:0:
160,96,124209,2,0,L|155:140,1,45,10|0,3:2|3:2,3:2:0:0:
59,258,124376,2,0,L|54:213,1,45,10|0,3:2|3:2,3:2:0:0:
41,38,124542,5,14,1:2:0:0:
41,38,124876,1,8,0:2:0:0:
256,0,125042,2,0,L|366:4,1,90,4|0,1:2|0:2,0:2:0:0:
480,96,125542,6,0,L|487:168,1,62.9999980773926,2|0,0:2|0:2,0:2:0:0:
326,150,125876,2,0,L|388:143,1,62.9999980773926,2|0,0:2|0:2,0:2:0:0:
512,256,126209,2,0,L|386:268,1,125.999996154785,2|0,0:2|0:2,0:2:0:0:
128,352,126709,1,2,0:2:0:0:
256,224,126876,1,2,0:2:0:0:
352,384,127042,1,2,0:2:0:0:
128,240,127209,6,0,B|104:184|104:184|126:37,1,188.999994232178,14|0,1:2|0:2,0:2:0:0:
122,57,127542,1,10,0:2:0:0:
256,320,127709,6,0,B|312:344|312:344|459:322,1,188.999994232178,14|0,1:2|0:2,0:2:0:0:
438,325,128042,1,10,0:2:0:0:
512,96,128209,1,10,0:2:0:0:
224,192,128376,6,0,P|182:196|54:210,1,162,6|0,1:2|0:2,0:2:0:0:
10,262,129209,6,0,L|-10:260,1,18,2|0,1:2|0:2,0:2:0:0:
53,329,129292,6,0,L|36:341,1,18,2|0,1:2|0:2,0:2:0:0:
127,358,129376,6,0,L|125:378,1,18,2|0,1:2|0:2,0:2:0:0:
204,337,129459,6,0,L|216:352,1,18,2|0,1:2|0:2,0:2:0:0:
256,276,129542,6,0,L|236:263,1,18,2|0,1:2|0:2,0:2:0:0:
307,216,129626,6,0,L|293:199,1,18,2|0,1:2|0:2,0:2:0:0:
384,195,129709,6,0,L|385:174,1,18,2|0,1:2|0:2,0:2:0:0:
458,224,129792,6,0,L|473:210,1,18,2|0,1:2|0:2,0:2:0:0:
505,295,129876,6,0,B|501:128,1,161.999995056153,14|0,1:2|0:2,0:2:0:0:
501,133,130209,2,0,L|448:126,1,53.9999983520508,2|0,1:2|0:2,0:2:0:0:
316,23,130376,5,2,0:2:0:0:
316,23,130459,1,2,0:2:0:0:
316,23,130542,2,0,L|200:20,1,90,10|2,0:2|0:2,0:2:0:0:
226,20,130792,1,2,0:2:0:0:
226,20,130876,2,0,L|219:74,1,45,2|0,1:2|0:2,0:2:0:0:
288,192,131042,2,0,P|295:239|295:308,1,90,2|8,0:2|0:2,0:2:0:0:
164,372,131376,5,2,0:2:0:0:
164,372,131542,2,0,L|48:375,1,90,2|2,1:2|0:2,0:2:0:0:
74,374,131792,1,2,0:2:0:0:
74,374,131876,2,0,L|66:320,1,45,10|0,0:2|0:2,0:2:0:0:
0,192,132042,1,2,0:2:0:0:
0,192,132209,2,0,L|44:188,1,45,2|0,1:2|0:2,0:2:0:0:
120,239,132376,2,0,L|164:235,1,45,2|0,0:2|0:2,0:2:0:0:
242,339,132542,6,0,L|240:286,1,53.9999983520508,10|0,0:2|0:2,0:2:0:0:
418,226,132708,2,0,L|414:172,1,53.9999983520508,2|0,0:2|0:2,0:2:0:0:
257,119,132876,2,0,L|254:65,1,53.9999983520508,2|0,1:2|0:2,0:2:0:0:
395,10,133042,5,2,0:2:0:0:
395,10,133126,1,2,0:2:0:0:
395,10,133209,2,0,L|496:14,1,90,10|2,0:2|0:2,0:2:0:0:
484,13,133459,1,2,0:2:0:0:
484,13,133542,2,0,L|490:62,1,45,2|0,1:2|0:2,0:2:0:0:
512,224,133709,1,2,0:2:0:0:
512,224,133792,1,2,0:2:0:0:
512,224,133876,5,10,0:2:0:0:
288,288,134042,1,2,0:2:0:0:
345,63,134209,1,2,1:2:0:0:
435,348,134376,1,2,0:2:0:0:
435,348,134459,1,2,0:2:0:0:
435,348,134542,2,0,L|316:347,1,90,10|2,0:2|0:2,0:2:0:0:
160,256,134876,1,2,1:2:0:0:
393,139,135042,1,2,1:2:0:0:
431,73,135125,1,0,1:2:0:0:
411,0,135209,6,0,B|361:-8|361:-8|248:9,1,161.999995056153,14|0,1:2|0:2,0:2:0:0:
250,8,135542,1,2,1:2:0:0:
288,256,135709,1,2,0:2:0:0:
288,256,135792,1,2,0:2:0:0:
288,256,135876,1,10,0:2:0:0:
411,132,136042,1,2,0:2:0:0:
145,150,136209,1,2,1:2:0:0:
411,132,136376,5,2,0:2:0:0:
411,132,136459,1,2,0:2:0:0:
411,132,136542,2,0,L|509:135,1,90,10|2,0:2|0:2,0:2:0:0:
500,134,136792,1,2,0:2:0:0:
500,134,136876,2,0,L|501:234,1,90,2|2,1:2|0:2,0:2:0:0:
500,223,137126,1,2,0:2:0:0:
500,223,137209,1,10,0:2:0:0:
288,384,137376,6,0,L|284:329,1,45,2|0,0:2|0:2,0:2:0:0:
224,256,137542,2,0,L|228:201,1,45,2|0,1:2|0:2,0:2:0:0:
334,16,137709,1,2,1:2:0:0:
363,90,137792,1,0,1:2:0:0:
331,162,137876,6,0,B|267:180|267:180|138:160,1,188.999994232178,6|0,1:2|0:2,0:2:0:0:
32,64,138209,1,2,1:2:0:0:
104,32,138293,1,0,1:2:0:0:
178,61,138376,6,0,B|202:120|202:120|185:296,1,188.999994232178,6|0,1:2|0:2,0:2:0:0:
146,352,138709,2,0,L|75:355,1,62.9999980773926,2|0,1:2|1:2,0:2:0:0:
0,160,138876,2,0,L|63:158,1,62.9999980773926,2|0,1:2|1:2,0:2:0:0:
256,352,139042,6,0,B|322:358|322:358|399:283|345:183,1,251.999992309571,6|0,1:2|0:2,0:2:0:0:
192,0,139542,2,0,P|258:6|328:1,1,125.999996154785,6|0,1:2|0:2,0:2:0:0:
476,82,139876,5,10,0:2:0:0:
485,118,139959,1,8,0:2:0:0:
494,154,140042,1,8,0:2:0:0:
503,190,140126,1,8,0:2:0:0:
512,226,140209,5,2,1:2:0:0:
436,222,140292,5,0,1:2:0:0:
359,218,140376,5,0,1:2:0:0:
283,214,140459,5,0,1:2:0:0:
207,210,140542,5,14,1:2:0:0:
238,143,141209,1,2,0:2:0:0:
305,174,141876,1,2,0:2:0:0:
274,241,142542,1,2,0:2:0:0:
128,128,143209,5,10,0:2:0:0:
320,64,143876,1,2,0:2:0:0:
384,256,144542,1,2,0:2:0:0:
192,320,145042,1,2,0:2:0:0:
288,288,145209,1,2,0:2:0:0:
288,288,145376,1,2,0:2:0:0:
320,384,145542,1,2,0:2:0:0:
320,384,145709,1,2,0:2:0:0:
96,352,145876,6,0,P|64:354|25:356,1,53.9999983520508,14|0,0:2|0:2,0:2:0:0:
0,224,146209,2,0,P|26:225|53:227,1,53.9999983520508,2|0,0:2|0:2,0:2:0:0:
192,320,146542,1,2,0:2:0:0:
384,256,147209,1,2,0:2:0:0:
320,64,147542,6,0,P|316:96|317:141,1,53.9999983520508,2|0,0:2|0:2,0:2:0:0:
444,147,147876,2,0,P|418:127|378:105,1,53.9999983520508,2|0,0:2|0:2,0:2:0:0:
310,212,148209,2,0,P|339:199|378:176,1,53.9999983520508,2|0,0:2|0:2,0:2:0:0:
186,129,148542,5,10,0:2:0:0:
186,129,148876,1,2,0:2:0:0:
109,158,149042,1,2,0:2:0:0:
173,211,149209,2,0,L|177:268,1,53.9999983520508,2|0,0:2|0:2,0:2:0:0:
64,352,149542,2,0,L|69:280,1,72,0|0,0:2|0:2,0:2:0:0:
0,96,149876,6,0,L|109:88,1,107.999996704102,2|0,0:2|0:2,0:2:0:0:
114,100,150292,1,0,0:2:0:0:
120,111,150376,1,0,0:2:0:0:
126,122,150459,1,0,0:2:0:0:
132,133,150542,1,0,0:2:0:0:
172,129,150626,1,0,0:2:0:0:
212,126,150709,1,0,0:2:0:0:
252,123,150792,1,0,0:2:0:0:
292,120,150876,2,0,L|350:124,1,45,0|0,0:2|0:2,0:2:0:0:
448,256,151042,2,0,L|390:260,1,45,0|0,0:2|0:2,0:2:0:0:
305,384,151209,6,0,P|309:302|317:197,1,180,12|0,1:2|0:2,0:2:0:0:
401,24,151709,1,8,0:2:0:0:
480,128,151876,2,0,P|483:172|485:217,1,90,0|0,1:2|0:2,0:2:0:0:
384,382,152209,1,8,0:2:0:0:
384,382,152376,2,0,B|320:368|320:368|284:388|284:388|203:374,1,180,0|0,1:2|1:2,0:2:0:0:
32,271,152876,2,0,L|132:278,1,90,8|0,0:2|0:2,0:2:0:0:
288,224,153209,2,0,L|295:124,1,90,0|0,1:2|0:2,0:2:0:0:
128,0,153542,2,0,L|121:89,1,90,8|0,0:2|0:2,0:2:0:0:
225,328,153876,6,0,L|406:340,1,180,12|0,1:2|0:2,0:2:0:0:
512,224,154376,1,8,0:2:0:0:
384,64,154542,2,0,L|263:72,1,90,0|0,1:2|0:2,0:2:0:0:
96,32,154876,1,8,0:2:0:0:
259,0,155042,2,0,L|246:181,1,180,0|0,1:2|1:2,0:2:0:0:
432,337,155542,2,0,L|425:246,1,90,8|0,0:2|0:2,0:2:0:0:
190,354,155876,1,0,1:2:0:0:
190,354,156042,6,0,L|186:291,1,62.9999980773926,14|0,0:2|0:2,0:2:0:0:
44,210,156209,2,0,L|49:272,1,62.9999980773926,10|0,0:2|0:2,0:2:0:0:
184,128,156376,2,0,L|179:46,1,62.9999980773926,10|0,0:2|0:2,0:2:0:0:
442,360,156542,5,6,0:2:0:0:
327,336,156709,1,2,0:2:0:0:
290,224,156876,1,2,0:2:0:0:
405,248,157042,1,2,0:2:0:0:
327,336,157209,5,2,0:2:0:0:
368,136,157376,1,2,0:2:0:0:
215,0,157542,1,2,0:2:0:0:
174,200,157709,1,2,1:2:0:0:
217,154,157792,1,0,1:2:0:0:
260,108,157876,6,0,L|378:103,1,90,6|0,1:2|0:2,0:2:0:0:
512,64,158209,1,2,0:2:0:0:
494,251,158376,2,0,L|405:248,1,90,2|0,0:2|0:2,0:2:0:0:
99,285,158709,5,2,0:2:0:0:
280,177,158876,1,6,0:2:0:0:
99,285,159042,1,2,0:2:0:0:
92,109,159209,5,14,0:2:0:0:
221,335,159376,1,2,0:2:0:0:
25,177,159542,1,10,0:2:0:0:
288,267,159709,1,2,0:2:0:0:
86,97,159876,5,14,0:2:0:0:
228,346,160043,1,2,0:2:0:0:
12,172,160209,1,10,0:2:0:0:
302,271,160376,1,2,0:2:0:0:
159,23,160542,6,0,L|44:15,1,107.999996704102,14|0,0:2|0:2,0:2:0:0:
12,172,160876,1,10,0:2:0:0:
11,193,160959,1,2,0:2:0:0:
16,215,161042,1,2,0:2:0:0:
35,242,161126,1,2,0:2:0:0:
72,251,161209,1,10,0:2:0:0:
115,242,161292,1,2,0:2:0:0:
151,208,161376,1,2,0:2:0:0:
181,163,161459,1,2,0:2:0:0:
239,122,161542,5,10,1:2:0:0:
314,108,161626,5,2,1:2:0:0:
392,130,161709,5,2,1:2:0:0:
450,190,161792,5,2,1:2:0:0:
471,274,161876,6,0,L|475:312,38,26.9999991760254,14|0|0|0|0|0|0|0|0|0|0|0|0|0|0|0|0|0|0|0|0|0|0|0|0|0|0|0|0|0|0|0|0|0|0|0|0|0|0,1:2|0:2|0:2|0:2|0:2|0:2|0:2|0:2|0:2|0:2|0:2|0:2|0:2|0:2|0:2|0:2|0:2|0:2|0:2|0:2|0:2|0:2|0:2|0:2|0:2|0:2|0:2|0:2|0:2|0:2|0:2|0:2|0:2|0:2|0:2|0:2|0:2|0:2|0:2,0:2:0:0:
417,362,163542,5,0,1:2:0:0:
401,361,163626,1,0,1:2:0:0:
385,360,163709,1,0,1:2:0:0:
369,359,163792,1,0,1:2:0:0:
331,336,163876,5,2,1:2:0:0:
277,339,163959,1,0,1:2:0:0:
223,342,164042,1,0,1:2:0:0:
169,346,164126,1,0,1:2:0:0:
115,370,164209,5,2,1:2:0:0:
120,294,164292,1,0,1:2:0:0:
125,218,164376,1,0,1:2:0:0:
131,142,164459,1,0,1:2:0:0:
137,66,164542,5,14,0:2:0:0:
512,256,164709,1,0,1:2:0:0:
120,294,164876,1,0,1:2:0:0:
490,104,165042,5,14,0:2:0:0:
120,294,165209,1,0,1:2:0:0:
507,332,165376,1,0,1:2:0:0:
392,17,165542,5,14,0:2:0:0:
224,384,165709,1,0,1:2:0:0:
164,0,165876,1,0,1:2:0:0:
316,331,166042,5,14,0:2:0:0:
164,0,166209,1,0,1:2:0:0:
110,346,166376,1,0,1:2:0:0:
336,72,166542,6,0,P|381:81|491:108,1,157.5,14|0,1:2|0:2,0:2:0:0:
512,192,167209,6,0,B|416:201|416:201|376:255|376:255|258:271,1,270.000010299683,14|0,1:2|1:2,0:2:0:0:
32,288,167709,1,2,0:2:0:0:
39,248,167792,1,2,0:2:0:0:
47,207,167876,2,0,L|38:86,1,107.999996704102,8|2,0:2|0:2,0:2:0:0:
39,100,168126,1,2,0:2:0:0:
39,100,168209,1,0,1:2:0:0:
256,0,168376,6,0,P|250:55|249:116,1,107.999996704102,2|8,0:2|0:2,0:2:0:0:
419,329,168709,1,2,0:2:0:0:
478,61,168876,2,0,P|423:67|362:67,1,107.999996704102,2|0,1:2|0:2,0:2:0:0:
29,8,169209,6,0,B|15:56|15:56|35:135,1,107.999996704102,10|0,0:2|0:2,0:2:0:0:
160,256,169459,2,0,B|174:199|174:199|160:151,1,107.999996704102,2|0,0:2|0:2,0:2:0:0:
29,112,169709,1,2,0:0:0:0:
119,354,169876,5,2,1:2:0:0:
93,55,170042,1,2,1:2:0:0:
392,29,170209,1,2,1:2:0:0:
418,328,170376,2,0,L|288:338,1,107.999996704102,2|8,1:2|0:2,0:2:0:0:
107,205,170709,1,2,3:2:0:0:
144,212,170793,1,0,1:2:0:0:
181,219,170876,1,0,1:2:0:0:
17,328,171042,6,0,L|32:84,1,215.999993408203,10|0,0:2|0:2,0:2:0:0:
160,0,171542,1,0,1:2:0:0:
307,160,171709,1,2,0:2:0:0:
387,172,171792,1,2,0:2:0:0:
467,184,171876,1,10,0:2:0:0:
326,32,172042,1,2,0:2:0:0:
287,288,172209,1,2,1:2:0:0:
147,45,172376,1,2,1:2:0:0:
74,12,172459,1,0,1:2:0:0:
0,41,172542,6,0,B|224:14,1,202.500007724762,14|0,1:2|0:2,0:2:0:0:
201,16,172876,1,2,1:2:0:0:
282,261,173042,1,2,3:2:0:0:
287,288,173126,1,0,1:2:0:0:
291,315,173209,1,8,1:2:0:0:
432,16,173376,5,2,0:2:0:0:
296,342,173542,1,2,1:2:0:0:
113,63,173709,2,0,L|108:-28,1,53.9999983520508,2|0,1:2|1:2,0:2:0:0:
391,275,173876,6,0,B|320:283|320:283|278:319|278:319|191:329,1,202.500007724762,14|0,1:2|0:2,0:2:0:0:
202,327,174209,1,2,1:2:0:0:
15,142,174376,1,2,0:2:0:0:
275,182,174542,1,10,0:2:0:0:
40,302,174709,1,2,0:2:0:0:
160,68,174876,1,2,1:2:0:0:
206,331,175042,1,0,1:2:0:0:
283,356,175126,1,0,1:2:0:0:
363,340,175209,5,14,1:2:0:0:
28,222,175376,1,10,1:2:0:0:
384,0,175542,1,10,1:2:0:0:
448,384,175709,1,14,1:2:0:0:
448,384,176042,1,8,1:2:0:0:
512,160,176209,2,0,P|460:164|380:168,1,107.999996704102,14|0,1:2|0:2,0:2:0:0:
116,314,176542,6,0,B|170:289|170:289|335:314,1,202.500007724762,14|0,1:2|0:2,0:2:0:0:
353,353,176876,2,0,P|350:313|352:261,1,67.5000025749208,14|0,1:2|0:2,0:2:0:0:
288,32,177042,2,0,P|288:65|285:99,1,67.5000025749208,14|0,1:2|0:2,0:2:0:0:
160,297,177209,5,0,1:2:0:0:
116,314,177292,1,0,1:2:0:0:
70,313,177375,1,0,1:2:0:0:
28,291,177458,1,0,1:2:0:0:
0,253,177542,5,4,0:3:0:0:
48,195,177626,5,4,0:3:0:0:
122,161,177709,5,4,0:3:0:0:
210,161,177792,5,4,0:3:0:0:
294,205,177876,6,0,B|391:228|391:228|428:283|428:283|552:311,1,270.000010299683,14|0,1:2|1:2,0:2:0:0:
256,352,178376,1,2,0:2:0:0:
222,356,178459,1,2,0:2:0:0:
188,361,178542,2,0,L|75:351,1,107.999996704102,8|2,0:2|0:2,0:2:0:0:
80,352,178792,1,2,0:2:0:0:
80,352,178876,1,0,1:2:0:0:
0,128,179042,6,0,P|74:133|132:140,1,107.999996704102,2|8,0:2|0:2,0:2:0:0:
256,320,179376,1,2,0:2:0:0:
256,32,179542,2,0,P|330:27|388:20,1,107.999996704102,2|0,1:2|0:2,0:2:0:0:
512,224,179876,6,0,B|464:210|464:210|385:230,1,107.999996704102,10|0,0:2|0:2,0:2:0:0:
256,320,180126,2,0,B|305:334|305:334|360:320,1,107.999996704102,2|0,0:2|0:2,0:2:0:0:
467,169,180376,1,2,0:2:0:0:
181,20,180542,6,0,L|40:14,1,125.999996154785,14|8,0:2|0:2,0:2:0:0:
30,35,180792,1,8,0:2:0:0:
5,56,180876,2,0,L|-2:140,1,62.9999980773926,10|0,0:2|0:2,0:2:0:0:
82,361,181042,6,0,L|75:298,1,45,2|0,1:2|0:2,0:2:0:0:
430,23,181376,2,0,L|437:86,1,45,2|0,1:2|0:2,0:2:0:0:
288,352,181709,6,0,L|266:148,1,202.500007724762,14|0,1:2|0:2,0:2:0:0:
266,150,182042,1,8,0:2:0:0:
41,63,182209,5,2,1:2:0:0:
75,67,182292,1,0,3:2:0:0:
108,71,182375,1,0,3:2:0:0:
142,75,182458,1,0,3:2:0:0:
180,148,182542,5,2,1:2:0:0:
146,152,182626,1,0,3:2:0:0:
113,156,182709,1,0,3:2:0:0:
79,160,182792,1,0,3:2:0:0:
41,233,182876,5,2,1:2:0:0:
115,241,182960,1,0,1:2:0:0:
188,250,183043,1,2,1:2:0:0:
263,259,183126,1,0,1:2:0:0:
338,268,183209,6,0,B|365:200|365:200|338:49,1,202.500007724762,14|0,1:2|0:2,0:2:0:0:
342,72,183542,1,2,1:2:0:0:
188,250,183709,2,0,P|184:313|184:372,1,107.999996704102,2|8,0:2|0:2,0:2:0:0:
448,384,184042,1,2,1:2:0:0:
447,330,184125,1,0,1:2:0:0:
443,276,184208,1,0,1:2:0:0:
348,76,184376,1,0,1:2:0:0:
253,365,184542,6,0,B|184:387|184:387|46:346,1,202.500007724762,14|0,1:2|0:2,0:2:0:0:
59,349,184876,1,2,1:2:0:0:
0,128,185042,2,0,P|54:138|114:142,1,107.999996704102,2|8,0:2|0:2,0:2:0:0:
352,32,185376,2,0,P|406:22|466:18,1,107.999996704102,2|0,0:2|1:2,0:2:0:0:
321,351,185709,1,0,1:2:0:0:
246,380,185792,1,0,1:2:0:0:
166,368,185876,6,0,L|153:223,1,135.000005149842,12|0,1:2|0:2,0:2:0:0:
106,193,186126,6,0,P|166:196|209:190,1,90,14|0,1:2|1:2,0:2:0:0:
451,101,186542,6,0,L|438:246,1,135.000005149842,14|0,1:2|0:2,0:2:0:0:
391,276,186792,6,0,P|451:273|494:279,1,90,14|0,1:2|1:2,0:2:0:0:
512,352,187209,5,14,1:2:0:0:
265,280,187431,1,10,0:2:0:0:
451,101,187654,1,10,0:2:0:0:
389,317,187876,5,14,1:2:0:0:
235,154,188098,1,10,0:2:0:0:
170,368,188320,1,10,0:2:0:0:
16,205,188542,5,14,1:2:0:0:
235,154,188876,1,0,0:2:0:0:
170,368,189209,1,0,1:2:0:0:
16,205,189542,1,8,0:2:0:0:
141,243,189709,1,0,1:2:0:0:
110,115,189876,5,2,0:2:0:0:
46,330,190209,1,8,0:2:0:0:
264,280,190542,1,0,1:2:0:0:
394,324,190709,1,0,0:2:0:0:
394,324,190792,1,0,0:2:0:0:
394,324,190876,2,0,L|475:319,1,62.9999980773926,8|0,0:2|0:2,0:2:0:0:
480,128,191209,6,0,B|489:87|489:87|476:52|476:52|488:-5,2,125.999996154785,14|8|0,0:2|0:2|1:2,0:2:0:0:
480,128,192209,1,8,0:2:0:0:
256,32,192376,1,0,1:2:0:0:
256,32,192709,1,0,1:2:0:0:
32,128,192876,1,8,0:2:0:0:
192,384,193209,5,0,1:2:0:0:
162,229,193376,1,8,0:2:0:0:
44,332,193542,1,8,0:2:0:0:
310,280,193709,1,0,1:2:0:0:
44,332,193876,6,0,B|21:278|21:278|32:208,1,125.999996154785,14|0,0:2|0:2,0:2:0:0:
96,32,194376,1,8,0:2:0:0:
124,267,194542,1,0,1:2:0:0:
297,46,194876,1,8,0:2:0:0:
263,280,195042,2,0,L|121:290,1,125.999996154785,0|0,1:2|0:2,0:2:0:0:
416,352,195542,6,0,L|487:357,1,62.9999980773926,8|0,0:2|0:2,0:2:0:0:
512,96,195876,1,0,1:2:0:0:
352,160,196209,1,8,0:2:0:0:
192,96,196542,6,0,B|151:87|151:87|116:100|116:100|59:88,2,125.999996154785,14|8|0,0:2|0:2|1:2,0:2:0:0:
192,96,197542,1,8,0:2:0:0:
256,288,197709,1,0,1:2:0:0:
320,160,197876,1,8,0:2:0:0:
128,224,198043,1,0,1:2:0:0:
128,224,198126,1,0,1:2:0:0:
8,328,198376,5,2,0:2:0:0:
8,328,198459,1,2,0:2:0:0:
8,328,198542,1,2,0:2:0:0:
48,352,198626,1,2,1:2:0:0:
93,364,198709,1,2,0:2:0:0:
140,362,198792,1,2,0:2:0:0:
184,346,198876,1,2,0:2:0:0:
234,308,198959,1,2,0:2:0:0:
294,291,199042,1,2,0:2:0:0:
356,299,199126,1,2,0:2:0:0:
410,331,199209,6,0,P|439:338|469:340,1,45,14|2,0:2|0:2,0:2:0:0:
512,160,199376,2,0,P|489:162|467:168,1,45,2|2,0:2|0:2,0:2:0:0:
234,308,199542,2,0,P|164:315|49:322,1,180,2|8,1:2|0:2,0:2:0:0:
0,96,200042,1,2,0:2:0:0:
0,96,200126,1,2,0:2:0:0:
0,96,200209,1,2,1:2:0:0:
192,0,200376,1,2,0:2:0:0:
219,267,200542,5,10,0:2:0:0:
221,281,200598,1,2,0:2:0:0:
226,295,200654,1,2,0:2:0:0:
234,308,200709,1,2,0:2:0:0:
388,304,200876,1,2,1:2:0:0:
242,162,201042,1,2,0:2:0:0:
0,368,201209,6,0,P|64:375|117:376,1,107.999996704102,10|0,0:2|0:2,0:2:0:0:
175,344,201459,2,0,P|239:337|292:336,1,107.999996704102,2|0,0:2|0:2,0:2:0:0:
344,377,201709,1,2,0:2:0:0:
512,224,201876,6,0,P|448:217|395:216,1,107.999996704102,10|0,0:2|0:2,0:2:0:0:
337,248,202126,2,0,P|273:255|220:256,1,107.999996704102,2|0,0:2|0:2,0:2:0:0:
168,215,202376,1,2,0:2:0:0:
34,88,202542,5,10,0:2:0:0:
50,36,202626,1,2,0:2:0:0:
102,53,202710,1,2,0:2:0:0:
85,104,202792,1,2,0:2:0:0:
16,87,202876,5,2,1:2:0:0:
51,18,202959,1,2,0:2:0:0:
120,54,203042,1,2,0:2:0:0:
84,122,203126,1,2,0:2:0:0:
68,70,203209,6,0,P|155:66|245:60,2,161.999995056153,10|2|2,0:2|0:2|0:2,0:2:0:0:
0,256,203876,5,10,0:2:0:0:
17,260,203931,1,2,0:2:0:0:
34,264,203987,1,2,0:2:0:0:
51,268,204042,1,2,0:2:0:0:
224,160,204209,1,2,1:2:0:0:
320,384,204376,1,2,1:2:0:0:
399,370,204459,1,0,1:2:0:0:
478,356,204542,6,0,L|485:315,3,30,14|2|2|2,0:2|0:2|0:2|0:2,0:2:0:0:
352,256,204876,2,0,P|345:188|330:78,1,180,2|8,1:2|0:2,0:2:0:0:
83,6,205376,5,2,0:2:0:0:
74,41,205459,1,2,0:2:0:0:
128,107,205542,5,2,1:2:0:0:
137,142,205625,1,2,0:2:0:0:
83,208,205709,5,2,0:2:0:0:
74,243,205792,1,2,0:2:0:0:
128,309,205876,6,0,P|195:306|244:307,1,90,10|0,0:2|0:2,0:2:0:0:
285,269,206126,2,0,P|284:224|282:179,1,90,2|0,0:2|0:2,0:2:0:0:
228,124,206376,1,2,0:2:0:0:
352,0,206542,6,0,P|419:3|468:2,1,90,10|0,0:2|0:2,0:2:0:0:
500,71,206792,2,0,P|499:115|497:160,1,90,2|0,0:2|0:2,0:2:0:0:
439,231,207042,1,2,0:2:0:0:
256,32,207209,6,0,P|189:37|106:46,1,135,10|0,0:2|0:2,0:2:0:0:
121,44,207542,2,0,L|114:97,1,45,2|0,1:2|0:2,0:2:0:0:
0,256,207792,2,0,P|53:252|156:249,1,135,2|2,0:2|0:2,0:2:0:0:
185,278,208126,1,2,0:2:0:0:
235,306,208209,2,0,L|287:302,1,45,2|0,1:2|0:2,0:2:0:0:
448,192,208376,2,0,L|395:188,1,45,2|0,0:2|0:2,0:2:0:0:
94,224,208542,6,0,P|100:156|115:90,1,107.999996704102,10|0,0:2|0:2,0:2:0:0:
202,7,208792,2,0,L|325:1,1,107.999996704102,2|0,0:2|0:2,0:2:0:0:
507,61,209042,1,2,0:2:0:0:
507,61,209126,1,2,0:2:0:0:
507,61,209209,2,0,L|513:117,1,53.9999983520508,10|0,0:2|0:2,0:2:0:0:
503,250,209376,2,0,L|490:137,1,107.999996704102,2|0,0:2|1:2,0:2:0:0:
202,7,209792,1,0,1:2:0:0:
183,9,209876,5,14,0:2:0:0:
150,36,209959,1,2,0:2:0:0:
138,77,210042,1,2,0:2:0:0:
147,119,210126,1,2,0:2:0:0:
181,146,210209,1,2,1:2:0:0:
220,180,210292,1,2,0:2:0:0:
233,232,210375,1,2,0:2:0:0:
215,282,210459,1,2,0:2:0:0:
175,317,210542,6,0,P|256:308|367:301,1,161.999995056153,10|0,0:2|0:2,0:2:0:0:
336,302,210876,2,0,P|366:306|401:309,1,53.9999983520508,2|0,1:2|0:2,0:2:0:0:
512,384,211042,2,0,P|508:357|506:330,1,53.9999983520508,2|0,0:2|0:2,0:2:0:0:
512,128,211209,2,0,L|447:135,1,53.9999983520508,10|0,0:2|0:2,0:2:0:0:
384,0,211376,2,0,L|319:7,1,53.9999983520508,2|0,0:2|0:2,0:2:0:0:
256,96,211542,6,0,B|241:74|201:80|201:80|147:136|87:92,1,161.999995056153,10|0,0:2|0:2,0:2:0:0:
22,7,211876,2,0,P|24:77|19:192,1,161.999995056153,10|2,0:2|0:2,0:2:0:0:
32,320,212209,5,2,1:2:0:0:
49,317,212265,1,2,0:2:0:0:
66,314,212320,1,2,0:2:0:0:
84,312,212376,1,2,0:2:0:0:
256,384,212542,6,0,P|239:333|275:189,1,161.999995056153,10|0,0:2|0:2,0:2:0:0:
274,196,212876,2,0,L|331:201,1,53.9999983520508,2|0,1:2|0:2,0:2:0:0:
488,302,213042,2,0,L|493:244,1,53.9999983520508,2|0,0:2|0:2,0:2:0:0:
416,64,213209,2,0,L|308:52,1,107.999996704102,10|0,0:2|0:2,0:2:0:0:
247,97,213459,2,0,L|139:85,1,107.999996704102,2|0,0:2|0:2,0:2:0:0:
78,41,213709,2,0,L|24:35,1,53.9999983520508,2|0,0:2|0:2,0:2:0:0:
0,320,213876,6,0,P|70:334|129:300,1,107.999996704102,10|0,0:2|0:2,0:2:0:0:
106,167,214126,2,0,P|58:220|58:288,1,107.999996704102,2|0,0:2|0:2,0:2:0:0:
118,331,214376,2,0,L|189:338,1,53.9999983520508,2|0,0:2|0:2,0:2:0:0:
381,231,214542,6,0,P|311:217|252:251,1,107.999996704102,10|0,0:2|0:2,0:2:0:0:
275,384,214792,2,0,P|322:330|322:262,1,107.999996704102,2|0,0:2|0:2,0:2:0:0:
263,220,215042,2,0,L|192:213,1,53.9999983520508,2|0,0:2|0:2,0:2:0:0:
0,64,215209,6,0,B|31:48|70:50|70:50|99:92|156:89,1,161.999995056153,14|0,0:2|0:2,0:2:0:0:
166,104,215542,2,0,L|234:95,1,53.9999983520508,2|0,1:2|0:2,0:2:0:0:
352,128,215709,2,0,L|420:119,1,53.9999983520508,2|0,0:2|0:2,0:2:0:0:
512,20,215876,1,10,0:2:0:0:
498,222,216042,1,2,0:2:0:0:
498,222,216126,1,2,0:2:0:0:
498,222,216209,6,0,B|440:233|390:207|390:207|334:234|334:234|300:217|224:221,1,251.999992309571,2|10,1:2|0:2,0:2:0:0:
247,237,216626,1,2,0:2:0:0:
237,253,216709,1,2,0:2:0:0:
227,269,216792,1,2,0:2:0:0:
217,285,216876,5,2,1:2:0:0:
188,299,216959,1,2,0:2:0:0:
156,303,217042,1,2,0:2:0:0:
124,299,217126,1,2,0:2:0:0:
96,283,217209,1,10,0:2:0:0:
68,257,217292,1,2,0:2:0:0:
49,216,217376,1,2,0:2:0:0:
47,165,217459,1,2,0:2:0:0:
75,116,217542,5,2,1:2:0:0:
143,81,217626,5,2,1:2:0:0:
221,120,217709,5,2,1:2:0:0:
309,88,217792,5,2,1:2:0:0:
414,114,217876,6,0,B|440:168|440:168|409:271,1,135.000005149842,14|0,1:2|0:2,0:2:0:0:
244,210,218126,6,0,P|278:209|312:210,1,67.5,14|0,1:2|1:2,0:2:0:0:
428,368,218459,1,0,1:2:0:0:
390,346,218542,6,0,B|336:372|336:372|233:341,1,135.000005149842,14|0,1:2|0:2,0:2:0:0:
145,235,218792,6,0,P|144:201|144:167,1,67.5,14|0,1:2|1:2,0:2:0:0:
251,55,219125,1,0,1:2:0:0:
279,89,219209,6,0,B|343:74|343:74|446:98,1,135.000005149842,14|0,1:2|0:2,0:2:0:0:
411,272,219459,2,0,B|366:224|366:224|335:122,1,135.000005149842,14|0,1:2|0:2,0:2:0:0:
504,67,219709,6,0,B|484:129|484:129|412:207,1,135.000005149842,14|0,1:2|0:2,0:2:0:0:
25,255,220542,6,0,L|23:200,1,53.9999983520508,2|0,0:2|0:2,0:2:0:0:
64,64,220876,1,2,0:2:0:0:
64,64,221042,2,0,L|119:66,1,53.9999983520508,2|0,0:2|0:2,0:2:0:0:
224,128,221376,5,2,0:2:0:0:
224,128,221542,2,0,L|279:126,1,53.9999983520508,2|0,0:2|0:2,0:2:0:0:
352,64,221876,2,0,L|407:62,1,53.9999983520508,0|0,0:2|0:2,0:2:0:0:
512,192,222209,2,0,L|458:193,1,53.9999983520508,0|0,0:2|0:2,0:2:0:0:
229,329,222542,1,0,0:2:0:0:
421,361,222709,1,2,0:2:0:0:
387,269,222876,1,2,0:2:0:0:
353,179,223042,1,2,0:2:0:0:
229,329,223209,6,0,L|175:327,1,53.9999983520508,2|0,0:2|0:2,0:2:0:0:
64,252,223542,1,2,0:2:0:0:
64,252,223709,2,0,L|10:253,2,53.9999983520508,2|0|0,0:2|0:2|0:2,0:2:0:0:
192,192,224209,2,0,L|193:138,1,53.9999983520508,2|0,0:2|0:2,0:2:0:0:
32,0,224542,6,0,L|33:53,1,53.9999983520508,2|0,0:2|0:2,0:2:0:0:
96,160,224876,2,0,L|94:213,1,53.9999983520508,0|0,0:2|0:2,0:2:0:0:
89,369,225209,1,0,0:2:0:0:
10,350,225375,1,0,0:2:0:0:
64,290,225542,2,0,L|135:288,1,53.9999983520508,0|0,0:2|0:2,0:2:0:0:
320,352,225876,6,0,L|391:350,1,53.9999983520508,2|0,0:2|0:2,0:2:0:0:
512,288,226209,1,2,0:2:0:0:
512,288,226376,2,0,L|458:286,1,53.9999983520508,2|0,0:2|0:2,0:2:0:0:
320,224,226709,1,2,0:2:0:0:
320,224,226876,2,0,L|321:170,1,53.9999983520508,2|0,0:2|0:2,0:2:0:0:
384,32,227209,6,0,L|330:33,1,53.9999983520508,2|0,0:2|0:2,0:2:0:0:
240,112,227542,2,0,L|186:113,1,53.9999983520508,0|0,0:2|0:2,0:2:0:0:
31,235,227876,1,0,0:2:0:0:
99,53,228043,1,2,0:2:0:0:
161,129,228210,1,2,0:2:0:0:
222,203,228376,1,2,0:2:0:0:
31,235,228542,6,0,L|30:289,1,53.9999983520508,2|0,0:2|0:2,0:2:0:0:
144,368,228876,1,2,0:2:0:0:
144,368,229042,2,0,L|145:314,1,53.9999983520508,2|0,0:2|0:2,0:2:0:0:
222,203,229376,1,2,0:2:0:0:
96,184,229542,1,2,0:2:0:0:
96,184,229709,1,2,0:2:0:0:
160,32,229876,6,0,L|214:31,1,53.9999983520508,0|0,0:2|0:2,0:2:0:0:
288,128,230209,1,0,0:2:0:0:
297,127,230292,1,0,0:2:0:0:
308,126,230375,1,0,0:2:0:0:
319,125,230459,1,0,0:2:0:0:
330,124,230542,1,0,0:2:0:0:
340,123,230625,1,0,0:2:0:0:
351,123,230709,1,0,0:2:0:0:
362,122,230792,1,0,0:2:0:0:
373,121,230875,1,0,0:2:0:0:
384,120,230959,1,0,0:2:0:0:
394,119,231042,1,0,0:2:0:0:
405,119,231125,1,0,0:2:0:0:
416,118,231209,6,0,L|505:124,1,72,14|0,0:2|0:2,0:2:0:0:
442,204,231542,2,0,L|438:276,1,72,8|0,0:2|0:2,0:2:0:0:
356,231,231876,2,0,L|284:226,1,72,8|0,0:2|0:2,0:2:0:0:
329,145,232209,2,0,L|333:73,1,72,8|0,0:2|0:2,0:2:0:0:
192,32,232542,6,0,L|120:27,1,72,10|0,0:2|0:2,0:2:0:0:
0,96,232876,2,0,L|71:91,1,72,8|0,0:2|0:2,0:2:0:0:
192,160,233209,2,0,L|120:155,1,72,10|0,0:2|0:2,0:2:0:0:
0,224,233542,2,0,L|71:219,1,72,8|0,0:2|0:2,0:2:0:0:
224,320,233876,6,0,L|295:315,1,72,10|0,0:2|0:2,0:2:0:0:
416,352,234209,2,0,L|411:281,1,72,8|0,0:2|0:2,0:2:0:0:
448,160,234542,2,0,L|377:165,1,72,8|0,0:2|0:2,0:2:0:0:
256,128,234876,2,0,L|261:199,1,72,8|0,0:2|0:2,0:2:0:0:
160,352,235209,6,0,P|116:355|-1:366,2,144,10|8|8,0:2|0:2|0:2,0:2:0:0:
288,384,236042,1,2,0:2:0:0:
380,290,236209,1,2,0:2:0:0:
252,258,236376,1,2,0:2:0:0:
472,196,236542,6,0,L|478:97,1,90,4|2,1:2|0:2,0:2:0:0:
252,258,236876,2,0,L|246:159,1,90,0|2,1:2|0:2,0:2:0:0:
493,265,237209,2,0,L|498:175,1,90,0|2,1:2|0:2,0:2:0:0:
231,327,237542,2,0,L|225:237,1,90,0|2,1:2|0:2,0:2:0:0:
160,32,237876,6,0,L|70:26,1,90,0|2,1:2|0:2,0:2:0:0:
128,224,238209,2,0,L|38:229,1,90,0|2,1:2|0:2,0:2:0:0:
256,128,238542,2,0,L|346:122,1,90,0|2,1:2|0:2,0:2:0:0:
288,320,238875,2,0,L|378:326,1,90,0|2,1:2|0:2,0:2:0:0:
480,160,239209,6,0,L|486:70,1,90,4|2,1:2|0:2,0:2:0:0:
160,96,239542,2,0,L|166:6,1,90,0|2,1:2|0:2,0:2:0:0:
352,96,239876,2,0,L|346:6,1,90,0|2,1:2|0:2,0:2:0:0:
32,160,240209,2,0,L|26:70,1,90,0|2,1:2|0:2,0:2:0:0:
160,320,240542,6,0,L|304:329,1,135,6|0,1:2|0:2,0:2:0:0:
294,328,240876,1,2,1:2:0:0:
512,224,241042,2,0,L|329:236,1,180,2|0,1:2|0:2,0:2:0:0:
125,237,241542,5,2,1:2:0:0:
113,184,241626,5,0,1:2:0:0:
123,112,241709,5,0,1:2:0:0:
167,47,241792,5,0,1:2:0:0:
246,11,241876,6,0,L|286:9,46,22.5,6|0|0|0|0|0|0|0|0|0|0|0|0|0|0|0|0|0|0|0|0|0|0|0|0|0|0|0|0|0|0|0|0|0|0|0|0|0|0|0|0|0|0|0|0|0|0,1:2|0:2|0:2|0:2|0:2|0:2|0:2|0:2|0:2|0:2|0:2|0:2|0:2|0:2|0:2|0:2|0:2|0:2|0:2|0:2|0:2|0:2|0:2|0:2|0:2|0:2|0:2|0:2|0:2|0:2|0:2|0:2|0:2|0:2|0:2|0:2|0:2|0:2|0:2|0:2|0:2|0:2|0:2|0:2|0:2|0:2|0:2,0:2:0:0:
308,82,243876,6,0,L|348:80,6,22.5,2|0|0|0|0|0|0,0:2|0:2|0:2|0:2|0:2|0:2|0:2,0:2:0:0:
381,13,244209,2,0,L|421:11,6,22.5,2|0|0|0|0|0|0,0:2|0:2|0:2|0:2|0:2|0:2|0:2,0:2:0:0:
404,105,244542,5,14,1:2:0:0:
87,192,244709,1,2,1:2:0:0:
404,278,244876,1,2,1:2:0:0:
107,105,245042,5,14,1:2:0:0:
424,192,245209,1,2,1:2:0:0:
107,278,245376,1,2,1:2:0:0:
342,43,245542,5,14,1:2:0:0:
256,360,245709,1,2,1:2:0:0:
169,43,245876,1,2,1:2:0:0:
342,340,246042,5,14,1:2:0:0:
256,23,246209,1,2,1:2:0:0:
169,340,246376,1,2,1:2:0:0:
64,128,246542,5,14,1:2:0:0:
448,256,246708,1,2,1:2:0:0:
64,256,246876,5,14,1:2:0:0:
448,128,247042,1,2,1:2:0:0:
112,16,247209,5,14,1:2:0:0:
256,384,247376,1,2,1:2:0:0:
400,16,247542,1,2,1:2:0:0:
112,368,247709,5,14,1:2:0:0:
256,0,247876,1,2,1:2:0:0:
400,368,248042,1,2,1:2:0:0:
32,64,248209,5,14,1:2:0:0:
512,192,248376,1,2,1:2:0:0:
32,320,248542,1,2,1:2:0:0:
480,64,248709,5,14,1:2:0:0:
0,192,248876,1,2,1:2:0:0:
480,320,249042,1,2,1:2:0:0:
0,192,249209,5,14,1:2:0:0:
474,19,249376,2,0,L|480:64,1,45,2|0,1:2|1:2,0:2:0:0:
480,320,249542,5,14,1:2:0:0:
390,325,249625,5,0,1:2:0:0:
301,332,249708,5,0,1:2:0:0:
212,337,249792,5,0,1:2:0:0:
123,344,249876,5,12,1:2:0:0:
256,192,249959,12,0,252459,0:2:0:0:
32,160,252542,5,14,1:2:0:0:
342,51,252709,2,0,L|333:96,1,45,2|0,1:2|1:2,0:2:0:0:
280,374,252876,1,2,1:2:0:0:
171,60,253042,5,14,1:2:0:0:
124,302,253209,1,2,1:2:0:0:
357,222,253376,1,2,1:2:0:0:
32,160,253542,5,14,1:2:0:0:
280,374,253709,2,0,L|310:338,1,45,2|0,1:2|1:2,0:2:0:0:
494,126,253876,1,2,1:2:0:0:
128,32,254042,5,14,1:2:0:0:
448,288,254209,1,2,1:2:0:0:
64,320,254376,1,2,1:2:0:0:
352,0,254542,5,14,1:2:0:0:
360,83,254626,5,0,1:2:0:0:
368,166,254709,5,0,1:2:0:0:
376,249,254792,5,0,1:2:0:0:
384,332,254876,5,8,1:2:0:0:
14,140,255209,6,0,B|119:151|119:151|153:202|153:202|301:215,1,288,14|0,1:2|1:2,0:2:0:0:
461,358,255709,1,2,0:2:0:0:
468,315,255792,1,2,0:2:0:0:
475,272,255876,2,0,L|469:148,1,116.999994644165,8|2,0:2|0:2,0:2:0:0:
469,155,256126,1,2,0:2:0:0:
469,155,256209,1,0,1:2:0:0:
312,3,256376,6,0,P|324:62|333:126,1,116.999994644165,2|8,0:2|0:2,0:2:0:0:
256,288,256709,1,2,0:2:0:0:
0,96,256876,2,0,P|57:84|115:75,1,116.999994644165,2|0,1:2|0:2,0:2:0:0:
87,384,257209,6,0,B|90:380|105:324|105:324|90:265,1,116.999994644165,10|0,0:2|0:2,0:2:0:0:
115,74,257459,2,0,B|101:126|101:126|115:182|119:186,1,116.999994644165,2|0,0:2|0:2,0:2:0:0:
208,272,257709,1,2,0:2:0:0:
416,32,257876,6,0,P|331:25|319:127,1,202.500007724762,10|0,0:2|0:2,0:2:0:0:
315,122,258209,1,2,1:2:0:0:
480,288,258376,2,0,P|472:230|460:169,1,116.999994644165,2|8,0:2|0:2,0:2:0:0:
224,256,258709,1,2,3:2:0:0:
180,258,258792,1,0,1:2:0:0:
136,260,258876,1,0,1:2:0:0:
328,80,259042,6,0,L|311:313,1,233.999989288331,10|0,0:2|0:2,0:2:0:0:
128,384,259542,1,0,1:2:0:0:
0,224,259709,6,0,L|60:228,1,58.4999973220826,2|0,0:2|0:2,0:2:0:0:
233,239,259876,1,2,1:2:0:0:
32,96,260042,6,0,L|92:100,1,58.4999973220826,2|0,0:2|0:2,0:2:0:0:
265,111,260209,1,2,1:2:0:0:
110,351,260376,1,2,1:2:0:0:
194,376,260459,1,0,1:2:0:0:
280,356,260542,6,0,B|347:329|347:329|382:264|366:166,1,216,14|0,1:2|0:2,0:2:0:0:
369,189,260876,1,2,1:2:0:0:
119,119,261042,1,2,3:2:0:0:
90,111,261126,1,0,1:2:0:0:
61,103,261209,1,8,1:2:0:0:
212,361,261376,5,2,0:2:0:0:
32,96,261542,1,2,1:2:0:0:
448,96,261709,2,0,L|512:107,1,58.4999973220826,2|0,1:2|1:2,0:2:0:0:
421,361,261876,6,0,B|357:387|357:387|212:361,1,216,14|0,1:2|0:2,0:2:0:0:
212,361,262209,1,2,1:2:0:0:
32,96,262376,1,2,0:2:0:0:
64,384,262542,1,10,0:2:0:0:
219,73,262709,1,2,0:2:0:0:
216,365,262876,1,2,1:2:0:0:
480,256,263042,1,2,1:2:0:0:
499,169,263126,1,0,1:2:0:0:
472,85,263209,5,12,1:2:0:0:
0,32,263376,1,10,1:2:0:0:
320,384,263542,1,10,1:2:0:0:
416,0,263709,1,14,1:2:0:0:
416,0,264042,1,8,1:2:0:0:
480,256,264209,2,0,P|410:247|352:242,1,116.999994644165,14|0,1:2|0:2,0:2:0:0:
64,384,264542,6,0,B|34:308|34:308|62:160,1,216,14|0,1:2|0:2,0:2:0:0:
38,134,264876,2,0,P|78:151|110:156,1,72,14|0,1:2|0:2,0:2:0:0:
192,384,265042,2,0,P|198:348|213:316,1,72,14|0,1:2|0:2,0:2:0:0:
332,63,265209,5,0,1:2:0:0:
367,24,265292,1,0,1:2:0:0:
414,3,265375,1,0,1:2:0:0:
466,6,265458,1,0,1:2:0:0:
512,30,265542,5,4,0:3:0:0:
491,110,265626,5,4,0:3:0:0:
433,180,265709,5,4,0:3:0:0:
344,220,265792,5,4,0:3:0:0:
240,215,265876,6,0,L|558:202,1,288,14|0,1:2|1:2,0:2:0:0:
264,354,266376,1,2,0:2:0:0:
220,350,266459,1,2,0:2:0:0:
177,346,266542,2,0,L|54:349,1,116.999994644165,8|2,0:2|0:2,0:2:0:0:
60,348,266792,1,2,0:2:0:0:
60,348,266876,1,0,1:2:0:0:
0,128,267042,6,0,P|79:138|134:148,1,116.999994644165,2|8,0:2|0:2,0:2:0:0:
346,305,267376,1,2,0:2:0:0:
224,0,267542,2,0,P|214:57|207:115,1,116.999994644165,2|0,1:2|0:2,0:2:0:0:
288,372,267876,6,0,B|292:375|348:390|348:390|407:375,1,116.999994644165,10|0,0:2|0:2,0:2:0:0:
400,233,268126,2,0,B|348:220|348:220|292:235|288:238,1,116.999994644165,2|0,0:2|0:2,0:2:0:0:
400,376,268376,1,2,0:2:0:0:
512,96,268542,6,0,L|377:105,1,135.000005149842,14|8,0:2|0:2,0:2:0:0:
357,132,268792,1,8,0:2:0:0:
336,159,268876,2,0,L|268:154,1,67.5000025749208,10|0,0:2|0:2,0:2:0:0:
0,32,269042,6,0,L|67:27,1,49.5000015106202,2|0,1:2|0:2,0:2:0:0:
512,352,269376,2,0,L|444:356,1,49.5000015106202,2|0,1:2|0:2,0:2:0:0:
96,288,269709,6,0,B|168:281|168:281|221:302|221:302|319:291,1,216,14|0,1:2|0:2,0:2:0:0:
307,292,270042,1,10,0:2:0:0:
509,109,270209,5,2,1:2:0:0:
465,111,270292,1,0,3:2:0:0:
422,114,270375,1,0,3:2:0:0:
379,117,270458,1,0,3:2:0:0:
314,69,270542,5,2,1:2:0:0:
270,66,270625,1,0,3:2:0:0:
227,63,270708,1,0,3:2:0:0:
184,60,270791,1,0,3:2:0:0:
118,16,270876,5,2,1:2:0:0:
113,95,270959,1,0,1:2:0:0:
109,174,271042,1,0,1:2:0:0:
105,253,271125,1,0,1:2:0:0:
101,332,271209,6,0,L|85:92,1,216,14|0,1:2|0:2,0:2:0:0:
86,116,271542,1,2,1:2:0:0:
272,0,271709,2,0,P|267:51|263:131,1,116.999994644165,2|8,0:2|0:2,0:2:0:0:
417,356,272042,1,2,3:2:0:0:
414,298,272125,1,0,1:2:0:0:
409,239,272208,1,0,1:2:0:0:
263,116,272376,1,0,1:2:0:0:
495,25,272542,6,0,B|517:86|517:86|485:250,1,216,14|0,1:2|0:2,0:2:0:0:
488,234,272876,1,0,1:2:0:0:
288,384,273042,2,0,P|294:330|305:267,1,116.999994644165,2|8,0:2|0:2,0:2:0:0:
430,93,273376,2,0,P|376:87|313:76,1,116.999994644165,2|0,0:2|1:2,0:2:0:0:
38,0,273709,1,0,1:2:0:0:
2,79,273792,1,0,1:2:0:0:
13,166,273876,6,0,L|86:177,1,58.4999973220826,6|0,1:2|0:2,0:2:0:0:
384,224,274042,1,8,0:2:0:0:
38,0,274209,1,8,0:2:0:0:
174,339,274376,6,0,L|185:266,1,58.4999973220826,6|0,1:2|0:2,0:2:0:0:
224,0,274542,1,8,0:2:0:0:
352,352,274709,1,8,0:2:0:0:
512,64,274876,6,0,L|439:75,1,58.4999973220826,6|0,1:2|0:2,0:2:0:0:
110,134,275042,1,8,0:2:0:0:
110,134,275126,1,8,0:2:0:0:
110,134,275209,1,8,0:2:0:0:
472,192,275376,5,6,1:2:0:0:
147,379,275542,1,10,0:2:0:0:
147,4,275709,1,10,0:2:0:0:
364,379,275876,5,6,1:2:0:0:
364,4,276042,1,10,0:2:0:0:
39,191,276209,5,6,1:2:0:0:
125,206,276292,5,0,1:2:0:0:
212,221,276376,5,0,1:2:0:0:
298,236,276459,5,0,1:2:0:0:
385,251,276542,6,0,B|424:247|460:231|460:231|512:141|426:12,1,288,14|0,1:2|1:2,0:2:0:0:
147,4,277042,1,2,0:2:0:0:
103,10,277126,1,2,0:2:0:0:
59,16,277209,2,0,L|44:142,1,116.999994644165,8|2,0:2|0:2,0:2:0:0:
45,132,277459,1,2,0:2:0:0:
45,132,277542,1,0,1:2:0:0:
320,288,277709,6,0,P|315:216|306:165,1,116.999994644165,2|8,0:2|0:2,0:2:0:0:
0,192,278042,1,2,0:2:0:0:
157,377,278209,2,0,P|228:384|280:384,1,116.999994644165,2|0,1:2|0:2,0:2:0:0:
512,128,278542,6,0,B|458:112|458:112|392:133,1,116.999994644165,10|0,0:2|0:2,0:2:0:0:
195,169,278792,2,0,B|249:153|249:153|315:174,1,116.999994644165,2|0,0:2|0:2,0:2:0:0:
512,128,279042,1,2,0:0:0:0:
406,370,279209,5,2,1:2:0:0:
435,41,279375,1,2,1:2:0:0:
106,12,279542,1,2,1:2:0:0:
77,341,279709,2,0,L|207:335,1,116.999994644165,2|8,1:2|0:2,0:2:0:0:
415,207,280042,1,2,3:2:0:0:
420,166,280126,1,0,1:2:0:0:
425,125,280209,1,0,1:2:0:0:
512,320,280376,6,0,L|266:307,1,233.999989288331,10|0,0:2|0:2,0:2:0:0:
32,256,280876,1,2,1:2:0:0:
30,214,280960,1,2,0:2:0:0:
29,173,281043,1,2,0:2:0:0:
27,132,281126,1,2,0:2:0:0:
26,90,281209,1,10,0:2:0:0:
143,335,281376,5,2,0:2:0:0:
28,56,281542,1,2,1:2:0:0:
352,0,281709,1,2,1:2:0:0:
437,21,281792,1,0,1:2:0:0:
501,82,281876,6,0,B|524:146|524:146|506:301,1,216,12|0,1:2|0:2,0:2:0:0:
506,293,282209,1,2,1:2:0:0:
245,331,282376,1,2,3:2:0:0:
194,333,282459,1,0,1:2:0:0:
143,335,282542,1,8,1:2:0:0:
0,192,282709,1,0,1:2:0:0:
224,0,282876,6,0,P|240:49|253:121,1,116.999994644165,2|0,1:2|0:2,0:2:0:0:
194,333,283126,1,0,1:2:0:0:
169,366,283209,2,0,P|187:310|212:257,1,116.999994644165,12|0,1:2|0:2,0:2:0:0:
428,102,283542,2,0,P|381:136|330:164,1,116.999994644165,2|0,1:2|0:2,0:2:0:0:
63,163,283876,2,0,P|121:163|179:170,1,116.999994644165,10|0,1:2|0:2,0:2:0:0:
394,328,284209,2,0,P|347:294|305:253,1,116.999994644165,2|0,1:2|0:2,0:2:0:0:
224,0,284542,5,14,1:2:0:0:
169,366,284709,1,8,1:2:0:0:
428,102,284876,1,8,1:2:0:0:
63,163,285042,1,14,1:2:0:0:
63,163,285376,1,8,1:2:0:0:
394,328,285542,1,6,1:2:0:0:
423,323,285626,1,0,1:2:0:0:
451,318,285709,1,0,1:2:0:0:
479,314,285792,1,0,1:2:0:0:
508,310,285876,6,0,B|419:278|419:278|335:332|205:318,1,288,14|0,1:2|1:2,0:2:0:0:
35,369,286376,2,0,P|45:333|50:299,1,58.4999973220826,2|2,0:2|0:2,0:2:0:0:
20,91,286542,5,2,1:2:0:0:
34,45,286626,1,0,1:2:0:0:
266,36,286792,1,0,1:2:0:0:
279,82,286875,5,4,0:3:0:0:
258,162,286959,5,4,0:3:0:0:
200,232,287042,5,4,0:3:0:0:
111,272,287125,5,4,0:3:0:0:
7,267,287209,6,0,L|325:254,1,288,14|0,1:2|1:2,0:2:0:0:
480,384,287709,1,2,0:2:0:0:
486,340,287792,1,2,0:2:0:0:
493,296,287876,2,0,L|486:169,1,116.999994644165,8|2,0:2|0:2,0:2:0:0:
486,179,288126,1,2,0:2:0:0:
486,179,288209,1,0,1:2:0:0:
288,0,288376,6,0,P|279:62|274:120,1,116.999994644165,2|8,0:2|0:2,0:2:0:0:
288,320,288709,1,2,0:2:0:0:
160,64,288876,2,0,P|98:55|40:50,1,116.999994644165,2|0,1:2|0:2,0:2:0:0:
0,320,289209,6,0,B|58:337|58:337|137:321,1,116.999994644165,10|0,0:2|0:2,0:2:0:0:
288,240,289459,2,0,B|232:228|232:228|174:245,1,116.999994644165,2|0,0:2|0:2,0:2:0:0:
64,176,289709,1,2,0:0:0:0:
331,20,289876,6,0,L|472:14,1,135.000005149842,14|8,1:2|0:2,0:2:0:0:
487,40,290126,1,8,0:2:0:0:
507,67,290210,2,0,L|514:151,1,67.5000025749208,8|0,0:2|0:2,0:2:0:0:
430,361,290376,6,0,L|437:298,1,45,2|0,1:2|0:2,0:2:0:0:
82,23,290709,2,0,L|75:86,1,45,2|0,1:2|0:2,0:2:0:0:
192,384,291042,6,0,L|182:152,1,216,14|0,1:2|0:2,0:2:0:0:
182,168,291376,1,10,0:2:0:0:
352,0,291542,5,2,1:2:0:0:
360,34,291625,1,0,3:2:0:0:
359,70,291708,1,0,3:2:0:0:
348,104,291791,1,0,3:2:0:0:
297,164,291876,5,2,1:2:0:0:
289,198,291959,1,0,3:2:0:0:
290,234,292042,1,0,3:2:0:0:
301,268,292125,1,0,3:2:0:0:
352,328,292209,5,2,1:2:0:0:
380,257,292292,1,0,1:2:0:0:
337,194,292375,1,0,1:2:0:0:
261,196,292458,1,0,1:2:0:0:
221,272,292542,6,0,L|461:263,1,216,14|0,1:2|0:2,0:2:0:0:
436,263,292876,1,2,1:2:0:0:
512,32,293042,2,0,P|450:25|383:25,1,116.999994644165,2|8,0:2|0:2,0:2:0:0:
160,64,293376,1,2,3:2:0:0:
101,67,293459,1,0,1:2:0:0:
43,71,293542,1,0,1:2:0:0:
0,256,293709,1,0,1:2:0:0:
288,384,293876,6,0,B|322:327|322:327|306:160,1,216,14|0,1:2|0:2,0:2:0:0:
307,178,294209,1,0,1:2:0:0:
104,0,294376,2,0,P|115:68|119:118,1,116.999994644165,2|8,0:2|0:2,0:2:0:0:
52,369,294709,2,0,P|57:311|67:254,1,116.999994644165,2|0,0:2|1:2,0:2:0:0:
191,26,295042,1,0,1:2:0:0:
271,5,295126,1,0,1:2:0:0:
351,27,295209,5,14,1:2:0:0:
247,312,295376,1,2,0:2:0:0:
442,80,295542,1,2,1:2:0:0:
179,231,295709,1,2,0:2:0:0:
478,178,295876,1,10,0:2:0:0:
179,125,296042,1,2,0:2:0:0:
442,278,296209,1,2,1:2:0:0:
247,45,296376,1,2,0:2:0:0:
351,330,296542,5,14,3:2:0:0:
309,333,296626,1,0,3:2:0:0:
268,336,296709,1,0,3:2:0:0:
227,340,296792,1,0,3:2:0:0:
185,344,296876,1,0,1:2:0:0:
144,348,296959,1,0,3:2:0:0:
103,352,297042,1,0,3:2:0:0:
61,356,297126,1,0,3:2:0:0:
20,360,297209,5,10,3:2:0:0:
20,313,297292,1,0,3:2:0:0:
42,265,297376,1,0,1:2:0:0:
87,229,297459,1,0,1:2:0:0:
152,216,297542,5,0,1:2:0:0:
220,249,297626,5,0,1:2:0:0:
277,311,297709,5,0,1:2:0:0:
365,342,297792,5,0,1:2:0:0:
462,305,297876,6,0,B|500:208|500:208|476:88,1,216,14|0,1:2|0:2,0:2:0:0:
478,98,298209,1,2,1:2:0:0:
288,0,298376,1,2,3:2:0:0:
360,241,298542,1,2,1:2:0:0:
170,67,298709,1,2,3:2:0:0:
203,348,298876,1,2,1:2:0:0:
46,102,299043,1,2,3:2:0:0:
0,384,299209,6,0,L|224:376,1,216,6|0,1:2|0:2,0:2:0:0:
215,376,299542,1,2,1:2:0:0:
512,256,299709,1,2,1:2:0:0:
118,206,299876,1,2,1:2:0:0:
466,162,300043,1,2,1:2:0:0:
71,12,300209,1,2,1:2:0:0:
443,63,300376,1,2,1:2:0:0:
354,375,300542,6,0,L|220:380,1,135.000005149842,14|0,1:2|0:2,0:2:0:0:
168,349,300792,6,0,L|248:345,1,72,14|2,1:2|1:2,0:2:0:0:
470,250,301209,6,0,L|474:115,1,135.000005149842,14|0,1:2|0:2,0:2:0:0:
443,63,301459,6,0,L|439:143,1,72,14|2,1:2|1:2,0:2:0:0:
361,298,301876,5,14,1:2:0:0:
111,229,302098,1,10,0:2:0:0:
295,48,302320,1,10,0:2:0:0:
226,298,302542,5,14,1:2:0:0:
178,112,302765,1,10,0:2:0:0:
363,164,302987,1,10,0:2:0:0:
256,192,303209,6,0,P|166:201|70:204,1,161.999995056153,14|0,1:2|0:2,0:2:0:0:
36,156,303542,2,0,P|31:108|29:38,1,107.999996704102,0|0,1:2|0:2,0:2:0:0:
192,0,303876,1,10,0:2:0:0:
0,52,304042,1,2,0:2:0:0:
230,120,304209,1,2,1:2:0:0:
23,245,304376,1,2,0:2:0:0:
23,245,304459,1,2,0:2:0:0:
23,245,304542,5,10,0:2:0:0:
96,26,304709,1,2,0:2:0:0:
268,240,304876,1,2,1:2:0:0:
60,136,305042,1,2,0:2:0:0:
0,384,305209,1,10,0:2:0:0:
165,189,305376,1,2,0:2:0:0:
373,293,305542,2,0,L|491:300,1,107.999996704102,2|0,1:2|0:2,0:2:0:0:
512,96,305876,6,0,L|453:99,1,53.9999983520508,10|0,0:2|0:2,0:2:0:0:
196,165,306042,1,2,0:2:0:0:
195,164,306209,6,0,L|254:167,1,53.9999983520508,2|0,1:2|0:2,0:2:0:0:
511,225,306375,1,2,0:2:0:0:
512,224,306542,6,0,L|453:227,1,53.9999983520508,10|0,0:2|0:2,0:2:0:0:
302,282,306709,2,0,L|243:285,1,53.9999983520508,2|0,0:2|0:2,0:2:0:0:
92,340,306876,2,0,L|33:343,1,53.9999983520508,2|0,1:2|0:2,0:2:0:0:
0,128,307042,2,0,L|121:134,1,107.999996704102,2|8,0:2|0:2,0:2:0:0:
346,50,307376,2,0,L|399:47,1,53.9999983520508,2|0,0:2|0:2,0:2:0:0:
446,138,307542,6,0,P|421:201|387:236,1,107.999996704102,2|0,1:2|0:2,0:2:0:0:
114,53,307876,2,0,P|181:43|228:55,1,107.999996704102,10|0,0:2|0:2,0:2:0:0:
207,384,308209,2,0,P|165:331|152:284,1,107.999996704102,2|0,1:2|0:2,0:2:0:0:
319,68,308459,1,0,1:2:0:0:
346,50,308542,6,0,B|399:38|399:38|521:84,1,161.999995056153,14|0,1:2|0:2,0:2:0:0:
499,75,308876,1,2,1:2:0:0:
385,322,309042,1,2,0:2:0:0:
346,50,309209,1,10,0:2:0:0:
218,293,309376,1,2,0:2:0:0:
465,172,309542,1,2,1:2:0:0:
194,124,309709,2,0,L|129:126,1,53.9999983520508,2|0,1:2|1:2,0:2:0:0:
32,352,309876,6,0,L|37:190,1,161.999995056153,14|0,1:2|0:2,0:2:0:0:
37,190,310209,1,2,1:2:0:0:
361,254,310376,1,2,0:2:0:0:
176,0,310542,1,10,0:2:0:0:
112,323,310709,1,2,0:2:0:0:
329,37,310876,1,2,1:2:0:0:
316,347,311042,1,0,1:2:0:0:
390,354,311125,1,0,1:2:0:0:
462,332,311208,5,14,1:2:0:0:
497,17,311375,1,2,0:2:0:0:
390,354,311542,1,10,0:2:0:0:
426,38,311709,1,2,0:2:0:0:
316,347,311876,1,10,0:2:0:0:
352,31,312042,1,2,0:2:0:0:
249,312,312208,1,10,0:2:0:0:
0,95,312376,6,0,B|87:80|87:80|138:112|138:112|248:94,1,251.999992309571,14|0,0:2|0:2,0:2:0:0:
429,195,312876,5,2,1:2:0:0:
398,192,312959,1,0,1:2:0:0:
367,189,313043,1,0,1:2:0:0:
336,185,313126,1,0,1:2:0:0:
305,181,313209,5,2,1:2:0:0:
346,222,313293,1,0,1:2:0:0:
387,262,313376,1,0,1:2:0:0:
427,302,313459,1,0,1:2:0:0:
468,343,313543,5,2,1:2:0:0:
476,262,313626,5,0,1:2:0:0:
484,181,313709,5,0,1:2:0:0:
493,99,313793,5,0,1:2:0:0:
497,14,313876,6,0,L|352:24,1,125.999996154785,14|0,1:2|0:2,0:2:0:0:
284,76,314126,6,0,L|223:71,1,45,14|0,1:2|0:2,0:2:0:0:
44,67,314376,1,0,1:2:0:0:
22,141,314459,1,0,1:2:0:0:
0,215,314542,6,0,L|145:225,1,125.999996154785,14|0,1:2|0:2,0:2:0:0:
187,272,314792,6,0,L|332:282,1,125.999996154785,14|0,1:2|0:2,0:2:0:0:
374,329,315042,5,14,1:2:0:0:
256,192,315126,12,0,317709,0:2:0:0:
