osu file format v14

[General]
AudioFilename: audio.mp3
AudioLeadIn: 0
PreviewTime: 64729
Countdown: 0
SampleSet: Soft
StackLeniency: 0.3
Mode: 0
LetterboxInBreaks: 0
WidescreenStoryboard: 0

[Editor]
DistanceSpacing: 1.4
BeatDivisor: 4
GridSize: 4
TimelineZoom: 1.9

[Metadata]
Title:own phrases
TitleUnicode:own phrases
Artist:wavforme x Annabel
ArtistUnicode:wavforme × Annabel
Creator:Garden
Version:Misure's Hard
Source:LACKGIRL BIRTH IN THE DARK
Tags:ラックガール バース・イン・ザ・ダーク pv main theme song taishi misure -nanaka- irohas mugiwarasekai hanazawa kana
BeatmapID:1765373
BeatmapSetID:830683

[Difficulty]
HPDrainRate:5.6
CircleSize:3.8
OverallDifficulty:6
ApproachRate:8
SliderMultiplier:1.36
SliderTickRate:1

[Events]
//Background and Video events
Video,0,"video.flv"
0,0,"BG06.jpg",0,0
//Break Periods
//Storyboard Layer 0 (Background)
//Storyboard Layer 1 (Fail)
//Storyboard Layer 2 (Pass)
//Storyboard Layer 3 (Foreground)
//Storyboard Sound Samples

[TimingPoints]
896,333.333333333333,4,2,1,25,1,0
1062,-100,4,2,1,30,0,0
1229,-100,4,2,1,35,0,0
1395,-100,4,2,1,40,0,0
1562,-100,4,2,1,45,0,0
1729,-100,4,2,1,50,0,0
2062,-100,4,2,1,55,0,0
2229,-100,4,2,1,60,0,0
3562,-100,4,2,1,70,0,0
11562,-100,4,2,1,75,0,0
14229,-100,4,2,1,70,0,0
15479,-100,4,2,1,65,0,0
16229,-100,4,2,1,60,0,0
16895,-111.111111111111,4,2,1,55,0,0
26229,-125,4,2,1,50,0,0
26895,-111.111111111111,4,2,1,50,0,0
27562,-100,4,2,1,65,0,0
38229,-111.111111111111,4,2,1,55,0,0
39229,-133.333333333333,4,2,1,45,0,0
40895,-111.111111111111,4,2,1,55,0,0
41895,-133.333333333333,4,2,1,45,0,0
42395,-133.333333333333,4,2,1,35,0,0
42729,-125,4,2,1,45,0,0
42895,-111.111111111111,4,2,1,55,0,0
43229,-100,4,2,1,65,0,0
43562,-100,4,2,1,65,0,0
48895,-111.111111111111,4,2,1,50,0,0
54229,-100,4,2,1,55,0,0
56895,-100,4,2,1,65,0,0
57562,-100,4,2,1,70,0,0
58229,-100,4,2,1,75,0,0
59229,-100,4,2,1,85,0,0
59562,-133.333333333333,4,2,1,30,0,0
60562,-133.333333333333,4,2,1,50,0,0
60729,-133.333333333333,4,2,1,55,0,0
60895,-133.333333333333,4,2,1,60,0,0
61062,-133.333333333333,4,2,1,65,0,0
61229,-133.333333333333,4,2,1,70,0,0
61395,-133.333333333333,4,2,1,75,0,0
61562,-133.333333333333,4,2,1,70,0,0
61895,-133.333333333333,4,2,1,80,0,0
62229,-100,4,2,1,85,0,0
64229,-111.111111111111,4,2,1,85,0,0
64812,-111.111111111111,4,2,1,30,0,0
64895,-100,4,2,1,75,0,1
74229,-100,4,2,1,80,0,1
74895,-100,4,2,1,70,0,0
75229,-100,4,2,1,60,0,0
75562,-100,4,2,1,75,0,1
78229,-100,4,2,1,80,0,1
80395,-100,4,2,1,75,0,1
83562,-100,4,2,1,80,0,1
84895,-111.111111111111,4,2,1,65,0,1
85562,-125,4,2,1,50,0,1
86229,-142.857142857143,4,2,1,40,0,0
87229,-142.857142857143,4,2,1,30,0,0
88229,-142.857142857143,4,2,1,20,0,0
88729,-142.857142857143,4,2,1,10,0,0

[Colours]
Combo1 : 255,72,164
Combo2 : 255,128,0
Combo3 : 255,100,255
Combo4 : 255,210,166

[HitObjects]
256,192,229,12,0,1729,0:0:0:0:
240,48,2062,5,4,0:0:0:0:
240,48,2229,2,0,B|334:41|334:41|369:19,1,136,0|0,1:0|0:0,0:0:0:0:
446,121,2729,2,0,B|385:100|385:100|312:92,1,136,8|0,1:0|0:0,0:0:0:0:
240,152,3229,1,8,1:0:0:0:
240,152,3395,1,12,0:3:0:0:
144,120,3562,6,0,L|169:253,2,136,4|8|10,1:0|1:0|0:0,0:0:0:0:
24,84,4395,1,2,0:0:0:0:
60,172,4562,2,0,L|50:239,1,68,8|2,1:0|0:0,0:0:0:0:
123,302,4895,6,0,P|149:280|168:252,1,68,8|2,0:0|0:0,0:0:0:0:
50,239,5229,1,8,1:0:0:0:
50,239,5395,1,2,0:0:0:0:
4,336,5562,2,0,B|60:320|60:320|104:318,1,102,8|2,0:0|1:2,0:0:0:0:
124,360,5895,2,0,L|190:371,1,68,8|2,1:0|0:0,0:0:0:0:
272,320,6229,6,0,P|336:307|389:347,1,136,10|8,0:0|1:0,0:0:0:0:
405,241,6729,1,2,0:0:0:0:
405,241,6895,2,0,L|394:173,2,68,8|2|8,0:0|0:0|1:0,0:0:0:0:
489,285,7395,6,0,L|511:150,1,136,0|10,1:0|0:0,0:0:0:0:
437,85,7895,1,8,1:0:0:0:
394,173,8062,1,10,0:0:0:0:
321,109,8229,2,0,L|254:96,1,68,8|10,1:0|0:0,0:0:0:0:
205,13,8562,1,8,1:0:0:0:
117,61,8729,1,0,1:0:0:0:
117,61,8812,1,0,1:0:0:0:
117,61,8895,6,0,L|134:195,1,136,14|2,1:2|1:2,0:0:0:0:
233,173,9395,2,0,L|211:307,1,136,2|0,0:0|0:0,0:0:0:0:
153,381,9895,1,8,1:0:0:0:
77,321,10062,1,0,1:0:0:0:
77,321,10145,1,0,1:0:0:0:
77,321,10229,6,0,L|9:332,2,68,14|2|8,0:0|0:0|1:0,0:0:0:0:
128,240,10729,1,2,0:0:0:0:
56,176,10895,2,0,L|36:110,1,68,8|2,0:0|0:0,0:0:0:0:
77,25,11229,1,8,1:0:0:0:
168,52,11395,1,0,1:0:0:0:
168,52,11479,1,0,1:0:0:0:
168,52,11562,6,0,L|234:36,2,68,6|0|8,1:0|1:0|1:0,0:0:0:0:
192,144,12062,2,0,L|256:164,2,68,4|0|8,1:2|1:0|1:0,0:0:0:0:
132,220,12562,2,0,L|180:268,1,68,4|0,1:2|1:2,0:0:0:0:
220,256,12812,1,0,1:2:0:0:
220,256,12895,6,0,L|234:322,1,68,6|0,1:0|1:0,0:0:0:0:
320,368,13229,1,8,1:0:0:0:
320,368,13395,1,4,1:2:0:0:
357,263,13562,2,0,L|324:272,2,34,8|0|0,1:0|1:0|1:0,0:0:0:0:
356,168,13895,2,0,L|388:177,2,34,4|4|4,1:3|1:3|1:3,0:0:0:0:
316,76,14229,6,0,B|283:105|283:105|191:110,1,136,12|0,1:2|1:0,0:0:0:0:
72,176,14729,2,0,B|108:175|108:175|136:189,1,68,12|0,1:2|1:0,0:0:0:0:
216,248,15062,2,0,L|249:241,2,34,0|0|0,1:0|1:0|1:0,0:0:0:0:
176,332,15395,1,6,1:2:0:0:
256,192,15479,12,4,16895,0:1:0:0:
500,132,17229,5,8,0:0:0:0:
500,132,17395,2,0,P|450:166|390:166,1,122.399996264649,2|0,0:0|0:0,0:0:0:0:
344,92,17895,1,10,0:0:0:0:
156,168,18229,2,0,L|167:228,1,61.1999981323243,8|0,0:0|0:0,0:0:0:0:
185,313,18562,1,10,0:0:0:0:
361,309,18895,2,0,L|372:248,1,61.1999981323243,8|0,0:0|0:0,0:0:0:0:
389,165,19228,1,10,0:0:0:0:
389,165,19395,1,0,0:0:0:0:
344,92,19562,6,0,P|283:101|224:116,1,122.399996264649,10|8,0:0|0:0,0:0:0:0:
199,199,20062,2,0,P|139:190|80:174,1,122.399996264649,2|0,0:0|0:0,0:0:0:0:
28,104,20562,1,10,0:0:0:0:
168,9,20895,1,10,0:0:0:0:
168,9,21062,1,0,0:0:0:0:
168,9,21229,2,0,P|164:39|151:66,1,61.1999981323243,10|0,0:0|0:0,0:0:0:0:
224,115,21562,2,0,B|226:146|226:146|236:174,1,61.1999981323243,2|0,1:3|0:0,0:0:0:0:
300,233,21895,2,0,P|313:226|328:223,3,30.5999990661621,0|0|0|0,1:0|1:0|1:0|1:0,0:0:0:0:
358,189,22229,6,0,P|296:184|236:175,1,122.399996264649,4|8,1:0|0:0,0:0:0:0:
204,253,22729,2,0,P|142:257|82:266,1,122.399996264649,2|0,0:0|0:0,0:0:0:0:
24,329,23229,1,10,0:0:0:0:
104,361,23395,1,0,0:0:0:0:
168,305,23562,1,10,0:0:0:0:
72,165,23895,1,8,0:0:0:0:
175,30,24229,1,8,0:0:0:0:
334,86,24562,1,10,0:0:0:0:
334,86,24729,1,0,0:0:0:0:
334,86,24895,6,0,L|313:206,1,122.399996264649,10|8,0:0|0:0,0:0:0:0:
380,149,25395,2,0,B|390:186|390:186|400:269,1,122.399996264649,2|0,0:0|0:0,0:0:0:0:
356,348,25895,1,10,0:0:0:0:
444,384,26062,1,0,0:0:0:0:
444,384,26145,1,2,0:3:0:0:
444,384,26229,6,0,P|509:344|486:272,1,163.2,10|0,1:3|0:0,0:0:0:0:
419,212,26895,2,0,L|389:203,3,30.5999990661621,10|10|10|10,1:2|1:2|1:2|1:2,0:0:0:0:
362,169,27229,2,0,L|332:177,3,30.5999990661621,10|10|10|10,1:2|1:2|1:2|1:2,0:0:0:0:
292,204,27562,6,0,L|269:69,1,136,6|8,1:0|1:0,0:0:0:0:
188,3,28062,2,0,L|175:69,1,68,2|8,0:1|0:0,0:0:0:0:
191,162,28395,1,2,0:1:0:0:
191,162,28479,1,0,0:0:0:0:
191,162,28562,2,0,P|157:163|126:150,1,68,8|2,1:0|0:1,0:0:0:0:
28,116,28895,6,0,L|36:183,1,68,8|2,0:0|0:1,0:0:0:0:
111,240,29229,2,0,L|103:307,1,68,8|2,1:0|0:1,0:0:0:0:
40,376,29562,1,8,0:0:0:0:
40,376,29729,1,2,0:1:0:0:
103,307,29895,2,0,P|136:310|168:323,1,68,8|2,1:0|0:1,0:0:0:0:
244,384,30229,6,0,L|267:249,1,136,8|8,0:0|1:0,0:0:0:0:
356,292,30729,2,0,L|369:358,1,68,2|8,0:1|0:0,0:0:0:0:
464,336,31062,1,2,0:1:0:0:
464,336,31145,1,0,0:0:0:0:
464,336,31229,2,0,L|477:270,1,68,8|2,1:0|0:1,0:0:0:0:
488,173,31562,5,8,0:0:0:0:
488,173,31729,1,2,0:1:0:0:
393,156,31895,2,0,P|393:189|405:221,1,68,8|2,1:0|0:1,0:0:0:0:
488,172,32229,2,0,P|499:140|500:107,1,68,8|2,0:0|0:1,0:0:0:0:
496,12,32562,1,8,1:0:0:0:
416,64,32729,1,2,0:1:0:0:
416,64,32812,1,0,0:0:0:0:
416,64,32895,6,0,L|282:37,1,136,4|8,1:0|1:0,0:0:0:0:
236,120,33395,2,0,L|169:133,1,68,2|8,0:1|0:0,0:0:0:0:
140,44,33729,1,2,0:1:0:0:
140,44,33812,1,0,0:0:0:0:
140,44,33895,2,0,L|73:30,1,68,8|2,1:0|0:1,0:0:0:0:
5,97,34229,6,0,P|5:130|14:163,1,68,8|2,0:0|0:1,0:0:0:0:
92,220,34562,2,0,P|88:252|77:285,1,68,8|2,1:0|0:1,0:0:0:0:
153,349,34895,1,8,0:0:0:0:
153,348,35062,2,0,P|165:337|181:331,2,34,2|0|8,0:1|0:0|1:0,0:0:0:0:
226,244,35395,1,2,1:0:0:0:
226,244,35479,1,0,1:0:0:0:
226,244,35562,6,0,P|159:236|93:221,1,136,6|8,1:0|1:0,0:0:0:0:
140,128,36062,2,0,P|206:111|273:104,1,136,14|8,1:0|1:0,0:0:0:0:
273,103,36479,1,8,1:0:0:0:
273,103,36562,1,8,1:0:0:0:
360,154,36729,6,0,B|344:206|344:206|363:285,1,136,14|12,1:0|0:3,0:0:0:0:
443,337,37229,1,8,1:0:0:0:
479,249,37395,2,0,L|511:239,2,34,8|8|4,1:0|1:0|1:2,0:0:0:0:
455,156,37729,2,0,L|478:131,2,34,8|8|8,1:0|1:0|1:0,0:0:0:0:
360,154,38062,1,8,1:0:0:0:
360,154,38145,1,8,1:0:0:0:
360,154,38229,6,0,P|299:162|242:143,1,122.399996264649,12|8,1:0|0:0,0:0:0:0:
152,203,38729,2,0,P|209:183|269:192,1,122.399996264649,4|8,1:2|0:0,0:0:0:0:
133,288,39229,6,0,P|73:243|69:169,1,153.000005836487,4|0,1:2|0:0,0:0:0:0:
148,72,39895,2,0,L|151:122,1,51.0000019454957,2|0,0:0|0:0,0:0:0:0:
242,143,40229,2,0,L|234:193,1,51.0000019454957,2|2,0:0|0:0,0:0:0:0:
347,98,40562,2,0,L|333:147,1,51.0000019454957,2|0,0:0|0:0,0:0:0:0:
360,255,40895,6,0,L|239:235,1,122.399996264649,4|0,1:0|0:0,0:0:0:0:
128,303,41395,2,0,L|249:283,1,122.399996264649,4|0,1:2|0:0,0:0:0:0:
155,199,41895,6,0,B|111:163|111:163|88:69,1,153.000005836487,4|0,1:2|0:0,0:0:0:0:
205,27,42562,1,0,1:0:0:0:
205,27,42645,1,0,1:0:0:0:
205,27,42729,2,0,L|197:53,1,27.2,0|0,1:0|1:0,0:0:0:0:
224,98,42895,2,0,L|231:127,3,30.5999990661621,0|0|0|0,1:0|1:0|1:0|1:0,0:0:0:0:
277,139,43229,2,0,L|299:164,3,34,0|0|0|0,1:0|1:0|1:0|1:0,0:0:0:0:
293,211,43562,6,0,P|346:171|412:175,1,136,4|8,1:0|1:0,0:0:0:0:
500,230,44062,1,0,1:0:0:0:
500,230,44229,2,0,P|500:197|512:165,1,68,8|0,1:2|0:0,0:0:0:0:
497,71,44562,2,0,P|464:80|430:79,1,68,8|0,1:0|0:0,0:0:0:0:
369,7,44894,5,8,0:0:0:0:
369,7,45061,1,0,0:0:0:0:
305,79,45229,2,0,L|321:144,1,68,8|0,1:0|0:0,0:0:0:0:
412,175,45562,2,0,L|395:240,1,68,8|0,0:0|0:0,0:0:0:0:
340,318,45895,2,0,L|356:383,1,68,8|0,1:0|0:0,0:0:0:0:
252,367,46229,6,0,P|218:369|186:358,2,68,12|0|8,1:2|0:0|1:0,0:0:0:0:
249,262,46729,1,0,1:0:0:0:
249,262,46895,2,0,P|215:259|183:270,1,68,8|8,1:2|1:0,0:0:0:0:
102,320,47229,1,8,1:0:0:0:
23,266,47395,6,0,L|0:132,1,136,4|8,1:0|0:0,0:0:0:0:
60,48,47895,1,0,1:0:0:0:
108,130,48062,1,8,0:0:0:0:
192,84,48229,2,0,L|225:90,3,34,0|0|0|0,1:0|1:0|1:0|1:0,0:0:0:0:
268,68,48562,2,0,L|301:61,3,34,0|0|0|0,1:0|1:0|1:0|1:0,0:0:0:0:
340,24,48895,6,0,L|326:145,1,122.399996264649,4|0,1:0|0:0,0:0:0:0:
436,120,49395,1,8,0:0:0:0:
436,120,49562,2,0,L|428:59,1,61.1999981323243,0|0,1:0|0:0,0:0:0:0:
404,208,49895,5,8,0:0:0:0:
404,208,50062,2,0,P|463:203|513:238,1,122.399996264649,8|8,1:0|0:0,0:0:0:0:
496,336,50562,2,0,P|467:347|437:350,1,61.1999981323243,0|0,1:0|0:0,0:0:0:0:
357,293,50895,1,8,1:0:0:0:
357,293,51062,1,0,0:0:0:0:
263,324,51229,2,0,L|275:383,1,61.1999981323243,8|0,0:0|0:0,0:0:0:0:
164,364,51562,6,0,L|178:242,1,122.399996264649,4|0,1:0|0:0,0:0:0:0:
48,252,52062,1,8,0:0:0:0:
48,252,52229,2,0,B|47:284|47:284|56:313,1,61.1999981323243,0|0,1:0|0:0,0:0:0:0:
108,180,52562,5,8,0:0:0:0:
108,180,52729,2,0,L|94:58,1,122.399996264649,8|0,1:0|1:0,0:0:0:0:
180,93,53229,2,0,B|205:85|205:85|233:65,2,61.1999981323243,8|0|8,0:0|0:0|1:0,0:0:0:0:
94,58,53729,1,12,1:2:0:0:
30,124,53895,1,12,1:2:0:0:
60,210,54062,1,12,1:2:0:0:
160,262,54229,6,0,L|148:195,1,68,6|8,1:0|0:0,0:0:0:0:
252,277,54562,2,0,L|318:290,1,68,10|2,1:0|0:1,0:0:0:0:
340,203,54895,2,0,L|328:137,1,68,8|8,0:0|0:0,0:0:0:0:
431,218,55228,2,0,L|497:231,1,68,10|2,1:0|0:1,0:0:0:0:
483,43,55562,6,0,P|456:63|437:90,1,68,8|8,0:0|0:0,0:0:0:0:
344,72,55895,2,0,P|330:103|327:136,1,68,10|2,1:0|0:1,0:0:0:0:
237,166,56229,2,0,P|241:200|255:231,1,68,8|8,0:0|0:0,0:0:0:0:
191,301,56562,2,0,P|212:328|240:348,1,68,10|2,1:0|1:0,0:0:0:0:
92,320,56895,5,12,1:2:0:0:
92,320,57062,1,2,1:0:0:0:
92,320,57229,2,0,L|99:252,1,68,8|2,1:0|1:0,0:0:0:0:
16,113,57562,1,8,1:2:0:0:
16,113,57729,1,2,1:0:0:0:
16,113,57896,2,0,L|23:180,1,68,8|2,1:0|1:0,0:0:0:0:
131,96,58229,6,0,P|163:82|196:77,1,68,10|2,1:2|1:0,0:0:0:0:
264,152,58561,1,8,1:0:0:0:
264,152,58728,1,2,1:0:0:0:
328,28,58895,2,0,P|296:15|263:10,1,68,10|2,1:2|1:0,0:0:0:0:
196,78,59229,2,0,L|188:114,3,34,8|8|8|8,1:0|1:3|1:3|1:3,0:0:0:0:
152,60,59562,6,0,P|328:232|469:29,1,561.000021400452,12|0,1:0|0:0,0:0:0:0:
379,112,61562,2,0,L|354:117,3,25.5000009727478,0|0|0|0,1:0|1:0|1:0|1:0,0:0:0:0:
324,88,61895,2,0,L|299:82,3,25.5000009727478,8|8|8|8,1:0|1:0|1:0|1:0,0:0:0:0:
252,98,62229,6,0,L|262:30,1,68,12|2,1:2|1:2,0:0:0:0:
262,31,62562,1,2,1:2:0:0:
176,168,62729,2,0,L|148:105,1,68,12|2,1:2|1:2,0:0:0:0:
149,106,63062,1,2,1:2:0:0:
256,236,63229,2,0,L|298:183,1,68,12|2,1:2|1:2,0:0:0:0:
298,183,63562,1,2,1:2:0:0:
168,286,63729,2,0,L|104:261,1,68,12|2,1:2|1:2,0:0:0:0:
105,262,64062,1,12,1:2:0:0:
228,348,64229,6,0,L|207:134,1,214.199993463135,6|0,1:2|0:0,0:0:0:0:
284,127,64895,6,0,P|265:189|203:214,1,136,12|8,1:0|1:0,0:0:0:0:
128,148,65395,1,2,0:1:0:0:
68,221,65562,2,0,L|85:286,2,68,8|2|8,1:2|0:1|1:0,0:0:0:0:
12,321,66062,6,0,B|72:321|72:321|146:341,1,136,4|2,1:2|1:0,0:0:0:0:
236,308,66562,2,0,L|303:297,1,68,8|2,1:0|1:0,0:0:0:0:
376,360,66895,1,8,1:2:0:0:
459,315,67062,1,2,1:0:0:0:
459,315,67145,1,0,1:0:0:0:
459,315,67229,2,0,L|474:248,1,68,8|2,1:0|1:0,0:0:0:0:
382,136,67562,6,0,P|383:170|395:202,1,68,8|2,1:2|0:1,0:0:0:0:
480,152,67895,1,8,1:0:0:0:
505,46,68062,2,0,L|440:65,1,68,2|8,1:0|1:2,0:0:0:0:
382,136,68395,2,0,L|316:117,1,68,2|8,1:0|1:0,0:0:0:0:
248,52,68729,1,2,1:0:0:0:
248,52,68812,1,0,1:0:0:0:
248,52,68895,6,0,P|214:53|183:66,2,68,8|2|8,1:2|0:1|1:0,0:0:0:0:
236,148,69395,1,2,1:0:0:0:
136,148,69562,2,0,P|109:127|91:98,1,68,8|2,1:2|1:0,0:0:0:0:
101,3,69895,1,8,1:0:0:0:
8,44,70062,1,2,1:0:0:0:
8,44,70145,1,0,1:0:0:0:
8,44,70229,6,0,B|24:178,1,136,12|8,1:2|1:0,0:0:0:0:
104,232,70729,2,0,L|94:299,1,68,2|8,0:1|1:2,0:0:0:0:
29,369,71062,1,2,1:0:0:0:
94,299,71229,2,0,L|161:289,1,68,8|2,1:0|1:0,0:0:0:0:
186,329,71479,1,0,1:0:0:0:
186,329,71562,6,0,P|252:337|308:301,1,136,12|8,1:2|1:0,0:0:0:0:
282,208,72062,2,0,P|250:194|217:192,2,68,2|8|2,1:0|1:2|1:0,0:0:0:0:
376,236,72562,1,8,1:0:0:0:
412,152,72728,1,2,1:0:0:0:
412,152,72812,1,0,1:0:0:0:
412,152,72895,6,0,L|420:84,1,68,12|2,1:2|1:0,0:0:0:0:
348,20,73229,1,12,1:2:0:0:
265,74,73395,2,0,B|261:116|261:116|282:208,1,136,6|8,1:0|1:2,0:0:0:0:
346,281,73895,1,4,1:2:0:0:
276,356,74062,1,8,1:0:0:0:
276,356,74145,1,8,1:0:0:0:
276,356,74229,6,0,B|338:339|338:339|418:339,1,136,4|4,1:2|1:2,0:0:0:0:
494,292,74729,1,4,1:2:0:0:
444,212,74895,2,0,L|438:178,3,34,8|8|8|8,1:0|1:0|1:0|1:0,0:0:0:0:
472,144,75229,2,0,L|477:110,3,34,4|4|4|4,1:3|1:3|1:3|1:3,0:0:0:0:
472,63,75562,6,0,P|406:57|368:3,1,136,12|8,1:0|1:0,0:0:0:0:
300,80,76062,2,0,L|311:147,1,68,2|8,0:1|1:2,0:0:0:0:
364,232,76395,2,0,L|354:264,2,34,2|0|8,0:1|0:0|1:0,0:0:0:0:
264,232,76729,6,0,P|199:218|143:254,1,136,4|2,1:2|1:0,0:0:0:0:
98,337,77229,2,0,L|31:325,1,68,8|2,1:0|1:0,0:0:0:0:
51,227,77562,1,8,1:2:0:0:
51,227,77729,2,0,L|37:160,2,68,2|8|2,1:0|1:0|1:0,0:0:0:0:
143,253,78229,6,0,L|210:265,1,68,12|2,1:2|1:0,0:0:0:0:
210,265,78479,1,0,1:0:0:0:
210,265,78562,1,8,1:0:0:0:
312,236,78729,2,0,L|300:303,1,68,4|0,1:2|0:0,0:0:0:0:
244,164,79062,2,0,L|232:97,1,68,4|0,1:2|0:0,0:0:0:0:
407,11,79395,6,0,B|392:80|392:80|332:104,1,136,12|8,1:0|0:0,0:0:0:0:
178,152,79895,2,0,P|211:153|244:164,1,68,2|0,1:0|1:0,0:0:0:0:
312,236,80229,1,2,1:0:0:0:
380,168,80395,2,0,L|376:134,2,34,0|0|2,1:0|1:0|1:0,0:0:0:0:
472,224,80729,1,2,1:0:0:0:
472,224,80812,1,0,1:0:0:0:
472,224,80896,6,0,L|491:89,1,136,12|8,1:0|1:0,0:0:0:0:
384,116,81396,2,0,L|390:183,1,68,2|8,1:0|1:2,0:0:0:0:
328,256,81729,2,0,P|296:243|262:241,1,68,2|8,1:0|1:0,0:0:0:0:
204,316,82062,1,2,1:0:0:0:
140,244,82229,6,0,L|126:108,1,136,12|8,1:0|1:0,0:0:0:0:
220,77,82729,2,0,P|218:143|175:194,1,136,2|2,1:0|1:0,0:0:0:0:
126,108,83229,1,8,1:0:0:0:
48,162,83395,1,2,1:0:0:0:
48,162,83479,1,0,1:0:0:0:
48,162,83562,6,0,L|55:229,1,68,4|0,1:2|0:0,0:0:0:0:
33,271,83812,2,0,P|97:255|153:291,1,136,8|0,1:0|1:0,0:0:0:0:
175,333,84229,6,0,L|241:319,1,68,4|0,1:2|0:0,0:0:0:0:
275,285,84479,2,0,L|341:299,1,68,8|0,1:0|0:0,0:0:0:0:
388,310,84729,1,0,1:0:0:0:
464,272,84896,6,0,P|493:243|503:204,2,81.5999975097657,12|8|8,1:2|0:0|0:0,0:0:0:0:
404,189,85562,2,0,P|387:158|357:139,2,72.5333333333333,12|8|8,1:2|0:0|0:0,0:0:0:0:
322,223,86229,6,0,B|215:240|155:176|155:176|195:204|255:192,1,285.59999128418,10|2,0:0|0:0,0:0:0:0:
256,192,87395,12,2,88729,0:0:0:0:
