osu file format v14

[General]
AudioFilename: audio.ogg
AudioLeadIn: 0
PreviewTime: 67132
Countdown: 0
SampleSet: Normal
StackLeniency: 0.7
Mode: 1
LetterboxInBreaks: 0
WidescreenStoryboard: 1

[Editor]
Bookmarks: 2274,11417,17132,35417,45703,54846,63989,67417,76560,85703,100560,118846
DistanceSpacing: 1
BeatDivisor: 4
GridSize: 4
TimelineZoom: 2.999999

[Metadata]
Title:you make me wana kill myslef
TitleUnicode:you make me wana kill myslef
Artist:watering
ArtistUnicode:watering
Creator:Slim-san
Version:x oni x
Source:
Tags:electronic instrumental english slim san breakcore Alexandra Stan remix Mr. Saxobeat yoshi nightcore music that pops your balls v3 wanna myself
BeatmapID:3759237
BeatmapSetID:1831379

[Difficulty]
HPDrainRate:6
CircleSize:4
OverallDifficulty:6
ApproachRate:9
SliderMultiplier:1.4
SliderTickRate:1

[Events]
//Background and Video events
0,0,"84154784_p0.jpg",0,50
//Break Periods
//Storyboard Layer 0 (Background)
//Storyboard Layer 1 (Fail)
//Storyboard Layer 2 (Pass)
//Storyboard Layer 3 (Foreground)
//Storyboard Layer 4 (Overlay)
//Storyboard Sound Samples

[TimingPoints]
2315,285.714285714286,4,1,0,80,1,0
2315,-125,4,1,0,80,0,0
6099,-111.111115,4,1,0,80,0,0
6171,-112.25364,4,1,0,80,0,0
6314,-114.59397,4,1,0,80,0,0
6456,-117.016525,4,1,0,80,0,0
6599,-119.56191,4,1,0,80,0,0
6671,-120.88588,4,1,0,80,0,0
6742,-122.22049,4,1,0,80,0,0
6885,-125,4,1,0,80,0,0
10671,-105.26316,4,1,0,80,0,0
10742,-106.27626,4,1,0,80,0,0
10885,-108.37711,4,1,0,80,0,0
11028,-110.56268,4,1,0,80,0,0
11171,-112.83823,4,1,0,80,0,0
11242,-114.0032,4,1,0,80,0,0
11314,-115.20941,4,1,0,80,0,0
11456,-117.66472,4,1,0,85,0,0
11599,-116.15116,4,1,0,85,0,0
11742,-114.692825,4,1,0,85,0,0
11885,-113.27065,4,1,0,85,0,0
12028,-111.88332,4,1,0,85,0,0
12099,-111.20705,4,1,0,85,0,0
12171,-110.529564,4,1,0,85,0,0
12314,-109.208176,4,1,0,85,0,0
12599,-106.666664,4,1,0,85,0,0
12742,-105.43552,4,1,0,85,0,0
12885,-104.23245,4,1,0,85,0,0
13028,-103.05653,4,1,0,85,0,0
13171,-101.90686,4,1,0,85,0,0
13242,-101.34551,4,1,0,85,0,0
13314,-100.78255,4,1,0,85,0,0
13456,-99.690384,4,1,0,85,0,0
13742,-97.560974,4,1,0,85,0,0
13885,-96.53004,4,1,0,85,0,0
14028,-95.520645,4,1,0,85,0,0
14171,-94.53215,4,1,0,85,0,0
14314,-93.56391,4,1,0,85,0,0
14385,-93.09049,4,1,0,85,0,0
14456,-92.62186,4,1,0,85,0,0
14599,-91.692154,4,1,0,85,0,0
14885,-89.88764,4,1,0,85,0,0
15028,-89.01176,4,1,0,85,0,0
15171,-88.15279,4,1,0,85,0,0
15314,-87.31023,4,1,0,85,0,0
15456,-86.48936,4,1,0,90,0,0
15528,-86.079,4,1,0,90,0,0
15599,-85.67815,4,1,0,90,0,0
15671,-85.275444,4,1,0,90,0,0
15742,-84.88202,4,1,0,90,0,0
15885,-84.10055,4,1,0,90,0,0
15956,-83.71787,4,1,0,90,0,0
16028,-83.333336,4,1,0,90,0,0
16885,-83.333336,4,1,0,90,0,0
16956,-81.64431,4,1,0,90,0,0
17028,-80,4,1,0,90,0,0
17099,-78.44212,4,1,0,90,0,0
17172,-76.92308,4,1,0,95,0,1
17314,-77.923256,4,1,0,95,0,1
17456,-78.94253,4,1,0,95,0,1
17528,-79.46958,4,1,0,95,0,1
17599,-79.99627,4,1,0,95,0,1
17671,-80.537544,4,1,0,95,0,1
17742,-81.078514,4,1,0,95,0,1
17885,-82.19047,4,1,0,95,0,1
17956,-82.75396,4,1,0,95,0,1
18099,-83.91267,4,1,0,95,0,1
18171,-84.50843,4,1,0,95,0,1
18314,-85.71714,4,1,0,95,0,1
18528,-87.591995,4,1,0,95,0,1
18742,-89.55068,4,1,0,95,0,1
18814,-90.22952,4,1,0,95,0,1
18885,-90.90909,4,1,0,95,0,1
19028,-92.30936,4,1,0,95,0,1
19171,-93.75342,4,1,0,95,0,1
19242,-94.48732,4,1,0,95,0,1
19314,-95.243385,4,1,0,95,0,1
19385,-96.00089,4,1,0,95,0,1
19456,-96.77055,4,1,0,95,0,1
19671,-99.17834,4,1,0,95,0,1
19742,-100,4,1,0,95,0,1
19885,-101.69693,4,1,0,95,0,1
20028,-103.452446,4,1,0,95,0,1
20099,-104.34676,4,1,0,95,0,1
20242,-106.195786,4,1,0,95,0,1
20314,-107.15178,4,1,0,95,0,1
20456,-109.08859,4,1,0,95,0,1
20599,-111.111115,4,1,0,95,0,1
21171,-90.88017,4,1,0,95,0,1
21314,-86.92565,4,1,0,95,0,1
21456,-83.325226,4,1,0,95,0,1
21528,-81.61127,4,1,0,95,0,1
21599,-79.98879,4,1,0,95,0,1
21671,-78.40805,4,1,0,95,0,1
21742,-76.90926,4,1,0,95,0,1
21885,-77.92975,4,1,0,95,0,1
21956,-78.43586,4,1,0,95,0,1
22028,-78.95585,4,1,0,95,0,1
22171,-80.00933,4,1,0,95,0,1
22314,-81.09131,4,1,0,95,0,1
22456,-82.19506,4,1,0,95,0,1
22599,-83.33738,4,1,0,95,0,1
22671,-83.924644,4,1,0,95,0,1
22742,-84.5119,4,1,0,95,0,1
22885,-85.72,4,1,0,95,0,1
23099,-87.59385,4,1,0,95,0,1
23314,-89.560814,4,1,0,95,0,1
23385,-90.22992,4,1,0,95,0,1
23456,-90.90909,4,1,0,95,0,1
23599,-92.308525,4,1,0,95,0,1
23742,-93.75172,4,1,0,95,0,1
23814,-94.49557,4,1,0,95,0,1
23885,-95.24074,4,1,0,95,0,1
23956,-95.997765,4,1,0,95,0,1
24028,-96.77784,4,1,0,95,0,1
24171,-98.365364,4,1,0,95,0,1
24314,-100.00583,4,1,0,95,0,1
24456,-101.68989,4,1,0,95,0,1
24528,-102.56563,4,1,0,95,0,1
24600,-104.35047,4,1,0,95,0,1
24742,-105.259926,4,1,0,95,0,1
24814,-106.198524,4,1,0,95,0,1
24885,-107.14062,4,1,0,95,0,1
25028,-109.08975,4,1,0,95,0,1
25171,-111.111115,4,1,0,95,0,1
25456,-111.111115,4,1,0,95,0,1
25528,-107.116104,4,1,0,95,0,1
25599,-103.44828,4,1,0,95,0,1
25671,-99.9767,4,1,0,95,0,1
25742,-96.77419,4,1,0,95,0,1
25885,-90.90909,4,1,0,95,0,1
26028,-85.71429,4,1,0,95,0,1
26099,-83.349525,4,1,0,95,0,1
26171,-81.08108,4,1,0,95,0,1
26242,-78.9619,4,1,0,95,0,1
26314,-76.92998,4,1,0,95,0,1
26456,-77.922966,4,1,0,95,0,1
26599,-78.94919,4,1,0,95,0,1
26671,-79.47619,4,1,0,95,0,1
26742,-80.0028,4,1,0,95,0,1
26814,-80.544014,4,1,0,95,0,1
26885,-81.084915,4,1,0,95,0,1
27028,-82.19671,4,1,0,95,0,1
27099,-82.76012,4,1,0,95,0,1
27242,-83.91865,4,1,0,95,0,1
27314,-84.514336,4,1,0,95,0,1
27456,-85.71429,4,1,0,95,0,1
27671,-87.5974,4,1,0,95,0,1
27885,-89.55575,4,1,0,95,0,1
27956,-90.22497,4,1,0,95,0,1
28028,-90.91392,4,1,0,95,0,1
28171,-92.3139,4,1,0,95,0,1
28314,-93.75768,4,1,0,95,0,1
28385,-94.49145,4,1,0,95,0,1
28456,-95.23677,4,1,0,95,0,1
28528,-96.00471,4,1,0,95,0,1
28599,-96.77419,4,1,0,95,0,1
28814,-99.18144,4,1,0,95,0,1
28885,-100.002914,4,1,0,95,0,1
29028,-101.69944,4,1,0,95,0,1
29171,-103.45451,4,1,0,95,0,1
29242,-104.34862,4,1,0,95,0,1
29385,-106.19716,4,1,0,95,0,1
29456,-107.1395,4,1,0,95,0,1
29599,-109.08917,4,1,0,95,0,1
29742,-111.111115,4,1,0,95,0,1
30314,-90.836815,4,1,0,95,0,1
30456,-86.91242,4,1,0,95,0,1
30599,-83.28878,4,1,0,95,0,1
30671,-81.57631,4,1,0,95,0,1
30742,-79.955215,4,1,0,95,0,1
30814,-78.37577,4,1,0,95,0,1
30885,-76.87821,4,1,0,95,0,1
31028,-77.92975,4,1,0,95,0,1
31099,-78.43586,4,1,0,95,0,1
31171,-78.95585,4,1,0,95,0,1
31314,-80.00933,4,1,0,95,0,1
31456,-81.08364,4,1,0,95,0,1
31599,-82.19506,4,1,0,95,0,1
31742,-83.33738,4,1,0,95,0,1
31814,-83.924644,4,1,0,95,0,1
31885,-84.5119,4,1,0,95,0,1
32028,-85.72,4,1,0,95,0,1
32242,-87.59385,4,1,0,95,0,1
32456,-89.55145,4,1,0,95,0,1
32528,-90.22992,4,1,0,95,0,1
32599,-90.90909,4,1,0,95,0,1
32742,-92.308525,4,1,0,95,0,1
32885,-93.75172,4,1,0,95,0,1
32956,-94.48515,4,1,0,95,0,1
33028,-95.24074,4,1,0,95,0,1
33099,-95.997765,4,1,0,95,0,1
33171,-96.77784,4,1,0,95,0,1
33314,-98.365364,4,1,0,95,0,1
33456,-99.99417,4,1,0,95,0,1
33599,-101.68989,4,1,0,95,0,1
33671,-102.56563,4,1,0,95,0,1
33743,-104.35047,4,1,0,95,0,1
33885,-105.259926,4,1,0,95,0,1
33956,-106.18537,4,1,0,95,0,1
34028,-107.14062,4,1,0,95,0,1
34171,-109.08975,4,1,0,95,0,1
34314,-111.111115,4,1,0,95,0,1
34599,-111.111115,4,1,0,95,0,1
34671,-107.11161,4,1,0,95,0,1
34742,-103.43995,4,1,0,95,0,1
34814,-99.965004,4,1,0,95,0,1
34885,-96.75963,4,1,0,95,0,1
35028,-90.8898,4,1,0,95,0,1
35171,-85.69144,4,1,0,95,0,1
35242,-83.32523,4,1,0,95,0,1
35314,-81.05553,4,1,0,95,0,1
35385,-78.93525,4,1,0,95,0,1
35457,-76.92308,4,1,0,90,0,0
36028,-76.95417,4,1,0,90,0,0
36171,-81.67644,4,1,0,90,0,0
36314,-87.01616,4,1,0,90,0,0
36456,-93.057365,4,1,0,90,0,0
36599,-100.05257,4,1,0,85,0,0
36885,-76.92508,4,1,0,85,0,0
37028,-77.21277,4,1,0,85,0,0
37171,-77.50263,4,1,0,85,0,0
37242,-77.64734,4,1,0,85,0,0
37314,-77.794655,4,1,0,85,0,0
37456,-78.08684,4,1,0,85,0,0
37599,-78.38331,4,1,0,85,0,0
37742,-78.68203,4,1,0,85,0,0
37814,-78.8333,4,1,0,85,0,0
37885,-78.98303,4,1,0,85,0,0
38028,-79.28636,4,1,0,85,0,0
38171,-79.59202,4,1,0,85,0,0
38242,-79.74466,4,1,0,85,0,0
38314,-79.90005,4,1,0,85,0,0
38456,-80.20829,4,1,0,85,0,0
38599,-80.52111,4,1,0,85,0,0
38742,-80.83638,4,1,0,85,0,0
38885,-81.15414,4,1,0,85,0,0
39171,-81.7972,4,1,0,85,0,0
39314,-82.12256,4,1,0,85,0,0
39456,-82.44822,4,1,0,85,0,0
39528,-82.614334,4,1,0,85,0,0
39599,-82.7788,4,1,0,85,0,0
39742,-83.11203,4,1,0,85,0,0
39885,-83.44796,4,1,0,85,0,0
40028,-83.78663,4,1,0,85,0,0
40099,-83.95579,4,1,0,85,0,0
40171,-84.128044,4,1,0,85,0,0
40314,-84.47225,4,1,0,85,0,0
40456,-84.81685,4,1,0,85,0,0
40599,-85.16674,4,1,0,85,0,0
40742,-85.51952,4,1,0,85,0,0
40885,-85.87524,4,1,0,85,0,0
41028,-86.233925,4,1,0,85,0,0
41099,-86.41313,4,1,0,85,0,0
41171,-86.59562,4,1,0,85,0,0
41456,-87.32561,4,1,0,85,0,0
41599,-87.69654,4,1,0,85,0,0
41742,-88.07064,4,1,0,85,0,0
41814,-88.260216,4,1,0,85,0,0
41885,-88.447945,4,1,0,85,0,0
42028,-88.82849,4,1,0,85,0,0
42171,-89.212326,4,1,0,85,0,0
42314,-89.5995,4,1,0,85,0,0
42385,-89.79298,4,1,0,85,0,0
42456,-89.9873,4,1,0,85,0,0
42599,-90.38124,4,1,0,85,0,0
42742,-90.77865,4,1,0,85,0,0
42814,-90.98007,4,1,0,85,0,0
42885,-91.17956,4,1,0,85,0,0
43028,-91.58404,4,1,0,85,0,0
43171,-91.9921,4,1,0,85,0,0
43314,-92.40384,4,1,0,85,0,0
43456,-92.81635,4,1,0,85,0,0
43742,-93.65847,4,1,0,85,0,0
43885,-94.08528,4,1,0,85,0,0
44028,-94.516,4,1,0,85,0,0
44099,-94.73133,4,1,0,85,0,0
44171,-94.95068,4,1,0,85,0,0
44314,-95.38939,4,1,0,85,0,0
44456,-95.829056,4,1,0,85,0,0
44599,-96.275925,4,1,0,85,0,0
44671,-96.50251,4,1,0,85,0,0
44742,-96.727,4,1,0,85,0,0
44885,-97.18229,4,1,0,85,0,0
45028,-97.641914,4,1,0,85,0,0
45171,-98.10589,4,1,0,85,0,0
45314,-98.5743,4,1,0,85,0,0
45456,-99.0439,4,1,0,85,0,0
45599,-99.52133,4,1,0,85,0,0
45671,-99.763466,4,1,0,85,0,0
45742,-100.00339,4,1,0,80,0,0
46028,-90.90909,4,1,0,80,0,0
46171,-93.75342,4,1,0,80,0,0
46242,-95.2328,4,1,0,80,0,0
46456,-99.98833,4,1,0,80,0,0
46528,-101.69693,4,1,0,80,0,0
46742,-107.1384,4,1,0,80,0,0
46814,-109.10248,4,1,0,80,0,0
46885,-111.111115,4,1,0,80,0,0
47171,-90.90909,4,1,0,80,0,0
47314,-92.539185,4,1,0,80,0,0
47385,-93.370445,4,1,0,80,0,0
47599,-95.96879,4,1,0,80,0,0
47671,-96.87582,4,1,0,80,0,0
47885,-99.67585,4,1,0,80,0,0
48028,-101.63889,4,1,0,80,0,0
48171,-103.68081,4,1,0,80,0,0
48314,-105.80644,4,1,0,80,0,0
48456,-108.005264,4,1,0,80,0,0
48528,-109.15545,4,1,0,80,0,0
48599,-110.3139,4,1,0,80,0,0
48742,-112.72338,4,1,0,80,0,0
48815,-113.636363636364,4,1,0,80,0,0
48956,-116.53245,4,1,0,80,0,0
49028,-117.87254,4,1,0,80,0,0
49171,-120.627655,4,1,0,80,0,0
49457,-124.949615,4,1,0,80,0,0
49599,-115.02783,4,1,0,80,0,0
49671,-112.03469,4,1,0,80,0,0
49742,-109.23185,4,1,0,80,0,0
49885,-103.99195,4,1,0,80,0,0
49956,-101.57275,4,1,0,80,0,0
50028,-99.23176,4,1,0,80,0,0
50099,-97.0266,4,1,0,80,0,0
50171,-94.88828,4,1,0,80,0,0
50314,-90.90909,4,1,0,80,0,0
50599,-90.90909,4,1,0,80,0,0
50742,-93.75342,4,1,0,80,0,0
50814,-95.253975,4,1,0,80,0,0
50956,-98.35878,4,1,0,80,0,0
51028,-100.01167,4,1,0,80,0,0
51171,-103.46493,4,1,0,80,0,0
51314,-107.165184,4,1,0,80,0,0
51385,-109.10248,4,1,0,80,0,0
51456,-111.111115,4,1,0,80,0,0
51742,-90.90909,4,1,0,80,0,0
51885,-93.75342,4,1,0,80,0,0
51956,-95.2328,4,1,0,80,0,0
52099,-98.35878,4,1,0,80,0,0
52171,-100.01167,4,1,0,80,0,0
52314,-103.46493,4,1,0,80,0,0
52456,-107.1384,4,1,0,80,0,0
52599,-111.111115,4,1,0,80,0,0
52885,-90.90909,4,1,0,80,0,0
53171,-98.04999,4,1,0,80,0,0
53314,-102.05832,4,1,0,80,0,0
53385,-104.172745,4,1,0,80,0,0
53456,-106.37663,4,1,0,80,0,0
53528,-108.70889,4,1,0,80,0,0
53599,-111.111115,4,1,0,80,0,0
53742,-116.28665,4,1,0,80,0,0
54029,-124.949615,4,1,0,80,0,0
54171,-114.98516,4,1,0,80,0,0
54242,-112.03469,4,1,0,80,0,0
54314,-109.19338,4,1,0,80,0,0
54456,-103.99195,4,1,0,80,0,0
54528,-101.53947,4,1,0,80,0,0
54599,-99.23176,4,1,0,80,0,0
54671,-96.99624,4,1,0,80,0,0
54742,-94.88828,4,1,0,80,0,0
54885,-90.90909,4,1,0,85,0,0
63885,-90.90909,4,1,0,85,0,0
63956,-90.42831,4,1,0,85,0,0
64028,-89.945915,4,1,0,90,0,0
64171,-89.00293,4,1,0,90,0,0
64314,-88.07952,4,1,0,90,0,0
64456,-87.181335,4,1,0,90,0,0
64599,-86.29515,4,1,0,90,0,0
64742,-85.42679,4,1,0,90,0,0
64885,-84.57574,4,1,0,90,0,0
64956,-84.15945,4,1,0,90,0,0
65028,-83.74147,4,1,0,90,0,0
65099,-83.3333360000001,4,1,0,90,0,0
67172,-90.9090940826447,4,1,0,90,0,0
67457,-76.92308,4,1,0,95,0,1
67599,-77.922966,4,1,0,95,0,1
67742,-78.94919,4,1,0,95,0,1
67814,-79.47619,4,1,0,95,0,1
67885,-80.0028,4,1,0,95,0,1
67956,-80.53644,4,1,0,95,0,1
68028,-81.084915,4,1,0,95,0,1
68171,-82.19671,4,1,0,95,0,1
68242,-82.76012,4,1,0,95,0,1
68385,-83.91865,4,1,0,95,0,1
68456,-84.506,4,1,0,95,0,1
68599,-85.71429,4,1,0,95,0,1
68814,-87.5974,4,1,0,95,0,1
69028,-89.55575,4,1,0,95,0,1
69099,-90.22497,4,1,0,95,0,1
69171,-90.91392,4,1,0,95,0,1
69314,-92.3139,4,1,0,95,0,1
69456,-93.74743,4,1,0,95,0,1
69528,-94.49145,4,1,0,95,0,1
69599,-95.23677,4,1,0,95,0,1
69671,-96.00471,4,1,0,95,0,1
69742,-96.77419,4,1,0,95,0,1
69956,-99.16997,4,1,0,95,0,1
70028,-100.002914,4,1,0,95,0,1
70171,-101.69944,4,1,0,95,0,1
70314,-103.45451,4,1,0,95,0,1
70385,-104.34862,4,1,0,95,0,1
70528,-106.19716,4,1,0,95,0,1
70599,-107.1395,4,1,0,95,0,1
70742,-109.08917,4,1,0,95,0,1
70885,-111.111115,4,1,0,95,0,1
71456,-90.88022,4,1,0,95,0,1
71599,-86.93231,4,1,0,95,0,1
71742,-83.31312,4,1,0,95,0,1
71814,-81.602585,4,1,0,95,0,1
71885,-79.98323,4,1,0,95,0,1
71956,-78.426895,4,1,0,95,0,1
72028,-76.909294,4,1,0,95,0,1
72171,-77.93005,4,1,0,95,0,1
72242,-78.43631,4,1,0,95,0,1
72314,-78.95646,4,1,0,95,0,1
72456,-80.0028,4,1,0,95,0,1
72599,-81.084915,4,1,0,95,0,1
72742,-82.19671,4,1,0,95,0,1
72885,-83.33941,4,1,0,95,0,1
72956,-83.91865,4,1,0,95,0,1
73028,-84.514336,4,1,0,95,0,1
73171,-85.722855,4,1,0,95,0,1
73385,-87.5974,4,1,0,95,0,1
73599,-89.55575,4,1,0,95,0,1
73671,-90.23446,4,1,0,95,0,1
73742,-90.91392,4,1,0,95,0,1
73885,-92.3139,4,1,0,95,0,1
74028,-93.75768,4,1,0,95,0,1
74099,-94.49145,4,1,0,95,0,1
74171,-95.24735,4,1,0,95,0,1
74242,-96.00471,4,1,0,95,0,1
74314,-96.78512,4,1,0,95,0,1
74456,-98.36206,4,1,0,95,0,1
74599,-100.002914,4,1,0,95,0,1
74742,-101.69944,4,1,0,95,0,1
74814,-102.57561,4,1,0,95,0,1
74886,-104.34862,4,1,0,95,0,1
75028,-105.27124,4,1,0,95,0,1
75099,-106.19716,4,1,0,95,0,1
75171,-107.1529,4,1,0,95,0,1
75314,-109.10305,4,1,0,95,0,1
75457,-111.111115,4,1,0,95,0,1
75742,-76.91609,4,1,0,95,0,1
75814,-78.43345,4,1,0,95,0,1
75885,-79.989525,4,1,0,95,0,1
75956,-81.608604,4,1,0,95,0,1
76028,-83.31881,4,1,0,95,0,1
76171,-86.93727,4,1,0,95,0,1
76314,-90.8843,4,1,0,90,0,1
76385,-92.980225,4,1,0,90,0,1
76456,-95.1751,4,1,0,90,0,1
76528,-97.50932,4,1,0,90,0,1
76599,-99.926025,4,1,0,90,0,1
76885,-76.86161,4,1,0,90,0,1
77028,-77.286415,4,1,0,90,0,1
77099,-77.49907,4,1,0,90,0,1
77171,-77.71594,4,1,0,90,0,1
77314,-78.15027,4,1,0,90,0,1
77385,-78.367714,4,1,0,90,0,1
77528,-78.80938,4,1,0,90,0,1
77599,-79.03052,4,1,0,90,0,1
77742,-79.4797,4,1,0,90,0,1
77814,-79.707794,4,1,0,90,0,1
77885,-79.93402,4,1,0,90,0,1
78028,-80.39357,4,1,0,90,0,1
78099,-80.623695,4,1,0,90,0,1
78171,-80.85841,4,1,0,90,0,1
78242,-81.09123,4,1,0,90,0,1
78314,-81.32868,4,1,0,90,0,1
78456,-81.80111,4,1,0,90,0,1
78528,-82.04274,4,1,0,90,0,1
78599,-82.28244,4,1,0,90,0,1
78742,-82.769455,4,1,0,90,0,1
78885,-83.262276,4,1,0,90,0,1
79171,-84.26575,4,1,0,90,0,1
79314,-84.7766,4,1,0,90,0,1
79456,-85.290054,4,1,0,90,0,1
79528,-85.55279,4,1,0,90,0,1
79599,-85.81345,4,1,0,90,0,1
79671,-86.079414,4,1,0,90,0,1
79742,-86.34331,4,1,0,90,0,1
79885,-86.879745,4,1,0,90,0,1
80028,-87.4229,4,1,0,90,0,1
80171,-87.97288,4,1,0,90,0,1
80314,-88.52982,4,1,0,90,0,1
80385,-88.808975,4,1,0,90,0,1
80456,-89.08989,4,1,0,90,0,1
80528,-89.376595,4,1,0,90,0,1
80599,-89.66112,4,1,0,90,0,1
80742,-90.239716,4,1,0,90,0,1
80885,-90.82583,4,1,0,90,0,1
81028,-91.4196,4,1,0,90,0,1
81099,-91.71731,4,1,0,90,0,1
81171,-92.021194,4,1,0,90,0,1
81456,-93.244095,4,1,0,90,0,1
81599,-93.87002,4,1,0,90,0,1
81742,-94.50441,4,1,0,90,0,1
81885,-95.14742,4,1,0,90,0,1
81956,-95.46995,4,1,0,90,0,1
82028,-95.799255,4,1,0,90,0,1
82171,-96.46007,4,1,0,90,0,1
82242,-96.79157,4,1,0,90,0,1
82314,-97.13007,4,1,0,90,0,1
82528,-98.15029,4,1,0,90,0,1
82599,-98.49354,4,1,0,90,0,1
82742,-99.19219,4,1,0,90,0,1
82814,-99.54772,4,1,0,90,0,1
82885,-99.90081,4,1,0,90,0,1
83028,-100.619644,4,1,0,90,0,1
83171,-101.34889,4,1,0,90,0,1
83242,-101.714905,4,1,0,90,0,1
83314,-102.0888,4,1,0,90,0,1
83456,-102.834274,4,1,0,90,0,1
83742,-104.3693,4,1,0,90,0,1
83885,-105.15413,4,1,0,90,0,1
83956,-105.548195,4,1,0,90,0,1
84171,-106.759735,4,1,0,90,0,1
84242,-107.16595,4,1,0,90,0,1
84314,-107.581055,4,1,0,90,0,1
84456,-108.40924,4,1,0,90,0,1
84599,-109.25625,4,1,0,90,0,1
84671,-109.687744,4,1,0,90,0,1
84742,-110.1166,4,1,0,90,0,1
84885,-111.00512,4,1,0,90,0,1
84956,-112.045616,4,1,0,90,0,1
85028,-113.12086,4,1,0,90,0,1
85099,-114.20159,4,1,0,90,0,1
85171,-115.31883,4,1,0,90,0,1
85314,-117.603905,4,1,0,90,0,1
85456,-119.96441,4,1,0,90,0,1
85528,-121.19787,4,1,0,90,0,1
85599,-122.439285,4,1,0,90,0,1
85671,-123.72442,4,1,0,90,0,1
85743,-125.01841,4,1,0,70,0,0
90314,-119.11111,4,1,0,70,0,0
90599,-117.80896,4,1,0,70,0,0
90885,-116.53055,4,1,0,70,0,0
91171,-115.27959,4,1,0,70,0,0
91456,-114.05944,4,1,0,70,0,0
91742,-112.8607,4,1,0,70,0,0
92028,-111.6869,4,1,0,70,0,0
92314,-110.537254,4,1,0,70,0,0
92599,-109.41494,4,1,0,70,0,0
92885,-108.31136,4,1,0,70,0,0
93171,-107.22983,4,1,0,70,0,0
93456,-106.17335,4,1,0,70,0,0
93742,-105.13389,4,1,0,70,0,0
94028,-104.11458,4,1,0,70,0,0
94314,-103.11485,4,1,0,70,0,0
94599,-102.13753,4,1,0,70,0,0
94885,-101.17523,4,1,0,80,0,0
95171,-100.230896,4,1,0,80,0,0
95242,-99.99919,4,1,0,80,0,0
95314,-99.765305,4,1,0,80,0,0
95456,-99.307236,4,1,0,80,0,0
95742,-98.397285,4,1,0,80,0,0
95814,-98.17084,4,1,0,80,0,0
95885,-97.94854,4,1,0,80,0,0
95956,-97.72726,4,1,0,80,0,0
96028,-97.50387,4,1,0,80,0,0
96171,-97.06322,4,1,0,80,0,0
96314,-96.62652,4,1,0,80,0,0
96599,-95.76782,4,1,0,80,0,0
96671,-95.55329,4,1,0,80,0,0
96742,-95.34269,4,1,0,80,0,0
96814,-95.13005,4,1,0,80,0,0
96885,-94.921295,4,1,0,80,0,0
97028,-94.50363,4,1,0,80,0,0
97171,-94.08963,4,1,0,80,0,0
97456,-93.27523,4,1,0,80,0,0
97599,-92.87188,4,1,0,80,0,0
97671,-92.67012,4,1,0,80,0,0
97742,-92.472015,4,1,0,80,0,0
97814,-92.27198,4,1,0,80,0,0
97885,-92.07558,4,1,0,80,0,0
98028,-91.682526,4,1,0,80,0,0
98099,-91.48862,4,1,0,80,0,0
98171,-91.29281,4,1,0,80,0,0
98314,-90.9064,4,1,0,85,0,0
98456,-89.826385,4,1,0,85,0,0
98599,-88.76181,4,1,0,85,0,0
98742,-87.72217,4,1,0,85,0,0
98885,-86.70661,4,1,0,85,0,0
99028,-85.71429,4,1,0,85,0,0
99171,-84.74442,4,1,0,85,0,0
99242,-84.270996,4,1,0,85,0,0
99314,-83.796265,4,1,0,85,0,0
99385,-83.333336,4,1,0,85,0,0
100028,-83.32119,4,1,0,85,0,0
100171,-81.62101,4,1,0,85,0,0
100314,-79.98881,4,1,0,85,0,0
100456,-78.43137,4,1,0,85,0,0
100600,-76.92308,4,1,0,95,0,1
100742,-77.923256,4,1,0,95,0,1
100885,-78.9498,4,1,0,95,0,1
100956,-79.46958,4,1,0,95,0,1
101028,-80.00373,4,1,0,95,0,1
101099,-80.537544,4,1,0,95,0,1
101171,-81.08619,4,1,0,95,0,1
101314,-82.19835,4,1,0,95,0,1
101385,-82.76195,4,1,0,95,0,1
101528,-83.92088,4,1,0,95,0,1
101599,-84.50843,4,1,0,95,0,1
101742,-85.71714,4,1,0,95,0,1
101956,-87.591995,4,1,0,95,0,1
102171,-89.56004,4,1,0,95,0,1
102242,-90.22952,4,1,0,95,0,1
102314,-90.91873,4,1,0,95,0,1
102456,-92.30936,4,1,0,95,0,1
102599,-93.75342,4,1,0,95,0,1
102671,-94.49774,4,1,0,95,0,1
102742,-95.243385,4,1,0,95,0,1
102814,-96.01165,4,1,0,95,0,1
102885,-96.78148,4,1,0,95,0,1
103099,-99.17834,4,1,0,95,0,1
103171,-100.01167,4,1,0,95,0,1
103314,-101.709,4,1,0,95,0,1
103456,-103.452446,4,1,0,95,0,1
103528,-104.359474,4,1,0,95,0,1
103671,-106.20895,4,1,0,95,0,1
103742,-107.15178,4,1,0,95,0,1
103885,-109.10248,4,1,0,95,0,1
104028,-111.12552,4,1,0,95,0,1
104599,-90.889854,4,1,0,95,0,1
104742,-86.941124,4,1,0,95,0,1
104885,-83.32121,4,1,0,95,0,1
104956,-81.633644,4,1,0,95,0,1
105028,-79.9907,4,1,0,95,0,1
105099,-78.434074,4,1,0,95,0,1
105171,-76.9162,4,1,0,95,0,1
105314,-77.937126,4,1,0,95,0,1
105385,-78.443474,4,1,0,95,0,1
105456,-78.95646,4,1,0,95,0,1
105599,-80.01026,4,1,0,95,0,1
105742,-81.092575,4,1,0,95,0,1
105885,-82.20458,4,1,0,95,0,1
106028,-83.3475,4,1,0,95,0,1
106099,-83.92686,4,1,0,95,0,1
106171,-84.52266,4,1,0,95,0,1
106314,-85.73142,4,1,0,95,0,1
106528,-87.60634,4,1,0,95,0,1
106742,-89.5651,4,1,0,95,0,1
106814,-90.243965,4,1,0,95,0,1
106885,-90.923546,4,1,0,95,0,1
107028,-92.323845,4,1,0,95,0,1
107171,-93.767944,4,1,0,95,0,1
107242,-94.501854,4,1,0,95,0,1
107314,-95.257935,4,1,0,95,0,1
107385,-96.01545,4,1,0,95,0,1
107456,-96.78512,4,1,0,95,0,1
107599,-98.37336,4,1,0,95,0,1
107742,-100.01457,4,1,0,95,0,1
107885,-101.7115,4,1,0,95,0,1
107956,-102.5756,4,1,0,95,0,1
108029,-104.36132,4,1,0,95,0,1
108171,-105.28416,4,1,0,95,0,1
108242,-106.210304,4,1,0,95,0,1
108314,-107.16629,4,1,0,95,0,1
108456,-109.10305,4,1,0,95,0,1
108599,-111.12551,4,1,0,95,0,1
108885,-111.12551,4,1,0,95,0,1
108956,-107.17858,4,1,0,95,0,1
109028,-103.45243,4,1,0,95,0,1
109099,-100.02334,4,1,0,95,0,1
109171,-96.770546,4,1,0,95,0,1
109314,-90.899445,4,1,0,95,0,1
109456,-85.73429,4,1,0,95,0,1
109528,-83.33332,4,1,0,95,0,1
109599,-81.093864,4,1,0,95,0,1
109671,-78.94251,4,1,0,95,0,1
109742,-76.94033,4,1,0,95,0,1
109885,-78.4502,4,1,0,95,0,1
110028,-80.02052,4,1,0,95,0,1
110099,-80.82379,4,1,0,95,0,1
110171,-81.65501,4,1,0,95,0,1
110242,-82.49158,4,1,0,95,0,1
110314,-83.357635,4,1,0,95,0,1
110456,-85.12011,4,1,0,95,0,1
110528,-86.04254,4,1,0,95,0,1
110671,-87.93519,4,1,0,95,0,1
110742,-88.90616,4,1,0,95,0,1
110885,-90.92836,4,1,0,95,0,1
111099,-94.1325,4,1,0,95,0,1
111314,-97.58733,4,1,0,95,0,1
111385,-98.784615,4,1,0,95,0,1
111456,-100.01166,4,1,0,95,0,1
111599,-102.577896,4,1,0,95,0,1
111742,-105.2793,4,1,0,95,0,1
111814,-106.69402,4,1,0,95,0,1
111885,-108.12684,4,1,0,95,0,1
111956,-109.59866,4,1,0,95,0,1
112028,-111.1327,4,1,0,95,0,1
112242,-115.95671,4,1,0,95,0,1
112314,-117.67529,4,1,0,95,0,1
112456,-121.21852,4,1,0,95,0,1
112599,-125.00908,4,1,0,95,0,1
112671,-127.00878,4,1,0,95,0,1
112814,-131.17636,4,1,0,95,0,1
112885,-133.34886,4,1,0,95,0,1
113028,-137.95042,4,1,0,95,0,1
113171,-142.88092,4,1,0,95,0,1
113742,-100.01165,4,1,0,95,0,1
113885,-93.02197,4,1,0,95,0,1
114028,-86.945465,4,1,0,95,0,1
114099,-84.214134,4,1,0,95,0,1
114171,-81.61416,4,1,0,95,0,1
114242,-79.20287,4,1,0,95,0,1
114314,-76.898895,4,1,0,95,0,1
114456,-78.68521,4,1,0,95,0,1
114528,-79.60614,4,1,0,95,0,1
114599,-80.53564,4,1,0,95,0,1
114742,-82.47521,4,1,0,95,0,1
114885,-84.510506,4,1,0,95,0,1
115028,-86.648796,4,1,0,95,0,1
115171,-88.8981,4,1,0,95,0,1
115242,-90.05884,4,1,0,95,0,1
115314,-91.267296,4,1,0,95,0,1
115456,-93.748276,4,1,0,95,0,1
115671,-97.77244,4,1,0,95,0,1
115885,-102.13627,4,1,0,95,0,1
115956,-103.67143,4,1,0,95,0,1
116028,-105.27607,4,1,0,95,0,1
116171,-108.61504,4,1,0,95,0,1
116314,-112.17276,4,1,0,95,0,1
116385,-114.0272,4,1,0,95,0,1
116456,-115.94398,4,1,0,95,0,1
116528,-117.9547,4,1,0,95,0,1
116599,-120.00699,4,1,0,95,0,1
116742,-124.3651,4,1,0,95,0,1
116885,-129.05167,4,1,0,95,0,1
117028,-134.10529,4,1,0,95,0,1
117099,-136.76439,4,1,0,95,0,1
117172,-140.845070422535,4,1,0,95,0,1
117314,-145.50081,4,1,0,95,0,1
117385,-148.6363,4,1,0,95,0,1
117456,-151.90993,4,1,0,95,0,1
117599,-158.96126,4,1,0,95,0,1
117742,-166.69905,4,1,0,95,0,1
118028,-142.88092,4,1,0,95,0,1
118099,-137.97913,4,1,0,95,0,1
118171,-133.34023,4,1,0,95,0,1
118242,-129.06139,4,1,0,95,0,1
118314,-124.99389,4,1,0,95,0,1
118456,-117.67936,4,1,0,95,0,1
118599,-111.130325,4,1,0,95,0,1
118671,-108.10128,4,1,0,95,0,1
118742,-105.271774,4,1,0,95,0,1
118814,-102.54978,4,1,0,95,0,1
118886,-100,4,1,0,95,0,0

[HitObjects]
243,207,2315,5,8,0:0:0:0:
243,207,2529,1,0,0:0:0:0:
243,207,2743,1,0,0:0:0:0:
243,207,2886,1,8,0:0:0:0:
243,207,3100,1,0,0:0:0:0:
248,199,3315,1,8,0:0:0:0:
250,201,3386,1,0,0:0:0:0:
248,199,3457,1,0,0:0:0:0:
260,207,3672,1,0,0:0:0:0:
260,207,3886,1,0,0:0:0:0:
260,207,4029,1,8,0:0:0:0:
260,207,4243,1,0,0:0:0:0:
260,207,4457,1,0,0:0:0:0:
260,207,4529,1,0,0:0:0:0:
260,207,4600,1,8,0:0:0:0:
260,207,4815,1,0,0:0:0:0:
260,207,5029,1,0,0:0:0:0:
260,207,5172,1,8,0:0:0:0:
260,207,5386,1,0,0:0:0:0:
260,207,5600,1,0,0:0:0:0:
260,207,5672,1,0,0:0:0:0:
260,207,5743,1,8,0:0:0:0:
260,207,6100,1,0,0:0:0:0:
260,207,6172,1,0,0:0:0:0:
267,212,6315,1,8,0:0:0:0:
267,212,6457,1,0,0:0:0:0:
267,212,6600,1,8,0:0:0:0:
283,207,6672,1,8,0:0:0:0:
267,212,6743,1,0,0:0:0:0:
243,207,6886,1,0,0:0:0:0:
243,207,7100,1,8,0:0:0:0:
243,207,7315,1,0,0:0:0:0:
243,207,7457,1,8,0:0:0:0:
243,207,7672,1,0,0:0:0:0:
248,199,7886,1,8,0:0:0:0:
250,201,7957,1,0,0:0:0:0:
248,199,8029,1,0,0:0:0:0:
260,207,8243,1,0,0:0:0:0:
260,207,8457,1,0,0:0:0:0:
260,207,8600,1,8,0:0:0:0:
260,207,8815,1,0,0:0:0:0:
260,207,9029,1,0,0:0:0:0:
260,207,9100,1,0,0:0:0:0:
260,207,9172,1,8,0:0:0:0:
260,207,9386,1,0,0:0:0:0:
260,207,9600,1,0,0:0:0:0:
260,207,9743,1,8,0:0:0:0:
260,207,9957,1,0,0:0:0:0:
260,207,10172,1,0,0:0:0:0:
260,207,10243,1,0,0:0:0:0:
260,207,10315,1,8,0:0:0:0:
260,207,10672,1,0,0:0:0:0:
260,207,10743,1,0,0:0:0:0:
260,207,10886,1,8,0:0:0:0:
260,207,11029,1,0,0:0:0:0:
260,207,11172,1,8,0:0:0:0:
286,206,11243,1,0,0:0:0:0:
254,203,11315,1,8,0:0:0:0:
254,203,11457,1,0,0:0:0:0:
265,213,11600,1,0,0:0:0:0:
265,213,11743,1,8,0:0:0:0:
265,213,11886,1,8,0:0:0:0:
285,206,12029,1,0,0:0:0:0:
291,225,12100,1,0,0:0:0:0:
291,225,12172,1,8,0:0:0:0:
291,225,12315,1,0,0:0:0:0:
261,234,12600,1,0,0:0:0:0:
261,234,12743,1,8,0:0:0:0:
270,202,12886,1,8,0:0:0:0:
270,202,13029,1,0,0:0:0:0:
270,202,13172,1,8,0:0:0:0:
270,202,13243,1,0,0:0:0:0:
270,202,13315,1,8,0:0:0:0:
270,202,13457,1,0,0:0:0:0:
244,212,13743,1,0,0:0:0:0:
239,216,13886,1,8,0:0:0:0:
239,216,14029,1,8,0:0:0:0:
239,216,14172,1,0,0:0:0:0:
239,216,14315,1,0,0:0:0:0:
270,202,14386,1,0,0:0:0:0:
239,216,14457,1,8,0:0:0:0:
239,216,14600,1,0,0:0:0:0:
244,212,14886,1,8,0:0:0:0:
248,217,15029,1,8,0:0:0:0:
244,212,15172,1,8,0:0:0:0:
244,212,15315,1,8,0:0:0:0:
244,212,15457,1,0,0:0:0:0:
244,212,15529,1,0,0:0:0:0:
244,212,15600,1,8,0:0:0:0:
244,212,15672,1,8,0:0:0:0:
244,212,15743,1,0,0:0:0:0:
237,219,15886,1,8,0:0:0:0:
237,219,15957,1,8,0:0:0:0:
237,219,16029,1,4,0:0:0:0:
232,211,16315,1,4,0:0:0:0:
214,204,16600,1,0,0:0:0:0:
214,204,16743,1,8,0:0:0:0:
232,211,16886,1,0,0:0:0:0:
232,211,16957,1,0,0:0:0:0:
232,211,17029,1,0,0:0:0:0:
232,211,17100,1,0,0:0:0:0:
232,211,17172,1,12,0:0:0:0:
217,204,17315,1,0,0:0:0:0:
248,232,17457,1,8,0:0:0:0:
248,232,17529,1,8,0:0:0:0:
248,232,17600,1,0,0:0:0:0:
248,232,17672,1,0,0:0:0:0:
248,232,17743,1,8,0:0:0:0:
209,141,17886,1,0,0:0:0:0:
226,193,17957,1,8,0:0:0:0:
226,193,18100,1,0,0:0:0:0:
226,193,18172,1,8,0:0:0:0:
226,193,18315,1,0,0:0:0:0:
223,206,18529,1,8,0:0:0:0:
226,193,18743,1,0,0:0:0:0:
226,193,18815,1,0,0:0:0:0:
226,193,18886,1,8,0:0:0:0:
223,206,19029,1,0,0:0:0:0:
223,206,19172,1,8,0:0:0:0:
223,206,19243,1,0,0:0:0:0:
223,206,19315,1,8,0:0:0:0:
223,206,19386,1,0,0:0:0:0:
223,206,19457,1,8,0:0:0:0:
240,196,19672,1,0,0:0:0:0:
231,201,19743,1,8,0:0:0:0:
234,197,19886,1,0,0:0:0:0:
234,197,20029,1,0,0:0:0:0:
241,202,20100,1,8,0:0:0:0:
229,202,20243,1,0,0:0:0:0:
241,202,20315,1,8,0:0:0:0:
229,202,20457,1,8,0:0:0:0:
240,196,20600,1,0,0:0:0:0:
267,185,21172,1,0,0:0:0:0:
267,185,21315,1,0,0:0:0:0:
267,185,21457,1,8,0:0:0:0:
267,185,21529,1,8,0:0:0:0:
267,185,21600,1,0,0:0:0:0:
267,185,21672,1,0,0:0:0:0:
267,185,21743,1,8,0:0:0:0:
254,198,21886,1,0,0:0:0:0:
267,185,21957,1,0,0:0:0:0:
261,202,22029,1,8,0:0:0:0:
254,198,22172,1,0,0:0:0:0:
267,185,22315,1,8,0:0:0:0:
261,202,22457,1,0,0:0:0:0:
263,198,22600,1,8,0:0:0:0:
245,201,22672,1,0,0:0:0:0:
263,198,22743,1,8,0:0:0:0:
263,198,22886,1,0,0:0:0:0:
265,198,23100,1,0,0:0:0:0:
265,198,23315,1,8,0:0:0:0:
261,202,23386,1,8,0:0:0:0:
261,202,23457,1,0,0:0:0:0:
263,198,23600,1,8,0:0:0:0:
263,198,23743,1,0,0:0:0:0:
263,198,23815,1,8,0:0:0:0:
263,198,23886,1,0,0:0:0:0:
265,198,23957,1,0,0:0:0:0:
265,198,24029,1,8,0:0:0:0:
265,211,24172,1,8,0:0:0:0:
279,216,24315,1,0,0:0:0:0:
247,211,24457,1,8,0:0:0:0:
279,216,24529,1,0,0:0:0:0:
283,235,24600,1,8,0:0:0:0:
279,216,24743,1,0,0:0:0:0:
279,216,24815,1,8,0:0:0:0:
279,216,24886,1,0,0:0:0:0:
283,235,25029,1,8,0:0:0:0:
279,216,25172,1,0,0:0:0:0:
249,205,25457,1,8,0:0:0:0:
249,205,25529,1,8,0:0:0:0:
249,205,25600,1,8,0:0:0:0:
249,205,25672,1,8,0:0:0:0:
236,194,25743,1,0,0:0:0:0:
236,194,25886,1,0,0:0:0:0:
236,194,26029,1,8,0:0:0:0:
236,194,26100,1,0,0:0:0:0:
236,194,26172,1,8,0:0:0:0:
236,194,26243,1,8,0:0:0:0:
236,194,26315,1,0,0:0:0:0:
248,232,26457,1,0,0:0:0:0:
248,232,26600,1,8,0:0:0:0:
248,232,26672,1,8,0:0:0:0:
248,232,26743,1,0,0:0:0:0:
248,232,26815,1,0,0:0:0:0:
248,232,26886,1,8,0:0:0:0:
209,141,27029,1,0,0:0:0:0:
226,193,27100,1,8,0:0:0:0:
226,193,27243,1,0,0:0:0:0:
226,193,27315,1,8,0:0:0:0:
226,193,27457,1,0,0:0:0:0:
223,206,27672,1,8,0:0:0:0:
226,193,27886,1,0,0:0:0:0:
226,193,27957,1,0,0:0:0:0:
226,193,28029,1,8,0:0:0:0:
223,206,28172,1,0,0:0:0:0:
223,206,28315,1,8,0:0:0:0:
223,206,28386,1,0,0:0:0:0:
223,206,28457,1,8,0:0:0:0:
223,206,28529,1,0,0:0:0:0:
223,206,28600,1,8,0:0:0:0:
240,196,28815,1,0,0:0:0:0:
231,201,28886,1,8,0:0:0:0:
234,197,29029,1,0,0:0:0:0:
234,197,29172,1,0,0:0:0:0:
241,202,29243,1,8,0:0:0:0:
229,202,29386,1,0,0:0:0:0:
241,202,29457,1,8,0:0:0:0:
229,202,29600,1,8,0:0:0:0:
240,196,29743,1,0,0:0:0:0:
267,185,30315,1,0,0:0:0:0:
267,185,30457,1,0,0:0:0:0:
267,185,30600,1,8,0:0:0:0:
267,185,30672,1,8,0:0:0:0:
267,185,30743,1,0,0:0:0:0:
267,185,30815,1,0,0:0:0:0:
267,185,30886,1,8,0:0:0:0:
254,198,31029,1,0,0:0:0:0:
267,185,31100,1,0,0:0:0:0:
261,202,31172,1,8,0:0:0:0:
254,198,31315,1,0,0:0:0:0:
267,185,31457,1,8,0:0:0:0:
261,202,31600,1,0,0:0:0:0:
263,198,31743,1,8,0:0:0:0:
245,201,31815,1,0,0:0:0:0:
263,198,31886,1,8,0:0:0:0:
263,198,32029,1,0,0:0:0:0:
265,198,32243,1,0,0:0:0:0:
265,198,32457,1,8,0:0:0:0:
261,202,32529,1,8,0:0:0:0:
261,202,32600,1,0,0:0:0:0:
263,198,32743,1,8,0:0:0:0:
263,198,32886,1,0,0:0:0:0:
263,198,32957,1,8,0:0:0:0:
263,198,33029,1,0,0:0:0:0:
265,198,33100,1,0,0:0:0:0:
265,198,33172,1,8,0:0:0:0:
265,211,33315,1,8,0:0:0:0:
279,216,33457,1,0,0:0:0:0:
247,211,33600,1,8,0:0:0:0:
279,216,33672,1,0,0:0:0:0:
283,235,33743,1,8,0:0:0:0:
279,216,33886,1,0,0:0:0:0:
279,216,33957,1,8,0:0:0:0:
279,216,34029,1,0,0:0:0:0:
283,235,34172,1,8,0:0:0:0:
279,216,34315,1,0,0:0:0:0:
249,205,34600,1,8,0:0:0:0:
249,205,34672,1,8,0:0:0:0:
249,205,34743,1,8,0:0:0:0:
249,205,34815,1,8,0:0:0:0:
236,194,34886,1,0,0:0:0:0:
236,194,35029,1,0,0:0:0:0:
236,194,35172,1,8,0:0:0:0:
236,194,35243,1,8,0:0:0:0:
236,194,35315,1,0,0:0:0:0:
236,194,35386,1,0,0:0:0:0:
236,194,35457,1,12,0:0:0:0:
244,224,36029,1,12,0:0:0:0:
244,224,36172,1,12,0:0:0:0:
244,224,36315,1,12,0:0:0:0:
244,224,36457,1,12,0:0:0:0:
244,224,36600,1,4,0:0:0:0:
253,197,36886,1,8,0:0:0:0:
256,207,37029,1,0,0:0:0:0:
256,207,37172,1,8,0:0:0:0:
256,207,37243,1,0,0:0:0:0:
253,197,37315,1,0,0:0:0:0:
276,187,37457,1,8,0:0:0:0:
234,192,37600,1,8,0:0:0:0:
253,197,37743,1,8,0:0:0:0:
253,197,37815,1,0,0:0:0:0:
256,204,37886,1,0,0:0:0:0:
275,190,38029,1,8,0:0:0:0:
242,204,38172,1,0,0:0:0:0:
242,204,38243,1,8,0:0:0:0:
242,204,38315,1,0,0:0:0:0:
256,204,38457,1,8,0:0:0:0:
271,192,38600,1,0,0:0:0:0:
256,204,38743,1,12,0:0:0:0:
256,204,38886,1,4,0:0:0:0:
256,204,39172,1,8,0:0:0:0:
244,209,39315,1,8,0:0:0:0:
231,208,39457,1,0,0:0:0:0:
231,208,39529,1,0,0:0:0:0:
256,204,39600,1,0,0:0:0:0:
244,209,39743,1,8,0:0:0:0:
249,211,39886,1,0,0:0:0:0:
256,204,40029,1,8,0:0:0:0:
256,204,40100,1,0,0:0:0:0:
256,204,40172,1,0,0:0:0:0:
245,202,40315,1,8,0:0:0:0:
245,202,40457,1,8,0:0:0:0:
258,211,40600,1,0,0:0:0:0:
256,204,40743,1,8,0:0:0:0:
253,192,40886,1,0,0:0:0:0:
247,206,41029,1,8,0:0:0:0:
247,206,41100,1,8,0:0:0:0:
256,204,41172,1,4,0:0:0:0:
256,204,41457,1,8,0:0:0:0:
271,198,41600,1,0,0:0:0:0:
272,198,41743,1,8,0:0:0:0:
271,198,41815,1,0,0:0:0:0:
265,207,41886,1,0,0:0:0:0:
258,202,42029,1,8,0:0:0:0:
264,210,42172,1,0,0:0:0:0:
256,204,42315,1,8,0:0:0:0:
256,204,42386,1,8,0:0:0:0:
265,207,42457,1,0,0:0:0:0:
258,202,42600,1,8,0:0:0:0:
236,201,42743,1,0,0:0:0:0:
236,201,42815,1,8,0:0:0:0:
236,201,42886,1,0,0:0:0:0:
265,207,43029,1,8,0:0:0:0:
246,195,43172,1,0,0:0:0:0:
265,207,43315,1,12,0:0:0:0:
265,207,43457,1,4,0:0:0:0:
274,206,43743,1,8,0:0:0:0:
237,186,43886,1,8,0:0:0:0:
271,198,44029,1,0,0:0:0:0:
271,198,44100,1,0,0:0:0:0:
274,206,44172,1,0,0:0:0:0:
242,186,44315,1,8,0:0:0:0:
268,202,44457,1,0,0:0:0:0:
269,216,44600,1,8,0:0:0:0:
267,214,44672,1,8,0:0:0:0:
274,206,44743,1,0,0:0:0:0:
260,202,44886,1,8,0:0:0:0:
271,198,45029,1,0,0:0:0:0:
301,212,45172,1,8,0:0:0:0:
274,206,45315,1,8,0:0:0:0:
282,217,45457,1,0,0:0:0:0:
262,198,45600,1,0,0:0:0:0:
262,198,45672,1,0,0:0:0:0:
274,206,45743,1,8,0:0:0:0:
276,207,46029,1,8,0:0:0:0:
270,184,46172,1,0,0:0:0:0:
270,184,46243,1,8,0:0:0:0:
276,207,46457,1,0,0:0:0:0:
276,207,46529,1,8,0:0:0:0:
270,184,46743,1,0,0:0:0:0:
270,184,46815,1,8,0:0:0:0:
270,184,46886,1,8,0:0:0:0:
269,196,47172,1,8,0:0:0:0:
209,203,47315,1,0,0:0:0:0:
209,203,47386,1,8,0:0:0:0:
209,203,47600,1,0,0:0:0:0:
209,203,47672,1,8,0:0:0:0:
228,202,47886,1,0,0:0:0:0:
228,202,48029,1,0,0:0:0:0:
180,190,48172,1,0,0:0:0:0:
210,190,48315,1,8,0:0:0:0:
191,199,48457,1,0,0:0:0:0:
191,199,48529,1,8,0:0:0:0:
191,199,48600,1,0,0:0:0:0:
197,212,48743,1,8,0:0:0:0:
191,199,48815,1,0,0:0:0:0:
223,213,48957,1,8,0:0:0:0:
223,213,49029,1,0,0:0:0:0:
307,222,49172,1,8,0:0:0:0:
307,222,49457,1,0,0:0:0:0:
307,222,49600,1,8,0:0:0:0:
307,222,49672,1,8,0:0:0:0:
307,222,49743,1,0,0:0:0:0:
307,222,49886,1,8,0:0:0:0:
307,222,49957,1,8,0:0:0:0:
307,222,50029,1,0,0:0:0:0:
307,222,50100,1,0,0:0:0:0:
307,222,50172,1,8,0:0:0:0:
307,222,50315,1,0,0:0:0:0:
311,230,50600,1,8,0:0:0:0:
311,230,50743,1,0,0:0:0:0:
311,230,50815,1,8,0:0:0:0:
311,230,50957,1,0,0:0:0:0:
311,230,51029,1,8,0:0:0:0:
311,230,51172,1,0,0:0:0:0:
311,230,51315,1,8,0:0:0:0:
311,230,51386,1,0,0:0:0:0:
311,230,51457,1,0,0:0:0:0:
314,238,51743,1,0,0:0:0:0:
319,253,51886,1,0,0:0:0:0:
319,253,51957,1,8,0:0:0:0:
319,253,52100,1,0,0:0:0:0:
319,253,52172,1,8,0:0:0:0:
309,242,52315,1,0,0:0:0:0:
309,242,52457,1,0,0:0:0:0:
309,242,52600,1,8,0:0:0:0:
319,253,52886,1,8,0:0:0:0:
319,253,53172,1,8,0:0:0:0:
329,240,53315,1,0,0:0:0:0:
329,240,53386,1,8,0:0:0:0:
329,240,53457,1,0,0:0:0:0:
329,240,53529,1,8,0:0:0:0:
329,240,53600,1,0,0:0:0:0:
319,253,53743,1,8,0:0:0:0:
319,253,54029,1,0,0:0:0:0:
319,253,54172,1,8,0:0:0:0:
319,253,54243,1,0,0:0:0:0:
319,253,54315,1,0,0:0:0:0:
319,253,54457,1,8,0:0:0:0:
319,253,54529,1,8,0:0:0:0:
319,253,54600,1,0,0:0:0:0:
319,253,54672,1,0,0:0:0:0:
319,253,54743,1,8,0:0:0:0:
319,253,54886,1,0,0:0:0:0:
312,234,55029,1,8,0:0:0:0:
312,234,55172,1,8,0:0:0:0:
257,207,55315,1,0,0:0:0:0:
293,221,55457,1,0,0:0:0:0:
257,207,55743,1,8,0:0:0:0:
231,199,55886,1,0,0:0:0:0:
231,199,56029,1,0,0:0:0:0:
242,211,56172,1,8,0:0:0:0:
242,211,56243,1,8,0:0:0:0:
242,211,56315,1,8,0:0:0:0:
251,202,56457,1,0,0:0:0:0:
251,211,56600,1,8,0:0:0:0:
242,211,56672,1,8,0:0:0:0:
242,211,56743,1,8,0:0:0:0:
242,211,56815,1,8,0:0:0:0:
242,211,56886,1,8,0:0:0:0:
261,224,57029,1,0,0:0:0:0:
251,219,57172,1,0,0:0:0:0:
249,227,57315,1,8,0:0:0:0:
249,227,57386,1,0,0:0:0:0:
249,227,57457,1,8,0:0:0:0:
245,216,57743,1,0,0:0:0:0:
235,216,57886,1,8,0:0:0:0:
242,221,58029,1,8,0:0:0:0:
270,221,58172,1,0,0:0:0:0:
270,212,58315,1,8,0:0:0:0:
270,212,58386,1,8,0:0:0:0:
270,212,58457,1,8,0:0:0:0:
272,211,58600,1,0,0:0:0:0:
272,211,58672,1,8,0:0:0:0:
272,211,58743,1,0,0:0:0:0:
272,211,58815,1,0,0:0:0:0:
272,211,58886,1,8,0:0:0:0:
261,198,59029,1,0,0:0:0:0:
261,198,59100,1,0,0:0:0:0:
261,198,59172,1,0,0:0:0:0:
295,212,59315,1,8,0:0:0:0:
275,208,59457,1,0,0:0:0:0:
285,219,59600,1,8,0:0:0:0:
272,211,59743,1,0,0:0:0:0:
272,197,59815,1,0,0:0:0:0:
269,199,59886,1,8,0:0:0:0:
269,199,59957,1,8,0:0:0:0:
269,199,60029,1,0,0:0:0:0:
265,205,60315,1,8,0:0:0:0:
266,205,60457,1,0,0:0:0:0:
274,207,60529,1,0,0:0:0:0:
274,207,60600,1,0,0:0:0:0:
282,207,60743,1,8,0:0:0:0:
282,207,60886,1,8,0:0:0:0:
253,201,61029,1,0,0:0:0:0:
253,201,61100,1,0,0:0:0:0:
253,201,61172,1,8,0:0:0:0:
253,201,61315,1,0,0:0:0:0:
244,197,61457,1,8,0:0:0:0:
244,197,61600,1,8,0:0:0:0:
226,202,61743,1,0,0:0:0:0:
282,207,62029,1,8,0:0:0:0:
282,207,62100,1,0,0:0:0:0:
282,207,62172,1,8,0:0:0:0:
282,207,62315,1,8,0:0:0:0:
282,207,62386,1,8,0:0:0:0:
282,207,62457,1,8,0:0:0:0:
282,207,62529,1,8,0:0:0:0:
245,208,62600,1,0,0:0:0:0:
256,200,62743,1,0,0:0:0:0:
226,202,62886,1,8,0:0:0:0:
262,202,63172,1,0,0:0:0:0:
270,208,63315,1,8,0:0:0:0:
256,195,63457,1,0,0:0:0:0:
256,195,63529,1,0,0:0:0:0:
256,195,63600,1,8,0:0:0:0:
256,200,63743,1,0,0:0:0:0:
268,191,63886,1,8,0:0:0:0:
268,191,63957,1,8,0:0:0:0:
283,195,64029,1,0,0:0:0:0:
283,195,64172,1,8,0:0:0:0:
291,202,64315,1,0,0:0:0:0:
283,195,64457,1,8,0:0:0:0:
291,202,64600,1,0,0:0:0:0:
294,191,64743,1,8,0:0:0:0:
215,166,64886,1,0,0:0:0:0:
215,166,64957,1,0,0:0:0:0:
215,166,65029,1,0,0:0:0:0:
215,166,65100,1,0,0:0:0:0:
247,179,67172,1,8,0:0:0:0:
232,211,67457,1,12,0:0:0:0:
217,204,67600,1,0,0:0:0:0:
248,232,67743,1,8,0:0:0:0:
248,232,67815,1,8,0:0:0:0:
248,232,67886,1,0,0:0:0:0:
248,232,67957,1,0,0:0:0:0:
248,232,68029,1,8,0:0:0:0:
209,141,68172,1,0,0:0:0:0:
226,193,68243,1,8,0:0:0:0:
226,193,68386,1,0,0:0:0:0:
226,193,68457,1,8,0:0:0:0:
226,193,68600,1,0,0:0:0:0:
223,206,68815,1,8,0:0:0:0:
226,193,69029,1,0,0:0:0:0:
226,193,69100,1,0,0:0:0:0:
226,193,69172,1,8,0:0:0:0:
223,206,69315,1,0,0:0:0:0:
223,206,69457,1,8,0:0:0:0:
223,206,69529,1,0,0:0:0:0:
223,206,69600,1,8,0:0:0:0:
223,206,69672,1,0,0:0:0:0:
223,206,69743,1,8,0:0:0:0:
240,196,69957,1,0,0:0:0:0:
231,201,70029,1,8,0:0:0:0:
234,197,70172,1,0,0:0:0:0:
234,197,70315,1,0,0:0:0:0:
241,202,70386,1,8,0:0:0:0:
229,202,70529,1,0,0:0:0:0:
241,202,70600,1,8,0:0:0:0:
229,202,70743,1,8,0:0:0:0:
240,196,70886,1,0,0:0:0:0:
267,185,71457,1,0,0:0:0:0:
267,185,71600,1,0,0:0:0:0:
267,185,71743,1,8,0:0:0:0:
267,185,71815,1,8,0:0:0:0:
267,185,71886,1,0,0:0:0:0:
267,185,71957,1,0,0:0:0:0:
267,185,72029,1,8,0:0:0:0:
254,198,72172,1,0,0:0:0:0:
267,185,72243,1,0,0:0:0:0:
261,202,72315,1,8,0:0:0:0:
254,198,72457,1,0,0:0:0:0:
267,185,72600,1,8,0:0:0:0:
261,202,72743,1,0,0:0:0:0:
263,198,72886,1,8,0:0:0:0:
245,201,72957,1,0,0:0:0:0:
263,198,73029,1,8,0:0:0:0:
263,198,73172,1,0,0:0:0:0:
265,198,73386,1,0,0:0:0:0:
265,198,73600,1,8,0:0:0:0:
261,202,73672,1,8,0:0:0:0:
261,202,73743,1,0,0:0:0:0:
263,198,73886,1,8,0:0:0:0:
263,198,74029,1,0,0:0:0:0:
263,198,74100,1,8,0:0:0:0:
263,198,74172,1,0,0:0:0:0:
265,198,74243,1,0,0:0:0:0:
265,198,74315,1,8,0:0:0:0:
265,211,74457,1,8,0:0:0:0:
279,216,74600,1,0,0:0:0:0:
247,211,74743,1,8,0:0:0:0:
279,216,74815,1,0,0:0:0:0:
283,235,74886,1,8,0:0:0:0:
279,216,75029,1,0,0:0:0:0:
279,216,75100,1,8,0:0:0:0:
279,216,75172,1,0,0:0:0:0:
283,235,75315,1,8,0:0:0:0:
279,216,75457,1,0,0:0:0:0:
267,230,75743,1,8,0:0:0:0:
267,230,75815,1,8,0:0:0:0:
267,230,75886,1,8,0:0:0:0:
267,230,75957,1,8,0:0:0:0:
267,230,76029,1,0,0:0:0:0:
312,239,76172,1,0,0:0:0:0:
271,224,76315,1,8,0:0:0:0:
271,224,76386,1,0,0:0:0:0:
271,224,76457,1,8,0:0:0:0:
271,224,76529,1,0,0:0:0:0:
271,224,76600,1,12,0:0:0:0:
253,197,76886,1,8,0:0:0:0:
256,207,77029,1,0,0:0:0:0:
281,182,77100,1,0,0:0:0:0:
256,207,77172,1,8,0:0:0:0:
253,197,77315,1,0,0:0:0:0:
276,187,77386,1,8,0:0:0:0:
234,192,77529,1,0,0:0:0:0:
231,187,77600,1,8,0:0:0:0:
256,204,77743,1,8,0:0:0:0:
253,197,77815,1,0,0:0:0:0:
253,197,77886,1,0,0:0:0:0:
275,190,78029,1,8,0:0:0:0:
225,161,78100,1,0,0:0:0:0:
242,204,78172,1,8,0:0:0:0:
242,204,78243,1,8,0:0:0:0:
242,204,78315,1,0,0:0:0:0:
256,204,78457,1,8,0:0:0:0:
262,187,78529,1,0,0:0:0:0:
271,192,78600,1,0,0:0:0:0:
256,204,78743,1,12,0:0:0:0:
256,204,78886,1,4,0:0:0:0:
256,204,79172,1,8,0:0:0:0:
244,209,79315,1,8,0:0:0:0:
231,208,79457,1,0,0:0:0:0:
268,191,79529,1,8,0:0:0:0:
256,204,79600,1,0,0:0:0:0:
244,209,79672,1,8,0:0:0:0:
255,216,79743,1,0,0:0:0:0:
256,204,79886,1,8,0:0:0:0:
249,211,80029,1,0,0:0:0:0:
256,204,80172,1,8,0:0:0:0:
245,202,80315,1,0,0:0:0:0:
229,195,80386,1,8,0:0:0:0:
245,202,80457,1,0,0:0:0:0:
252,196,80529,1,0,0:0:0:0:
258,211,80600,1,8,0:0:0:0:
237,176,80743,1,8,0:0:0:0:
256,204,80886,1,0,0:0:0:0:
247,206,81029,1,8,0:0:0:0:
247,206,81100,1,8,0:0:0:0:
256,204,81172,1,4,0:0:0:0:
256,204,81457,1,8,0:0:0:0:
271,198,81600,1,0,0:0:0:0:
271,198,81743,1,0,0:0:0:0:
259,205,81886,1,8,0:0:0:0:
265,207,81957,1,0,0:0:0:0:
258,202,82029,1,8,0:0:0:0:
264,210,82172,1,0,0:0:0:0:
256,204,82243,1,0,0:0:0:0:
256,204,82315,1,8,0:0:0:0:
265,207,82529,1,8,0:0:0:0:
258,202,82600,1,8,0:0:0:0:
236,201,82743,1,0,0:0:0:0:
236,201,82815,1,8,0:0:0:0:
236,201,82886,1,0,0:0:0:0:
265,207,83029,1,8,0:0:0:0:
246,195,83172,1,0,0:0:0:0:
241,190,83243,1,0,0:0:0:0:
265,207,83315,1,12,0:0:0:0:
265,207,83457,1,4,0:0:0:0:
274,206,83743,1,0,0:0:0:0:
237,186,83886,1,8,0:0:0:0:
271,198,83957,1,0,0:0:0:0:
274,206,84172,1,0,0:0:0:0:
271,198,84243,1,0,0:0:0:0:
242,186,84315,1,8,0:0:0:0:
268,202,84457,1,0,0:0:0:0:
269,216,84600,1,8,0:0:0:0:
267,214,84672,1,0,0:0:0:0:
274,206,84743,1,8,0:0:0:0:
260,202,84886,1,8,0:0:0:0:
221,213,84957,1,8,0:0:0:0:
271,198,85029,1,8,0:0:0:0:
251,211,85100,1,8,0:0:0:0:
301,212,85172,1,0,0:0:0:0:
274,206,85315,1,8,0:0:0:0:
232,207,85457,1,0,0:0:0:0:
232,207,85529,1,0,0:0:0:0:
232,207,85600,1,0,0:0:0:0:
232,207,85672,1,0,0:0:0:0:
232,207,85743,1,12,0:0:0:0:
238,208,90315,1,0,0:0:0:0:
241,210,90600,1,8,0:0:0:0:
238,208,90886,1,0,0:0:0:0:
241,210,91172,1,8,0:0:0:0:
241,210,91457,1,0,0:0:0:0:
246,199,91743,1,8,0:0:0:0:
241,210,92029,1,0,0:0:0:0:
246,199,92315,1,8,0:0:0:0:
249,215,92600,1,0,0:0:0:0:
246,199,92886,1,8,0:0:0:0:
249,215,93172,1,0,0:0:0:0:
246,199,93457,1,8,0:0:0:0:
249,215,93743,1,0,0:0:0:0:
246,199,94029,1,8,0:0:0:0:
249,215,94315,1,0,0:0:0:0:
246,199,94600,1,8,0:0:0:0:
246,199,94886,1,0,0:0:0:0:
255,210,95172,1,8,0:0:0:0:
255,210,95243,1,0,0:0:0:0:
255,210,95315,1,0,0:0:0:0:
255,210,95457,1,8,0:0:0:0:
238,211,95743,1,0,0:0:0:0:
238,211,95815,1,0,0:0:0:0:
238,211,95886,1,8,0:0:0:0:
238,211,95957,1,0,0:0:0:0:
238,211,96029,1,8,0:0:0:0:
238,211,96172,1,0,0:0:0:0:
238,211,96315,1,8,0:0:0:0:
263,199,96600,1,8,0:0:0:0:
263,199,96672,1,8,0:0:0:0:
263,199,96743,1,0,0:0:0:0:
263,199,96815,1,8,0:0:0:0:
263,199,96886,1,0,0:0:0:0:
263,199,97029,1,8,0:0:0:0:
263,199,97172,1,0,0:0:0:0:
263,199,97457,1,0,0:0:0:0:
261,206,97600,1,8,0:0:0:0:
261,206,97672,1,0,0:0:0:0:
261,206,97743,1,8,0:0:0:0:
261,206,97815,1,0,0:0:0:0:
261,206,97886,1,8,0:0:0:0:
261,206,98029,1,0,0:0:0:0:
261,206,98100,1,0,0:0:0:0:
261,206,98172,1,8,0:0:0:0:
238,220,98315,1,8,0:0:0:0:
238,220,98457,1,0,0:0:0:0:
238,220,98600,1,8,0:0:0:0:
238,220,98743,1,0,0:0:0:0:
238,220,98886,1,8,0:0:0:0:
238,220,99029,1,0,0:0:0:0:
242,237,99172,1,8,0:0:0:0:
242,237,99243,1,8,0:0:0:0:
242,237,99315,1,8,0:0:0:0:
242,237,99386,1,8,0:0:0:0:
250,215,100029,1,8,0:0:0:0:
250,215,100172,1,8,0:0:0:0:
250,215,100315,1,8,0:0:0:0:
250,215,100457,1,8,0:0:0:0:
232,211,100600,1,12,0:0:0:0:
217,204,100743,1,0,0:0:0:0:
248,232,100886,1,8,0:0:0:0:
248,232,100957,1,8,0:0:0:0:
248,232,101029,1,0,0:0:0:0:
248,232,101100,1,0,0:0:0:0:
248,232,101172,1,8,0:0:0:0:
209,141,101315,1,0,0:0:0:0:
226,193,101386,1,8,0:0:0:0:
226,193,101529,1,0,0:0:0:0:
226,193,101600,1,8,0:0:0:0:
226,193,101743,1,0,0:0:0:0:
223,206,101957,1,8,0:0:0:0:
226,193,102172,1,0,0:0:0:0:
226,193,102243,1,0,0:0:0:0:
226,193,102315,1,8,0:0:0:0:
223,206,102457,1,0,0:0:0:0:
223,206,102600,1,8,0:0:0:0:
223,206,102672,1,0,0:0:0:0:
223,206,102743,1,8,0:0:0:0:
223,206,102815,1,0,0:0:0:0:
223,206,102886,1,8,0:0:0:0:
240,196,103100,1,0,0:0:0:0:
231,201,103172,1,8,0:0:0:0:
234,197,103315,1,0,0:0:0:0:
234,197,103457,1,0,0:0:0:0:
241,202,103529,1,8,0:0:0:0:
229,202,103672,1,0,0:0:0:0:
241,202,103743,1,8,0:0:0:0:
229,202,103886,1,8,0:0:0:0:
240,196,104029,1,0,0:0:0:0:
267,185,104600,1,0,0:0:0:0:
267,185,104743,1,0,0:0:0:0:
267,185,104886,1,8,0:0:0:0:
267,185,104957,1,8,0:0:0:0:
267,185,105029,1,0,0:0:0:0:
267,185,105100,1,0,0:0:0:0:
267,185,105172,1,8,0:0:0:0:
254,198,105315,1,0,0:0:0:0:
267,185,105386,1,0,0:0:0:0:
261,202,105457,1,8,0:0:0:0:
254,198,105600,1,0,0:0:0:0:
267,185,105743,1,8,0:0:0:0:
261,202,105886,1,0,0:0:0:0:
263,198,106029,1,8,0:0:0:0:
245,201,106100,1,0,0:0:0:0:
263,198,106172,1,8,0:0:0:0:
263,198,106315,1,0,0:0:0:0:
265,198,106529,1,0,0:0:0:0:
265,198,106743,1,8,0:0:0:0:
261,202,106815,1,8,0:0:0:0:
261,202,106886,1,0,0:0:0:0:
263,198,107029,1,8,0:0:0:0:
263,198,107172,1,0,0:0:0:0:
263,198,107243,1,8,0:0:0:0:
263,198,107315,1,0,0:0:0:0:
265,198,107386,1,0,0:0:0:0:
265,198,107457,1,8,0:0:0:0:
265,211,107600,1,8,0:0:0:0:
279,216,107743,1,0,0:0:0:0:
247,211,107886,1,8,0:0:0:0:
279,216,107957,1,0,0:0:0:0:
283,235,108029,1,8,0:0:0:0:
279,216,108172,1,0,0:0:0:0:
279,216,108243,1,8,0:0:0:0:
279,216,108315,1,0,0:0:0:0:
283,235,108457,1,8,0:0:0:0:
279,216,108600,1,0,0:0:0:0:
249,205,108886,1,8,0:0:0:0:
249,205,108957,1,8,0:0:0:0:
249,205,109029,1,8,0:0:0:0:
249,205,109100,1,8,0:0:0:0:
236,194,109172,1,0,0:0:0:0:
236,194,109315,1,0,0:0:0:0:
236,194,109457,1,8,0:0:0:0:
236,194,109529,1,0,0:0:0:0:
236,194,109600,1,8,0:0:0:0:
236,194,109672,1,8,0:0:0:0:
236,194,109743,1,0,0:0:0:0:
248,232,109886,1,0,0:0:0:0:
248,232,110029,1,8,0:0:0:0:
248,232,110100,1,8,0:0:0:0:
248,232,110172,1,0,0:0:0:0:
248,232,110243,1,0,0:0:0:0:
248,232,110315,1,8,0:0:0:0:
209,141,110457,1,0,0:0:0:0:
226,193,110529,1,8,0:0:0:0:
226,193,110672,1,0,0:0:0:0:
226,193,110743,1,8,0:0:0:0:
226,193,110886,1,0,0:0:0:0:
223,206,111100,1,8,0:0:0:0:
226,193,111315,1,0,0:0:0:0:
226,193,111386,1,0,0:0:0:0:
226,193,111457,1,8,0:0:0:0:
223,206,111600,1,0,0:0:0:0:
223,206,111743,1,8,0:0:0:0:
223,206,111815,1,0,0:0:0:0:
223,206,111886,1,8,0:0:0:0:
223,206,111957,1,0,0:0:0:0:
223,206,112029,1,8,0:0:0:0:
240,196,112243,1,0,0:0:0:0:
231,201,112315,1,8,0:0:0:0:
234,197,112457,1,0,0:0:0:0:
234,197,112600,1,0,0:0:0:0:
241,202,112672,1,8,0:0:0:0:
229,202,112815,1,0,0:0:0:0:
241,202,112886,1,8,0:0:0:0:
229,202,113029,1,8,0:0:0:0:
240,196,113172,1,0,0:0:0:0:
267,185,113743,1,0,0:0:0:0:
267,185,113886,1,0,0:0:0:0:
267,185,114029,1,8,0:0:0:0:
267,185,114100,1,8,0:0:0:0:
267,185,114172,1,0,0:0:0:0:
267,185,114243,1,0,0:0:0:0:
267,185,114315,1,8,0:0:0:0:
254,198,114457,1,0,0:0:0:0:
267,185,114529,1,0,0:0:0:0:
261,202,114600,1,8,0:0:0:0:
254,198,114743,1,0,0:0:0:0:
267,185,114886,1,8,0:0:0:0:
261,202,115029,1,0,0:0:0:0:
263,198,115172,1,8,0:0:0:0:
245,201,115243,1,0,0:0:0:0:
263,198,115315,1,8,0:0:0:0:
263,198,115457,1,0,0:0:0:0:
265,198,115672,1,0,0:0:0:0:
265,198,115886,1,8,0:0:0:0:
261,202,115957,1,8,0:0:0:0:
261,202,116029,1,0,0:0:0:0:
263,198,116172,1,8,0:0:0:0:
263,198,116315,1,0,0:0:0:0:
263,198,116386,1,8,0:0:0:0:
263,198,116457,1,0,0:0:0:0:
265,198,116529,1,0,0:0:0:0:
265,198,116600,1,8,0:0:0:0:
265,211,116743,1,8,0:0:0:0:
279,216,116886,1,0,0:0:0:0:
247,211,117029,1,8,0:0:0:0:
279,216,117100,1,0,0:0:0:0:
283,235,117172,1,8,0:0:0:0:
279,216,117315,1,0,0:0:0:0:
279,216,117386,1,8,0:0:0:0:
279,216,117457,1,0,0:0:0:0:
283,235,117600,1,8,0:0:0:0:
279,216,117743,1,0,0:0:0:0:
249,205,118029,1,8,0:0:0:0:
249,205,118100,1,8,0:0:0:0:
249,205,118172,1,8,0:0:0:0:
249,205,118243,1,8,0:0:0:0:
236,194,118315,1,0,0:0:0:0:
236,194,118457,1,0,0:0:0:0:
236,194,118600,1,8,0:0:0:0:
236,194,118672,1,8,0:0:0:0:
236,194,118743,1,0,0:0:0:0:
236,194,118815,1,0,0:0:0:0:
236,194,118886,1,12,0:0:0:0:
