osu file format v14

[General]
AudioFilename: audio.ogg
AudioLeadIn: 0
PreviewTime: 67132
Countdown: 0
SampleSet: Normal
StackLeniency: 0.7
Mode: 1
LetterboxInBreaks: 0
WidescreenStoryboard: 1

[Editor]
Bookmarks: 2274,11417,17132,35417,45703,54846,63989,67417,76560,85703,100560,118846
DistanceSpacing: 1
BeatDivisor: 4
GridSize: 4
TimelineZoom: 2.4

[Metadata]
Title:you make me wana kill myslef
TitleUnicode:you make me wana kill myslef
Artist:watering
ArtistUnicode:watering
Creator:Slim-san
Version:x muzukashii x
Source:
Tags:electronic instrumental english slim san breakcore Alexandra Stan remix Mr. Saxobeat yoshi nightcore music that pops your balls v3 wanna myself
BeatmapID:3759236
BeatmapSetID:1831379

[Difficulty]
HPDrainRate:7
CircleSize:4
OverallDifficulty:5
ApproachRate:9
SliderMultiplier:1.4
SliderTickRate:1

[Events]
//Background and Video events
0,0,"84154784_p0.jpg",0,50
//Break Periods
//Storyboard Layer 0 (Background)
//Storyboard Layer 1 (Fail)
//Storyboard Layer 2 (Pass)
//Storyboard Layer 3 (Foreground)
//Storyboard Layer 4 (Overlay)
//Storyboard Sound Samples

[TimingPoints]
2315,285.714285714286,4,1,0,80,1,0
2315,-125,4,1,0,80,0,0
12029,-121.951219512195,4,1,0,85,0,0
12600,-119.047619047619,4,1,0,85,0,0
13172,-116.279069767442,4,1,0,85,0,0
13743,-113.636363636364,4,1,0,85,0,0
14315,-111.111111111111,4,1,0,85,0,0
14886,-109.89010989011,4,1,0,85,0,0
15029,-108.695652173913,4,1,0,85,0,0
15172,-107.52688172043,4,1,0,85,0,0
15315,-106.382978723404,4,1,0,85,0,0
15457,-105.263157894737,4,1,0,90,0,0
15529,-104.166666666667,4,1,0,90,0,0
15600,-103.092783505155,4,1,0,90,0,0
15743,-102.040816326531,4,1,0,90,0,0
15815,-101.010101010101,4,1,0,90,0,0
15886,-100,4,1,0,90,0,0
16600,-98.0392156862745,4,1,0,90,0,0
16886,-96.1538461538461,4,1,0,90,0,0
16957,-94.3396226415094,4,1,0,90,0,0
17029,-92.5925925925926,4,1,0,90,0,0
17172,-90.9090909090909,4,1,0,95,0,1
35029,-92.5925925925926,4,1,0,95,0,1
35172,-94.3396226415094,4,1,0,95,0,1
35243,-96.1538461538461,4,1,0,95,0,1
35315,-98.0392156862745,4,1,0,95,0,1
35457,-100,4,1,0,95,0,0
36029,-133.333333333333,4,1,0,85,0,0
36172,-125,4,1,0,85,0,0
36315,-117.647058823529,4,1,0,85,0,0
36457,-111.111111111111,4,1,0,85,0,0
36600,-105.263157894737,4,1,0,85,0,0
45029,-106.382978723404,4,1,0,85,0,0
45172,-107.52688172043,4,1,0,85,0,0
45315,-108.695652173913,4,1,0,85,0,0
45457,-109.89010989011,4,1,0,85,0,0
45600,-109.89010989011,4,1,0,80,0,0
45672,-110.497237569061,4,1,0,80,0,0
45743,-111.111111111111,4,1,0,80,0,0
54315,-108.695652173913,4,1,0,80,0,0
54457,-106.382978723404,4,1,0,80,0,0
54600,-104.166666666667,4,1,0,85,0,0
54672,-102.040816326531,4,1,0,85,0,0
54743,-100,4,1,0,85,0,0
54886,-100,4,1,0,85,0,0
64029,-99.009900990099,4,1,0,90,0,0
64172,-98.0392156862745,4,1,0,90,0,0
64315,-97.0873786407767,4,1,0,90,0,0
64457,-96.1538461538461,4,1,0,90,0,0
64600,-95.2380952380952,4,1,0,90,0,0
64743,-94.3396226415094,4,1,0,90,0,0
64886,-93.4579439252336,4,1,0,90,0,0
64957,-92.5925925925926,4,1,0,90,0,0
65029,-91.743119266055,4,1,0,90,0,0
67457,-90.9090909090909,4,1,0,95,0,1
75457,-90.9090909090909,4,1,0,95,0,1
76029,-100,4,1,0,85,0,1
76172,-102.040816326531,4,1,0,85,0,1
76315,-104.166666666667,4,1,0,85,0,1
76386,-106.382978723404,4,1,0,85,0,1
76457,-108.695652173913,4,1,0,85,0,1
76600,-111.111111111111,4,1,0,85,0,1
85029,-113.636363636364,4,1,0,85,0,1
85172,-116.279069767442,4,1,0,85,0,1
85315,-119.047619047619,4,1,0,85,0,1
85457,-121.951219512195,4,1,0,85,0,1
85599,-125,4,1,0,85,0,1
85671,-124.754395,4,1,0,85,0,1
85743,-124.51315,4,1,0,85,0,0
86029,-123.456790123457,4,1,0,70,0,0
90314,-110.72539,4,1,0,70,0,0
90599,-109.96632,4,1,0,70,0,0
90885,-109.21499,4,1,0,70,0,0
91171,-108.47385,4,1,0,80,0,0
91456,-107.74525,4,1,0,80,0,0
91742,-107.02385,4,1,0,80,0,0
92028,-106.312065,4,1,0,80,0,0
92314,-105.60967,4,1,0,80,0,0
92599,-104.918915,4,1,0,80,0,0
92885,-104.23475,4,1,0,80,0,0
93171,-103.559456,4,1,0,80,0,0
93456,-102.89517,4,1,0,80,0,0
93742,-102.23707,4,1,0,80,0,0
94028,-101.587326,4,1,0,80,0,0
94314,-100.94579,4,1,0,80,0,0
94599,-100.314514,4,1,0,80,0,0
94885,-99.6889,4,1,0,85,0,0
95456,-98.46294,4,1,0,85,0,0
95528,-98.31048,4,1,0,85,0,0
95599,-98.16061,4,1,0,85,0,0
95742,-97.86014,4,1,0,85,0,0
96028,-97.26467,4,1,0,85,0,0
96314,-96.67642,4,1,0,85,0,0
96599,-96.09725,4,1,0,85,0,0
96671,-95.95204,4,1,0,85,0,0
96742,-95.809265,4,1,0,85,0,0
96885,-95.52299,4,1,0,85,0,0
97171,-94.95555,4,1,0,85,0,0
97456,-94.39677,4,1,0,85,0,0
97599,-94.11886,4,1,0,85,0,0
97742,-93.84259,4,1,0,85,0,0
97885,-93.567924,4,1,0,85,0,0
98314,-92.75352,4,1,0,90,0,0
98456,-92.487076,4,1,0,90,0,0
98599,-92.22028,4,1,0,90,0,0
98742,-91.955025,4,1,0,90,0,0
98885,-91.69129,4,1,0,90,0,0
99028,-91.42907,4,1,0,90,0,0
99171,-91.16834,4,1,0,90,0,0
99242,-91.039444,4,1,0,90,0,0
99314,-90.90909,4,1,0,90,0,0
100029,-93.4579439252336,4,1,0,90,0,0
100172,-91.743119266055,4,1,0,90,0,0
100315,-90.0900900900901,4,1,0,90,0,0
100457,-88.4955752212389,4,1,0,90,0,0
100600,-86.9565217391304,4,1,0,95,0,1
118886,-90.9090909090909,4,1,0,95,0,0

[HitObjects]
237,198,2315,5,8,0:0:0:0:
237,198,2529,1,0,0:0:0:0:
232,217,2743,1,0,0:0:0:0:
237,198,2886,1,8,0:0:0:0:
237,198,3100,1,0,0:0:0:0:
253,179,3315,1,8,0:0:0:0:
237,198,3457,1,0,0:0:0:0:
237,198,3672,1,0,0:0:0:0:
249,177,3886,1,0,0:0:0:0:
237,198,4029,1,8,0:0:0:0:
237,198,4243,1,0,0:0:0:0:
249,177,4457,1,8,0:0:0:0:
237,198,4600,1,0,0:0:0:0:
237,198,4815,1,0,0:0:0:0:
249,177,5029,1,0,0:0:0:0:
237,198,5172,1,8,0:0:0:0:
237,198,5386,1,0,0:0:0:0:
249,177,5600,1,8,0:0:0:0:
237,198,5743,1,0,0:0:0:0:
237,198,6172,1,0,0:0:0:0:
237,198,6315,1,8,0:0:0:0:
237,198,6457,1,8,0:0:0:0:
237,198,6600,1,0,0:0:0:0:
237,198,6743,1,0,0:0:0:0:
237,198,6886,1,8,0:0:0:0:
237,198,7100,1,0,0:0:0:0:
226,197,7315,1,0,0:0:0:0:
237,198,7457,1,8,0:0:0:0:
237,198,7672,1,0,0:0:0:0:
237,190,7886,1,8,0:0:0:0:
237,198,8029,1,0,0:0:0:0:
237,190,8243,1,0,0:0:0:0:
237,198,8457,1,0,0:0:0:0:
237,198,8600,1,8,0:0:0:0:
237,190,8815,1,0,0:0:0:0:
237,198,9029,1,8,0:0:0:0:
237,198,9172,1,0,0:0:0:0:
237,198,9386,1,0,0:0:0:0:
246,194,9600,1,0,0:0:0:0:
237,198,9743,1,8,0:0:0:0:
246,194,9957,1,0,0:0:0:0:
237,198,10172,1,8,0:0:0:0:
237,198,10315,1,0,0:0:0:0:
237,198,10743,1,0,0:0:0:0:
237,198,10886,1,8,0:0:0:0:
237,198,11029,1,8,0:0:0:0:
237,198,11172,1,0,0:0:0:0:
237,198,11315,1,0,0:0:0:0:
266,197,11457,1,8,0:0:0:0:
266,190,11600,1,0,0:0:0:0:
271,194,11743,1,8,0:0:0:0:
266,197,12029,1,8,0:0:0:0:
269,187,12172,1,0,0:0:0:0:
266,197,12315,1,8,0:0:0:0:
249,191,12600,1,0,0:0:0:0:
232,217,12743,1,0,0:0:0:0:
232,217,12886,1,8,0:0:0:0:
249,191,13172,1,8,0:0:0:0:
249,191,13315,1,0,0:0:0:0:
232,217,13457,1,8,0:0:0:0:
239,183,13743,1,0,0:0:0:0:
239,183,13886,1,0,0:0:0:0:
232,217,14029,1,8,0:0:0:0:
246,173,14315,1,8,0:0:0:0:
246,173,14457,1,0,0:0:0:0:
239,183,14600,1,8,0:0:0:0:
229,224,14886,1,0,0:0:0:0:
229,224,15029,1,8,0:0:0:0:
229,224,15172,1,0,0:0:0:0:
229,224,15315,1,8,0:0:0:0:
229,224,15457,1,0,0:0:0:0:
229,224,15529,1,0,0:0:0:0:
229,224,15600,1,0,0:0:0:0:
229,224,15743,1,8,0:0:0:0:
229,224,15815,1,8,0:0:0:0:
229,224,15886,1,8,0:0:0:0:
241,196,16029,1,0,0:0:0:0:
241,196,16315,1,0,0:0:0:0:
241,196,16600,1,0,0:0:0:0:
216,143,16886,1,0,0:0:0:0:
216,143,16957,1,0,0:0:0:0:
216,143,17029,1,0,0:0:0:0:
216,143,17172,1,12,0:0:0:0:
210,150,17386,1,0,0:0:0:0:
216,166,17600,1,8,0:0:0:0:
211,151,17672,1,8,0:0:0:0:
210,150,17743,1,8,0:0:0:0:
211,153,17957,1,0,0:0:0:0:
213,148,18100,1,8,0:0:0:0:
224,157,18315,1,0,0:0:0:0:
220,148,18457,1,8,0:0:0:0:
220,148,18529,1,8,0:0:0:0:
220,148,18672,1,0,0:0:0:0:
220,148,18743,1,0,0:0:0:0:
222,152,18886,1,8,0:0:0:0:
205,145,19172,1,0,0:0:0:0:
224,157,19315,1,8,0:0:0:0:
226,141,19386,1,8,0:0:0:0:
226,141,19457,1,8,0:0:0:0:
225,143,19672,1,0,0:0:0:0:
222,152,19886,1,8,0:0:0:0:
240,135,20029,1,0,0:0:0:0:
240,135,20100,1,0,0:0:0:0:
225,143,20243,1,8,0:0:0:0:
226,141,20457,1,0,0:0:0:0:
222,152,20600,1,8,0:0:0:0:
222,152,21172,1,0,0:0:0:0:
222,152,21315,1,8,0:0:0:0:
222,152,21457,1,0,0:0:0:0:
222,152,21529,1,0,0:0:0:0:
222,152,21600,1,0,0:0:0:0:
222,152,21743,1,8,0:0:0:0:
210,150,21957,1,0,0:0:0:0:
216,166,22172,1,8,0:0:0:0:
210,150,22315,1,8,0:0:0:0:
226,166,22457,1,0,0:0:0:0:
213,148,22672,1,8,0:0:0:0:
213,148,22743,1,8,0:0:0:0:
224,157,22886,1,0,0:0:0:0:
220,148,23029,1,8,0:0:0:0:
220,148,23315,1,8,0:0:0:0:
220,148,23386,1,8,0:0:0:0:
222,152,23457,1,8,0:0:0:0:
203,144,23600,1,0,0:0:0:0:
205,145,23743,1,8,0:0:0:0:
207,151,23815,1,8,0:0:0:0:
207,151,23886,1,8,0:0:0:0:
220,158,24029,1,8,0:0:0:0:
227,148,24315,1,0,0:0:0:0:
222,152,24457,1,0,0:0:0:0:
240,135,24529,1,0,0:0:0:0:
240,135,24600,1,0,0:0:0:0:
233,147,24743,1,8,0:0:0:0:
225,143,24815,1,8,0:0:0:0:
226,153,25029,1,0,0:0:0:0:
222,152,25172,1,8,0:0:0:0:
233,203,25743,1,0,0:0:0:0:
233,203,25886,1,8,0:0:0:0:
233,203,26029,1,0,0:0:0:0:
236,210,26100,1,0,0:0:0:0:
236,210,26172,1,0,0:0:0:0:
216,143,26315,1,8,0:0:0:0:
210,150,26529,1,0,0:0:0:0:
216,166,26743,1,8,0:0:0:0:
241,164,26815,1,8,0:0:0:0:
210,150,26886,1,8,0:0:0:0:
226,166,27100,1,0,0:0:0:0:
213,148,27243,1,8,0:0:0:0:
224,157,27457,1,0,0:0:0:0:
220,148,27600,1,8,0:0:0:0:
220,148,27672,1,8,0:0:0:0:
220,148,27815,1,0,0:0:0:0:
220,148,27886,1,0,0:0:0:0:
222,152,28029,1,8,0:0:0:0:
205,145,28315,1,0,0:0:0:0:
224,157,28457,1,8,0:0:0:0:
226,141,28529,1,8,0:0:0:0:
226,141,28600,1,8,0:0:0:0:
225,143,28815,1,0,0:0:0:0:
222,152,29029,1,8,0:0:0:0:
240,135,29172,1,0,0:0:0:0:
240,135,29243,1,0,0:0:0:0:
225,143,29386,1,8,0:0:0:0:
226,141,29600,1,0,0:0:0:0:
222,152,29743,1,8,0:0:0:0:
222,152,30315,1,0,0:0:0:0:
222,152,30457,1,8,0:0:0:0:
222,152,30600,1,0,0:0:0:0:
222,152,30672,1,0,0:0:0:0:
222,152,30743,1,0,0:0:0:0:
222,152,30886,1,8,0:0:0:0:
210,150,31100,1,0,0:0:0:0:
216,166,31315,1,8,0:0:0:0:
210,150,31457,1,8,0:0:0:0:
226,166,31600,1,0,0:0:0:0:
212,157,31672,1,0,0:0:0:0:
213,148,31815,1,8,0:0:0:0:
213,148,31886,1,8,0:0:0:0:
224,157,32029,1,0,0:0:0:0:
220,148,32315,1,0,0:0:0:0:
220,148,32457,1,8,0:0:0:0:
220,148,32529,1,8,0:0:0:0:
222,152,32600,1,8,0:0:0:0:
203,144,32743,1,0,0:0:0:0:
205,145,32886,1,8,0:0:0:0:
207,151,32957,1,8,0:0:0:0:
207,151,33029,1,8,0:0:0:0:
220,158,33172,1,8,0:0:0:0:
227,148,33457,1,8,0:0:0:0:
222,152,33600,1,0,0:0:0:0:
240,135,33743,1,0,0:0:0:0:
233,147,33886,1,8,0:0:0:0:
225,143,33957,1,8,0:0:0:0:
226,153,34172,1,0,0:0:0:0:
222,152,34315,1,8,0:0:0:0:
233,203,34886,1,0,0:0:0:0:
233,203,35029,1,8,0:0:0:0:
233,203,35172,1,0,0:0:0:0:
236,210,35243,1,0,0:0:0:0:
236,210,35315,1,0,0:0:0:0:
223,201,35457,1,12,0:0:0:0:
211,254,36029,1,0,0:0:0:0:
211,254,36172,1,0,0:0:0:0:
211,254,36315,1,8,0:0:0:0:
211,254,36457,1,8,0:0:0:0:
208,248,36600,1,4,0:0:0:0:
211,254,36886,1,8,0:0:0:0:
203,261,37029,1,0,0:0:0:0:
203,261,37172,1,0,0:0:0:0:
211,254,37315,1,8,0:0:0:0:
195,259,37743,1,0,0:0:0:0:
211,254,37886,1,8,0:0:0:0:
220,232,38172,1,0,0:0:0:0:
211,254,38315,1,0,0:0:0:0:
203,235,38457,1,8,0:0:0:0:
203,235,38743,1,0,0:0:0:0:
203,235,38886,1,8,0:0:0:0:
207,228,39029,1,0,0:0:0:0:
209,232,39172,1,8,0:0:0:0:
206,223,39457,1,0,0:0:0:0:
203,235,39600,1,8,0:0:0:0:
207,228,40029,1,0,0:0:0:0:
203,235,40172,1,8,0:0:0:0:
206,223,40457,1,0,0:0:0:0:
206,223,40600,1,0,0:0:0:0:
203,235,40743,1,8,0:0:0:0:
203,220,41029,1,8,0:0:0:0:
203,220,41100,1,8,0:0:0:0:
203,235,41172,1,8,0:0:0:0:
203,235,41315,1,0,0:0:0:0:
203,235,41457,1,8,0:0:0:0:
207,225,41743,1,0,0:0:0:0:
203,235,41886,1,8,0:0:0:0:
207,225,42315,1,0,0:0:0:0:
221,218,42457,1,8,0:0:0:0:
207,225,42743,1,0,0:0:0:0:
207,225,42886,1,0,0:0:0:0:
203,235,43029,1,8,0:0:0:0:
203,235,43315,1,0,0:0:0:0:
203,235,43457,1,8,0:0:0:0:
203,235,43600,1,0,0:0:0:0:
203,235,43743,1,8,0:0:0:0:
194,223,44029,1,0,0:0:0:0:
203,235,44172,1,8,0:0:0:0:
194,223,44457,1,0,0:0:0:0:
194,223,44600,1,0,0:0:0:0:
203,235,44743,1,8,0:0:0:0:
194,223,45029,1,0,0:0:0:0:
194,223,45172,1,0,0:0:0:0:
203,235,45315,1,8,0:0:0:0:
194,223,45457,1,0,0:0:0:0:
194,223,45600,1,8,0:0:0:0:
194,223,45672,1,8,0:0:0:0:
203,235,45743,1,8,0:0:0:0:
203,246,46243,1,8,0:0:0:0:
203,246,46457,1,0,0:0:0:0:
217,216,46600,1,8,0:0:0:0:
203,246,46743,1,0,0:0:0:0:
203,246,46815,1,0,0:0:0:0:
203,246,46886,1,0,0:0:0:0:
219,227,47172,1,0,0:0:0:0:
212,235,47386,1,8,0:0:0:0:
208,233,47672,1,8,0:0:0:0:
209,234,47886,1,0,0:0:0:0:
212,235,48029,1,0,0:0:0:0:
212,222,48315,1,8,0:0:0:0:
212,222,48600,1,0,0:0:0:0:
212,222,48886,1,8,0:0:0:0:
212,222,48957,1,8,0:0:0:0:
212,222,49029,1,8,0:0:0:0:
212,222,49172,1,8,0:0:0:0:
212,222,49457,1,0,0:0:0:0:
203,232,49743,1,0,0:0:0:0:
203,232,49886,1,8,0:0:0:0:
203,232,50029,1,0,0:0:0:0:
203,232,50100,1,0,0:0:0:0:
203,232,50172,1,0,0:0:0:0:
212,222,50315,1,8,0:0:0:0:
203,246,50815,1,8,0:0:0:0:
203,246,51029,1,0,0:0:0:0:
217,216,51172,1,8,0:0:0:0:
203,246,51315,1,0,0:0:0:0:
203,246,51386,1,0,0:0:0:0:
203,246,51457,1,0,0:0:0:0:
219,227,51743,1,0,0:0:0:0:
212,235,51957,1,8,0:0:0:0:
212,235,52243,1,8,0:0:0:0:
209,234,52457,1,0,0:0:0:0:
212,235,52600,1,0,0:0:0:0:
212,222,52886,1,8,0:0:0:0:
212,222,53172,1,0,0:0:0:0:
212,222,53457,1,8,0:0:0:0:
212,222,53529,1,8,0:0:0:0:
212,222,53600,1,8,0:0:0:0:
212,222,53743,1,8,0:0:0:0:
212,222,54029,1,0,0:0:0:0:
203,232,54315,1,0,0:0:0:0:
203,232,54457,1,8,0:0:0:0:
203,232,54600,1,0,0:0:0:0:
203,232,54672,1,0,0:0:0:0:
203,232,54743,1,0,0:0:0:0:
236,275,54886,1,8,0:0:0:0:
236,275,55029,1,8,0:0:0:0:
236,275,55172,1,0,0:0:0:0:
236,275,55315,1,0,0:0:0:0:
236,275,55457,1,8,0:0:0:0:
235,293,55743,1,8,0:0:0:0:
235,293,55886,1,0,0:0:0:0:
236,268,56172,1,8,0:0:0:0:
236,268,56243,1,8,0:0:0:0:
235,293,56315,1,8,0:0:0:0:
236,275,56457,1,0,0:0:0:0:
236,275,56600,1,0,0:0:0:0:
236,275,56743,1,8,0:0:0:0:
236,262,56815,1,8,0:0:0:0:
236,275,56886,1,8,0:0:0:0:
229,272,57172,1,0,0:0:0:0:
231,265,57457,1,0,0:0:0:0:
219,269,57600,1,8,0:0:0:0:
219,269,57743,1,0,0:0:0:0:
219,269,58029,1,0,0:0:0:0:
219,269,58172,1,8,0:0:0:0:
219,269,58315,1,0,0:0:0:0:
220,259,58386,1,0,0:0:0:0:
220,259,58457,1,0,0:0:0:0:
220,259,58600,1,8,0:0:0:0:
219,269,58743,1,8,0:0:0:0:
216,243,58886,1,0,0:0:0:0:
236,275,59457,1,8,0:0:0:0:
236,275,59600,1,8,0:0:0:0:
236,275,59743,1,0,0:0:0:0:
236,275,59886,1,0,0:0:0:0:
236,275,60029,1,8,0:0:0:0:
235,293,60315,1,8,0:0:0:0:
235,293,60457,1,0,0:0:0:0:
236,268,60743,1,8,0:0:0:0:
236,268,60815,1,8,0:0:0:0:
235,293,60886,1,8,0:0:0:0:
236,275,61029,1,8,0:0:0:0:
236,275,61172,1,0,0:0:0:0:
236,275,61315,1,0,0:0:0:0:
236,275,61457,1,8,0:0:0:0:
229,272,61600,1,8,0:0:0:0:
166,137,61743,1,0,0:0:0:0:
231,265,62029,1,8,0:0:0:0:
219,269,62172,1,0,0:0:0:0:
219,269,62315,1,8,0:0:0:0:
222,241,62386,1,8,0:0:0:0:
222,241,62457,1,8,0:0:0:0:
219,269,62600,1,0,0:0:0:0:
219,269,62886,1,0,0:0:0:0:
220,259,63029,1,8,0:0:0:0:
220,259,63172,1,0,0:0:0:0:
219,269,63315,1,8,0:0:0:0:
238,257,63386,1,8,0:0:0:0:
216,243,63457,1,8,0:0:0:0:
206,266,64029,1,8,0:0:0:0:
189,262,64172,1,0,0:0:0:0:
200,268,64315,1,8,0:0:0:0:
189,262,64457,1,0,0:0:0:0:
200,268,64600,1,8,0:0:0:0:
189,262,64743,1,0,0:0:0:0:
200,268,64886,1,0,0:0:0:0:
184,272,64957,1,0,0:0:0:0:
189,262,65029,1,0,0:0:0:0:
216,143,67457,1,12,0:0:0:0:
210,150,67672,1,0,0:0:0:0:
216,166,67886,1,8,0:0:0:0:
204,152,67957,1,8,0:0:0:0:
210,150,68029,1,8,0:0:0:0:
211,153,68243,1,0,0:0:0:0:
213,148,68386,1,8,0:0:0:0:
224,157,68600,1,0,0:0:0:0:
220,148,68743,1,8,0:0:0:0:
220,148,68815,1,8,0:0:0:0:
220,148,68957,1,0,0:0:0:0:
220,148,69029,1,0,0:0:0:0:
222,152,69172,1,0,0:0:0:0:
205,145,69457,1,0,0:0:0:0:
224,157,69600,1,8,0:0:0:0:
226,141,69672,1,8,0:0:0:0:
226,141,69743,1,8,0:0:0:0:
225,143,69957,1,0,0:0:0:0:
222,152,70172,1,8,0:0:0:0:
240,135,70315,1,0,0:0:0:0:
240,135,70386,1,0,0:0:0:0:
225,143,70529,1,8,0:0:0:0:
226,141,70743,1,0,0:0:0:0:
222,152,70886,1,8,0:0:0:0:
222,152,71457,1,0,0:0:0:0:
222,152,71600,1,8,0:0:0:0:
222,152,71743,1,0,0:0:0:0:
222,152,71815,1,0,0:0:0:0:
222,152,71886,1,0,0:0:0:0:
222,152,72029,1,8,0:0:0:0:
210,150,72243,1,0,0:0:0:0:
216,166,72457,1,8,0:0:0:0:
210,150,72600,1,8,0:0:0:0:
226,166,72743,1,0,0:0:0:0:
213,148,72957,1,8,0:0:0:0:
213,148,73029,1,8,0:0:0:0:
224,157,73172,1,0,0:0:0:0:
220,148,73315,1,8,0:0:0:0:
220,148,73600,1,8,0:0:0:0:
220,148,73672,1,8,0:0:0:0:
222,152,73743,1,8,0:0:0:0:
203,144,73886,1,0,0:0:0:0:
205,145,74029,1,8,0:0:0:0:
207,151,74100,1,8,0:0:0:0:
207,151,74172,1,8,0:0:0:0:
220,158,74315,1,8,0:0:0:0:
227,148,74600,1,0,0:0:0:0:
222,152,74743,1,0,0:0:0:0:
240,135,74815,1,0,0:0:0:0:
240,135,74886,1,0,0:0:0:0:
233,147,75029,1,8,0:0:0:0:
225,143,75100,1,8,0:0:0:0:
226,153,75315,1,0,0:0:0:0:
222,152,75457,1,8,0:0:0:0:
211,254,76029,1,0,0:0:0:0:
211,254,76172,1,0,0:0:0:0:
211,254,76315,1,8,0:0:0:0:
211,254,76386,1,8,0:0:0:0:
211,254,76457,1,8,0:0:0:0:
208,248,76600,1,4,0:0:0:0:
211,254,76886,1,8,0:0:0:0:
203,261,77029,1,0,0:0:0:0:
218,248,77100,1,0,0:0:0:0:
203,261,77172,1,0,0:0:0:0:
211,254,77315,1,8,0:0:0:0:
195,259,77600,1,0,0:0:0:0:
195,259,77743,1,0,0:0:0:0:
208,260,77886,1,8,0:0:0:0:
211,254,78315,1,0,0:0:0:0:
203,235,78457,1,8,0:0:0:0:
203,235,78743,1,0,0:0:0:0:
203,235,78886,1,8,0:0:0:0:
207,228,79029,1,0,0:0:0:0:
209,232,79172,1,8,0:0:0:0:
206,223,79457,1,0,0:0:0:0:
203,220,79600,1,8,0:0:0:0:
203,220,79672,1,8,0:0:0:0:
190,237,79743,1,8,0:0:0:0:
206,223,79886,1,0,0:0:0:0:
207,228,80029,1,0,0:0:0:0:
203,235,80172,1,8,0:0:0:0:
206,223,80600,1,0,0:0:0:0:
203,235,80743,1,8,0:0:0:0:
203,220,81029,1,8,0:0:0:0:
203,220,81100,1,8,0:0:0:0:
203,235,81172,1,8,0:0:0:0:
203,235,81315,1,0,0:0:0:0:
203,235,81457,1,8,0:0:0:0:
207,225,81743,1,0,0:0:0:0:
203,235,81886,1,8,0:0:0:0:
207,225,82172,1,0,0:0:0:0:
220,224,82243,1,0,0:0:0:0:
207,225,82315,1,0,0:0:0:0:
203,235,82457,1,8,0:0:0:0:
207,225,82743,1,8,0:0:0:0:
196,222,82815,1,8,0:0:0:0:
207,225,82886,1,8,0:0:0:0:
203,235,83029,1,8,0:0:0:0:
207,225,83172,1,0,0:0:0:0:
211,226,83243,1,0,0:0:0:0:
203,235,83315,1,0,0:0:0:0:
203,235,83457,1,8,0:0:0:0:
203,235,83600,1,0,0:0:0:0:
203,235,83743,1,8,0:0:0:0:
196,225,83886,1,0,0:0:0:0:
194,223,83957,1,0,0:0:0:0:
203,235,84029,1,0,0:0:0:0:
196,225,84172,1,8,0:0:0:0:
194,223,84600,1,0,0:0:0:0:
203,235,84743,1,8,0:0:0:0:
194,223,85029,1,0,0:0:0:0:
194,223,85172,1,0,0:0:0:0:
203,235,85315,1,8,0:0:0:0:
194,223,85457,1,0,0:0:0:0:
194,223,85600,1,8,0:0:0:0:
194,223,85672,1,8,0:0:0:0:
203,235,85743,1,8,0:0:0:0:
192,207,90315,1,0,0:0:0:0:
191,216,90600,1,8,0:0:0:0:
192,207,90886,1,0,0:0:0:0:
191,216,91172,1,8,0:0:0:0:
189,201,91457,1,0,0:0:0:0:
191,216,91743,1,8,0:0:0:0:
215,221,92029,1,0,0:0:0:0:
215,221,92315,1,8,0:0:0:0:
215,221,92600,1,0,0:0:0:0:
216,204,92886,1,8,0:0:0:0:
218,207,93172,1,0,0:0:0:0:
216,204,93457,1,8,0:0:0:0:
216,204,93743,1,0,0:0:0:0:
218,207,94029,1,8,0:0:0:0:
216,204,94315,1,0,0:0:0:0:
216,204,94600,1,8,0:0:0:0:
218,207,94886,1,0,0:0:0:0:
231,209,95457,1,0,0:0:0:0:
231,209,95529,1,0,0:0:0:0:
231,209,95600,1,0,0:0:0:0:
242,212,95743,1,8,0:0:0:0:
231,209,96029,1,0,0:0:0:0:
230,197,96315,1,8,0:0:0:0:
238,226,96600,1,0,0:0:0:0:
238,226,96672,1,0,0:0:0:0:
238,226,96743,1,0,0:0:0:0:
229,222,96886,1,8,0:0:0:0:
231,226,97172,1,0,0:0:0:0:
233,213,97457,1,8,0:0:0:0:
233,213,97600,1,0,0:0:0:0:
232,211,97743,1,0,0:0:0:0:
240,215,97886,1,8,0:0:0:0:
260,207,98315,1,8,0:0:0:0:
260,207,98457,1,0,0:0:0:0:
260,207,98600,1,8,0:0:0:0:
260,207,98743,1,0,0:0:0:0:
260,207,98886,1,8,0:0:0:0:
260,207,99029,1,0,0:0:0:0:
260,207,99172,1,8,0:0:0:0:
260,207,99243,1,8,0:0:0:0:
260,207,99315,1,8,0:0:0:0:
241,192,100029,1,8,0:0:0:0:
241,192,100172,1,8,0:0:0:0:
241,192,100315,1,8,0:0:0:0:
241,192,100457,1,8,0:0:0:0:
216,143,100600,1,12,0:0:0:0:
210,150,100815,1,0,0:0:0:0:
216,166,101029,1,8,0:0:0:0:
209,177,101100,1,8,0:0:0:0:
210,150,101172,1,8,0:0:0:0:
226,166,101386,1,0,0:0:0:0:
213,148,101529,1,8,0:0:0:0:
224,157,101743,1,0,0:0:0:0:
220,148,101886,1,8,0:0:0:0:
220,148,101957,1,8,0:0:0:0:
220,148,102100,1,0,0:0:0:0:
220,148,102172,1,0,0:0:0:0:
222,152,102315,1,8,0:0:0:0:
205,145,102600,1,0,0:0:0:0:
224,157,102743,1,8,0:0:0:0:
226,141,102815,1,8,0:0:0:0:
226,141,102886,1,8,0:0:0:0:
225,143,103100,1,0,0:0:0:0:
222,152,103315,1,8,0:0:0:0:
240,135,103457,1,0,0:0:0:0:
240,135,103529,1,0,0:0:0:0:
225,143,103672,1,8,0:0:0:0:
226,141,103886,1,0,0:0:0:0:
222,152,104029,1,8,0:0:0:0:
222,152,104600,1,0,0:0:0:0:
222,152,104743,1,8,0:0:0:0:
222,152,104886,1,0,0:0:0:0:
222,152,104957,1,0,0:0:0:0:
222,152,105029,1,0,0:0:0:0:
222,152,105172,1,8,0:0:0:0:
210,150,105457,1,0,0:0:0:0:
216,166,105600,1,8,0:0:0:0:
210,150,105743,1,8,0:0:0:0:
226,166,105886,1,0,0:0:0:0:
211,153,105957,1,0,0:0:0:0:
213,148,106100,1,8,0:0:0:0:
213,148,106172,1,8,0:0:0:0:
224,157,106315,1,0,0:0:0:0:
220,148,106600,1,0,0:0:0:0:
220,148,106743,1,8,0:0:0:0:
220,148,106815,1,8,0:0:0:0:
222,152,106886,1,8,0:0:0:0:
203,144,107029,1,0,0:0:0:0:
205,145,107172,1,8,0:0:0:0:
207,151,107243,1,8,0:0:0:0:
207,151,107315,1,8,0:0:0:0:
220,158,107457,1,8,0:0:0:0:
227,148,107743,1,0,0:0:0:0:
222,152,107886,1,0,0:0:0:0:
240,135,107957,1,0,0:0:0:0:
240,135,108029,1,0,0:0:0:0:
233,147,108172,1,8,0:0:0:0:
225,143,108243,1,8,0:0:0:0:
226,153,108457,1,0,0:0:0:0:
222,152,108600,1,8,0:0:0:0:
233,203,109172,1,0,0:0:0:0:
233,203,109315,1,8,0:0:0:0:
233,203,109457,1,0,0:0:0:0:
236,210,109529,1,0,0:0:0:0:
236,210,109600,1,0,0:0:0:0:
216,143,109743,1,8,0:0:0:0:
210,150,110029,1,0,0:0:0:0:
216,166,110172,1,8,0:0:0:0:
210,150,110243,1,8,0:0:0:0:
210,150,110315,1,8,0:0:0:0:
226,166,110529,1,0,0:0:0:0:
213,148,110672,1,8,0:0:0:0:
224,157,110886,1,0,0:0:0:0:
220,148,111029,1,8,0:0:0:0:
220,148,111100,1,8,0:0:0:0:
220,148,111243,1,0,0:0:0:0:
220,148,111315,1,0,0:0:0:0:
222,152,111457,1,8,0:0:0:0:
205,145,111743,1,8,0:0:0:0:
226,141,112029,1,8,0:0:0:0:
225,143,112243,1,0,0:0:0:0:
222,152,112457,1,8,0:0:0:0:
240,135,112600,1,0,0:0:0:0:
240,135,112672,1,0,0:0:0:0:
225,143,112815,1,8,0:0:0:0:
226,141,113029,1,0,0:0:0:0:
222,152,113172,1,8,0:0:0:0:
222,152,113743,1,0,0:0:0:0:
222,152,113886,1,8,0:0:0:0:
222,152,114029,1,0,0:0:0:0:
222,152,114100,1,0,0:0:0:0:
222,152,114172,1,0,0:0:0:0:
222,152,114315,1,8,0:0:0:0:
210,150,114600,1,0,0:0:0:0:
216,166,114743,1,8,0:0:0:0:
210,150,114886,1,8,0:0:0:0:
226,166,115029,1,0,0:0:0:0:
213,148,115243,1,8,0:0:0:0:
213,148,115315,1,8,0:0:0:0:
224,157,115457,1,0,0:0:0:0:
220,148,115600,1,8,0:0:0:0:
220,148,115743,1,0,0:0:0:0:
220,148,115886,1,8,0:0:0:0:
220,148,115957,1,8,0:0:0:0:
222,152,116029,1,8,0:0:0:0:
205,145,116315,1,8,0:0:0:0:
220,158,116600,1,8,0:0:0:0:
227,148,116886,1,0,0:0:0:0:
222,152,117029,1,8,0:0:0:0:
240,135,117172,1,0,0:0:0:0:
225,143,117386,1,8,0:0:0:0:
216,151,117600,1,0,0:0:0:0:
218,163,117743,1,0,0:0:0:0:
227,187,118172,1,8,0:0:0:0:
227,188,118243,1,8,0:0:0:0:
233,203,118315,1,8,0:0:0:0:
233,203,118457,1,8,0:0:0:0:
233,203,118600,1,0,0:0:0:0:
236,210,118672,1,0,0:0:0:0:
236,210,118743,1,0,0:0:0:0:
223,201,118886,1,12,0:0:0:0:
