osu file format v14

[General]
AudioFilename: audio.ogg
AudioLeadIn: 0
PreviewTime: 67132
Countdown: 0
SampleSet: Normal
StackLeniency: 0.7
Mode: 1
LetterboxInBreaks: 0
WidescreenStoryboard: 1

[Editor]
Bookmarks: 2274,11417,17132,35417,45703,54846,63989,67417,76560,85703,100560,118846
DistanceSpacing: 1
BeatDivisor: 2
GridSize: 4
TimelineZoom: 1.6

[Metadata]
Title:you make me wana kill myslef
TitleUnicode:you make me wana kill myslef
Artist:watering
ArtistUnicode:watering
Creator:Slim-san
Version:x kantan x
Source:
Tags:electronic instrumental english slim san breakcore Alexandra Stan remix Mr. Saxobeat yoshi nightcore music that pops your balls v3 wanna myself
BeatmapID:3759235
BeatmapSetID:1831379

[Difficulty]
HPDrainRate:9
CircleSize:4
OverallDifficulty:3
ApproachRate:9
SliderMultiplier:1.4
SliderTickRate:1

[Events]
//Background and Video events
0,0,"84154784_p0.jpg",0,50
//Break Periods
//Storyboard Layer 0 (Background)
//Storyboard Layer 1 (Fail)
//Storyboard Layer 2 (Pass)
//Storyboard Layer 3 (Foreground)
//Storyboard Layer 4 (Overlay)
//Storyboard Sound Samples

[TimingPoints]
2315,285.714285714286,4,1,0,80,1,0
2315,-105.263157894737,4,1,0,80,0,0
11457,-105.263157894737,4,1,0,85,0,0
15457,-105.263157894737,4,1,0,90,0,0
17172,-100,4,1,0,95,0,1
35457,-100,4,1,0,90,0,0
36315,-102.564102564103,4,1,0,85,0,0
36600,-105.263157894737,4,1,0,85,0,0
36886,-105.263157894737,4,1,0,85,0,0
45743,-105.263157894737,4,1,0,80,0,0
54886,-105.263157894737,4,1,0,85,0,0
64029,-105.263157894737,4,1,0,90,0,0
67457,-100,4,1,0,95,0,1
75457,-100,4,1,0,95,0,1
76315,-102.564102564103,4,1,0,90,0,1
76600,-105.263157894737,4,1,0,90,0,1
85743,-105.263157894737,4,1,0,70,0,0
94886,-105.263157894737,4,1,0,80,0,0
98315,-105.263157894737,4,1,0,85,0,0
100600,-100,4,1,0,95,0,1
118886,-100,4,1,0,95,0,0

[HitObjects]
248,191,2315,5,8,0:0:0:0:
248,191,2886,1,8,0:0:0:0:
272,197,3457,1,0,0:0:0:0:
248,178,4029,1,8,0:0:0:0:
259,185,4600,1,0,0:0:0:0:
259,185,5172,1,8,0:0:0:0:
259,185,5743,1,0,0:0:0:0:
259,185,6886,1,8,0:0:0:0:
259,185,7457,1,8,0:0:0:0:
259,185,8029,1,0,0:0:0:0:
259,185,8600,1,8,0:0:0:0:
259,185,9172,1,0,0:0:0:0:
259,185,9743,1,8,0:0:0:0:
259,185,10315,1,0,0:0:0:0:
259,185,11457,1,0,0:0:0:0:
259,185,12029,1,8,0:0:0:0:
268,182,12600,1,0,0:0:0:0:
268,182,13172,1,8,0:0:0:0:
268,182,13743,1,0,0:0:0:0:
268,182,14315,1,8,0:0:0:0:
268,182,14886,1,8,0:0:0:0:
278,180,15457,1,8,0:0:0:0:
282,178,15743,1,8,0:0:0:0:
278,180,16029,1,0,0:0:0:0:
278,180,16315,1,0,0:0:0:0:
278,180,16600,1,0,0:0:0:0:
286,171,17172,1,12,0:0:0:0:
284,180,17743,1,0,0:0:0:0:
284,180,18315,1,8,0:0:0:0:
284,180,18886,1,0,0:0:0:0:
284,180,19172,1,0,0:0:0:0:
284,180,19457,1,8,0:0:0:0:
284,180,20600,1,8,0:0:0:0:
284,180,21172,1,0,0:0:0:0:
284,180,21457,1,8,0:0:0:0:
284,180,21743,1,0,0:0:0:0:
284,180,22315,1,8,0:0:0:0:
284,180,22886,1,0,0:0:0:0:
284,180,23457,1,0,0:0:0:0:
237,142,23743,1,0,0:0:0:0:
284,180,24029,1,8,0:0:0:0:
284,180,25172,1,8,0:0:0:0:
284,180,25743,1,0,0:0:0:0:
291,176,26029,1,0,0:0:0:0:
284,180,26315,1,8,0:0:0:0:
284,180,26886,1,0,0:0:0:0:
284,180,27457,1,8,0:0:0:0:
284,180,28029,1,0,0:0:0:0:
180,141,28315,1,0,0:0:0:0:
284,180,28600,1,8,0:0:0:0:
284,180,29743,1,8,0:0:0:0:
284,180,30315,1,0,0:0:0:0:
291,176,30600,1,8,0:0:0:0:
284,180,30886,1,0,0:0:0:0:
284,180,31457,1,8,0:0:0:0:
284,180,32029,1,0,0:0:0:0:
284,180,32600,1,0,0:0:0:0:
261,183,32886,1,0,0:0:0:0:
284,180,33172,1,8,0:0:0:0:
240,195,34315,1,8,0:0:0:0:
240,195,34886,1,0,0:0:0:0:
240,195,35172,1,0,0:0:0:0:
240,195,35457,1,12,0:0:0:0:
240,195,36315,1,0,0:0:0:0:
245,197,36600,1,0,0:0:0:0:
261,182,36886,1,8,0:0:0:0:
261,182,37315,1,0,0:0:0:0:
267,176,37886,1,0,0:0:0:0:
281,159,38457,1,8,0:0:0:0:
288,157,38886,1,0,0:0:0:0:
288,157,39172,1,8,0:0:0:0:
273,166,39600,1,0,0:0:0:0:
273,166,40172,1,0,0:0:0:0:
273,166,40743,1,8,0:0:0:0:
273,166,41172,1,0,0:0:0:0:
279,174,41457,1,8,0:0:0:0:
279,174,41886,1,0,0:0:0:0:
279,174,42457,1,0,0:0:0:0:
279,174,43029,1,8,0:0:0:0:
279,174,43457,1,0,0:0:0:0:
279,174,43743,1,8,0:0:0:0:
273,173,44172,1,0,0:0:0:0:
280,151,44743,1,0,0:0:0:0:
236,157,45743,1,8,0:0:0:0:
244,161,46315,1,0,0:0:0:0:
236,157,46600,1,8,0:0:0:0:
244,161,46886,1,0,0:0:0:0:
244,161,47457,1,0,0:0:0:0:
244,161,47743,1,8,0:0:0:0:
244,161,48029,1,8,0:0:0:0:
261,170,48600,1,0,0:0:0:0:
261,170,49172,1,0,0:0:0:0:
261,170,49886,1,8,0:0:0:0:
261,170,50315,1,0,0:0:0:0:
261,170,50886,1,0,0:0:0:0:
261,170,51172,1,8,0:0:0:0:
261,170,51457,1,0,0:0:0:0:
261,170,52029,1,0,0:0:0:0:
261,170,52315,1,8,0:0:0:0:
261,170,52600,1,8,0:0:0:0:
257,162,53172,1,0,0:0:0:0:
277,180,53743,1,0,0:0:0:0:
277,180,54457,1,8,0:0:0:0:
277,180,54886,1,8,0:0:0:0:
280,171,55172,1,0,0:0:0:0:
280,171,55457,1,0,0:0:0:0:
281,185,56029,1,8,0:0:0:0:
280,171,56600,1,0,0:0:0:0:
281,185,57172,1,8,0:0:0:0:
280,171,57457,1,8,0:0:0:0:
280,171,57743,1,0,0:0:0:0:
281,185,58315,1,8,0:0:0:0:
280,171,58886,1,0,0:0:0:0:
247,184,59457,1,8,0:0:0:0:
246,165,59743,1,8,0:0:0:0:
280,171,60029,1,0,0:0:0:0:
252,183,60600,1,0,0:0:0:0:
280,171,61172,1,0,0:0:0:0:
261,194,61743,1,8,0:0:0:0:
254,196,62315,1,0,0:0:0:0:
254,196,62600,1,8,0:0:0:0:
261,194,62886,1,0,0:0:0:0:
242,231,64029,1,8,0:0:0:0:
242,231,64315,1,0,0:0:0:0:
242,231,64600,1,8,0:0:0:0:
242,231,64886,1,0,0:0:0:0:
286,171,67457,1,12,0:0:0:0:
284,180,68029,1,0,0:0:0:0:
284,180,68600,1,8,0:0:0:0:
284,180,69172,1,0,0:0:0:0:
284,180,69457,1,0,0:0:0:0:
284,180,69743,1,8,0:0:0:0:
284,180,70886,1,8,0:0:0:0:
284,180,71457,1,0,0:0:0:0:
284,180,71743,1,8,0:0:0:0:
284,180,72029,1,0,0:0:0:0:
284,180,72600,1,8,0:0:0:0:
284,180,73172,1,0,0:0:0:0:
284,180,73743,1,0,0:0:0:0:
237,142,74029,1,0,0:0:0:0:
284,180,74315,1,8,0:0:0:0:
284,180,75457,1,8,0:0:0:0:
301,226,76315,1,0,0:0:0:0:
245,197,76600,1,0,0:0:0:0:
261,182,76886,1,8,0:0:0:0:
261,182,77315,1,0,0:0:0:0:
267,176,77886,1,0,0:0:0:0:
281,159,78457,1,8,0:0:0:0:
288,157,78886,1,0,0:0:0:0:
288,157,79172,1,8,0:0:0:0:
273,166,79600,1,0,0:0:0:0:
273,166,80172,1,0,0:0:0:0:
273,166,80743,1,8,0:0:0:0:
273,166,81172,1,0,0:0:0:0:
279,174,81457,1,8,0:0:0:0:
279,174,81886,1,0,0:0:0:0:
279,174,82457,1,0,0:0:0:0:
279,174,83029,1,8,0:0:0:0:
279,174,83457,1,0,0:0:0:0:
279,174,83743,1,8,0:0:0:0:
273,173,84172,1,0,0:0:0:0:
280,151,84743,1,0,0:0:0:0:
248,191,85743,1,8,0:0:0:0:
259,185,90315,1,8,0:0:0:0:
259,185,90886,1,8,0:0:0:0:
259,185,91457,1,0,0:0:0:0:
259,185,92029,1,8,0:0:0:0:
259,185,92600,1,0,0:0:0:0:
259,185,93172,1,8,0:0:0:0:
259,185,93743,1,0,0:0:0:0:
233,187,94886,1,0,0:0:0:0:
243,179,95457,1,8,0:0:0:0:
243,179,96029,1,0,0:0:0:0:
243,179,96600,1,8,0:0:0:0:
243,179,97172,1,0,0:0:0:0:
243,179,97743,1,8,0:0:0:0:
243,179,98315,1,0,0:0:0:0:
243,179,98600,1,0,0:0:0:0:
243,179,98886,1,8,0:0:0:0:
243,179,99172,1,0,0:0:0:0:
243,179,99457,1,8,0:0:0:0:
286,171,100600,1,12,0:0:0:0:
284,180,101172,1,0,0:0:0:0:
284,180,101743,1,8,0:0:0:0:
284,180,102315,1,0,0:0:0:0:
284,180,102600,1,0,0:0:0:0:
284,180,102886,1,8,0:0:0:0:
284,180,104029,1,8,0:0:0:0:
284,180,104600,1,0,0:0:0:0:
284,180,104886,1,8,0:0:0:0:
284,180,105172,1,0,0:0:0:0:
284,180,105743,1,8,0:0:0:0:
284,180,106315,1,0,0:0:0:0:
284,180,106886,1,0,0:0:0:0:
237,142,107172,1,0,0:0:0:0:
284,180,107457,1,8,0:0:0:0:
284,180,108600,1,8,0:0:0:0:
284,180,109172,1,0,0:0:0:0:
291,176,109457,1,0,0:0:0:0:
284,180,109743,1,8,0:0:0:0:
284,180,110315,1,0,0:0:0:0:
284,180,110886,1,8,0:0:0:0:
284,180,111457,1,0,0:0:0:0:
180,141,111743,1,0,0:0:0:0:
284,180,112029,1,8,0:0:0:0:
284,180,113172,1,8,0:0:0:0:
284,180,113743,1,0,0:0:0:0:
291,176,114029,1,8,0:0:0:0:
284,180,114315,1,0,0:0:0:0:
284,180,114886,1,8,0:0:0:0:
284,180,115457,1,0,0:0:0:0:
284,180,116029,1,0,0:0:0:0:
261,183,116315,1,0,0:0:0:0:
284,180,116600,1,8,0:0:0:0:
240,195,117743,1,8,0:0:0:0:
240,195,118315,1,0,0:0:0:0:
240,195,118600,1,0,0:0:0:0:
240,195,118886,1,12,0:0:0:0:
