osu file format v14

[General]
AudioFilename: audio.ogg
AudioLeadIn: 0
PreviewTime: 67132
Countdown: 0
SampleSet: Normal
StackLeniency: 0.7
Mode: 1
LetterboxInBreaks: 0
WidescreenStoryboard: 1

[Editor]
Bookmarks: 2274,11417,17132,35417,45703,54846,63989,67417,76560,85703,100560,118846
DistanceSpacing: 1
BeatDivisor: 4
GridSize: 4
TimelineZoom: 1.6

[Metadata]
Title:you make me wana kill myslef
TitleUnicode:you make me wana kill myslef
Artist:watering
ArtistUnicode:watering
Creator:Slim-san
Version:x futsuu x
Source:
Tags:electronic instrumental english slim san breakcore Alexandra Stan remix Mr. Saxobeat yoshi nightcore music that pops your balls v3 wanna myself
BeatmapID:3759233
BeatmapSetID:1831379

[Difficulty]
HPDrainRate:8
CircleSize:4
OverallDifficulty:4
ApproachRate:9
SliderMultiplier:1.4
SliderTickRate:1

[Events]
//Background and Video events
0,0,"84154784_p0.jpg",0,50
//Break Periods
//Storyboard Layer 0 (Background)
//Storyboard Layer 1 (Fail)
//Storyboard Layer 2 (Pass)
//Storyboard Layer 3 (Foreground)
//Storyboard Layer 4 (Overlay)
//Storyboard Sound Samples

[TimingPoints]
2315,285.714285714286,4,1,0,80,1,0
2315,-117.64705882353,4,1,0,80,0,0
11457,-111.111111111111,4,1,0,85,0,0
15457,-105.263157894737,4,1,0,90,0,0
16600,-103.092783505155,4,1,0,90,0,0
16743,-101.010101010101,4,1,0,90,0,0
16886,-99.009900990099,4,1,0,90,0,0
17029,-97.0873786407767,4,1,0,90,0,0
17172,-95.2380952380952,4,1,0,95,0,1
35457,-95.2380952380952,4,1,0,90,0,0
36029,-100,4,1,0,90,0,0
36600,-105.263157894737,4,1,0,85,0,0
36886,-105.263157894737,4,1,0,85,0,0
45743,-117.64705882353,4,1,0,80,0,0
54315,-116.279069767442,4,1,0,80,0,0
54457,-114.942528735632,4,1,0,80,0,0
54600,-113.636363636364,4,1,0,80,0,0
54743,-112.359550561798,4,1,0,80,0,0
54886,-111.111111111111,4,1,0,85,0,0
64029,-105.263157894737,4,1,0,90,0,0
67457,-95.2380952380952,4,1,0,95,0,1
75457,-95.2380952380952,4,1,0,95,0,1
76029,-100,4,1,0,95,0,1
76600,-100,4,1,0,90,0,1
76672,-105.263157894737,4,1,0,90,0,1
85743,-105.263157894737,4,1,0,70,0,0
85815,-125,4,1,0,70,0,0
90315,-117.647058823529,4,1,0,70,0,0
94886,-111.111111111111,4,1,0,80,0,0
98315,-105.263157894737,4,1,0,85,0,0
100029,-99.009900990099,4,1,0,85,0,0
100172,-98.0392156862745,4,1,0,85,0,0
100315,-97.0873786407767,4,1,0,85,0,0
100457,-96.1538461538461,4,1,0,85,0,0
100600,-95.2380952380952,4,1,0,95,0,1
118886,-95.2380952380952,4,1,0,95,0,0

[HitObjects]
228,206,2315,5,8,0:0:0:0:
235,223,2600,1,0,0:0:0:0:
261,218,2886,1,8,0:0:0:0:
268,177,3457,1,0,0:0:0:0:
231,175,3743,1,0,0:0:0:0:
244,205,4029,1,8,0:0:0:0:
268,177,4600,1,0,0:0:0:0:
226,193,4886,1,0,0:0:0:0:
263,179,5172,1,8,0:0:0:0:
277,169,5743,1,0,0:0:0:0:
285,183,6029,1,8,0:0:0:0:
263,179,6315,1,0,0:0:0:0:
263,179,6457,1,8,0:0:0:0:
263,179,6600,1,0,0:0:0:0:
253,185,6886,1,0,0:0:0:0:
260,190,7172,1,0,0:0:0:0:
257,194,7457,1,8,0:0:0:0:
253,185,8029,1,0,0:0:0:0:
234,192,8315,1,0,0:0:0:0:
257,194,8600,1,8,0:0:0:0:
253,185,9172,1,8,0:0:0:0:
234,192,9457,1,0,0:0:0:0:
257,194,9743,1,8,0:0:0:0:
253,185,10315,1,0,0:0:0:0:
216,177,10600,1,8,0:0:0:0:
257,194,10886,1,8,0:0:0:0:
275,191,11029,1,8,0:0:0:0:
275,191,11172,1,0,0:0:0:0:
253,185,11457,1,0,0:0:0:0:
255,184,11600,1,8,0:0:0:0:
257,194,12029,1,8,0:0:0:0:
253,185,12172,1,0,0:0:0:0:
253,185,12600,1,0,0:0:0:0:
264,186,12743,1,8,0:0:0:0:
257,194,13172,1,8,0:0:0:0:
243,202,13315,1,0,0:0:0:0:
248,197,13743,1,0,0:0:0:0:
262,192,13886,1,8,0:0:0:0:
257,194,14315,1,8,0:0:0:0:
244,207,14886,1,8,0:0:0:0:
247,187,15172,1,0,0:0:0:0:
257,194,15457,1,8,0:0:0:0:
247,187,15600,1,0,0:0:0:0:
247,187,15743,1,8,0:0:0:0:
244,207,16029,1,0,0:0:0:0:
244,207,16315,1,0,0:0:0:0:
244,207,16600,1,0,0:0:0:0:
244,207,16743,1,0,0:0:0:0:
244,207,16886,1,8,0:0:0:0:
244,207,17029,1,0,0:0:0:0:
244,207,17172,1,12,0:0:0:0:
253,199,17386,1,0,0:0:0:0:
230,217,17600,1,0,0:0:0:0:
260,211,17743,1,8,0:0:0:0:
260,211,17957,1,0,0:0:0:0:
228,190,18315,1,0,0:0:0:0:
222,174,18529,1,8,0:0:0:0:
260,211,18886,1,8,0:0:0:0:
260,211,19172,1,0,0:0:0:0:
244,207,19457,1,8,0:0:0:0:
222,174,19672,1,0,0:0:0:0:
222,174,19886,1,0,0:0:0:0:
246,205,20029,1,8,0:0:0:0:
244,207,20315,1,8,0:0:0:0:
188,184,20457,1,0,0:0:0:0:
244,207,20600,1,8,0:0:0:0:
256,209,21172,1,8,0:0:0:0:
244,207,21315,1,8,0:0:0:0:
244,207,21457,1,0,0:0:0:0:
244,207,21600,1,0,0:0:0:0:
244,207,21743,1,8,0:0:0:0:
226,197,21957,1,0,0:0:0:0:
233,202,22172,1,0,0:0:0:0:
239,186,22315,1,8,0:0:0:0:
238,202,22529,1,0,0:0:0:0:
244,207,22886,1,0,0:0:0:0:
238,202,23100,1,8,0:0:0:0:
260,201,23457,1,0,0:0:0:0:
243,198,23743,1,8,0:0:0:0:
244,207,24029,1,8,0:0:0:0:
251,192,24243,1,0,0:0:0:0:
251,192,24457,1,0,0:0:0:0:
252,185,24600,1,8,0:0:0:0:
252,185,24886,1,0,0:0:0:0:
214,191,25029,1,0,0:0:0:0:
244,207,25172,1,8,0:0:0:0:
244,207,25743,1,0,0:0:0:0:
244,207,25886,1,8,0:0:0:0:
244,207,26029,1,0,0:0:0:0:
244,207,26172,1,0,0:0:0:0:
244,207,26315,1,8,0:0:0:0:
253,199,26529,1,0,0:0:0:0:
230,190,26743,1,0,0:0:0:0:
260,211,26886,1,8,0:0:0:0:
260,211,27100,1,0,0:0:0:0:
244,207,27457,1,0,0:0:0:0:
209,181,27672,1,8,0:0:0:0:
260,211,28029,1,8,0:0:0:0:
260,211,28315,1,0,0:0:0:0:
244,207,28600,1,8,0:0:0:0:
243,202,28815,1,0,0:0:0:0:
243,202,29029,1,0,0:0:0:0:
246,205,29172,1,8,0:0:0:0:
244,207,29457,1,8,0:0:0:0:
276,181,29600,1,0,0:0:0:0:
244,207,29743,1,8,0:0:0:0:
256,209,30315,1,8,0:0:0:0:
244,207,30457,1,8,0:0:0:0:
244,207,30600,1,0,0:0:0:0:
244,207,30743,1,0,0:0:0:0:
244,207,30886,1,8,0:0:0:0:
226,197,31100,1,0,0:0:0:0:
251,198,31315,1,0,0:0:0:0:
239,186,31457,1,8,0:0:0:0:
215,199,31672,1,0,0:0:0:0:
244,207,32029,1,0,0:0:0:0:
215,199,32243,1,8,0:0:0:0:
260,201,32600,1,0,0:0:0:0:
243,198,32886,1,8,0:0:0:0:
244,207,33172,1,8,0:0:0:0:
215,199,33386,1,0,0:0:0:0:
215,199,33600,1,0,0:0:0:0:
252,185,33743,1,8,0:0:0:0:
252,185,34029,1,0,0:0:0:0:
250,190,34172,1,0,0:0:0:0:
244,207,34315,1,8,0:0:0:0:
244,207,34886,1,0,0:0:0:0:
244,207,35029,1,8,0:0:0:0:
244,207,35172,1,0,0:0:0:0:
244,207,35315,1,0,0:0:0:0:
244,207,35457,1,12,0:0:0:0:
227,177,36029,1,8,0:0:0:0:
227,177,36172,1,8,0:0:0:0:
227,177,36315,1,8,0:0:0:0:
227,177,36600,1,4,0:0:0:0:
216,176,36886,1,8,0:0:0:0:
208,183,37172,1,8,0:0:0:0:
216,176,37315,1,0,0:0:0:0:
210,205,37743,1,8,0:0:0:0:
227,177,37886,1,0,0:0:0:0:
242,186,38315,1,0,0:0:0:0:
235,190,38457,1,8,0:0:0:0:
235,190,38743,1,0,0:0:0:0:
239,177,38886,1,8,0:0:0:0:
236,196,39172,1,8,0:0:0:0:
222,189,39457,1,8,0:0:0:0:
236,196,39600,1,0,0:0:0:0:
222,189,40029,1,8,0:0:0:0:
239,177,40172,1,0,0:0:0:0:
231,184,40600,1,0,0:0:0:0:
239,177,41172,1,8,0:0:0:0:
238,176,41457,1,0,0:0:0:0:
251,177,41743,1,8,0:0:0:0:
220,175,41886,1,0,0:0:0:0:
241,167,42315,1,8,0:0:0:0:
239,177,42457,1,0,0:0:0:0:
264,180,42886,1,0,0:0:0:0:
232,172,43029,1,8,0:0:0:0:
232,172,43315,1,0,0:0:0:0:
239,177,43457,1,8,0:0:0:0:
242,174,43743,1,8,0:0:0:0:
284,185,44029,1,8,0:0:0:0:
242,174,44172,1,0,0:0:0:0:
267,174,44600,1,8,0:0:0:0:
239,177,44743,1,0,0:0:0:0:
255,188,45172,1,0,0:0:0:0:
239,177,45315,1,8,0:0:0:0:
239,177,45743,1,0,0:0:0:0:
255,181,46243,1,8,0:0:0:0:
245,177,46529,1,8,0:0:0:0:
228,178,46743,1,0,0:0:0:0:
236,178,46886,1,0,0:0:0:0:
229,173,47386,1,8,0:0:0:0:
229,173,47672,1,8,0:0:0:0:
230,175,47886,1,0,0:0:0:0:
236,178,48029,1,8,0:0:0:0:
241,183,48315,1,0,0:0:0:0:
238,188,48600,1,8,0:0:0:0:
236,196,49172,1,8,0:0:0:0:
236,206,49457,1,0,0:0:0:0:
236,206,49743,1,8,0:0:0:0:
236,206,49886,1,0,0:0:0:0:
236,206,50029,1,0,0:0:0:0:
236,206,50172,1,8,0:0:0:0:
236,196,50315,1,0,0:0:0:0:
232,198,50815,1,8,0:0:0:0:
232,198,51100,1,8,0:0:0:0:
208,191,51315,1,0,0:0:0:0:
236,196,51457,1,0,0:0:0:0:
236,211,51957,1,8,0:0:0:0:
236,211,52243,1,8,0:0:0:0:
236,211,52457,1,0,0:0:0:0:
236,196,52600,1,8,0:0:0:0:
222,203,52886,1,0,0:0:0:0:
231,214,53172,1,8,0:0:0:0:
236,196,53743,1,8,0:0:0:0:
216,199,54029,1,0,0:0:0:0:
242,209,54315,1,8,0:0:0:0:
236,196,54457,1,0,0:0:0:0:
236,196,54600,1,0,0:0:0:0:
236,196,54743,1,8,0:0:0:0:
236,196,54886,1,0,0:0:0:0:
227,202,55172,1,8,0:0:0:0:
227,202,55457,1,0,0:0:0:0:
227,202,55743,1,0,0:0:0:0:
236,196,55886,1,0,0:0:0:0:
230,194,56172,1,8,0:0:0:0:
225,173,56315,1,0,0:0:0:0:
247,197,56457,1,0,0:0:0:0:
232,183,56600,1,8,0:0:0:0:
227,186,56886,1,8,0:0:0:0:
236,196,57029,1,0,0:0:0:0:
224,181,57457,1,8,0:0:0:0:
227,186,57743,1,0,0:0:0:0:
224,181,58029,1,0,0:0:0:0:
236,196,58315,1,8,0:0:0:0:
241,189,58886,1,0,0:0:0:0:
241,189,59172,1,0,0:0:0:0:
241,189,59315,1,8,0:0:0:0:
236,196,59457,1,0,0:0:0:0:
225,200,59743,1,8,0:0:0:0:
247,198,60029,1,8,0:0:0:0:
236,196,60315,1,0,0:0:0:0:
225,200,60457,1,0,0:0:0:0:
229,192,60743,1,8,0:0:0:0:
231,187,60886,1,8,0:0:0:0:
221,200,61029,1,0,0:0:0:0:
226,201,61172,1,0,0:0:0:0:
225,200,61457,1,8,0:0:0:0:
236,196,61600,1,8,0:0:0:0:
240,187,62029,1,0,0:0:0:0:
240,187,62315,1,8,0:0:0:0:
240,187,62600,1,0,0:0:0:0:
252,185,62886,1,8,0:0:0:0:
252,185,63457,1,0,0:0:0:0:
252,185,63743,1,8,0:0:0:0:
236,196,64029,1,8,0:0:0:0:
236,196,64172,1,0,0:0:0:0:
236,196,64315,1,8,0:0:0:0:
236,196,64457,1,0,0:0:0:0:
236,196,64600,1,8,0:0:0:0:
214,204,64886,1,0,0:0:0:0:
214,204,65029,1,0,0:0:0:0:
244,207,67457,1,12,0:0:0:0:
253,199,67672,1,0,0:0:0:0:
254,199,67886,1,0,0:0:0:0:
260,211,68029,1,8,0:0:0:0:
260,211,68243,1,0,0:0:0:0:
244,207,68600,1,0,0:0:0:0:
245,216,68815,1,0,0:0:0:0:
260,211,69172,1,8,0:0:0:0:
260,211,69457,1,0,0:0:0:0:
244,207,69743,1,8,0:0:0:0:
242,197,69957,1,0,0:0:0:0:
242,197,70172,1,0,0:0:0:0:
246,205,70315,1,8,0:0:0:0:
244,207,70600,1,8,0:0:0:0:
249,183,70743,1,0,0:0:0:0:
244,207,70886,1,8,0:0:0:0:
256,209,71457,1,8,0:0:0:0:
244,207,71600,1,8,0:0:0:0:
244,207,71743,1,0,0:0:0:0:
244,207,71886,1,0,0:0:0:0:
244,207,72029,1,8,0:0:0:0:
226,197,72243,1,0,0:0:0:0:
230,169,72457,1,0,0:0:0:0:
239,186,72600,1,8,0:0:0:0:
193,189,72815,1,0,0:0:0:0:
244,207,73172,1,0,0:0:0:0:
239,186,73386,1,8,0:0:0:0:
260,201,73743,1,0,0:0:0:0:
243,198,74029,1,8,0:0:0:0:
244,207,74315,1,8,0:0:0:0:
188,155,74529,1,0,0:0:0:0:
255,179,74743,1,0,0:0:0:0:
252,185,74886,1,8,0:0:0:0:
252,185,75172,1,8,0:0:0:0:
256,196,75315,1,0,0:0:0:0:
244,207,75457,1,8,0:0:0:0:
248,212,76029,1,8,0:0:0:0:
211,192,76172,1,8,0:0:0:0:
211,192,76315,1,0,0:0:0:0:
244,207,76457,1,0,0:0:0:0:
248,212,76600,1,8,0:0:0:0:
248,212,76886,1,0,0:0:0:0:
236,210,77172,1,8,0:0:0:0:
248,212,77315,1,0,0:0:0:0:
248,212,77743,1,0,0:0:0:0:
241,202,77886,1,8,0:0:0:0:
241,215,78315,1,8,0:0:0:0:
256,203,78457,1,0,0:0:0:0:
256,203,78743,1,8,0:0:0:0:
241,202,78886,1,0,0:0:0:0:
203,201,79029,1,0,0:0:0:0:
256,203,79172,1,8,0:0:0:0:
226,204,79457,1,0,0:0:0:0:
256,203,79600,1,8,0:0:0:0:
241,202,80029,1,8,0:0:0:0:
256,203,80600,1,0,0:0:0:0:
245,207,80743,1,8,0:0:0:0:
237,216,81029,1,0,0:0:0:0:
241,202,81172,1,0,0:0:0:0:
245,196,81315,1,8,0:0:0:0:
245,207,81457,1,8,0:0:0:0:
243,186,81743,1,0,0:0:0:0:
244,211,81886,1,8,0:0:0:0:
241,202,82315,1,0,0:0:0:0:
243,186,82457,1,8,0:0:0:0:
244,211,82886,1,8,0:0:0:0:
244,211,83029,1,0,0:0:0:0:
244,211,83315,1,8,0:0:0:0:
241,202,83457,1,0,0:0:0:0:
244,211,83743,1,0,0:0:0:0:
259,197,84029,1,8,0:0:0:0:
244,211,84172,1,0,0:0:0:0:
241,202,84600,1,8,0:0:0:0:
244,211,85172,1,0,0:0:0:0:
244,211,85315,1,8,0:0:0:0:
225,203,85457,1,0,0:0:0:0:
225,203,85600,1,0,0:0:0:0:
241,202,85743,1,8,0:0:0:0:
240,261,90315,1,0,0:0:0:0:
240,261,90600,1,8,0:0:0:0:
240,261,90886,1,0,0:0:0:0:
240,261,91172,1,8,0:0:0:0:
240,261,91457,1,0,0:0:0:0:
236,252,91743,1,8,0:0:0:0:
236,252,92029,1,0,0:0:0:0:
236,252,92315,1,8,0:0:0:0:
236,252,92600,1,0,0:0:0:0:
236,252,92886,1,8,0:0:0:0:
236,252,93172,1,0,0:0:0:0:
236,252,93457,1,8,0:0:0:0:
236,252,93743,1,0,0:0:0:0:
236,252,94029,1,8,0:0:0:0:
236,252,94315,1,0,0:0:0:0:
240,261,94600,1,8,0:0:0:0:
240,261,94886,1,0,0:0:0:0:
285,241,95029,1,8,0:0:0:0:
274,231,95457,1,0,0:0:0:0:
240,238,95600,1,8,0:0:0:0:
274,231,96029,1,0,0:0:0:0:
274,231,96172,1,8,0:0:0:0:
221,198,96600,1,0,0:0:0:0:
221,198,96743,1,8,0:0:0:0:
274,231,97172,1,0,0:0:0:0:
225,203,97315,1,8,0:0:0:0:
274,231,97743,1,0,0:0:0:0:
204,181,97886,1,8,0:0:0:0:
274,231,98315,1,8,0:0:0:0:
274,231,98600,1,0,0:0:0:0:
274,231,98886,1,8,0:0:0:0:
274,231,99172,1,8,0:0:0:0:
274,231,99315,1,0,0:0:0:0:
274,231,99457,1,8,0:0:0:0:
299,165,100029,1,8,0:0:0:0:
250,173,100172,1,8,0:0:0:0:
250,173,100315,1,8,0:0:0:0:
250,173,100457,1,8,0:0:0:0:
244,207,100600,1,12,0:0:0:0:
250,191,100815,1,0,0:0:0:0:
253,177,101029,1,0,0:0:0:0:
260,211,101172,1,8,0:0:0:0:
260,211,101386,1,8,0:0:0:0:
244,207,101743,1,0,0:0:0:0:
239,192,101957,1,0,0:0:0:0:
260,211,102315,1,8,0:0:0:0:
260,211,102600,1,0,0:0:0:0:
244,207,102886,1,8,0:0:0:0:
222,206,103100,1,0,0:0:0:0:
222,206,103315,1,0,0:0:0:0:
246,205,103457,1,8,0:0:0:0:
244,207,103743,1,8,0:0:0:0:
252,213,103886,1,0,0:0:0:0:
244,207,104029,1,8,0:0:0:0:
256,209,104600,1,8,0:0:0:0:
244,207,104743,1,8,0:0:0:0:
244,207,104886,1,0,0:0:0:0:
244,207,105029,1,0,0:0:0:0:
244,207,105172,1,8,0:0:0:0:
226,197,105386,1,0,0:0:0:0:
253,181,105600,1,0,0:0:0:0:
239,186,105743,1,8,0:0:0:0:
253,181,105957,1,0,0:0:0:0:
244,207,106315,1,0,0:0:0:0:
253,181,106529,1,8,0:0:0:0:
260,201,106886,1,0,0:0:0:0:
243,198,107172,1,8,0:0:0:0:
244,207,107457,1,8,0:0:0:0:
226,201,107672,1,0,0:0:0:0:
226,201,107886,1,0,0:0:0:0:
252,185,108029,1,8,0:0:0:0:
252,185,108315,1,0,0:0:0:0:
205,183,108457,1,0,0:0:0:0:
244,207,108600,1,8,0:0:0:0:
244,207,109172,1,0,0:0:0:0:
244,207,109315,1,8,0:0:0:0:
244,207,109457,1,0,0:0:0:0:
244,207,109600,1,0,0:0:0:0:
244,207,109743,1,8,0:0:0:0:
253,199,109957,1,0,0:0:0:0:
255,201,110172,1,0,0:0:0:0:
260,211,110315,1,8,0:0:0:0:
260,211,110529,1,0,0:0:0:0:
244,207,110886,1,0,0:0:0:0:
255,209,111100,1,8,0:0:0:0:
260,211,111457,1,8,0:0:0:0:
260,211,111743,1,0,0:0:0:0:
244,207,112029,1,8,0:0:0:0:
221,197,112315,1,0,0:0:0:0:
246,205,112600,1,8,0:0:0:0:
244,207,112886,1,8,0:0:0:0:
244,207,113172,1,0,0:0:0:0:
256,209,113743,1,8,0:0:0:0:
244,207,113886,1,8,0:0:0:0:
244,207,114029,1,0,0:0:0:0:
244,207,114172,1,0,0:0:0:0:
244,207,114315,1,8,0:0:0:0:
226,197,114529,1,0,0:0:0:0:
250,186,114743,1,0,0:0:0:0:
239,186,114886,1,8,0:0:0:0:
211,182,115100,1,0,0:0:0:0:
244,207,115457,1,8,0:0:0:0:
212,191,115672,1,0,0:0:0:0:
260,201,116029,1,0,0:0:0:0:
243,198,116315,1,8,0:0:0:0:
244,207,116600,1,0,0:0:0:0:
236,174,116886,1,8,0:0:0:0:
252,185,117172,1,8,0:0:0:0:
252,185,117457,1,0,0:0:0:0:
244,207,117743,1,0,0:0:0:0:
244,207,118315,1,0,0:0:0:0:
244,207,118457,1,8,0:0:0:0:
244,207,118600,1,0,0:0:0:0:
244,207,118743,1,0,0:0:0:0:
244,207,118886,1,12,0:0:0:0:
