osu file format v14

[General]
AudioFilename: audio.mp3
AudioLeadIn: 0
PreviewTime: 231580
Countdown: 0
SampleSet: Normal
StackLeniency: 0
Mode: 1
LetterboxInBreaks: 0
WidescreenStoryboard: 1

[Editor]
Bookmarks: 2380,40780,77980,79180,117630,155980,231580,232780
DistanceSpacing: 0.9
BeatDivisor: 4
GridSize: 8
TimelineZoom: 2.799998

[Metadata]
Title:ushio
TitleUnicode:ushio
Artist:watering
ArtistUnicode:watering
Creator:liku
Version:inner oni
Source:
Tags:antti instrumental electronic depressive breakcore ambient music that pops your balls v4 clannad
BeatmapID:3616786
BeatmapSetID:1691417

[Difficulty]
HPDrainRate:6
CircleSize:5
OverallDifficulty:6
ApproachRate:5
SliderMultiplier:1.4
SliderTickRate:1

[Events]
//Background and Video events
0,0,"bg.jpg",0,-130
//Break Periods
2,156980,174030
//Storyboard Layer 0 (Background)
//Storyboard Layer 1 (Fail)
//Storyboard Layer 2 (Pass)
//Storyboard Layer 3 (Foreground)
//Storyboard Layer 4 (Overlay)
//Storyboard Sound Samples

[TimingPoints]
1230,600,4,1,0,20,1,8
1230,-133.333333333333,4,1,0,20,0,0
2430,600,4,1,0,55,1,0
40830,-100,4,1,0,35,0,0
76830,-100,4,1,0,50,0,0
78027,-75,4,1,0,50,0,0
78327,-66.6666666666667,4,1,0,50,0,0
78627,-60,4,1,0,50,0,0
78777,-57.1428571428571,4,1,0,50,0,0
78927,-54.5454545454545,4,1,0,50,0,0
79077,-52.1739130434783,4,1,0,50,0,0
79230,300,4,1,0,90,1,1
79230,-100,4,1,0,90,0,1
156030,600,4,1,0,90,1,0
156030,-50,4,1,0,90,0,0
157230,-133.333333333333,4,1,0,35,0,0
231627,-100,4,1,0,50,0,0
231827,-85.7142857142857,4,1,0,50,0,0
232027,-75,4,1,0,50,0,0
232227,-66.6666666666667,4,1,0,50,0,0
232427,-60,4,1,0,50,0,0
232627,-54.5454545454545,4,1,0,50,0,0
232830,300,4,1,0,90,1,1
232830,-100,4,1,0,90,0,1
309630,600,4,1,0,90,1,0
309630,-50,4,1,0,90,0,0
310755,-45.4545454545455,4,1,0,30,0,0
312030,-100,4,1,0,27,0,0
314430,-100,4,1,0,24,0,0
315630,-100,4,1,0,21,0,0
316830,-100,4,1,0,18,0,0
318030,-100,4,1,0,15,0,0
319230,-100,4,1,0,12,0,0

[HitObjects]
190,169,1230,5,0,0:0:0:0:
119,224,2430,1,0,0:0:0:0:
114,166,2730,1,0,0:0:0:0:
108,169,3030,1,8,0:0:0:0:
109,169,3330,1,0,0:0:0:0:
109,169,3480,1,8,0:0:0:0:
109,169,3630,1,0,0:0:0:0:
114,166,3780,1,8,0:0:0:0:
108,169,3930,1,0,0:0:0:0:
99,171,4230,1,0,0:0:0:0:
100,171,4530,1,8,0:0:0:0:
96,173,4830,1,8,0:0:0:0:
99,171,4980,1,8,0:0:0:0:
95,174,5130,1,0,0:0:0:0:
115,183,5280,1,0,0:0:0:0:
115,183,5430,1,8,0:0:0:0:
115,183,5730,1,8,0:0:0:0:
102,196,5880,1,0,0:0:0:0:
102,196,6030,1,8,0:0:0:0:
102,196,6180,1,0,0:0:0:0:
102,196,6330,1,8,0:0:0:0:
95,165,6930,1,8,0:0:0:0:
95,165,7230,1,0,0:0:0:0:
95,165,7530,1,0,0:0:0:0:
98,149,7830,1,8,0:0:0:0:
114,183,8130,1,8,0:0:0:0:
114,183,8280,1,0,0:0:0:0:
114,183,8430,1,8,0:0:0:0:
114,183,8580,1,8,0:0:0:0:
114,183,8730,1,0,0:0:0:0:
109,181,9030,1,0,0:0:0:0:
114,183,9330,1,8,0:0:0:0:
170,138,9630,1,8,0:0:0:0:
170,138,9780,1,0,0:0:0:0:
165,141,9930,1,0,0:0:0:0:
165,141,10080,1,0,0:0:0:0:
163,142,10230,1,8,0:0:0:0:
161,143,10530,1,8,0:0:0:0:
160,144,10680,1,0,0:0:0:0:
160,144,10830,1,8,0:0:0:0:
158,146,10980,1,0,0:0:0:0:
158,147,11130,1,8,0:0:0:0:
95,165,11730,1,8,0:0:0:0:
95,165,12030,1,0,0:0:0:0:
95,165,12330,1,0,0:0:0:0:
98,149,12630,1,8,0:0:0:0:
114,183,12930,1,0,0:0:0:0:
114,183,13080,1,8,0:0:0:0:
114,183,13230,1,0,0:0:0:0:
114,183,13380,1,8,0:0:0:0:
114,183,13530,1,0,0:0:0:0:
109,181,13830,1,0,0:0:0:0:
114,183,14130,1,8,0:0:0:0:
170,138,14430,1,8,0:0:0:0:
170,138,14580,1,8,0:0:0:0:
165,141,14730,1,0,0:0:0:0:
165,141,14880,1,0,0:0:0:0:
163,142,15030,1,8,0:0:0:0:
161,143,15330,1,8,0:0:0:0:
160,144,15480,1,0,0:0:0:0:
160,144,15630,1,8,0:0:0:0:
158,146,15780,1,0,0:0:0:0:
158,147,15930,1,8,0:0:0:0:
95,165,16530,1,8,0:0:0:0:
95,165,16830,1,0,0:0:0:0:
95,165,17130,1,0,0:0:0:0:
98,149,17430,1,8,0:0:0:0:
114,183,17730,1,8,0:0:0:0:
114,183,17880,1,0,0:0:0:0:
114,183,18030,1,8,0:0:0:0:
114,183,18180,1,8,0:0:0:0:
114,183,18330,1,0,0:0:0:0:
109,181,18630,1,0,0:0:0:0:
114,183,18930,1,8,0:0:0:0:
170,138,19230,1,8,0:0:0:0:
170,138,19380,1,0,0:0:0:0:
165,141,19530,1,0,0:0:0:0:
165,141,19680,1,0,0:0:0:0:
163,142,19830,1,8,0:0:0:0:
161,143,20130,1,8,0:0:0:0:
160,144,20280,1,0,0:0:0:0:
160,144,20430,1,8,0:0:0:0:
158,146,20580,1,0,0:0:0:0:
158,147,20730,1,8,0:0:0:0:
95,165,21330,1,8,0:0:0:0:
95,165,21630,1,0,0:0:0:0:
95,165,21930,1,0,0:0:0:0:
98,149,22230,1,8,0:0:0:0:
114,183,22530,1,0,0:0:0:0:
114,183,22680,1,8,0:0:0:0:
114,183,22830,1,0,0:0:0:0:
114,183,22980,1,8,0:0:0:0:
114,183,23130,1,0,0:0:0:0:
109,181,23430,1,0,0:0:0:0:
114,183,23730,1,8,0:0:0:0:
170,138,24030,1,8,0:0:0:0:
170,138,24180,1,8,0:0:0:0:
165,141,24330,1,0,0:0:0:0:
165,141,24480,1,0,0:0:0:0:
163,142,24630,1,8,0:0:0:0:
161,143,24930,1,8,0:0:0:0:
160,144,25080,1,0,0:0:0:0:
160,144,25230,1,8,0:0:0:0:
158,146,25380,1,0,0:0:0:0:
158,147,25530,1,8,0:0:0:0:
95,165,26130,1,8,0:0:0:0:
95,165,26430,1,0,0:0:0:0:
95,165,26730,1,0,0:0:0:0:
98,149,27030,1,8,0:0:0:0:
114,183,27330,1,8,0:0:0:0:
114,183,27480,1,0,0:0:0:0:
114,183,27630,1,8,0:0:0:0:
114,183,27780,1,8,0:0:0:0:
114,183,27930,1,0,0:0:0:0:
109,181,28230,1,0,0:0:0:0:
114,183,28530,1,8,0:0:0:0:
170,138,28830,1,8,0:0:0:0:
170,138,28980,1,0,0:0:0:0:
165,141,29130,1,8,0:0:0:0:
165,141,29280,1,0,0:0:0:0:
163,142,29430,1,8,0:0:0:0:
161,143,29730,1,8,0:0:0:0:
160,144,29880,1,8,0:0:0:0:
160,144,30030,1,0,0:0:0:0:
158,146,30180,1,0,0:0:0:0:
158,147,30330,1,8,0:0:0:0:
95,165,30930,1,8,0:0:0:0:
95,165,31230,1,0,0:0:0:0:
95,165,31530,1,0,0:0:0:0:
98,149,31830,1,8,0:0:0:0:
114,183,32130,1,0,0:0:0:0:
114,183,32280,1,8,0:0:0:0:
114,183,32430,1,0,0:0:0:0:
114,183,32580,1,8,0:0:0:0:
114,183,32730,1,0,0:0:0:0:
109,181,33030,1,0,0:0:0:0:
114,183,33330,1,8,0:0:0:0:
170,138,33630,1,8,0:0:0:0:
170,138,33780,1,8,0:0:0:0:
165,141,33930,1,0,0:0:0:0:
165,141,34080,1,0,0:0:0:0:
163,142,34230,1,8,0:0:0:0:
161,143,34530,1,8,0:0:0:0:
160,144,34680,1,0,0:0:0:0:
160,144,34830,1,8,0:0:0:0:
158,146,34980,1,0,0:0:0:0:
158,147,35130,1,8,0:0:0:0:
95,165,35730,1,8,0:0:0:0:
95,165,36030,1,0,0:0:0:0:
95,165,36330,1,0,0:0:0:0:
98,149,36630,1,8,0:0:0:0:
114,183,36930,1,0,0:0:0:0:
114,183,37080,1,0,0:0:0:0:
114,183,37230,1,0,0:0:0:0:
114,183,37380,1,8,0:0:0:0:
114,183,37530,1,0,0:0:0:0:
109,181,37830,1,0,0:0:0:0:
114,183,38130,1,8,0:0:0:0:
170,138,38430,1,8,0:0:0:0:
170,138,38580,1,0,0:0:0:0:
165,141,38730,1,8,0:0:0:0:
165,141,38880,1,0,0:0:0:0:
163,142,39030,1,8,0:0:0:0:
161,143,39330,1,8,0:0:0:0:
160,144,39480,1,8,0:0:0:0:
160,144,39630,1,0,0:0:0:0:
158,146,39780,1,0,0:0:0:0:
158,147,39930,1,8,0:0:0:0:
195,129,40530,1,8,0:0:0:0:
156,180,40830,1,0,0:0:0:0:
186,212,41430,1,8,0:0:0:0:
186,212,42030,1,0,0:0:0:0:
186,212,42630,1,0,0:0:0:0:
186,212,43230,1,8,0:0:0:0:
184,223,47430,1,0,0:0:0:0:
202,212,48030,1,0,0:0:0:0:
202,212,48630,1,8,0:0:0:0:
202,212,49230,1,0,0:0:0:0:
202,212,49830,1,0,0:0:0:0:
265,111,50430,1,0,0:0:0:0:
136,162,51030,1,8,0:0:0:0:
136,162,51630,1,0,0:0:0:0:
136,162,52230,1,0,0:0:0:0:
136,162,52830,1,8,0:0:0:0:
149,140,54630,1,0,0:0:0:0:
156,144,55230,1,8,0:0:0:0:
131,118,57030,1,0,0:0:0:0:
131,118,57630,1,0,0:0:0:0:
119,142,58230,1,0,0:0:0:0:
117,163,58830,1,8,0:0:0:0:
117,163,59430,1,8,0:0:0:0:
117,153,60030,1,0,0:0:0:0:
113,163,60630,1,8,0:0:0:0:
113,163,61230,1,0,0:0:0:0:
113,163,61830,1,0,0:0:0:0:
113,163,62430,1,8,0:0:0:0:
136,144,66630,1,0,0:0:0:0:
142,151,67230,1,0,0:0:0:0:
142,151,67830,1,8,0:0:0:0:
142,151,68430,1,8,0:0:0:0:
142,151,69030,1,8,0:0:0:0:
142,151,69630,1,0,0:0:0:0:
146,153,70230,1,0,0:0:0:0:
146,153,70830,1,0,0:0:0:0:
146,153,71430,1,8,0:0:0:0:
146,153,72030,1,0,0:0:0:0:
167,129,76830,1,0,0:0:0:0:
150,132,77430,1,0,0:0:0:0:
150,132,78030,1,0,0:0:0:0:
150,132,78330,1,0,0:0:0:0:
150,132,78630,1,0,0:0:0:0:
150,132,78780,1,0,0:0:0:0:
150,132,78930,1,0,0:0:0:0:
150,132,79080,1,0,0:0:0:0:
150,132,79230,1,0,0:0:0:0:
155,91,79380,1,0,0:0:0:0:
155,91,79455,1,0,0:0:0:0:
172,126,79530,1,8,0:0:0:0:
173,131,79605,1,8,0:0:0:0:
173,135,79680,1,0,0:0:0:0:
172,123,79830,1,0,0:0:0:0:
161,156,79880,1,0,0:0:0:0:
170,124,79930,1,0,0:0:0:0:
168,124,79980,1,8,0:0:0:0:
135,128,80130,1,8,0:0:0:0:
135,128,80205,1,0,0:0:0:0:
135,128,80280,1,8,0:0:0:0:
135,128,80355,1,8,0:0:0:0:
135,128,80430,1,0,0:0:0:0:
86,152,80580,1,8,0:0:0:0:
195,96,80630,1,8,0:0:0:0:
195,96,80680,1,8,0:0:0:0:
86,152,80730,1,0,0:0:0:0:
86,152,80805,1,0,0:0:0:0:
86,152,80880,1,8,0:0:0:0:
145,168,81030,1,0,0:0:0:0:
156,141,81067,1,0,0:0:0:0:
203,161,81330,1,0,0:0:0:0:
203,161,81405,1,0,0:0:0:0:
203,161,81480,1,0,0:0:0:0:
203,161,81555,1,0,0:0:0:0:
205,146,81630,1,8,0:0:0:0:
200,146,81705,1,8,0:0:0:0:
199,146,81780,1,8,0:0:0:0:
186,157,81930,1,0,0:0:0:0:
172,160,82080,1,8,0:0:0:0:
172,160,82230,1,0,0:0:0:0:
173,150,82530,1,0,0:0:0:0:
173,150,82605,1,0,0:0:0:0:
173,150,82680,1,0,0:0:0:0:
195,153,82730,1,0,0:0:0:0:
173,150,82780,1,0,0:0:0:0:
172,150,82830,1,8,0:0:0:0:
196,95,83130,1,0,0:0:0:0:
196,95,83205,1,0,0:0:0:0:
196,95,83280,1,8,0:0:0:0:
196,95,83355,1,0,0:0:0:0:
196,95,83430,1,8,0:0:0:0:
196,95,83505,1,8,0:0:0:0:
196,95,83580,1,8,0:0:0:0:
196,95,83655,1,8,0:0:0:0:
196,95,83730,1,0,0:0:0:0:
206,101,83805,1,0,0:0:0:0:
156,111,83880,1,8,0:0:0:0:
156,111,84030,1,0,0:0:0:0:
115,93,84180,1,0,0:0:0:0:
112,124,84330,1,8,0:0:0:0:
112,124,84405,1,8,0:0:0:0:
112,124,84480,1,8,0:0:0:0:
112,124,84555,1,8,0:0:0:0:
112,124,84630,1,0,0:0:0:0:
119,123,84930,1,0,0:0:0:0:
118,123,85005,1,0,0:0:0:0:
119,123,85080,1,0,0:0:0:0:
118,123,85155,1,0,0:0:0:0:
118,123,85230,1,8,0:0:0:0:
118,123,85380,1,0,0:0:0:0:
118,123,85455,1,0,0:0:0:0:
117,123,85530,1,8,0:0:0:0:
100,124,85680,1,0,0:0:0:0:
97,124,85755,1,0,0:0:0:0:
97,124,85830,1,0,0:0:0:0:
148,56,86130,1,0,0:0:0:0:
116,56,86430,1,8,0:0:0:0:
116,56,86530,1,8,0:0:0:0:
118,60,86630,1,8,0:0:0:0:
192,75,86830,1,8,0:0:0:0:
226,62,87030,1,0,0:0:0:0:
114,113,87292,1,8,0:0:0:0:
142,102,87510,1,8,0:0:0:0:
142,102,87630,1,0,0:0:0:0:
81,154,87930,1,0,0:0:0:0:
157,54,88230,1,8,0:0:0:0:
132,128,88305,1,0,0:0:0:0:
136,129,88380,1,8,0:0:0:0:
136,129,88455,1,0,0:0:0:0:
136,129,88530,1,8,0:0:0:0:
136,129,88605,1,0,0:0:0:0:
136,129,88680,1,8,0:0:0:0:
102,122,88755,1,8,0:0:0:0:
157,54,88830,1,0,0:0:0:0:
94,123,88980,1,8,0:0:0:0:
94,123,89130,1,0,0:0:0:0:
136,138,89530,1,0,0:0:0:0:
192,108,90030,1,8,0:0:0:0:
227,104,90180,1,0,0:0:0:0:
227,104,90255,1,0,0:0:0:0:
227,104,90330,1,8,0:0:0:0:
218,108,90480,1,8,0:0:0:0:
218,108,90555,1,8,0:0:0:0:
227,104,90630,1,0,0:0:0:0:
105,86,90780,1,8,0:0:0:0:
179,89,90855,1,0,0:0:0:0:
146,53,90930,1,8,0:0:0:0:
150,54,90980,1,8,0:0:0:0:
150,54,91030,1,8,0:0:0:0:
150,54,91080,1,0,0:0:0:0:
146,53,91230,1,8,0:0:0:0:
180,100,91380,1,8,0:0:0:0:
204,145,91530,1,8,0:0:0:0:
204,145,91680,1,8,0:0:0:0:
201,116,91755,1,8,0:0:0:0:
176,126,91830,1,0,0:0:0:0:
190,142,91880,1,0,0:0:0:0:
188,143,91930,1,0,0:0:0:0:
177,146,91980,1,8,0:0:0:0:
184,121,92130,1,8,0:0:0:0:
177,121,92205,1,0,0:0:0:0:
174,121,92280,1,8,0:0:0:0:
163,90,92430,1,0,0:0:0:0:
163,90,92505,1,0,0:0:0:0:
163,90,92580,1,8,0:0:0:0:
163,90,92730,1,8,0:0:0:0:
163,90,92805,1,8,0:0:0:0:
152,91,92880,1,0,0:0:0:0:
151,92,92955,5,8,0:0:0:0:
151,92,93030,1,0,0:0:0:0:
180,88,93180,1,8,0:0:0:0:
128,34,93330,1,8,0:0:0:0:
128,34,93405,1,0,0:0:0:0:
128,34,93480,1,8,0:0:0:0:
128,34,93555,1,8,0:0:0:0:
195,187,93630,1,0,0:0:0:0:
187,161,93780,1,8,0:0:0:0:
187,161,93855,1,8,0:0:0:0:
152,182,94230,1,8,0:0:0:0:
157,133,94455,1,8,0:0:0:0:
115,176,94530,1,0,0:0:0:0:
27,144,94830,1,8,0:0:0:0:
27,144,94980,1,8,0:0:0:0:
27,144,95130,1,8,0:0:0:0:
163,120,95280,1,0,0:0:0:0:
163,120,95330,1,0,0:0:0:0:
163,120,95380,1,0,0:0:0:0:
163,120,95430,1,8,0:0:0:0:
231,169,95580,1,8,0:0:0:0:
231,169,95655,1,0,0:0:0:0:
231,169,95730,1,8,0:0:0:0:
226,193,95880,1,8,0:0:0:0:
226,193,95930,1,0,0:0:0:0:
226,193,95980,1,0,0:0:0:0:
226,193,96030,1,8,0:0:0:0:
187,143,96292,1,8,0:0:0:0:
143,114,96442,1,0,0:0:0:0:
69,137,96592,1,8,0:0:0:0:
69,137,96630,1,0,0:0:0:0:
86,143,96930,1,8,0:0:0:0:
180,144,97080,1,8,0:0:0:0:
179,144,97155,1,8,0:0:0:0:
176,145,97230,1,0,0:0:0:0:
168,149,97380,1,0,0:0:0:0:
162,155,97455,1,0,0:0:0:0:
201,117,97530,1,8,0:0:0:0:
166,126,97580,1,8,0:0:0:0:
189,119,97630,1,8,0:0:0:0:
185,121,97680,1,8,0:0:0:0:
144,137,97830,1,0,0:0:0:0:
127,144,97905,1,0,0:0:0:0:
127,144,97980,1,0,0:0:0:0:
125,145,98055,1,0,0:0:0:0:
123,146,98205,1,0,0:0:0:0:
117,149,98430,1,8,0:0:0:0:
131,145,98580,1,8,0:0:0:0:
212,134,98730,1,8,0:0:0:0:
206,140,98880,1,8,0:0:0:0:
206,140,99030,1,0,0:0:0:0:
206,140,99105,1,0,0:0:0:0:
206,140,99180,1,8,0:0:0:0:
205,146,99330,1,8,0:0:0:0:
205,146,99405,1,0,0:0:0:0:
205,146,99480,1,8,0:0:0:0:
173,128,99630,1,8,0:0:0:0:
177,142,99780,1,8,0:0:0:0:
177,142,99855,1,0,0:0:0:0:
175,142,99930,1,8,0:0:0:0:
168,146,100080,1,8,0:0:0:0:
168,146,100230,1,0,0:0:0:0:
168,146,100305,1,0,0:0:0:0:
168,146,100380,1,8,0:0:0:0:
168,146,100530,1,0,0:0:0:0:
168,146,100605,1,0,0:0:0:0:
169,146,100680,1,8,0:0:0:0:
169,146,100755,1,0,0:0:0:0:
169,146,100830,1,8,0:0:0:0:
188,134,100930,1,8,0:0:0:0:
188,135,101030,1,8,0:0:0:0:
188,135,101130,1,8,0:0:0:0:
190,141,101230,1,0,0:0:0:0:
152,147,101430,1,8,0:0:0:0:
201,140,101542,1,8,0:0:0:0:
190,145,101655,1,0,0:0:0:0:
173,158,101767,1,0,0:0:0:0:
157,127,101917,1,8,0:0:0:0:
156,132,102030,1,0,0:0:0:0:
123,160,102330,1,0,0:0:0:0:
123,160,102480,1,0,0:0:0:0:
123,160,102630,1,8,0:0:0:0:
237,168,102705,1,0,0:0:0:0:
190,135,102780,1,8,0:0:0:0:
237,168,102855,1,0,0:0:0:0:
190,135,102930,1,8,0:0:0:0:
211,235,103080,1,0,0:0:0:0:
209,239,103230,1,8,0:0:0:0:
110,144,103380,1,8,0:0:0:0:
109,144,103430,1,0,0:0:0:0:
109,144,103480,1,0,0:0:0:0:
109,144,103530,1,8,0:0:0:0:
124,195,103680,1,8,0:0:0:0:
108,195,103755,1,8,0:0:0:0:
108,195,103830,1,0,0:0:0:0:
90,195,103905,1,0,0:0:0:0:
174,175,103980,1,8,0:0:0:0:
131,133,104130,1,0,0:0:0:0:
138,151,104430,1,8,0:0:0:0:
190,153,104580,1,8,0:0:0:0:
190,153,104730,1,8,0:0:0:0:
161,128,104880,1,0,0:0:0:0:
161,128,104930,1,0,0:0:0:0:
161,128,104980,1,0,0:0:0:0:
163,128,105030,1,8,0:0:0:0:
150,175,105180,1,0,0:0:0:0:
150,175,105330,1,8,0:0:0:0:
150,175,105480,1,0,0:0:0:0:
189,119,105555,1,0,0:0:0:0:
150,175,105630,1,8,0:0:0:0:
144,179,105780,1,0,0:0:0:0:
144,179,105855,1,0,0:0:0:0:
165,111,105930,1,8,0:0:0:0:
167,110,105980,1,0,0:0:0:0:
167,110,106030,1,0,0:0:0:0:
169,109,106080,1,8,0:0:0:0:
123,143,106230,1,0,0:0:0:0:
157,142,106305,1,0,0:0:0:0:
157,142,106380,1,8,0:0:0:0:
173,135,106530,1,0,0:0:0:0:
224,97,106605,1,0,0:0:0:0:
185,101,106680,1,8,0:0:0:0:
191,102,106755,1,8,0:0:0:0:
191,102,106830,1,8,0:0:0:0:
122,131,106980,1,8,0:0:0:0:
125,133,107030,1,8,0:0:0:0:
117,148,107080,1,8,0:0:0:0:
122,154,107130,1,0,0:0:0:0:
186,121,107205,1,0,0:0:0:0:
186,122,107280,1,8,0:0:0:0:
194,129,107430,1,8,0:0:0:0:
117,93,107505,1,8,0:0:0:0:
117,93,107580,1,0,0:0:0:0:
117,93,107655,1,8,0:0:0:0:
179,137,107730,1,0,0:0:0:0:
199,126,107805,1,0,0:0:0:0:
185,125,107880,1,0,0:0:0:0:
185,125,107955,1,0,0:0:0:0:
185,125,108030,1,8,0:0:0:0:
236,241,108180,1,0,0:0:0:0:
198,199,108255,1,0,0:0:0:0:
228,226,108330,1,8,0:0:0:0:
198,199,108405,1,8,0:0:0:0:
228,226,108480,1,8,0:0:0:0:
198,199,108555,1,8,0:0:0:0:
228,226,108630,1,0,0:0:0:0:
228,226,108780,1,8,0:0:0:0:
198,199,108855,1,8,0:0:0:0:
154,102,108930,1,0,0:0:0:0:
154,102,109005,1,0,0:0:0:0:
228,226,109080,1,0,0:0:0:0:
154,102,109155,1,0,0:0:0:0:
228,226,109230,1,8,0:0:0:0:
228,226,109380,1,0,0:0:0:0:
196,139,109455,1,0,0:0:0:0:
228,226,109530,1,8,0:0:0:0:
196,139,109605,1,0,0:0:0:0:
228,226,109680,1,8,0:0:0:0:
196,139,109755,1,8,0:0:0:0:
228,226,109830,1,0,0:0:0:0:
89,152,110087,1,0,0:0:0:0:
217,140,110392,1,8,0:0:0:0:
228,226,110580,1,8,0:0:0:0:
235,103,110655,1,8,0:0:0:0:
228,226,110730,1,0,0:0:0:0:
196,171,110930,1,0,0:0:0:0:
228,226,111030,1,8,0:0:0:0:
228,226,111130,1,0,0:0:0:0:
228,226,111480,1,0,0:0:0:0:
228,226,111630,1,8,0:0:0:0:
228,226,111780,1,0,0:0:0:0:
143,134,111855,1,0,0:0:0:0:
228,226,111930,1,8,0:0:0:0:
228,226,112080,1,0,0:0:0:0:
143,134,112155,1,0,0:0:0:0:
228,226,112230,1,0,0:0:0:0:
228,226,112380,1,0,0:0:0:0:
190,91,112455,1,0,0:0:0:0:
228,226,112530,1,8,0:0:0:0:
167,112,112580,1,8,0:0:0:0:
167,112,112630,1,8,0:0:0:0:
228,226,112680,1,0,0:0:0:0:
167,112,112830,1,8,0:0:0:0:
228,226,112980,1,8,0:0:0:0:
228,226,113130,1,0,0:0:0:0:
191,104,113280,1,0,0:0:0:0:
190,106,113355,1,0,0:0:0:0:
283,55,113430,1,8,0:0:0:0:
283,55,113480,1,8,0:0:0:0:
248,50,113530,1,8,0:0:0:0:
274,52,113580,1,0,0:0:0:0:
228,226,113730,1,8,0:0:0:0:
183,121,113805,1,0,0:0:0:0:
228,226,113880,1,8,0:0:0:0:
228,226,114030,1,8,0:0:0:0:
228,226,114180,1,0,0:0:0:0:
177,145,114255,1,0,0:0:0:0:
177,145,114330,1,8,0:0:0:0:
228,226,114480,1,0,0:0:0:0:
136,130,114555,1,8,0:0:0:0:
228,226,114630,1,0,0:0:0:0:
228,226,114780,1,0,0:0:0:0:
228,226,114930,1,8,0:0:0:0:
136,130,115005,1,0,0:0:0:0:
228,226,115080,1,8,0:0:0:0:
170,139,115155,1,8,0:0:0:0:
228,226,115230,1,0,0:0:0:0:
237,138,115487,1,8,0:0:0:0:
232,151,115792,1,8,0:0:0:0:
228,226,115830,1,0,0:0:0:0:
228,226,116070,1,8,0:0:0:0:
228,226,116130,1,0,0:0:0:0:
228,226,116205,1,8,0:0:0:0:
165,158,116280,1,0,0:0:0:0:
235,129,116355,1,8,0:0:0:0:
228,226,116430,1,8,0:0:0:0:
228,226,116580,1,0,0:0:0:0:
156,211,116655,1,0,0:0:0:0:
228,226,116730,1,8,0:0:0:0:
228,226,116880,1,0,0:0:0:0:
162,181,116955,1,0,0:0:0:0:
228,226,117030,1,8,0:0:0:0:
228,226,117180,5,8,0:0:0:0:
228,226,117330,1,8,0:0:0:0:
191,119,117405,1,8,0:0:0:0:
228,226,117480,1,8,0:0:0:0:
191,119,117555,1,8,0:0:0:0:
228,226,117630,1,0,0:0:0:0:
155,91,117780,1,0,0:0:0:0:
155,91,117855,1,0,0:0:0:0:
172,126,117930,1,8,0:0:0:0:
210,156,117980,1,8,0:0:0:0:
173,131,118030,1,8,0:0:0:0:
173,135,118080,1,0,0:0:0:0:
172,123,118230,1,0,0:0:0:0:
170,124,118305,1,0,0:0:0:0:
168,124,118380,1,8,0:0:0:0:
135,128,118530,1,8,0:0:0:0:
135,128,118605,1,0,0:0:0:0:
135,128,118680,1,8,0:0:0:0:
135,128,118755,1,8,0:0:0:0:
135,128,118830,1,0,0:0:0:0:
86,152,118980,1,8,0:0:0:0:
195,96,119030,1,8,0:0:0:0:
195,96,119080,1,8,0:0:0:0:
86,152,119130,1,0,0:0:0:0:
86,152,119205,1,0,0:0:0:0:
86,152,119280,1,8,0:0:0:0:
145,168,119430,1,0,0:0:0:0:
156,141,119467,1,0,0:0:0:0:
203,161,119730,1,0,0:0:0:0:
203,161,119805,1,0,0:0:0:0:
203,161,119880,1,0,0:0:0:0:
203,161,119955,1,0,0:0:0:0:
205,146,120030,1,8,0:0:0:0:
200,146,120105,1,8,0:0:0:0:
199,146,120180,1,8,0:0:0:0:
186,157,120330,1,0,0:0:0:0:
172,160,120480,1,8,0:0:0:0:
172,160,120630,1,0,0:0:0:0:
173,150,120930,1,0,0:0:0:0:
173,150,121005,1,0,0:0:0:0:
173,150,121080,1,0,0:0:0:0:
173,150,121155,1,0,0:0:0:0:
172,150,121230,1,8,0:0:0:0:
196,95,121530,1,0,0:0:0:0:
196,95,121605,1,0,0:0:0:0:
196,95,121680,1,8,0:0:0:0:
196,95,121755,1,0,0:0:0:0:
196,95,121830,1,8,0:0:0:0:
196,95,121905,1,8,0:0:0:0:
196,95,121980,1,8,0:0:0:0:
196,95,122055,1,8,0:0:0:0:
196,95,122130,1,0,0:0:0:0:
206,101,122205,1,0,0:0:0:0:
156,111,122280,1,8,0:0:0:0:
156,111,122430,1,0,0:0:0:0:
115,93,122580,1,0,0:0:0:0:
112,124,122730,1,8,0:0:0:0:
112,124,122805,1,8,0:0:0:0:
112,124,122880,1,8,0:0:0:0:
112,124,122955,1,8,0:0:0:0:
112,124,123030,1,0,0:0:0:0:
119,123,123330,1,0,0:0:0:0:
118,123,123405,1,0,0:0:0:0:
119,123,123480,1,0,0:0:0:0:
118,123,123555,1,0,0:0:0:0:
118,123,123630,1,8,0:0:0:0:
118,123,123780,1,0,0:0:0:0:
118,123,123855,1,0,0:0:0:0:
117,123,123930,1,8,0:0:0:0:
100,124,124080,1,0,0:0:0:0:
97,124,124155,1,0,0:0:0:0:
97,124,124230,1,0,0:0:0:0:
148,56,124530,1,0,0:0:0:0:
116,56,124830,1,8,0:0:0:0:
116,56,124930,1,8,0:0:0:0:
118,60,125030,1,8,0:0:0:0:
192,75,125230,1,8,0:0:0:0:
226,62,125430,1,0,0:0:0:0:
114,113,125692,1,8,0:0:0:0:
142,102,125910,1,8,0:0:0:0:
142,102,126030,1,0,0:0:0:0:
81,154,126330,1,0,0:0:0:0:
157,54,126630,1,8,0:0:0:0:
132,128,126705,1,0,0:0:0:0:
136,129,126780,1,8,0:0:0:0:
136,129,126855,1,0,0:0:0:0:
136,129,126930,1,8,0:0:0:0:
136,129,127005,1,0,0:0:0:0:
136,129,127080,1,8,0:0:0:0:
102,122,127155,1,0,0:0:0:0:
157,54,127230,1,0,0:0:0:0:
94,123,127380,1,8,0:0:0:0:
94,123,127530,1,0,0:0:0:0:
136,138,127930,1,0,0:0:0:0:
192,108,128430,1,8,0:0:0:0:
227,104,128580,1,0,0:0:0:0:
227,104,128655,1,0,0:0:0:0:
227,104,128730,1,8,0:0:0:0:
218,108,128880,1,8,0:0:0:0:
218,108,128955,1,8,0:0:0:0:
227,104,129030,1,0,0:0:0:0:
105,86,129180,1,8,0:0:0:0:
179,89,129255,1,0,0:0:0:0:
146,53,129330,1,8,0:0:0:0:
150,54,129380,1,0,0:0:0:0:
150,54,129430,1,0,0:0:0:0:
150,54,129480,1,8,0:0:0:0:
146,53,129630,1,8,0:0:0:0:
180,100,129780,1,8,0:0:0:0:
204,145,129930,1,8,0:0:0:0:
204,145,130080,1,8,0:0:0:0:
201,116,130155,1,8,0:0:0:0:
176,126,130230,1,0,0:0:0:0:
190,142,130280,1,0,0:0:0:0:
188,143,130330,1,0,0:0:0:0:
177,146,130380,1,8,0:0:0:0:
184,121,130530,1,8,0:0:0:0:
177,121,130605,1,0,0:0:0:0:
174,121,130680,1,8,0:0:0:0:
163,90,130830,1,0,0:0:0:0:
163,90,130905,1,0,0:0:0:0:
163,90,130980,1,8,0:0:0:0:
163,90,131130,1,8,0:0:0:0:
163,90,131205,1,8,0:0:0:0:
152,91,131280,1,0,0:0:0:0:
151,92,131355,5,8,0:0:0:0:
151,92,131430,1,0,0:0:0:0:
180,88,131580,1,8,0:0:0:0:
128,34,131730,1,0,0:0:0:0:
128,34,131805,1,8,0:0:0:0:
128,34,131880,1,0,0:0:0:0:
128,34,131955,1,0,0:0:0:0:
195,187,132030,1,8,0:0:0:0:
183,124,132180,1,8,0:0:0:0:
183,124,132255,1,8,0:0:0:0:
152,182,132630,1,8,0:0:0:0:
157,133,132855,1,8,0:0:0:0:
115,176,132930,1,0,0:0:0:0:
27,144,133230,1,8,0:0:0:0:
27,144,133380,1,8,0:0:0:0:
27,144,133530,1,8,0:0:0:0:
163,120,133680,1,0,0:0:0:0:
163,120,133730,1,0,0:0:0:0:
163,120,133780,1,0,0:0:0:0:
163,120,133830,1,8,0:0:0:0:
231,169,133980,1,8,0:0:0:0:
231,169,134055,1,0,0:0:0:0:
231,169,134130,1,8,0:0:0:0:
226,193,134280,1,8,0:0:0:0:
226,193,134330,1,0,0:0:0:0:
226,193,134380,1,0,0:0:0:0:
226,193,134430,1,8,0:0:0:0:
187,143,134692,1,8,0:0:0:0:
143,114,134842,1,0,0:0:0:0:
69,137,134992,1,8,0:0:0:0:
69,137,135030,1,0,0:0:0:0:
86,143,135330,1,8,0:0:0:0:
180,144,135480,1,8,0:0:0:0:
179,144,135555,1,8,0:0:0:0:
176,145,135630,1,0,0:0:0:0:
168,149,135780,1,0,0:0:0:0:
162,155,135855,1,0,0:0:0:0:
201,117,135930,1,8,0:0:0:0:
166,126,135980,1,8,0:0:0:0:
189,119,136030,1,8,0:0:0:0:
185,121,136080,1,8,0:0:0:0:
144,137,136230,1,0,0:0:0:0:
127,144,136305,1,0,0:0:0:0:
127,144,136380,1,0,0:0:0:0:
125,145,136455,1,0,0:0:0:0:
123,146,136605,1,0,0:0:0:0:
117,149,136830,1,8,0:0:0:0:
131,145,136980,1,8,0:0:0:0:
212,134,137130,1,8,0:0:0:0:
206,140,137280,1,8,0:0:0:0:
206,140,137430,1,0,0:0:0:0:
206,140,137505,1,0,0:0:0:0:
206,140,137580,1,8,0:0:0:0:
205,146,137730,1,8,0:0:0:0:
205,146,137805,1,0,0:0:0:0:
205,146,137880,1,8,0:0:0:0:
173,128,138030,1,8,0:0:0:0:
177,142,138180,1,0,0:0:0:0:
177,142,138255,1,0,0:0:0:0:
175,142,138330,1,8,0:0:0:0:
168,146,138480,1,8,0:0:0:0:
168,146,138630,1,0,0:0:0:0:
168,146,138705,1,0,0:0:0:0:
168,146,138780,1,8,0:0:0:0:
168,146,138930,1,0,0:0:0:0:
168,146,139005,1,0,0:0:0:0:
169,146,139080,1,8,0:0:0:0:
169,146,139155,1,0,0:0:0:0:
169,146,139230,1,8,0:0:0:0:
188,134,139330,1,8,0:0:0:0:
188,135,139430,1,8,0:0:0:0:
188,135,139530,1,8,0:0:0:0:
190,141,139630,1,0,0:0:0:0:
152,147,139830,1,8,0:0:0:0:
201,140,139942,1,8,0:0:0:0:
190,145,140055,1,0,0:0:0:0:
173,158,140167,1,0,0:0:0:0:
157,127,140317,1,8,0:0:0:0:
156,132,140430,1,0,0:0:0:0:
123,160,140730,1,0,0:0:0:0:
123,160,140880,1,0,0:0:0:0:
123,160,141030,1,8,0:0:0:0:
237,168,141105,1,0,0:0:0:0:
190,135,141180,1,8,0:0:0:0:
237,168,141255,1,0,0:0:0:0:
190,135,141330,1,8,0:0:0:0:
211,235,141480,1,0,0:0:0:0:
209,239,141630,1,8,0:0:0:0:
110,144,141780,1,8,0:0:0:0:
109,144,141830,1,0,0:0:0:0:
109,144,141880,1,0,0:0:0:0:
109,144,141930,1,8,0:0:0:0:
124,195,142080,1,8,0:0:0:0:
108,195,142155,1,8,0:0:0:0:
108,195,142230,1,0,0:0:0:0:
90,195,142305,1,0,0:0:0:0:
174,175,142380,1,8,0:0:0:0:
131,133,142530,1,0,0:0:0:0:
138,151,142830,1,8,0:0:0:0:
190,153,142980,1,8,0:0:0:0:
190,153,143130,1,8,0:0:0:0:
161,128,143280,1,0,0:0:0:0:
161,128,143330,1,0,0:0:0:0:
161,128,143380,1,0,0:0:0:0:
163,128,143430,1,8,0:0:0:0:
150,175,143580,1,0,0:0:0:0:
150,175,143730,1,8,0:0:0:0:
175,136,143880,1,8,0:0:0:0:
189,119,143955,1,0,0:0:0:0:
150,175,144030,1,8,0:0:0:0:
144,179,144180,1,0,0:0:0:0:
144,179,144255,1,0,0:0:0:0:
165,111,144330,1,8,0:0:0:0:
167,110,144380,1,8,0:0:0:0:
167,110,144430,1,8,0:0:0:0:
169,109,144480,1,8,0:0:0:0:
123,143,144630,1,0,0:0:0:0:
157,142,144705,1,0,0:0:0:0:
157,142,144780,1,8,0:0:0:0:
173,135,144930,1,0,0:0:0:0:
224,97,145005,1,0,0:0:0:0:
185,101,145080,1,8,0:0:0:0:
191,102,145155,1,8,0:0:0:0:
191,102,145230,1,8,0:0:0:0:
122,131,145380,1,8,0:0:0:0:
125,133,145430,1,8,0:0:0:0:
117,148,145480,1,8,0:0:0:0:
122,154,145530,1,0,0:0:0:0:
186,121,145605,1,0,0:0:0:0:
186,122,145680,1,8,0:0:0:0:
194,129,145830,1,8,0:0:0:0:
117,93,145905,1,8,0:0:0:0:
117,93,145980,1,0,0:0:0:0:
117,93,146055,1,8,0:0:0:0:
179,137,146130,1,0,0:0:0:0:
199,126,146205,1,0,0:0:0:0:
185,125,146280,1,0,0:0:0:0:
185,125,146355,1,0,0:0:0:0:
185,125,146430,1,8,0:0:0:0:
236,241,146580,1,0,0:0:0:0:
198,199,146655,1,0,0:0:0:0:
228,226,146730,1,8,0:0:0:0:
198,199,146805,1,8,0:0:0:0:
228,226,146880,1,8,0:0:0:0:
198,199,146955,1,8,0:0:0:0:
228,226,147030,1,0,0:0:0:0:
228,226,147180,1,8,0:0:0:0:
198,199,147255,1,8,0:0:0:0:
154,102,147330,1,0,0:0:0:0:
154,102,147405,1,0,0:0:0:0:
228,226,147480,1,0,0:0:0:0:
154,102,147555,1,0,0:0:0:0:
228,226,147630,1,8,0:0:0:0:
228,226,147780,1,0,0:0:0:0:
196,139,147855,1,0,0:0:0:0:
228,226,147930,1,8,0:0:0:0:
196,139,148005,1,0,0:0:0:0:
228,226,148080,1,8,0:0:0:0:
196,139,148155,1,8,0:0:0:0:
228,226,148230,1,0,0:0:0:0:
89,152,148487,1,0,0:0:0:0:
217,140,148792,1,8,0:0:0:0:
228,226,148980,1,8,0:0:0:0:
235,103,149055,1,8,0:0:0:0:
228,226,149130,1,0,0:0:0:0:
196,171,149330,1,0,0:0:0:0:
228,226,149430,1,8,0:0:0:0:
228,226,149530,1,0,0:0:0:0:
228,226,149880,1,0,0:0:0:0:
228,226,150030,1,8,0:0:0:0:
228,226,150180,1,0,0:0:0:0:
143,134,150255,1,0,0:0:0:0:
228,226,150330,1,8,0:0:0:0:
228,226,150480,1,0,0:0:0:0:
143,134,150555,1,0,0:0:0:0:
228,226,150630,1,0,0:0:0:0:
228,226,150780,1,0,0:0:0:0:
190,91,150855,1,0,0:0:0:0:
228,226,150930,1,8,0:0:0:0:
167,112,150980,1,0,0:0:0:0:
167,112,151030,1,0,0:0:0:0:
228,226,151080,1,8,0:0:0:0:
167,112,151230,1,8,0:0:0:0:
228,226,151380,1,8,0:0:0:0:
228,226,151530,1,0,0:0:0:0:
191,104,151680,1,0,0:0:0:0:
190,106,151755,1,0,0:0:0:0:
283,55,151830,1,8,0:0:0:0:
283,55,151880,1,8,0:0:0:0:
248,50,151930,1,8,0:0:0:0:
274,52,151980,1,0,0:0:0:0:
228,226,152130,1,8,0:0:0:0:
183,121,152205,1,0,0:0:0:0:
228,226,152280,1,8,0:0:0:0:
228,226,152430,1,8,0:0:0:0:
228,226,152580,1,0,0:0:0:0:
177,145,152655,1,0,0:0:0:0:
177,145,152730,1,8,0:0:0:0:
228,226,152880,1,0,0:0:0:0:
136,130,152955,1,8,0:0:0:0:
228,226,153030,1,0,0:0:0:0:
228,226,153180,1,0,0:0:0:0:
228,226,153330,1,8,0:0:0:0:
136,130,153405,1,0,0:0:0:0:
228,226,153480,1,8,0:0:0:0:
170,139,153555,1,8,0:0:0:0:
228,226,153630,1,0,0:0:0:0:
237,138,153887,1,8,0:0:0:0:
232,151,154192,1,8,0:0:0:0:
228,226,154230,1,0,0:0:0:0:
228,226,154470,1,8,0:0:0:0:
228,226,154530,1,0,0:0:0:0:
228,226,154605,5,8,0:0:0:0:
165,158,154680,1,0,0:0:0:0:
235,129,154755,1,8,0:0:0:0:
228,226,154830,1,8,0:0:0:0:
228,226,154980,1,0,0:0:0:0:
156,211,155055,1,0,0:0:0:0:
228,226,155130,1,8,0:0:0:0:
228,226,155280,1,0,0:0:0:0:
162,181,155355,1,0,0:0:0:0:
228,226,155430,1,8,0:0:0:0:
228,226,155580,5,8,0:0:0:0:
228,226,155730,1,8,0:0:0:0:
228,178,155805,1,8,0:0:0:0:
228,178,155880,1,8,0:0:0:0:
162,128,155955,1,0,0:0:0:0:
228,226,156030,5,8,0:0:0:0:
179,186,156105,1,8,0:0:0:0:
179,186,156180,1,8,0:0:0:0:
179,186,156330,1,8,0:0:0:0:
179,186,156480,1,8,0:0:0:0:
179,186,156780,1,8,0:0:0:0:
136,165,175230,5,0,0:0:0:0:
99,119,176430,1,8,0:0:0:0:
158,121,177630,1,0,0:0:0:0:
79,207,178230,1,0,0:0:0:0:
187,130,178830,1,8,0:0:0:0:
216,162,180030,1,0,0:0:0:0:
97,126,181230,1,8,0:0:0:0:
97,126,182430,1,0,0:0:0:0:
80,166,183030,1,0,0:0:0:0:
189,83,183630,1,8,0:0:0:0:
111,165,184230,1,0,0:0:0:0:
200,171,184830,1,0,0:0:0:0:
131,155,186030,1,8,0:0:0:0:
94,174,187230,1,0,0:0:0:0:
124,157,187830,1,0,0:0:0:0:
138,109,188430,1,8,0:0:0:0:
225,167,189630,1,0,0:0:0:0:
107,101,190830,1,8,0:0:0:0:
173,105,192030,1,8,0:0:0:0:
205,69,192630,1,0,0:0:0:0:
205,69,193230,1,8,0:0:0:0:
191,69,193830,1,0,0:0:0:0:
251,176,194430,1,0,0:0:0:0:
191,146,195630,1,8,0:0:0:0:
218,99,196830,1,0,0:0:0:0:
184,148,197430,1,0,0:0:0:0:
381,104,198030,1,8,0:0:0:0:
382,106,199230,1,0,0:0:0:0:
157,149,200430,1,8,0:0:0:0:
48,158,201630,1,0,0:0:0:0:
154,151,202230,1,0,0:0:0:0:
138,154,202830,1,8,0:0:0:0:
138,154,203430,1,0,0:0:0:0:
242,127,204030,1,0,0:0:0:0:
195,182,205230,1,8,0:0:0:0:
321,116,206430,1,0,0:0:0:0:
193,176,207030,1,0,0:0:0:0:
105,103,207630,1,8,0:0:0:0:
64,170,208830,1,0,0:0:0:0:
173,84,210030,1,8,0:0:0:0:
214,97,211230,1,8,0:0:0:0:
151,175,211830,1,0,0:0:0:0:
41,163,212430,1,8,0:0:0:0:
169,104,213030,1,0,0:0:0:0:
217,101,213630,1,0,0:0:0:0:
151,176,214830,1,8,0:0:0:0:
214,100,216030,1,0,0:0:0:0:
119,173,216630,1,0,0:0:0:0:
151,173,217230,1,8,0:0:0:0:
213,100,218430,1,0,0:0:0:0:
149,174,219630,1,8,0:0:0:0:
208,103,220830,1,0,0:0:0:0:
140,159,221430,1,0,0:0:0:0:
216,100,222030,1,8,0:0:0:0:
202,96,222630,1,0,0:0:0:0:
209,106,223230,1,0,0:0:0:0:
208,68,224430,1,8,0:0:0:0:
212,97,225630,1,0,0:0:0:0:
166,120,226830,1,8,0:0:0:0:
166,120,227430,1,8,0:0:0:0:
273,133,228030,1,0,0:0:0:0:
321,86,231630,5,0,0:0:0:0:
321,86,231830,1,0,0:0:0:0:
321,86,232030,1,0,0:0:0:0:
321,86,232230,1,0,0:0:0:0:
211,123,232430,1,0,0:0:0:0:
211,123,232630,1,0,0:0:0:0:
150,132,232830,1,0,0:0:0:0:
155,91,232980,1,0,0:0:0:0:
155,91,233055,1,0,0:0:0:0:
172,126,233130,1,8,0:0:0:0:
173,131,233205,1,8,0:0:0:0:
173,135,233280,1,0,0:0:0:0:
172,123,233430,1,0,0:0:0:0:
161,156,233480,1,0,0:0:0:0:
170,124,233530,1,0,0:0:0:0:
168,124,233580,1,8,0:0:0:0:
135,128,233730,1,8,0:0:0:0:
135,128,233805,1,0,0:0:0:0:
135,128,233880,1,8,0:0:0:0:
135,128,233955,1,8,0:0:0:0:
135,128,234030,1,0,0:0:0:0:
86,152,234180,1,8,0:0:0:0:
195,96,234230,1,8,0:0:0:0:
195,96,234280,1,8,0:0:0:0:
86,152,234330,1,0,0:0:0:0:
86,152,234405,1,0,0:0:0:0:
86,152,234480,1,8,0:0:0:0:
145,168,234630,1,0,0:0:0:0:
156,141,234667,1,0,0:0:0:0:
203,161,234930,1,0,0:0:0:0:
203,161,235005,1,0,0:0:0:0:
203,161,235080,1,0,0:0:0:0:
203,161,235155,1,0,0:0:0:0:
205,146,235230,1,8,0:0:0:0:
200,146,235305,1,8,0:0:0:0:
199,146,235380,1,8,0:0:0:0:
186,157,235530,1,0,0:0:0:0:
172,160,235680,1,8,0:0:0:0:
172,160,235830,1,0,0:0:0:0:
173,150,236130,1,0,0:0:0:0:
173,150,236205,1,0,0:0:0:0:
173,150,236280,1,0,0:0:0:0:
238,169,236330,1,0,0:0:0:0:
173,150,236380,1,0,0:0:0:0:
172,150,236430,1,8,0:0:0:0:
196,95,236730,1,0,0:0:0:0:
196,95,236805,1,0,0:0:0:0:
196,95,236880,1,8,0:0:0:0:
196,95,236955,1,0,0:0:0:0:
196,95,237030,1,8,0:0:0:0:
196,95,237105,1,8,0:0:0:0:
196,95,237180,1,8,0:0:0:0:
196,95,237255,1,8,0:0:0:0:
196,95,237330,1,0,0:0:0:0:
206,101,237405,1,0,0:0:0:0:
156,111,237480,1,8,0:0:0:0:
156,111,237630,1,0,0:0:0:0:
115,93,237780,1,0,0:0:0:0:
112,124,237930,1,8,0:0:0:0:
112,124,238005,1,8,0:0:0:0:
112,124,238080,1,8,0:0:0:0:
112,124,238155,1,8,0:0:0:0:
112,124,238230,1,0,0:0:0:0:
119,123,238530,1,0,0:0:0:0:
118,123,238605,1,0,0:0:0:0:
119,123,238680,1,0,0:0:0:0:
118,123,238755,1,0,0:0:0:0:
118,123,238830,1,8,0:0:0:0:
118,123,238980,1,0,0:0:0:0:
118,123,239055,1,0,0:0:0:0:
117,123,239130,1,8,0:0:0:0:
100,124,239280,1,0,0:0:0:0:
97,124,239355,1,0,0:0:0:0:
97,124,239430,1,0,0:0:0:0:
148,56,239730,1,0,0:0:0:0:
116,56,240030,1,8,0:0:0:0:
116,56,240130,1,8,0:0:0:0:
118,60,240230,1,8,0:0:0:0:
192,75,240430,1,8,0:0:0:0:
226,62,240630,1,0,0:0:0:0:
114,113,240892,1,8,0:0:0:0:
142,102,241110,1,8,0:0:0:0:
142,102,241230,1,0,0:0:0:0:
81,154,241530,1,0,0:0:0:0:
157,54,241830,1,8,0:0:0:0:
132,128,241905,1,0,0:0:0:0:
136,129,241980,1,8,0:0:0:0:
136,129,242055,1,0,0:0:0:0:
136,129,242130,1,8,0:0:0:0:
136,129,242205,1,0,0:0:0:0:
136,129,242280,1,8,0:0:0:0:
102,122,242355,1,8,0:0:0:0:
157,54,242430,1,0,0:0:0:0:
94,123,242580,1,8,0:0:0:0:
94,123,242730,1,0,0:0:0:0:
136,138,243130,1,0,0:0:0:0:
192,108,243630,1,8,0:0:0:0:
227,104,243780,1,0,0:0:0:0:
227,104,243855,1,0,0:0:0:0:
227,104,243930,1,8,0:0:0:0:
218,108,244080,1,8,0:0:0:0:
218,108,244155,1,8,0:0:0:0:
227,104,244230,1,0,0:0:0:0:
105,86,244380,1,8,0:0:0:0:
179,89,244455,1,0,0:0:0:0:
146,53,244530,1,8,0:0:0:0:
150,54,244580,1,8,0:0:0:0:
150,54,244630,1,8,0:0:0:0:
150,54,244680,1,0,0:0:0:0:
146,53,244830,1,8,0:0:0:0:
180,100,244980,1,8,0:0:0:0:
204,145,245130,1,8,0:0:0:0:
204,145,245280,1,8,0:0:0:0:
201,116,245355,1,8,0:0:0:0:
176,126,245430,1,0,0:0:0:0:
190,142,245480,1,0,0:0:0:0:
188,143,245530,1,0,0:0:0:0:
177,146,245580,1,8,0:0:0:0:
184,121,245730,1,8,0:0:0:0:
177,121,245805,1,0,0:0:0:0:
174,121,245880,1,8,0:0:0:0:
163,90,246030,1,0,0:0:0:0:
163,90,246105,1,0,0:0:0:0:
163,90,246180,1,8,0:0:0:0:
163,90,246330,1,8,0:0:0:0:
163,90,246405,1,8,0:0:0:0:
152,91,246480,1,0,0:0:0:0:
151,92,246555,5,8,0:0:0:0:
151,92,246630,1,0,0:0:0:0:
180,88,246780,1,8,0:0:0:0:
128,34,246930,1,8,0:0:0:0:
128,34,247005,1,0,0:0:0:0:
128,34,247080,1,8,0:0:0:0:
128,34,247155,1,8,0:0:0:0:
195,187,247230,1,0,0:0:0:0:
163,144,247380,1,8,0:0:0:0:
163,144,247455,1,8,0:0:0:0:
152,182,247830,1,8,0:0:0:0:
157,133,248055,1,8,0:0:0:0:
115,176,248130,1,0,0:0:0:0:
27,144,248430,1,8,0:0:0:0:
27,144,248580,1,8,0:0:0:0:
27,144,248730,1,8,0:0:0:0:
163,120,248880,1,0,0:0:0:0:
163,120,248930,1,0,0:0:0:0:
163,120,248980,1,0,0:0:0:0:
163,120,249030,1,8,0:0:0:0:
231,169,249180,1,8,0:0:0:0:
231,169,249255,1,0,0:0:0:0:
231,169,249330,1,8,0:0:0:0:
226,193,249480,1,8,0:0:0:0:
226,193,249530,1,0,0:0:0:0:
226,193,249580,1,0,0:0:0:0:
226,193,249630,1,8,0:0:0:0:
187,143,249892,1,8,0:0:0:0:
143,114,250042,1,0,0:0:0:0:
69,137,250192,1,8,0:0:0:0:
69,137,250230,1,0,0:0:0:0:
86,143,250530,1,8,0:0:0:0:
180,144,250680,1,8,0:0:0:0:
179,144,250755,1,8,0:0:0:0:
176,145,250830,1,0,0:0:0:0:
168,149,250980,1,0,0:0:0:0:
162,155,251055,1,0,0:0:0:0:
201,117,251130,1,8,0:0:0:0:
166,126,251180,1,8,0:0:0:0:
189,119,251230,1,8,0:0:0:0:
185,121,251280,1,8,0:0:0:0:
144,137,251430,1,0,0:0:0:0:
127,144,251505,1,0,0:0:0:0:
127,144,251580,1,0,0:0:0:0:
125,145,251655,1,0,0:0:0:0:
123,146,251805,1,0,0:0:0:0:
117,149,252030,1,8,0:0:0:0:
131,145,252180,1,8,0:0:0:0:
212,134,252330,1,8,0:0:0:0:
206,140,252480,1,8,0:0:0:0:
206,140,252630,1,0,0:0:0:0:
206,140,252705,1,0,0:0:0:0:
206,140,252780,1,8,0:0:0:0:
205,146,252930,1,8,0:0:0:0:
205,146,253005,1,0,0:0:0:0:
205,146,253080,1,8,0:0:0:0:
173,128,253230,1,8,0:0:0:0:
177,142,253380,1,8,0:0:0:0:
177,142,253455,1,0,0:0:0:0:
175,142,253530,1,8,0:0:0:0:
168,146,253680,1,8,0:0:0:0:
168,146,253830,1,0,0:0:0:0:
168,146,253905,1,0,0:0:0:0:
168,146,253980,1,8,0:0:0:0:
168,146,254130,1,0,0:0:0:0:
168,146,254205,1,0,0:0:0:0:
169,146,254280,1,8,0:0:0:0:
169,146,254355,1,0,0:0:0:0:
169,146,254430,1,8,0:0:0:0:
188,134,254530,1,8,0:0:0:0:
188,135,254630,1,8,0:0:0:0:
188,135,254730,1,8,0:0:0:0:
190,141,254830,1,0,0:0:0:0:
152,147,255030,1,8,0:0:0:0:
201,140,255142,1,8,0:0:0:0:
190,145,255255,1,0,0:0:0:0:
173,158,255367,1,0,0:0:0:0:
157,127,255517,1,8,0:0:0:0:
156,132,255630,1,0,0:0:0:0:
123,160,255930,1,0,0:0:0:0:
123,160,256080,1,0,0:0:0:0:
123,160,256230,1,8,0:0:0:0:
237,168,256305,1,0,0:0:0:0:
190,135,256380,1,8,0:0:0:0:
237,168,256455,1,0,0:0:0:0:
190,135,256530,1,8,0:0:0:0:
211,235,256680,1,0,0:0:0:0:
209,239,256830,1,8,0:0:0:0:
110,144,256980,1,8,0:0:0:0:
109,144,257030,1,0,0:0:0:0:
109,144,257080,1,0,0:0:0:0:
109,144,257130,1,8,0:0:0:0:
124,195,257280,1,8,0:0:0:0:
108,195,257355,1,8,0:0:0:0:
108,195,257430,1,0,0:0:0:0:
90,195,257505,1,0,0:0:0:0:
174,175,257580,1,8,0:0:0:0:
131,133,257730,1,0,0:0:0:0:
138,151,258030,1,8,0:0:0:0:
190,153,258180,1,8,0:0:0:0:
190,153,258330,1,8,0:0:0:0:
161,128,258480,1,0,0:0:0:0:
161,128,258530,1,0,0:0:0:0:
161,128,258580,1,0,0:0:0:0:
163,128,258630,1,8,0:0:0:0:
150,175,258780,1,0,0:0:0:0:
150,175,258930,1,8,0:0:0:0:
150,175,259080,1,0,0:0:0:0:
189,119,259155,1,0,0:0:0:0:
150,175,259230,1,8,0:0:0:0:
144,179,259380,1,0,0:0:0:0:
144,179,259455,1,0,0:0:0:0:
165,111,259530,1,8,0:0:0:0:
167,110,259580,1,0,0:0:0:0:
167,110,259630,1,0,0:0:0:0:
169,109,259680,1,8,0:0:0:0:
123,143,259830,1,0,0:0:0:0:
157,142,259905,1,0,0:0:0:0:
157,142,259980,1,8,0:0:0:0:
173,135,260130,1,0,0:0:0:0:
224,97,260205,1,0,0:0:0:0:
185,101,260280,1,8,0:0:0:0:
191,102,260355,1,8,0:0:0:0:
191,102,260430,1,8,0:0:0:0:
122,131,260580,1,8,0:0:0:0:
125,133,260630,1,8,0:0:0:0:
117,148,260680,1,8,0:0:0:0:
122,154,260730,1,0,0:0:0:0:
186,121,260805,1,0,0:0:0:0:
186,122,260880,1,8,0:0:0:0:
194,129,261030,1,8,0:0:0:0:
117,93,261105,1,8,0:0:0:0:
117,93,261180,1,0,0:0:0:0:
117,93,261255,1,8,0:0:0:0:
179,137,261330,1,0,0:0:0:0:
199,126,261405,1,0,0:0:0:0:
185,125,261480,1,0,0:0:0:0:
185,125,261555,1,0,0:0:0:0:
185,125,261630,1,8,0:0:0:0:
236,241,261780,1,0,0:0:0:0:
198,199,261855,1,0,0:0:0:0:
228,226,261930,1,8,0:0:0:0:
198,199,262005,1,8,0:0:0:0:
228,226,262080,1,8,0:0:0:0:
198,199,262155,1,8,0:0:0:0:
228,226,262230,1,0,0:0:0:0:
228,226,262380,1,8,0:0:0:0:
198,199,262455,1,8,0:0:0:0:
154,102,262530,1,0,0:0:0:0:
154,102,262605,1,0,0:0:0:0:
228,226,262680,1,0,0:0:0:0:
154,102,262755,1,0,0:0:0:0:
228,226,262830,1,8,0:0:0:0:
228,226,262980,1,0,0:0:0:0:
196,139,263055,1,0,0:0:0:0:
228,226,263130,1,8,0:0:0:0:
196,139,263205,1,0,0:0:0:0:
228,226,263280,1,8,0:0:0:0:
196,139,263355,1,8,0:0:0:0:
228,226,263430,1,0,0:0:0:0:
89,152,263687,1,0,0:0:0:0:
217,140,263992,1,8,0:0:0:0:
228,226,264180,1,8,0:0:0:0:
235,103,264255,1,8,0:0:0:0:
228,226,264330,1,0,0:0:0:0:
196,171,264530,1,0,0:0:0:0:
228,226,264630,1,8,0:0:0:0:
228,226,264730,1,0,0:0:0:0:
228,226,265080,1,0,0:0:0:0:
228,226,265230,1,8,0:0:0:0:
228,226,265380,1,0,0:0:0:0:
143,134,265455,1,0,0:0:0:0:
228,226,265530,1,8,0:0:0:0:
228,226,265680,1,0,0:0:0:0:
143,134,265755,1,0,0:0:0:0:
228,226,265830,1,0,0:0:0:0:
228,226,265980,1,0,0:0:0:0:
190,91,266055,1,0,0:0:0:0:
228,226,266130,1,8,0:0:0:0:
167,112,266180,1,8,0:0:0:0:
167,112,266230,1,8,0:0:0:0:
228,226,266280,1,0,0:0:0:0:
167,112,266430,1,8,0:0:0:0:
228,226,266580,1,8,0:0:0:0:
228,226,266730,1,0,0:0:0:0:
191,104,266880,1,0,0:0:0:0:
190,106,266955,1,0,0:0:0:0:
283,55,267030,1,8,0:0:0:0:
283,55,267080,1,8,0:0:0:0:
248,50,267130,1,8,0:0:0:0:
274,52,267180,1,0,0:0:0:0:
228,226,267330,1,8,0:0:0:0:
183,121,267405,1,0,0:0:0:0:
228,226,267480,1,8,0:0:0:0:
228,226,267630,1,8,0:0:0:0:
228,226,267780,1,0,0:0:0:0:
177,145,267855,1,0,0:0:0:0:
177,145,267930,1,8,0:0:0:0:
228,226,268080,1,0,0:0:0:0:
136,130,268155,1,8,0:0:0:0:
228,226,268230,1,0,0:0:0:0:
228,226,268380,1,0,0:0:0:0:
228,226,268530,1,8,0:0:0:0:
136,130,268605,1,0,0:0:0:0:
228,226,268680,1,8,0:0:0:0:
170,139,268755,1,8,0:0:0:0:
228,226,268830,1,0,0:0:0:0:
237,138,269087,1,8,0:0:0:0:
232,151,269380,1,8,0:0:0:0:
228,226,269430,1,0,0:0:0:0:
228,226,269670,1,8,0:0:0:0:
228,226,269730,1,0,0:0:0:0:
228,226,269805,1,8,0:0:0:0:
165,158,269880,1,0,0:0:0:0:
235,129,269955,1,8,0:0:0:0:
228,226,270030,1,8,0:0:0:0:
228,226,270180,1,0,0:0:0:0:
156,211,270255,1,0,0:0:0:0:
228,226,270330,1,8,0:0:0:0:
228,226,270480,1,0,0:0:0:0:
162,181,270555,1,0,0:0:0:0:
228,226,270630,1,8,0:0:0:0:
228,226,270780,5,8,0:0:0:0:
228,226,270930,1,8,0:0:0:0:
191,119,271005,1,8,0:0:0:0:
228,226,271080,1,8,0:0:0:0:
191,119,271155,1,8,0:0:0:0:
228,226,271230,1,0,0:0:0:0:
155,91,271380,1,0,0:0:0:0:
155,91,271455,1,0,0:0:0:0:
172,126,271530,1,8,0:0:0:0:
210,156,271580,1,8,0:0:0:0:
173,131,271630,1,8,0:0:0:0:
173,135,271680,1,0,0:0:0:0:
172,123,271830,1,0,0:0:0:0:
170,124,271905,1,0,0:0:0:0:
168,124,271980,1,8,0:0:0:0:
135,128,272130,1,8,0:0:0:0:
135,128,272205,1,0,0:0:0:0:
135,128,272280,1,8,0:0:0:0:
135,128,272355,1,8,0:0:0:0:
135,128,272430,1,0,0:0:0:0:
86,152,272580,1,8,0:0:0:0:
195,96,272630,1,8,0:0:0:0:
195,96,272680,1,8,0:0:0:0:
86,152,272730,1,0,0:0:0:0:
86,152,272805,1,0,0:0:0:0:
86,152,272880,1,8,0:0:0:0:
145,168,273030,1,0,0:0:0:0:
156,141,273067,1,0,0:0:0:0:
203,161,273330,1,0,0:0:0:0:
203,161,273405,1,0,0:0:0:0:
203,161,273480,1,0,0:0:0:0:
203,161,273555,1,0,0:0:0:0:
205,146,273630,1,8,0:0:0:0:
200,146,273705,1,8,0:0:0:0:
199,146,273780,1,8,0:0:0:0:
186,157,273930,1,0,0:0:0:0:
172,160,274080,1,8,0:0:0:0:
172,160,274230,1,0,0:0:0:0:
173,150,274530,1,0,0:0:0:0:
173,150,274605,1,0,0:0:0:0:
173,150,274680,1,0,0:0:0:0:
173,150,274755,1,0,0:0:0:0:
172,150,274830,1,8,0:0:0:0:
196,95,275130,1,0,0:0:0:0:
196,95,275205,1,0,0:0:0:0:
196,95,275280,1,8,0:0:0:0:
196,95,275355,1,0,0:0:0:0:
196,95,275430,1,8,0:0:0:0:
196,95,275505,1,8,0:0:0:0:
196,95,275580,1,8,0:0:0:0:
196,95,275655,1,8,0:0:0:0:
196,95,275730,1,0,0:0:0:0:
206,101,275805,1,0,0:0:0:0:
156,111,275880,1,8,0:0:0:0:
156,111,276030,1,0,0:0:0:0:
115,93,276180,1,0,0:0:0:0:
112,124,276330,1,8,0:0:0:0:
112,124,276405,1,8,0:0:0:0:
112,124,276480,1,8,0:0:0:0:
112,124,276555,1,8,0:0:0:0:
112,124,276630,1,0,0:0:0:0:
119,123,276930,1,0,0:0:0:0:
118,123,277005,1,0,0:0:0:0:
119,123,277080,1,0,0:0:0:0:
118,123,277155,1,0,0:0:0:0:
118,123,277230,1,8,0:0:0:0:
118,123,277380,1,0,0:0:0:0:
118,123,277455,1,0,0:0:0:0:
117,123,277530,1,8,0:0:0:0:
100,124,277680,1,0,0:0:0:0:
97,124,277755,1,0,0:0:0:0:
97,124,277830,1,0,0:0:0:0:
148,56,278130,1,0,0:0:0:0:
116,56,278430,1,8,0:0:0:0:
116,56,278530,1,8,0:0:0:0:
118,60,278630,1,8,0:0:0:0:
192,75,278830,1,8,0:0:0:0:
226,62,279030,1,0,0:0:0:0:
114,113,279292,1,8,0:0:0:0:
142,102,279510,1,8,0:0:0:0:
142,102,279630,1,0,0:0:0:0:
81,154,279930,1,0,0:0:0:0:
157,54,280230,1,8,0:0:0:0:
132,128,280305,1,0,0:0:0:0:
136,129,280380,1,8,0:0:0:0:
136,129,280455,1,0,0:0:0:0:
136,129,280530,1,8,0:0:0:0:
136,129,280605,1,0,0:0:0:0:
136,129,280680,1,8,0:0:0:0:
102,122,280755,1,0,0:0:0:0:
157,54,280830,1,0,0:0:0:0:
94,123,280980,1,8,0:0:0:0:
94,123,281130,1,0,0:0:0:0:
136,138,281530,1,0,0:0:0:0:
192,108,282030,1,8,0:0:0:0:
227,104,282180,1,0,0:0:0:0:
227,104,282255,1,0,0:0:0:0:
227,104,282330,1,8,0:0:0:0:
218,108,282480,1,8,0:0:0:0:
218,108,282555,1,8,0:0:0:0:
227,104,282630,1,0,0:0:0:0:
105,86,282780,1,8,0:0:0:0:
179,89,282855,1,0,0:0:0:0:
146,53,282930,1,8,0:0:0:0:
150,54,282980,1,0,0:0:0:0:
150,54,283030,1,0,0:0:0:0:
150,54,283080,1,8,0:0:0:0:
146,53,283230,1,8,0:0:0:0:
180,100,283380,1,8,0:0:0:0:
204,145,283530,1,8,0:0:0:0:
204,145,283680,1,8,0:0:0:0:
201,116,283755,1,8,0:0:0:0:
176,126,283830,1,0,0:0:0:0:
190,142,283880,1,0,0:0:0:0:
188,143,283930,1,0,0:0:0:0:
177,146,283980,1,8,0:0:0:0:
184,121,284130,1,8,0:0:0:0:
177,121,284205,1,0,0:0:0:0:
174,121,284280,1,8,0:0:0:0:
163,90,284430,1,0,0:0:0:0:
163,90,284505,1,0,0:0:0:0:
163,90,284580,1,8,0:0:0:0:
163,90,284730,1,8,0:0:0:0:
163,90,284805,1,8,0:0:0:0:
152,91,284880,1,0,0:0:0:0:
151,92,284955,5,8,0:0:0:0:
151,92,285030,1,0,0:0:0:0:
180,88,285180,1,8,0:0:0:0:
128,34,285330,1,0,0:0:0:0:
128,34,285405,1,8,0:0:0:0:
128,34,285480,1,0,0:0:0:0:
128,34,285555,1,0,0:0:0:0:
195,187,285630,1,8,0:0:0:0:
137,116,285780,1,8,0:0:0:0:
137,116,285855,1,8,0:0:0:0:
152,182,286230,1,8,0:0:0:0:
157,133,286455,1,8,0:0:0:0:
115,176,286530,1,0,0:0:0:0:
27,144,286830,1,8,0:0:0:0:
27,144,286980,1,8,0:0:0:0:
27,144,287130,1,8,0:0:0:0:
163,120,287280,1,0,0:0:0:0:
163,120,287330,1,0,0:0:0:0:
163,120,287380,1,0,0:0:0:0:
163,120,287430,1,8,0:0:0:0:
231,169,287580,1,8,0:0:0:0:
231,169,287655,1,0,0:0:0:0:
231,169,287730,1,8,0:0:0:0:
226,193,287880,1,8,0:0:0:0:
226,193,287930,1,0,0:0:0:0:
226,193,287980,1,0,0:0:0:0:
226,193,288030,1,8,0:0:0:0:
187,143,288292,1,8,0:0:0:0:
143,114,288442,1,0,0:0:0:0:
69,137,288592,1,8,0:0:0:0:
69,137,288630,1,0,0:0:0:0:
86,143,288930,1,8,0:0:0:0:
180,144,289080,1,8,0:0:0:0:
179,144,289155,1,8,0:0:0:0:
176,145,289230,1,0,0:0:0:0:
168,149,289380,1,0,0:0:0:0:
162,155,289455,1,0,0:0:0:0:
201,117,289530,1,8,0:0:0:0:
166,126,289580,1,8,0:0:0:0:
189,119,289630,1,8,0:0:0:0:
185,121,289680,1,8,0:0:0:0:
144,137,289830,1,0,0:0:0:0:
127,144,289905,1,0,0:0:0:0:
127,144,289980,1,0,0:0:0:0:
125,145,290055,1,0,0:0:0:0:
123,146,290205,1,0,0:0:0:0:
117,149,290430,1,8,0:0:0:0:
131,145,290580,1,8,0:0:0:0:
212,134,290730,1,8,0:0:0:0:
206,140,290880,1,8,0:0:0:0:
206,140,291030,1,0,0:0:0:0:
206,140,291105,1,0,0:0:0:0:
206,140,291180,1,8,0:0:0:0:
205,146,291330,1,8,0:0:0:0:
205,146,291405,1,0,0:0:0:0:
205,146,291480,1,8,0:0:0:0:
173,128,291630,1,8,0:0:0:0:
177,142,291780,1,0,0:0:0:0:
177,142,291855,1,0,0:0:0:0:
175,142,291930,1,8,0:0:0:0:
168,146,292080,1,8,0:0:0:0:
168,146,292230,1,0,0:0:0:0:
168,146,292305,1,0,0:0:0:0:
168,146,292380,1,8,0:0:0:0:
168,146,292530,1,0,0:0:0:0:
168,146,292605,1,0,0:0:0:0:
169,146,292680,1,8,0:0:0:0:
169,146,292755,1,0,0:0:0:0:
169,146,292830,1,8,0:0:0:0:
188,134,292930,1,8,0:0:0:0:
188,135,293030,1,8,0:0:0:0:
188,135,293130,1,8,0:0:0:0:
190,141,293230,1,0,0:0:0:0:
152,147,293430,1,8,0:0:0:0:
201,140,293542,1,8,0:0:0:0:
190,145,293655,1,0,0:0:0:0:
173,158,293767,1,0,0:0:0:0:
157,127,293917,1,8,0:0:0:0:
156,132,294030,1,0,0:0:0:0:
123,160,294330,1,0,0:0:0:0:
123,160,294480,1,0,0:0:0:0:
123,160,294630,1,8,0:0:0:0:
237,168,294705,1,0,0:0:0:0:
190,135,294780,1,8,0:0:0:0:
237,168,294855,1,0,0:0:0:0:
190,135,294930,1,8,0:0:0:0:
211,235,295080,1,0,0:0:0:0:
209,239,295230,1,8,0:0:0:0:
110,144,295380,1,8,0:0:0:0:
109,144,295430,1,0,0:0:0:0:
109,144,295480,1,0,0:0:0:0:
109,144,295530,1,8,0:0:0:0:
124,195,295680,1,8,0:0:0:0:
108,195,295755,1,8,0:0:0:0:
108,195,295830,1,0,0:0:0:0:
90,195,295905,1,0,0:0:0:0:
174,175,295980,1,8,0:0:0:0:
131,133,296130,1,0,0:0:0:0:
138,151,296430,1,8,0:0:0:0:
190,153,296580,1,8,0:0:0:0:
190,153,296730,1,8,0:0:0:0:
161,128,296880,1,0,0:0:0:0:
161,128,296930,1,0,0:0:0:0:
161,128,296980,1,0,0:0:0:0:
163,128,297030,1,8,0:0:0:0:
150,175,297180,1,0,0:0:0:0:
150,175,297330,1,8,0:0:0:0:
175,136,297480,1,8,0:0:0:0:
189,119,297555,1,0,0:0:0:0:
150,175,297630,1,8,0:0:0:0:
144,179,297780,1,0,0:0:0:0:
144,179,297855,1,0,0:0:0:0:
165,111,297930,1,8,0:0:0:0:
167,110,297980,1,8,0:0:0:0:
167,110,298030,1,8,0:0:0:0:
169,109,298080,1,8,0:0:0:0:
123,143,298230,1,0,0:0:0:0:
157,142,298305,1,0,0:0:0:0:
157,142,298380,1,8,0:0:0:0:
173,135,298530,1,0,0:0:0:0:
224,97,298605,1,0,0:0:0:0:
185,101,298680,1,8,0:0:0:0:
191,102,298755,1,8,0:0:0:0:
191,102,298830,1,8,0:0:0:0:
122,131,298980,1,8,0:0:0:0:
125,133,299030,1,8,0:0:0:0:
117,148,299080,1,8,0:0:0:0:
122,154,299130,1,0,0:0:0:0:
186,121,299205,1,0,0:0:0:0:
186,122,299280,1,8,0:0:0:0:
194,129,299430,1,8,0:0:0:0:
117,93,299505,1,8,0:0:0:0:
117,93,299580,1,0,0:0:0:0:
117,93,299655,1,8,0:0:0:0:
179,137,299730,1,0,0:0:0:0:
199,126,299805,1,0,0:0:0:0:
185,125,299880,1,0,0:0:0:0:
185,125,299955,1,0,0:0:0:0:
185,125,300030,1,8,0:0:0:0:
236,241,300180,1,0,0:0:0:0:
198,199,300255,1,0,0:0:0:0:
228,226,300330,1,8,0:0:0:0:
198,199,300405,1,8,0:0:0:0:
228,226,300480,1,8,0:0:0:0:
198,199,300555,1,8,0:0:0:0:
228,226,300630,1,0,0:0:0:0:
228,226,300780,1,8,0:0:0:0:
198,199,300855,1,8,0:0:0:0:
154,102,300930,1,0,0:0:0:0:
154,102,301005,1,0,0:0:0:0:
228,226,301080,1,0,0:0:0:0:
154,102,301155,1,0,0:0:0:0:
228,226,301230,1,8,0:0:0:0:
228,226,301380,1,0,0:0:0:0:
196,139,301455,1,0,0:0:0:0:
228,226,301530,1,8,0:0:0:0:
196,139,301605,1,0,0:0:0:0:
228,226,301680,1,8,0:0:0:0:
196,139,301755,1,8,0:0:0:0:
228,226,301830,1,0,0:0:0:0:
89,152,302087,1,0,0:0:0:0:
217,140,302392,1,8,0:0:0:0:
228,226,302580,1,8,0:0:0:0:
235,103,302655,1,8,0:0:0:0:
228,226,302730,1,0,0:0:0:0:
196,171,302930,1,0,0:0:0:0:
228,226,303030,1,8,0:0:0:0:
228,226,303130,1,0,0:0:0:0:
228,226,303480,1,0,0:0:0:0:
228,226,303630,1,8,0:0:0:0:
228,226,303780,1,0,0:0:0:0:
143,134,303855,1,0,0:0:0:0:
228,226,303930,1,8,0:0:0:0:
228,226,304080,1,0,0:0:0:0:
143,134,304155,1,0,0:0:0:0:
228,226,304230,1,0,0:0:0:0:
228,226,304380,1,0,0:0:0:0:
190,91,304455,1,0,0:0:0:0:
228,226,304530,1,8,0:0:0:0:
167,112,304580,1,0,0:0:0:0:
167,112,304630,1,0,0:0:0:0:
228,226,304680,1,8,0:0:0:0:
167,112,304830,1,8,0:0:0:0:
228,226,304980,1,8,0:0:0:0:
228,226,305130,1,0,0:0:0:0:
191,104,305280,1,0,0:0:0:0:
190,106,305355,1,0,0:0:0:0:
283,55,305430,1,8,0:0:0:0:
283,55,305480,1,8,0:0:0:0:
248,50,305530,1,8,0:0:0:0:
274,52,305580,1,0,0:0:0:0:
228,226,305730,1,8,0:0:0:0:
183,121,305805,1,0,0:0:0:0:
228,226,305880,1,8,0:0:0:0:
228,226,306030,1,8,0:0:0:0:
228,226,306180,1,0,0:0:0:0:
177,145,306255,1,0,0:0:0:0:
177,145,306330,1,8,0:0:0:0:
228,226,306480,1,0,0:0:0:0:
136,130,306555,1,8,0:0:0:0:
228,226,306630,1,0,0:0:0:0:
228,226,306780,1,0,0:0:0:0:
228,226,306930,1,8,0:0:0:0:
136,130,307005,1,0,0:0:0:0:
228,226,307080,1,8,0:0:0:0:
170,139,307155,1,8,0:0:0:0:
228,226,307230,1,0,0:0:0:0:
237,138,307487,1,8,0:0:0:0:
158,145,307792,1,8,0:0:0:0:
228,226,307830,1,0,0:0:0:0:
228,226,308070,5,8,0:0:0:0:
228,226,308130,1,0,0:0:0:0:
228,226,308205,5,8,0:0:0:0:
165,158,308280,1,0,0:0:0:0:
235,129,308355,1,8,0:0:0:0:
228,226,308430,1,8,0:0:0:0:
228,226,308580,1,0,0:0:0:0:
156,211,308655,1,0,0:0:0:0:
228,226,308730,1,8,0:0:0:0:
228,226,308880,1,0,0:0:0:0:
162,181,308955,1,0,0:0:0:0:
228,226,309030,1,8,0:0:0:0:
181,143,309180,5,8,0:0:0:0:
173,172,309330,5,8,0:0:0:0:
173,172,309405,1,8,0:0:0:0:
173,172,309480,1,8,0:0:0:0:
173,172,309555,1,0,0:0:0:0:
180,69,309630,5,8,0:0:0:0:
180,69,309705,1,8,0:0:0:0:
180,69,309780,1,8,0:0:0:0:
250,204,309930,1,8,0:0:0:0:
240,128,310080,1,8,0:0:0:0:
179,186,310380,1,8,0:0:0:0:
256,192,310830,12,0,319230,0:0:0:0:
