osu file format v14

[General]
AudioFilename: audio.mp3
AudioLeadIn: 0
PreviewTime: 231580
Countdown: 0
SampleSet: Normal
StackLeniency: 0
Mode: 1
LetterboxInBreaks: 0
WidescreenStoryboard: 1

[Editor]
Bookmarks: 2380,40780,77980,79180,117630,155980,231580,232780
DistanceSpacing: 0.9
BeatDivisor: 5
GridSize: 32
TimelineZoom: 2.499999

[Metadata]
Title:ushio
TitleUnicode:ushio
Artist:watering
ArtistUnicode:watering
Creator:liku
Version:antti's oni
Source:
Tags:antti instrumental electronic depressive breakcore ambient music that pops your balls v4 clannad
BeatmapID:3656506
BeatmapSetID:1691417

[Difficulty]
HPDrainRate:5
CircleSize:2
OverallDifficulty:5
ApproachRate:10
SliderMultiplier:1.4
SliderTickRate:1

[Events]
//Background and Video events
0,0,"bg.jpg",0,-130
//Break Periods
//Storyboard Layer 0 (Background)
//Storyboard Layer 1 (Fail)
//Storyboard Layer 2 (Pass)
//Storyboard Layer 3 (Foreground)
//Storyboard Layer 4 (Overlay)
//Storyboard Sound Samples

[TimingPoints]
1230,600,4,1,0,40,1,8
2430,600,4,1,0,65,1,0
40730,-100,4,1,0,50,0,0
77427,-80,4,1,0,55,0,0
78027,-66.6666666666667,4,1,0,55,0,0
78327,-61.5384615384615,4,1,0,56,0,0
78627,-57.1428571428571,4,1,0,66,0,0
78777,-55.1724137931034,4,1,0,73,0,0
78927,-53.3333333333333,4,1,0,80,0,0
79077,-51.6129032258064,4,1,0,84,0,0
79230,300,4,1,0,90,1,1
155802,-101.26582278481,4,1,0,87,0,1
155877,-102.564102564103,4,1,0,82,0,1
155952,-103.896103896104,4,1,0,79,0,1
156030,600,4,1,0,70,1,0
156030,-52.6315789473684,4,1,0,70,0,0
156102,-53.3333333333333,4,1,0,70,0,0
156177,-54.054054054054,4,1,0,70,0,0
156327,-55.5555555555556,4,1,0,66,0,0
156477,-57.1428571428571,4,1,0,63,0,0
156777,-60.6060606060606,4,1,0,60,0,0
157227,-66.6666666666667,4,1,0,50,0,0
157827,-66.8463611859838,4,1,0,50,0,0
158427,-67.027027027027,4,1,0,50,0,0
159627,-67.3913043478261,4,1,0,50,0,0
160227,-67.574931880109,4,1,0,50,0,0
160827,-67.7595628415301,4,1,0,50,0,0
162027,-68.1318681318681,4,1,0,50,0,0
162627,-68.3195592286501,4,1,0,50,0,0
163227,-68.5082872928177,4,1,0,50,0,0
164427,-68.8888888888889,4,1,0,50,0,0
165027,-69.0807799442897,4,1,0,50,0,0
165627,-69.2737430167598,4,1,0,50,0,0
166827,-69.6629213483146,4,1,0,50,0,0
167427,-69.8591549295775,4,1,0,50,0,0
168027,-70.0564971751412,4,1,0,50,0,0
169227,-70.4545454545455,4,1,0,50,0,0
169827,-70.6552706552707,4,1,0,50,0,0
170427,-70.8571428571428,4,1,0,50,0,0
171627,-71.2643678160919,4,1,0,50,0,0
172227,-71.4697406340058,4,1,0,50,0,0
172827,-71.6763005780347,4,1,0,50,0,0
173427,-71.8840579710145,4,1,0,50,0,0
174027,-72.0930232558139,4,1,0,50,0,0
174627,-72.3032069970845,4,1,0,50,0,0
175227,-72.5146198830409,4,1,0,50,0,0
176427,-72.9411764705882,4,1,0,50,0,0
177027,-73.1563421828909,4,1,0,50,0,0
177627,-73.3727810650888,4,1,0,50,0,0
178827,-73.8095238095238,4,1,0,50,0,0
179427,-74.0298507462687,4,1,0,50,0,0
180027,-74.251497005988,4,1,0,50,0,0
181227,-74.6987951807229,4,1,0,50,0,0
181827,-74.9244712990937,4,1,0,50,0,0
182427,-75.1515151515152,4,1,0,50,0,0
183627,-75.609756097561,4,1,0,50,0,0
184227,-75.8409785932722,4,1,0,50,0,0
184827,-76.0736196319018,4,1,0,50,0,0
186027,-76.5432098765432,4,1,0,50,0,0
186627,-76.7801857585139,4,1,0,50,0,0
187227,-77.0186335403727,4,1,0,50,0,0
188427,-77.5,4,1,0,50,0,0
189027,-77.7429467084639,4,1,0,50,0,0
189627,-77.9874213836478,4,1,0,50,0,0
190827,-78.4810126582279,4,1,0,50,0,0
191427,-78.7301587301587,4,1,0,50,0,0
192027,-78.9808917197452,4,1,0,50,0,0
192627,-79.2332268370607,4,1,0,50,0,0
193227,-79.4871794871795,4,1,0,50,0,0
193827,-79.7427652733119,4,1,0,50,0,0
194427,-80,4,1,0,50,0,0
195627,-80.5194805194805,4,1,0,50,0,0
196227,-80.7817589576547,4,1,0,50,0,0
196827,-81.0457516339869,4,1,0,50,0,0
198027,-81.5789473684211,4,1,0,50,0,0
198627,-81.8481848184819,4,1,0,50,0,0
199227,-82.1192052980132,4,1,0,50,0,0
200427,-82.6666666666667,4,1,0,50,0,0
201027,-82.943143812709,4,1,0,50,0,0
201627,-83.2214765100671,4,1,0,50,0,0
202827,-83.7837837837838,4,1,0,50,0,0
203427,-84.0677966101695,4,1,0,50,0,0
204027,-84.3537414965986,4,1,0,50,0,0
205227,-84.9315068493151,4,1,0,50,0,0
205827,-85.2233676975945,4,1,0,50,0,0
206427,-85.5172413793103,4,1,0,50,0,0
207627,-86.1111111111111,4,1,0,50,0,0
208227,-86.411149825784,4,1,0,50,0,0
208827,-86.7132867132867,4,1,0,50,0,0
210027,-87.3239436619718,4,1,0,50,0,0
210627,-87.6325088339223,4,1,0,50,0,0
211227,-87.9432624113475,4,1,0,50,0,0
211827,-88.2562277580071,4,1,0,50,0,0
212427,-88.5714285714286,4,1,0,50,0,0
213027,-88.8888888888889,4,1,0,50,0,0
213627,-89.2086330935252,4,1,0,50,0,0
214827,-89.8550724637681,4,1,0,50,0,0
215427,-90.1818181818182,4,1,0,50,0,0
216027,-90.5109489051095,4,1,0,50,0,0
217227,-91.1764705882353,4,1,0,50,0,0
217827,-91.5129151291513,4,1,0,50,0,0
218427,-91.8518518518519,4,1,0,50,0,0
219627,-92.5373134328358,4,1,0,50,0,0
220227,-92.8838951310861,4,1,0,50,0,0
220827,-93.2330827067669,4,1,0,50,0,0
222027,-93.9393939393939,4,1,0,50,0,0
222627,-94.2965779467681,4,1,0,50,0,0
223227,-94.6564885496183,4,1,0,50,0,0
224427,-95.3846153846154,4,1,0,50,0,0
225027,-95.7528957528958,4,1,0,50,0,0
225627,-96.1240310077519,4,1,0,50,0,0
226827,-96.875,4,1,0,50,0,0
227427,-97.2549019607843,4,1,0,50,0,0
228027,-97.6377952755905,4,1,0,50,0,0
230427,-99.2,4,1,0,50,0,0
231627,-100,4,1,0,60,0,0
231827,-85.7142857142857,4,1,0,65,0,0
232027,-75,4,1,0,70,0,0
232227,-66.6666666666667,4,1,0,75,0,0
232427,-60,4,1,0,80,0,0
232627,-54.5454545454545,4,1,0,85,0,0
232830,300,4,1,0,90,1,1
309402,-101.26582278481,4,1,0,87,0,1
309477,-102.564102564103,4,1,0,83,0,1
309552,-103.896103896104,4,1,0,77,0,1
309630,600,4,1,0,70,1,0
309630,-52.6315789473684,4,1,0,70,0,0
309702,-53.3333333333333,4,1,0,70,0,0
309777,-54.054054054054,4,1,0,66,0,0
309927,-55.5555555555556,4,1,0,63,0,0
310077,-57.1428571428571,4,1,0,60,0,0
310377,-60.6060606060606,4,1,0,55,0,0
310827,-66.6666666666667,4,1,0,50,0,0
311880,-80,4,1,0,45,0,0
314280,-100,4,1,0,40,0,0
316680,-133.333333333333,4,1,0,35,0,0
319080,-200,4,1,0,30,0,0

[HitObjects]
256,192,1230,5,8,0:0:0:0:
256,192,2430,1,0,0:0:0:0:
256,192,2730,1,0,0:0:0:0:
256,192,3030,1,8,0:0:0:0:
256,192,3330,1,0,0:0:0:0:
256,192,3480,1,8,0:0:0:0:
256,192,3630,1,0,0:0:0:0:
256,192,3780,1,8,0:0:0:0:
256,192,3930,1,0,0:0:0:0:
256,192,4230,1,0,0:0:0:0:
256,192,4530,1,8,0:0:0:0:
256,192,4830,1,8,0:0:0:0:
256,192,4980,1,8,0:0:0:0:
256,192,5130,1,0,0:0:0:0:
256,192,5430,1,8,0:0:0:0:
256,192,5730,1,0,0:0:0:0:
256,192,5880,1,8,0:0:0:0:
256,192,6030,1,0,0:0:0:0:
256,192,6180,1,8,0:0:0:0:
256,192,6330,1,0,0:0:0:0:
256,192,6930,1,8,0:0:0:0:
256,192,7230,1,0,0:0:0:0:
256,192,7530,1,0,0:0:0:0:
256,192,7830,1,8,0:0:0:0:
256,192,8130,1,0,0:0:0:0:
256,192,8280,1,8,0:0:0:0:
256,192,8430,1,8,0:0:0:0:
256,192,8580,1,8,0:0:0:0:
256,192,8730,1,0,0:0:0:0:
256,192,9030,1,0,0:0:0:0:
256,192,9330,1,8,0:0:0:0:
256,192,9630,1,8,0:0:0:0:
256,192,9780,1,8,0:0:0:0:
256,192,9930,1,8,0:0:0:0:
256,192,10080,1,0,0:0:0:0:
256,192,10230,1,8,0:0:0:0:
256,192,10530,1,0,0:0:0:0:
256,192,10680,1,8,0:0:0:0:
256,192,10830,1,0,0:0:0:0:
256,192,10980,1,8,0:0:0:0:
256,192,11130,1,0,0:0:0:0:
256,192,11730,1,8,0:0:0:0:
256,192,12030,1,0,0:0:0:0:
256,192,12330,1,0,0:0:0:0:
256,192,12630,1,8,0:0:0:0:
256,192,12930,1,0,0:0:0:0:
256,192,13080,1,8,0:0:0:0:
256,192,13230,1,0,0:0:0:0:
256,192,13380,1,8,0:0:0:0:
256,192,13530,1,0,0:0:0:0:
256,192,13830,1,0,0:0:0:0:
256,192,14130,1,8,0:0:0:0:
256,192,14430,1,8,0:0:0:0:
256,192,14580,1,8,0:0:0:0:
256,192,14730,1,0,0:0:0:0:
256,192,15030,1,8,0:0:0:0:
256,192,15330,1,0,0:0:0:0:
256,192,15480,1,8,0:0:0:0:
256,192,15630,1,0,0:0:0:0:
256,192,15780,1,8,0:0:0:0:
256,192,15930,1,0,0:0:0:0:
256,192,16530,1,8,0:0:0:0:
256,192,16830,1,0,0:0:0:0:
256,192,17130,1,0,0:0:0:0:
256,192,17430,1,8,0:0:0:0:
256,192,17730,1,0,0:0:0:0:
256,192,17880,1,8,0:0:0:0:
256,192,18030,1,8,0:0:0:0:
256,192,18180,1,8,0:0:0:0:
256,192,18330,1,0,0:0:0:0:
256,192,18630,1,0,0:0:0:0:
256,192,18930,1,8,0:0:0:0:
256,192,19230,1,8,0:0:0:0:
256,192,19380,1,8,0:0:0:0:
256,192,19530,1,8,0:0:0:0:
256,192,19680,1,0,0:0:0:0:
256,192,19830,1,8,0:0:0:0:
256,192,20130,1,0,0:0:0:0:
256,192,20280,1,8,0:0:0:0:
256,192,20430,1,0,0:0:0:0:
256,192,20580,1,8,0:0:0:0:
256,192,20730,1,0,0:0:0:0:
256,192,21330,1,8,0:0:0:0:
256,192,21630,1,0,0:0:0:0:
256,192,21930,1,0,0:0:0:0:
256,192,22230,1,8,0:0:0:0:
256,192,22530,1,0,0:0:0:0:
256,192,22680,1,8,0:0:0:0:
256,192,22830,1,0,0:0:0:0:
256,192,22980,1,8,0:0:0:0:
256,192,23130,1,0,0:0:0:0:
256,192,23430,1,0,0:0:0:0:
256,192,23730,1,8,0:0:0:0:
256,192,24030,1,8,0:0:0:0:
256,192,24180,1,8,0:0:0:0:
256,192,24330,1,8,0:0:0:0:
256,192,24630,1,8,0:0:0:0:
256,192,24930,1,0,0:0:0:0:
256,192,25080,1,8,0:0:0:0:
256,192,25230,1,0,0:0:0:0:
256,192,25380,1,8,0:0:0:0:
256,192,25530,1,0,0:0:0:0:
256,192,26130,1,8,0:0:0:0:
256,192,26430,1,0,0:0:0:0:
256,192,26730,1,0,0:0:0:0:
256,192,27030,1,8,0:0:0:0:
256,192,27330,1,0,0:0:0:0:
256,192,27480,1,8,0:0:0:0:
256,192,27630,1,0,0:0:0:0:
256,192,27780,1,8,0:0:0:0:
256,192,27930,1,0,0:0:0:0:
256,192,28230,1,0,0:0:0:0:
256,192,28530,1,8,0:0:0:0:
256,192,28830,1,8,0:0:0:0:
256,192,28980,1,8,0:0:0:0:
256,192,29130,1,0,0:0:0:0:
256,192,29280,1,0,0:0:0:0:
256,192,29430,1,8,0:0:0:0:
256,192,29730,1,0,0:0:0:0:
256,192,29880,1,8,0:0:0:0:
256,192,30030,1,8,0:0:0:0:
256,192,30180,1,8,0:0:0:0:
256,192,30330,1,0,0:0:0:0:
256,192,30930,1,8,0:0:0:0:
256,192,31230,1,0,0:0:0:0:
256,192,31530,1,0,0:0:0:0:
256,192,31830,1,8,0:0:0:0:
256,192,32130,1,0,0:0:0:0:
256,192,32280,1,8,0:0:0:0:
256,192,32430,1,0,0:0:0:0:
256,192,32580,1,8,0:0:0:0:
256,192,32730,1,0,0:0:0:0:
256,192,33030,1,0,0:0:0:0:
256,192,33330,1,8,0:0:0:0:
256,192,33630,1,8,0:0:0:0:
256,192,33780,1,8,0:0:0:0:
256,192,33930,1,8,0:0:0:0:
256,192,34230,1,8,0:0:0:0:
256,192,34530,1,0,0:0:0:0:
256,192,34680,1,8,0:0:0:0:
256,192,34830,1,0,0:0:0:0:
256,192,34980,1,8,0:0:0:0:
256,192,35130,1,0,0:0:0:0:
256,192,35730,1,8,0:0:0:0:
256,192,36030,1,0,0:0:0:0:
256,192,36330,1,0,0:0:0:0:
256,192,36630,1,8,0:0:0:0:
256,192,36930,1,0,0:0:0:0:
256,192,37080,1,8,0:0:0:0:
256,192,37230,1,0,0:0:0:0:
256,192,37380,1,8,0:0:0:0:
256,192,37530,1,0,0:0:0:0:
256,192,37830,1,0,0:0:0:0:
256,192,38130,1,8,0:0:0:0:
256,192,38430,1,8,0:0:0:0:
256,192,38580,1,8,0:0:0:0:
256,192,38730,1,0,0:0:0:0:
256,192,38880,1,0,0:0:0:0:
256,192,39030,1,8,0:0:0:0:
256,192,39330,1,0,0:0:0:0:
256,192,39480,1,8,0:0:0:0:
256,192,39630,1,8,0:0:0:0:
256,192,39780,1,8,0:0:0:0:
256,192,39930,1,0,0:0:0:0:
256,192,40530,1,8,0:0:0:0:
256,192,40830,1,0,0:0:0:0:
256,192,41430,1,8,0:0:0:0:
256,192,42030,1,8,0:0:0:0:
256,192,42630,1,0,0:0:0:0:
256,192,43230,1,8,0:0:0:0:
256,192,47430,1,8,0:0:0:0:
256,192,48030,1,0,0:0:0:0:
256,192,48630,1,8,0:0:0:0:
256,192,49230,1,8,0:0:0:0:
256,192,49830,1,0,0:0:0:0:
256,192,50430,1,0,0:0:0:0:
256,192,51030,1,8,0:0:0:0:
256,192,51630,1,8,0:0:0:0:
256,192,52230,1,0,0:0:0:0:
256,192,52830,1,8,0:0:0:0:
256,192,54630,1,0,0:0:0:0:
256,192,55230,1,8,0:0:0:0:
256,192,57030,1,0,0:0:0:0:
256,192,57630,1,0,0:0:0:0:
256,192,58230,1,8,0:0:0:0:
256,192,58830,1,0,0:0:0:0:
256,192,59430,1,8,0:0:0:0:
256,192,60030,1,0,0:0:0:0:
256,192,60630,1,8,0:0:0:0:
256,192,61230,1,8,0:0:0:0:
256,192,61830,1,0,0:0:0:0:
256,192,62430,1,8,0:0:0:0:
256,192,66630,1,8,0:0:0:0:
256,192,67230,1,0,0:0:0:0:
256,192,67830,1,8,0:0:0:0:
256,192,68430,1,0,0:0:0:0:
256,192,69030,1,8,0:0:0:0:
256,192,69630,1,0,0:0:0:0:
256,192,70230,1,8,0:0:0:0:
256,192,70830,1,8,0:0:0:0:
256,192,71430,1,8,0:0:0:0:
256,192,72030,1,0,0:0:0:0:
256,192,76830,1,0,0:0:0:0:
256,192,77430,1,0,0:0:0:0:
256,192,78030,1,0,0:0:0:0:
256,192,78330,1,0,0:0:0:0:
256,192,78630,1,0,0:0:0:0:
256,192,78780,1,0,0:0:0:0:
256,192,78930,1,0,0:0:0:0:
256,192,79080,1,0,0:0:0:0:
256,192,79230,1,0,0:0:0:0:
256,192,79380,1,8,0:0:0:0:
256,192,79530,1,0,0:0:0:0:
256,192,79605,1,0,0:0:0:0:
256,192,79680,1,8,0:0:0:0:
256,192,79755,1,8,0:0:0:0:
256,192,79830,1,0,0:0:0:0:
256,192,79980,1,0,0:0:0:0:
256,192,80130,1,8,0:0:0:0:
256,192,80205,1,8,0:0:0:0:
256,192,80280,1,8,0:0:0:0:
256,192,80430,1,0,0:0:0:0:
256,192,80580,1,8,0:0:0:0:
256,192,80655,1,8,0:0:0:0:
256,192,80730,1,0,0:0:0:0:
256,192,80880,1,8,0:0:0:0:
256,192,81030,1,8,0:0:0:0:
256,192,81105,1,8,0:0:0:0:
256,192,81180,1,8,0:0:0:0:
256,192,81255,1,0,0:0:0:0:
256,192,81330,1,8,0:0:0:0:
256,192,81630,1,8,0:0:0:0:
256,192,81705,1,8,0:0:0:0:
256,192,81780,1,8,0:0:0:0:
256,192,81930,1,0,0:0:0:0:
256,192,82080,1,8,0:0:0:0:
256,192,82155,1,8,0:0:0:0:
256,192,82230,1,0,0:0:0:0:
128,96,82530,2,0,L|288:64,1,140
256,192,83130,1,0,0:0:0:0:
256,192,83280,1,0,0:0:0:0:
256,192,83355,1,0,0:0:0:0:
256,192,83430,1,8,0:0:0:0:
256,192,83505,1,8,0:0:0:0:
256,192,83580,1,0,0:0:0:0:
256,192,83730,1,0,0:0:0:0:
256,192,83805,1,0,0:0:0:0:
256,192,83880,1,8,0:0:0:0:
256,192,84030,1,0,0:0:0:0:
256,192,84180,1,8,0:0:0:0:
256,192,84330,1,8,0:0:0:0:
256,192,84405,1,8,0:0:0:0:
256,192,84480,1,8,0:0:0:0:
256,192,84555,1,8,0:0:0:0:
256,192,84630,1,0,0:0:0:0:
256,192,84930,1,0,0:0:0:0:
256,192,85005,1,0,0:0:0:0:
256,192,85080,1,0,0:0:0:0:
256,192,85155,1,0,0:0:0:0:
256,192,85230,1,8,0:0:0:0:
256,192,85380,1,0,0:0:0:0:
256,192,85455,1,0,0:0:0:0:
256,192,85530,1,8,0:0:0:0:
256,192,85680,1,8,0:0:0:0:
256,192,85755,1,8,0:0:0:0:
256,192,85830,1,0,0:0:0:0:
256,192,86130,1,0,0:0:0:0:
256,192,86430,1,8,0:0:0:0:
256,192,86530,1,8,0:0:0:0:
256,192,86630,1,8,0:0:0:0:
256,192,86830,1,8,0:0:0:0:
256,192,87030,1,0,0:0:0:0:
256,192,87330,1,8,0:0:0:0:
256,192,87510,1,8,0:0:0:0:
256,192,87630,1,0,0:0:0:0:
256,192,87930,1,0,0:0:0:0:
256,192,88230,1,8,0:0:0:0:
256,192,88380,1,8,0:0:0:0:
256,192,88530,1,8,0:0:0:0:
256,192,88680,1,8,0:0:0:0:
256,192,88830,1,0,0:0:0:0:
256,192,88980,1,8,0:0:0:0:
256,192,89130,1,0,0:0:0:0:
256,192,89430,1,8,0:0:0:0:
256,192,89580,12,0,89880,0:0:0:0:
256,192,90030,5,8,0:0:0:0:
256,192,90180,5,8,0:0:0:0:
256,192,90255,1,8,0:0:0:0:
256,192,90330,1,0,0:0:0:0:
256,192,90480,1,8,0:0:0:0:
256,192,90555,1,8,0:0:0:0:
256,192,90630,1,0,0:0:0:0:
256,192,90780,12,0,91080,0:0:0:0:
256,192,91230,5,8,0:0:0:0:
256,192,91380,1,8,0:0:0:0:
256,192,91530,1,8,0:0:0:0:
256,192,91680,1,8,0:0:0:0:
256,192,91755,1,8,0:0:0:0:
256,192,91830,1,0,0:0:0:0:
256,192,91980,1,8,0:0:0:0:
256,192,92055,1,0,0:0:0:0:
256,192,92130,1,8,0:0:0:0:
256,192,92205,1,0,0:0:0:0:
256,192,92280,1,8,0:0:0:0:
256,192,92430,1,0,0:0:0:0:
256,192,92505,1,0,0:0:0:0:
256,192,92580,1,8,0:0:0:0:
256,192,92730,1,8,0:0:0:0:
256,192,92880,1,8,0:0:0:0:
256,192,92955,1,8,0:0:0:0:
256,192,93030,1,0,0:0:0:0:
256,192,93180,1,8,0:0:0:0:
256,192,93330,1,8,0:0:0:0:
256,192,93405,1,8,0:0:0:0:
256,192,93480,1,0,0:0:0:0:
256,192,93630,1,0,0:0:0:0:
256,192,93780,1,8,0:0:0:0:
256,192,93855,1,0,0:0:0:0:
256,192,94230,1,8,0:0:0:0:
256,192,94380,1,0,0:0:0:0:
256,192,94530,12,8,94680,0:0:0:0:
256,192,94830,5,8,0:0:0:0:
256,192,94980,5,8,0:0:0:0:
256,192,95130,1,8,0:0:0:0:
256,192,95280,1,0,0:0:0:0:
256,192,95355,1,0,0:0:0:0:
256,192,95430,1,8,0:0:0:0:
256,192,95580,1,8,0:0:0:0:
256,192,95655,1,8,0:0:0:0:
256,192,95730,1,0,0:0:0:0:
256,192,95880,1,8,0:0:0:0:
256,192,96030,1,0,0:0:0:0:
256,192,96292,1,8,0:0:0:0:
256,192,96442,1,8,0:0:0:0:
256,192,96592,1,0,0:0:0:0:
256,192,96855,1,8,0:0:0:0:
256,192,96930,1,0,0:0:0:0:
256,192,97080,1,8,0:0:0:0:
256,192,97155,1,8,0:0:0:0:
256,192,97230,1,0,0:0:0:0:
256,192,97380,1,8,0:0:0:0:
256,192,97530,1,8,0:0:0:0:
256,192,97605,1,8,0:0:0:0:
256,192,97680,1,8,0:0:0:0:
256,192,97830,1,0,0:0:0:0:
256,192,97905,1,0,0:0:0:0:
256,192,97980,1,0,0:0:0:0:
256,192,98055,1,0,0:0:0:0:
256,192,98205,1,0,0:0:0:0:
256,192,98430,1,8,0:0:0:0:
256,192,98580,1,8,0:0:0:0:
256,192,98730,1,8,0:0:0:0:
256,192,98880,1,8,0:0:0:0:
256,192,99030,1,0,0:0:0:0:
256,192,99105,1,0,0:0:0:0:
256,192,99180,1,8,0:0:0:0:
256,192,99330,1,8,0:0:0:0:
256,192,99405,1,8,0:0:0:0:
256,192,99480,1,0,0:0:0:0:
256,192,99630,1,0,0:0:0:0:
256,192,99780,1,8,0:0:0:0:
256,192,99855,1,8,0:0:0:0:
256,192,99930,1,8,0:0:0:0:
256,192,100080,1,8,0:0:0:0:
256,192,100230,1,0,0:0:0:0:
256,192,100530,1,0,0:0:0:0:
256,192,100680,1,8,0:0:0:0:
256,192,100830,1,8,0:0:0:0:
256,192,100930,1,8,0:0:0:0:
256,192,101030,1,8,0:0:0:0:
256,192,101130,1,8,0:0:0:0:
256,192,101230,1,0,0:0:0:0:
256,192,101430,1,8,0:0:0:0:
256,192,101530,1,8,0:0:0:0:
256,192,101630,1,0,0:0:0:0:
256,192,101917,1,8,0:0:0:0:
256,192,102180,1,8,0:0:0:0:
256,192,102330,1,0,0:0:0:0:
256,192,102480,1,0,0:0:0:0:
256,192,102630,1,8,0:0:0:0:
256,192,102780,1,8,0:0:0:0:
256,192,102930,1,8,0:0:0:0:
256,192,103080,1,0,0:0:0:0:
256,192,103230,1,8,0:0:0:0:
256,192,103380,1,8,0:0:0:0:
256,192,103455,1,8,0:0:0:0:
256,192,103530,1,0,0:0:0:0:
256,192,103680,1,8,0:0:0:0:
256,192,103755,1,8,0:0:0:0:
256,192,103830,1,0,0:0:0:0:
256,192,103905,1,0,0:0:0:0:
256,192,103980,1,8,0:0:0:0:
256,192,104130,12,8,104280,0:0:0:0:
256,192,104430,5,8,0:0:0:0:
256,192,104580,5,8,0:0:0:0:
256,192,104730,1,8,0:0:0:0:
256,192,104880,1,0,0:0:0:0:
256,192,104955,1,0,0:0:0:0:
256,192,105030,1,8,0:0:0:0:
256,192,105180,1,8,0:0:0:0:
256,192,105255,1,8,0:0:0:0:
256,192,105330,1,0,0:0:0:0:
256,192,105480,1,8,0:0:0:0:
256,192,105555,1,8,0:0:0:0:
256,192,105630,1,0,0:0:0:0:
256,192,105780,1,8,0:0:0:0:
256,192,105855,1,0,0:0:0:0:
256,192,105930,1,8,0:0:0:0:
256,192,106230,1,0,0:0:0:0:
256,192,106305,1,0,0:0:0:0:
256,192,106380,1,0,0:0:0:0:
256,192,106530,1,8,0:0:0:0:
256,192,106605,1,8,0:0:0:0:
256,192,106680,1,8,0:0:0:0:
256,192,106830,1,0,0:0:0:0:
256,192,106980,1,8,0:0:0:0:
256,192,107055,1,8,0:0:0:0:
256,192,107130,1,8,0:0:0:0:
256,192,107280,1,0,0:0:0:0:
256,192,107430,1,8,0:0:0:0:
256,192,107505,1,8,0:0:0:0:
256,192,107580,1,8,0:0:0:0:
256,192,107655,1,0,0:0:0:0:
256,192,107730,1,8,0:0:0:0:
256,192,107880,1,8,0:0:0:0:
256,192,108030,1,0,0:0:0:0:
256,192,108180,1,8,0:0:0:0:
256,192,108255,1,8,0:0:0:0:
256,192,108330,1,0,0:0:0:0:
256,192,108405,1,0,0:0:0:0:
256,192,108480,1,0,0:0:0:0:
256,192,108630,1,8,0:0:0:0:
256,192,108705,1,8,0:0:0:0:
256,192,108780,1,8,0:0:0:0:
256,192,108930,1,0,0:0:0:0:
256,192,109005,1,0,0:0:0:0:
256,192,109080,1,0,0:0:0:0:
256,192,109155,1,0,0:0:0:0:
256,192,109230,1,8,0:0:0:0:
256,192,109380,1,0,0:0:0:0:
256,192,109455,1,0,0:0:0:0:
256,192,109530,1,8,0:0:0:0:
256,192,109680,1,8,0:0:0:0:
256,192,109830,1,0,0:0:0:0:
256,192,110092,1,8,0:0:0:0:
256,192,110392,1,0,0:0:0:0:
256,192,110580,1,8,0:0:0:0:
256,192,110655,1,8,0:0:0:0:
256,192,110730,1,0,0:0:0:0:
256,192,110880,1,8,0:0:0:0:
256,192,111030,12,0,111480,0:0:0:0:
256,192,111630,5,8,0:0:0:0:
256,192,111780,5,8,0:0:0:0:
256,192,111855,1,8,0:0:0:0:
256,192,111930,1,0,0:0:0:0:
256,192,112080,1,8,0:0:0:0:
256,192,112155,1,8,0:0:0:0:
256,192,112230,1,0,0:0:0:0:
256,192,112380,12,0,112680,0:0:0:0:
256,192,112830,5,8,0:0:0:0:
256,192,112980,1,8,0:0:0:0:
256,192,113130,1,0,0:0:0:0:
256,192,113280,1,8,0:0:0:0:
256,192,113355,1,8,0:0:0:0:
256,192,113430,1,0,0:0:0:0:
256,192,113580,1,8,0:0:0:0:
256,192,113655,1,8,0:0:0:0:
256,192,113730,1,0,0:0:0:0:
256,192,113805,1,0,0:0:0:0:
256,192,113880,1,8,0:0:0:0:
256,192,114030,1,8,0:0:0:0:
256,192,114180,1,8,0:0:0:0:
256,192,114255,1,8,0:0:0:0:
256,192,114330,1,0,0:0:0:0:
256,192,114480,1,8,0:0:0:0:
256,192,114555,1,8,0:0:0:0:
256,192,114630,1,8,0:0:0:0:
256,192,114780,1,0,0:0:0:0:
256,192,114930,1,8,0:0:0:0:
256,192,115005,1,0,0:0:0:0:
256,192,115080,1,8,0:0:0:0:
256,192,115155,1,8,0:0:0:0:
256,192,115230,1,0,0:0:0:0:
256,192,115492,1,8,0:0:0:0:
256,192,115792,1,0,0:0:0:0:
256,192,115942,1,0,0:0:0:0:
256,192,116092,1,8,0:0:0:0:
256,192,116430,1,0,0:0:0:0:
256,192,116580,1,8,0:0:0:0:
256,192,116655,1,8,0:0:0:0:
256,192,116730,1,0,0:0:0:0:
256,192,116880,1,8,0:0:0:0:
256,192,116955,1,8,0:0:0:0:
256,192,117030,1,8,0:0:0:0:
256,192,117180,1,0,0:0:0:0:
256,192,117330,1,8,0:0:0:0:
256,192,117405,1,8,0:0:0:0:
256,192,117480,1,8,0:0:0:0:
256,192,117555,1,8,0:0:0:0:
256,192,117630,1,0,0:0:0:0:
256,192,117780,1,8,0:0:0:0:
256,192,117930,1,0,0:0:0:0:
256,192,118005,1,0,0:0:0:0:
256,192,118080,1,8,0:0:0:0:
256,192,118155,1,8,0:0:0:0:
256,192,118230,1,0,0:0:0:0:
256,192,118380,1,0,0:0:0:0:
256,192,118530,1,8,0:0:0:0:
256,192,118605,1,0,0:0:0:0:
256,192,118680,1,8,0:0:0:0:
256,192,118830,1,0,0:0:0:0:
256,192,118980,1,8,0:0:0:0:
256,192,119055,1,8,0:0:0:0:
256,192,119130,1,0,0:0:0:0:
256,192,119280,1,8,0:0:0:0:
256,192,119430,1,8,0:0:0:0:
256,192,119505,1,8,0:0:0:0:
256,192,119580,1,0,0:0:0:0:
256,192,119655,1,0,0:0:0:0:
256,192,119730,1,8,0:0:0:0:
256,192,120030,1,8,0:0:0:0:
256,192,120105,1,8,0:0:0:0:
256,192,120180,1,8,0:0:0:0:
256,192,120330,1,0,0:0:0:0:
256,192,120480,1,8,0:0:0:0:
256,192,120555,1,8,0:0:0:0:
256,192,120630,1,0,0:0:0:0:
128,96,120930,2,0,L|288:64,1,140
256,192,121530,1,0,0:0:0:0:
256,192,121680,1,0,0:0:0:0:
256,192,121755,1,0,0:0:0:0:
256,192,121830,1,8,0:0:0:0:
256,192,121905,1,8,0:0:0:0:
256,192,121980,1,0,0:0:0:0:
256,192,122130,1,0,0:0:0:0:
256,192,122205,1,0,0:0:0:0:
256,192,122280,1,8,0:0:0:0:
256,192,122430,1,0,0:0:0:0:
256,192,122580,1,8,0:0:0:0:
256,192,122730,1,8,0:0:0:0:
256,192,122805,1,8,0:0:0:0:
256,192,122880,1,8,0:0:0:0:
256,192,122955,1,8,0:0:0:0:
256,192,123030,1,0,0:0:0:0:
256,192,123330,1,0,0:0:0:0:
256,192,123405,1,0,0:0:0:0:
256,192,123480,1,0,0:0:0:0:
256,192,123555,1,0,0:0:0:0:
256,192,123630,1,8,0:0:0:0:
256,192,123780,1,0,0:0:0:0:
256,192,123855,1,0,0:0:0:0:
256,192,123930,1,8,0:0:0:0:
256,192,124080,1,8,0:0:0:0:
256,192,124155,1,8,0:0:0:0:
256,192,124230,1,0,0:0:0:0:
256,192,124530,1,0,0:0:0:0:
256,192,124830,1,8,0:0:0:0:
256,192,124930,1,0,0:0:0:0:
256,192,125030,1,8,0:0:0:0:
256,192,125230,1,8,0:0:0:0:
256,192,125430,1,0,0:0:0:0:
256,192,125730,1,8,0:0:0:0:
256,192,125910,1,8,0:0:0:0:
256,192,126030,1,0,0:0:0:0:
256,192,126330,1,0,0:0:0:0:
256,192,126630,1,8,0:0:0:0:
256,192,126780,1,8,0:0:0:0:
256,192,126930,1,8,0:0:0:0:
256,192,127080,1,8,0:0:0:0:
256,192,127230,1,0,0:0:0:0:
256,192,127380,1,8,0:0:0:0:
256,192,127530,1,0,0:0:0:0:
256,192,127830,1,8,0:0:0:0:
256,192,127980,12,0,128280,0:0:0:0:
256,192,128430,5,8,0:0:0:0:
256,192,128580,5,8,0:0:0:0:
256,192,128655,1,8,0:0:0:0:
256,192,128730,1,0,0:0:0:0:
256,192,128880,1,8,0:0:0:0:
256,192,128955,1,8,0:0:0:0:
256,192,129030,1,0,0:0:0:0:
256,192,129180,12,0,129480,0:0:0:0:
256,192,129630,5,8,0:0:0:0:
256,192,129780,1,8,0:0:0:0:
256,192,129930,1,8,0:0:0:0:
256,192,130080,1,8,0:0:0:0:
256,192,130155,1,8,0:0:0:0:
256,192,130230,1,0,0:0:0:0:
256,192,130380,1,8,0:0:0:0:
256,192,130455,1,8,0:0:0:0:
256,192,130530,1,8,0:0:0:0:
256,192,130605,1,0,0:0:0:0:
256,192,130680,1,8,0:0:0:0:
256,192,130830,1,0,0:0:0:0:
256,192,130905,1,0,0:0:0:0:
256,192,130980,1,8,0:0:0:0:
256,192,131130,1,8,0:0:0:0:
256,192,131280,1,8,0:0:0:0:
256,192,131355,1,8,0:0:0:0:
256,192,131430,1,0,0:0:0:0:
256,192,131580,1,8,0:0:0:0:
256,192,131730,1,8,0:0:0:0:
256,192,131805,1,8,0:0:0:0:
256,192,131880,1,0,0:0:0:0:
256,192,132030,1,0,0:0:0:0:
256,192,132180,1,8,0:0:0:0:
256,192,132255,1,0,0:0:0:0:
256,192,132630,1,8,0:0:0:0:
256,192,132780,1,0,0:0:0:0:
256,192,132930,12,8,133080,0:0:0:0:
256,192,133230,5,8,0:0:0:0:
256,192,133380,5,8,0:0:0:0:
256,192,133530,1,8,0:0:0:0:
256,192,133680,1,0,0:0:0:0:
256,192,133755,1,0,0:0:0:0:
256,192,133830,1,8,0:0:0:0:
256,192,133980,1,8,0:0:0:0:
256,192,134055,1,8,0:0:0:0:
256,192,134130,1,0,0:0:0:0:
256,192,134280,1,8,0:0:0:0:
256,192,134430,1,0,0:0:0:0:
256,192,134692,1,8,0:0:0:0:
256,192,134842,1,8,0:0:0:0:
256,192,134992,1,0,0:0:0:0:
256,192,135255,1,8,0:0:0:0:
256,192,135330,1,0,0:0:0:0:
256,192,135480,1,8,0:0:0:0:
256,192,135555,1,8,0:0:0:0:
256,192,135630,1,0,0:0:0:0:
256,192,135780,1,8,0:0:0:0:
256,192,135930,1,8,0:0:0:0:
256,192,136005,1,8,0:0:0:0:
256,192,136080,1,8,0:0:0:0:
256,192,136230,1,0,0:0:0:0:
256,192,136305,1,0,0:0:0:0:
256,192,136380,1,0,0:0:0:0:
256,192,136455,1,0,0:0:0:0:
256,192,136605,1,0,0:0:0:0:
256,192,136830,1,8,0:0:0:0:
256,192,136980,1,8,0:0:0:0:
256,192,137130,1,8,0:0:0:0:
256,192,137280,1,8,0:0:0:0:
256,192,137430,1,0,0:0:0:0:
256,192,137505,1,0,0:0:0:0:
256,192,137580,1,8,0:0:0:0:
256,192,137730,1,8,0:0:0:0:
256,192,137805,1,8,0:0:0:0:
256,192,137880,1,0,0:0:0:0:
256,192,138030,1,0,0:0:0:0:
256,192,138180,1,8,0:0:0:0:
256,192,138255,1,0,0:0:0:0:
256,192,138330,1,8,0:0:0:0:
256,192,138480,1,8,0:0:0:0:
256,192,138630,1,0,0:0:0:0:
256,192,138930,1,0,0:0:0:0:
256,192,139080,1,8,0:0:0:0:
256,192,139230,1,8,0:0:0:0:
256,192,139330,1,8,0:0:0:0:
256,192,139430,1,8,0:0:0:0:
256,192,139530,1,8,0:0:0:0:
256,192,139630,1,0,0:0:0:0:
256,192,139830,1,8,0:0:0:0:
256,192,139930,1,8,0:0:0:0:
256,192,140030,1,0,0:0:0:0:
256,192,140317,1,8,0:0:0:0:
256,192,140580,1,8,0:0:0:0:
256,192,140730,1,0,0:0:0:0:
256,192,140880,1,0,0:0:0:0:
256,192,141030,1,8,0:0:0:0:
256,192,141180,1,8,0:0:0:0:
256,192,141330,1,8,0:0:0:0:
256,192,141480,1,0,0:0:0:0:
256,192,141630,1,8,0:0:0:0:
256,192,141780,1,8,0:0:0:0:
256,192,141855,1,8,0:0:0:0:
256,192,141930,1,0,0:0:0:0:
256,192,142080,1,8,0:0:0:0:
256,192,142155,1,8,0:0:0:0:
256,192,142230,1,8,0:0:0:0:
256,192,142305,1,0,0:0:0:0:
256,192,142380,1,8,0:0:0:0:
256,192,142530,12,8,142680,0:0:0:0:
256,192,142830,5,8,0:0:0:0:
256,192,142980,5,8,0:0:0:0:
256,192,143130,1,8,0:0:0:0:
256,192,143280,1,0,0:0:0:0:
256,192,143355,1,0,0:0:0:0:
256,192,143430,1,8,0:0:0:0:
256,192,143580,1,8,0:0:0:0:
256,192,143655,1,8,0:0:0:0:
256,192,143730,1,0,0:0:0:0:
256,192,143880,1,8,0:0:0:0:
256,192,143955,1,8,0:0:0:0:
256,192,144030,1,0,0:0:0:0:
256,192,144180,1,8,0:0:0:0:
256,192,144255,1,8,0:0:0:0:
256,192,144330,1,8,0:0:0:0:
256,192,144630,1,0,0:0:0:0:
256,192,144705,1,0,0:0:0:0:
256,192,144780,1,0,0:0:0:0:
256,192,144930,1,8,0:0:0:0:
256,192,145005,1,0,0:0:0:0:
256,192,145080,1,8,0:0:0:0:
256,192,145230,1,0,0:0:0:0:
256,192,145380,1,8,0:0:0:0:
256,192,145455,1,8,0:0:0:0:
256,192,145530,1,8,0:0:0:0:
256,192,145680,1,0,0:0:0:0:
256,192,145830,1,8,0:0:0:0:
256,192,145905,1,8,0:0:0:0:
256,192,145980,1,0,0:0:0:0:
256,192,146055,1,0,0:0:0:0:
256,192,146130,1,8,0:0:0:0:
256,192,146280,1,8,0:0:0:0:
256,192,146430,1,0,0:0:0:0:
256,192,146580,1,8,0:0:0:0:
256,192,146655,1,8,0:0:0:0:
256,192,146730,1,0,0:0:0:0:
256,192,146805,1,0,0:0:0:0:
256,192,146880,1,0,0:0:0:0:
256,192,147030,1,8,0:0:0:0:
256,192,147105,1,0,0:0:0:0:
256,192,147180,1,8,0:0:0:0:
256,192,147330,1,0,0:0:0:0:
256,192,147405,1,0,0:0:0:0:
256,192,147480,1,0,0:0:0:0:
256,192,147555,1,0,0:0:0:0:
256,192,147630,1,8,0:0:0:0:
256,192,147780,1,0,0:0:0:0:
256,192,147855,1,0,0:0:0:0:
256,192,147930,1,8,0:0:0:0:
256,192,148080,1,8,0:0:0:0:
256,192,148230,1,0,0:0:0:0:
256,192,148492,1,8,0:0:0:0:
256,192,148792,1,0,0:0:0:0:
256,192,148980,1,8,0:0:0:0:
256,192,149055,1,8,0:0:0:0:
256,192,149130,1,0,0:0:0:0:
256,192,149280,1,8,0:0:0:0:
256,192,149430,12,0,149880,0:0:0:0:
256,192,150030,5,8,0:0:0:0:
256,192,150180,5,8,0:0:0:0:
256,192,150255,1,8,0:0:0:0:
256,192,150330,1,0,0:0:0:0:
256,192,150480,1,8,0:0:0:0:
256,192,150555,1,8,0:0:0:0:
256,192,150630,1,0,0:0:0:0:
256,192,150780,12,0,151080,0:0:0:0:
256,192,151230,5,8,0:0:0:0:
256,192,151380,1,8,0:0:0:0:
256,192,151530,1,0,0:0:0:0:
256,192,151680,1,8,0:0:0:0:
256,192,151755,1,8,0:0:0:0:
256,192,151830,1,0,0:0:0:0:
256,192,151980,1,8,0:0:0:0:
256,192,152055,1,8,0:0:0:0:
256,192,152130,1,8,0:0:0:0:
256,192,152205,1,0,0:0:0:0:
256,192,152280,1,8,0:0:0:0:
256,192,152430,1,8,0:0:0:0:
256,192,152580,1,8,0:0:0:0:
256,192,152655,1,8,0:0:0:0:
256,192,152730,1,0,0:0:0:0:
256,192,152880,1,8,0:0:0:0:
256,192,152955,1,0,0:0:0:0:
256,192,153030,1,8,0:0:0:0:
256,192,153180,1,0,0:0:0:0:
256,192,153330,1,8,0:0:0:0:
256,192,153405,1,0,0:0:0:0:
256,192,153480,1,0,0:0:0:0:
256,192,153555,1,8,0:0:0:0:
256,192,153630,1,0,0:0:0:0:
256,192,153892,1,8,0:0:0:0:
256,192,154192,1,0,0:0:0:0:
256,192,154342,1,0,0:0:0:0:
256,192,154492,1,8,0:0:0:0:
256,192,154830,1,0,0:0:0:0:
256,192,154980,1,8,0:0:0:0:
256,192,155055,1,8,0:0:0:0:
256,192,155130,1,0,0:0:0:0:
256,192,155280,1,8,0:0:0:0:
256,192,155355,1,8,0:0:0:0:
256,192,155430,1,0,0:0:0:0:
256,192,155580,1,0,0:0:0:0:
256,192,155730,1,0,0:0:0:0:
256,192,155805,1,0,0:0:0:0:
256,192,155880,1,0,0:0:0:0:
256,192,155955,1,0,0:0:0:0:
256,192,156030,1,0,0:0:0:0:
256,192,156105,1,0,0:0:0:0:
256,192,156180,1,0,0:0:0:0:
256,192,156330,1,0,0:0:0:0:
256,192,156480,1,0,0:0:0:0:
256,192,156780,1,0,0:0:0:0:
256,192,157230,1,8,0:0:0:0:
256,192,157830,1,0,0:0:0:0:
256,192,158430,1,0,0:0:0:0:
256,192,159630,1,8,0:0:0:0:
256,192,160230,1,8,0:0:0:0:
256,192,160830,1,0,0:0:0:0:
256,192,162030,1,8,0:0:0:0:
256,192,162630,1,0,0:0:0:0:
256,192,163230,1,0,0:0:0:0:
256,192,164430,1,8,0:0:0:0:
256,192,165030,1,8,0:0:0:0:
256,192,165630,1,0,0:0:0:0:
256,192,166830,1,8,0:0:0:0:
256,192,167430,1,0,0:0:0:0:
256,192,168030,1,0,0:0:0:0:
256,192,169230,1,8,0:0:0:0:
256,192,169830,1,8,0:0:0:0:
256,192,170430,1,0,0:0:0:0:
256,192,171630,1,8,0:0:0:0:
256,192,172230,1,8,0:0:0:0:
256,192,172830,1,8,0:0:0:0:
256,192,173430,1,0,0:0:0:0:
256,192,174030,1,8,0:0:0:0:
256,192,174630,1,0,0:0:0:0:
256,192,175230,1,0,0:0:0:0:
256,192,176430,1,8,0:0:0:0:
256,192,177030,1,8,0:0:0:0:
256,192,177630,1,0,0:0:0:0:
256,192,178830,1,8,0:0:0:0:
256,192,179430,1,0,0:0:0:0:
256,192,180030,1,0,0:0:0:0:
256,192,181230,1,8,0:0:0:0:
256,192,181830,1,8,0:0:0:0:
256,192,182430,1,0,0:0:0:0:
256,192,183630,1,8,0:0:0:0:
256,192,184230,1,0,0:0:0:0:
256,192,184830,1,0,0:0:0:0:
256,192,186030,1,8,0:0:0:0:
256,192,186630,1,8,0:0:0:0:
256,192,187230,1,0,0:0:0:0:
256,192,188430,1,8,0:0:0:0:
256,192,189030,1,0,0:0:0:0:
256,192,189630,1,0,0:0:0:0:
256,192,190830,1,8,0:0:0:0:
256,192,191430,1,8,0:0:0:0:
256,192,192030,1,8,0:0:0:0:
256,192,192630,1,0,0:0:0:0:
256,192,193230,1,8,0:0:0:0:
256,192,193830,1,0,0:0:0:0:
256,192,194430,1,0,0:0:0:0:
256,192,195630,1,8,0:0:0:0:
256,192,196230,1,8,0:0:0:0:
256,192,196830,1,0,0:0:0:0:
256,192,198030,1,8,0:0:0:0:
256,192,198630,1,0,0:0:0:0:
256,192,199230,1,0,0:0:0:0:
256,192,200430,1,8,0:0:0:0:
256,192,201030,1,8,0:0:0:0:
256,192,201630,1,0,0:0:0:0:
256,192,202830,1,8,0:0:0:0:
256,192,203430,1,0,0:0:0:0:
256,192,204030,1,0,0:0:0:0:
256,192,205230,1,8,0:0:0:0:
256,192,205830,1,8,0:0:0:0:
256,192,206430,1,0,0:0:0:0:
256,192,207630,1,8,0:0:0:0:
256,192,208230,1,0,0:0:0:0:
256,192,208830,1,0,0:0:0:0:
256,192,210030,1,8,0:0:0:0:
256,192,210630,1,8,0:0:0:0:
256,192,211230,1,8,0:0:0:0:
256,192,211830,1,0,0:0:0:0:
256,192,212430,1,8,0:0:0:0:
256,192,213030,1,0,0:0:0:0:
256,192,213630,1,0,0:0:0:0:
256,192,214830,1,8,0:0:0:0:
256,192,215430,1,8,0:0:0:0:
256,192,216030,1,0,0:0:0:0:
256,192,217230,1,8,0:0:0:0:
256,192,217830,1,0,0:0:0:0:
256,192,218430,1,0,0:0:0:0:
256,192,219630,1,8,0:0:0:0:
256,192,220230,1,8,0:0:0:0:
256,192,220830,1,0,0:0:0:0:
256,192,222030,1,8,0:0:0:0:
256,192,222630,1,0,0:0:0:0:
256,192,223230,1,0,0:0:0:0:
256,192,224430,1,8,0:0:0:0:
256,192,225030,1,8,0:0:0:0:
256,192,225630,1,0,0:0:0:0:
256,192,226830,1,8,0:0:0:0:
256,192,227430,1,0,0:0:0:0:
256,192,228030,1,0,0:0:0:0:
256,192,231630,1,0,0:0:0:0:
256,192,231830,1,0,0:0:0:0:
256,192,232030,1,0,0:0:0:0:
256,192,232230,1,0,0:0:0:0:
256,192,232430,1,0,0:0:0:0:
256,192,232630,1,0,0:0:0:0:
256,192,232830,1,0,0:0:0:0:
256,192,232980,1,8,0:0:0:0:
256,192,233130,1,0,0:0:0:0:
256,192,233205,1,0,0:0:0:0:
256,192,233280,1,8,0:0:0:0:
256,192,233355,1,8,0:0:0:0:
256,192,233430,1,0,0:0:0:0:
256,192,233580,1,0,0:0:0:0:
256,192,233730,1,8,0:0:0:0:
256,192,233805,1,0,0:0:0:0:
256,192,233880,1,8,0:0:0:0:
256,192,234030,1,0,0:0:0:0:
256,192,234180,1,8,0:0:0:0:
256,192,234255,1,8,0:0:0:0:
256,192,234330,1,0,0:0:0:0:
256,192,234480,1,8,0:0:0:0:
256,192,234630,1,8,0:0:0:0:
256,192,234705,1,8,0:0:0:0:
256,192,234780,1,0,0:0:0:0:
256,192,234855,1,0,0:0:0:0:
256,192,234930,1,8,0:0:0:0:
256,192,235230,1,8,0:0:0:0:
256,192,235305,1,8,0:0:0:0:
256,192,235380,1,8,0:0:0:0:
256,192,235530,1,0,0:0:0:0:
256,192,235680,1,8,0:0:0:0:
256,192,235755,1,8,0:0:0:0:
256,192,235830,1,0,0:0:0:0:
128,96,236130,2,0,L|288:64,1,140
256,192,236730,1,0,0:0:0:0:
256,192,236880,1,0,0:0:0:0:
256,192,236955,1,0,0:0:0:0:
256,192,237030,1,8,0:0:0:0:
256,192,237105,1,8,0:0:0:0:
256,192,237180,1,0,0:0:0:0:
256,192,237330,1,0,0:0:0:0:
256,192,237405,1,0,0:0:0:0:
256,192,237480,1,8,0:0:0:0:
256,192,237630,1,0,0:0:0:0:
256,192,237780,1,8,0:0:0:0:
256,192,237930,1,8,0:0:0:0:
256,192,238005,1,8,0:0:0:0:
256,192,238080,1,8,0:0:0:0:
256,192,238155,1,8,0:0:0:0:
256,192,238230,1,0,0:0:0:0:
256,192,238530,1,0,0:0:0:0:
256,192,238605,1,0,0:0:0:0:
256,192,238680,1,0,0:0:0:0:
256,192,238755,1,0,0:0:0:0:
256,192,238830,1,8,0:0:0:0:
256,192,238980,1,0,0:0:0:0:
256,192,239055,1,0,0:0:0:0:
256,192,239130,1,8,0:0:0:0:
256,192,239280,1,8,0:0:0:0:
256,192,239355,1,8,0:0:0:0:
256,192,239430,1,0,0:0:0:0:
256,192,239730,1,0,0:0:0:0:
256,192,240030,1,8,0:0:0:0:
256,192,240130,1,0,0:0:0:0:
256,192,240230,1,8,0:0:0:0:
256,192,240430,1,8,0:0:0:0:
256,192,240630,1,0,0:0:0:0:
256,192,240930,1,8,0:0:0:0:
256,192,241110,1,8,0:0:0:0:
256,192,241230,1,0,0:0:0:0:
256,192,241530,1,0,0:0:0:0:
256,192,241830,1,8,0:0:0:0:
256,192,241980,1,8,0:0:0:0:
256,192,242130,1,8,0:0:0:0:
256,192,242280,1,8,0:0:0:0:
256,192,242430,1,0,0:0:0:0:
256,192,242580,1,8,0:0:0:0:
256,192,242730,1,0,0:0:0:0:
256,192,243030,1,8,0:0:0:0:
256,192,243180,12,0,243480,0:0:0:0:
256,192,243630,5,8,0:0:0:0:
256,192,243780,5,8,0:0:0:0:
256,192,243855,1,8,0:0:0:0:
256,192,243930,1,0,0:0:0:0:
256,192,244080,1,8,0:0:0:0:
256,192,244155,1,8,0:0:0:0:
256,192,244230,1,0,0:0:0:0:
256,192,244380,12,0,244680,0:0:0:0:
256,192,244830,5,8,0:0:0:0:
256,192,244980,1,8,0:0:0:0:
256,192,245130,1,8,0:0:0:0:
256,192,245280,1,8,0:0:0:0:
256,192,245355,1,8,0:0:0:0:
256,192,245430,1,0,0:0:0:0:
256,192,245580,1,8,0:0:0:0:
256,192,245655,1,8,0:0:0:0:
256,192,245730,1,8,0:0:0:0:
256,192,245805,1,0,0:0:0:0:
256,192,245880,1,8,0:0:0:0:
256,192,246030,1,0,0:0:0:0:
256,192,246105,1,0,0:0:0:0:
256,192,246180,1,8,0:0:0:0:
256,192,246330,1,8,0:0:0:0:
256,192,246480,1,8,0:0:0:0:
256,192,246555,1,8,0:0:0:0:
256,192,246630,1,0,0:0:0:0:
256,192,246780,1,8,0:0:0:0:
256,192,246930,1,8,0:0:0:0:
256,192,247005,1,8,0:0:0:0:
256,192,247080,1,0,0:0:0:0:
256,192,247230,1,0,0:0:0:0:
256,192,247380,1,8,0:0:0:0:
256,192,247455,1,0,0:0:0:0:
256,192,247830,1,8,0:0:0:0:
256,192,247980,1,0,0:0:0:0:
256,192,248130,12,8,248280,0:0:0:0:
256,192,248430,5,8,0:0:0:0:
256,192,248580,5,8,0:0:0:0:
256,192,248730,1,8,0:0:0:0:
256,192,248880,1,0,0:0:0:0:
256,192,248955,1,0,0:0:0:0:
256,192,249030,1,8,0:0:0:0:
256,192,249180,1,8,0:0:0:0:
256,192,249255,1,8,0:0:0:0:
256,192,249330,1,0,0:0:0:0:
256,192,249480,1,8,0:0:0:0:
256,192,249630,1,0,0:0:0:0:
256,192,249892,1,8,0:0:0:0:
256,192,250042,1,8,0:0:0:0:
256,192,250192,1,0,0:0:0:0:
256,192,250455,1,8,0:0:0:0:
256,192,250530,1,0,0:0:0:0:
256,192,250680,1,8,0:0:0:0:
256,192,250755,1,8,0:0:0:0:
256,192,250830,1,0,0:0:0:0:
256,192,250980,1,8,0:0:0:0:
256,192,251130,1,8,0:0:0:0:
256,192,251205,1,8,0:0:0:0:
256,192,251280,1,8,0:0:0:0:
256,192,251430,1,0,0:0:0:0:
256,192,251505,1,0,0:0:0:0:
256,192,251580,1,0,0:0:0:0:
256,192,251655,1,0,0:0:0:0:
256,192,251805,1,0,0:0:0:0:
256,192,252030,1,8,0:0:0:0:
256,192,252180,1,8,0:0:0:0:
256,192,252330,1,8,0:0:0:0:
256,192,252480,1,8,0:0:0:0:
256,192,252630,1,0,0:0:0:0:
256,192,252705,1,0,0:0:0:0:
256,192,252780,1,8,0:0:0:0:
256,192,252930,1,8,0:0:0:0:
256,192,253005,1,8,0:0:0:0:
256,192,253080,1,0,0:0:0:0:
256,192,253230,1,0,0:0:0:0:
256,192,253380,1,8,0:0:0:0:
256,192,253455,1,8,0:0:0:0:
256,192,253530,1,8,0:0:0:0:
256,192,253680,1,8,0:0:0:0:
256,192,253830,1,0,0:0:0:0:
256,192,254130,1,0,0:0:0:0:
256,192,254280,1,8,0:0:0:0:
256,192,254430,1,8,0:0:0:0:
256,192,254530,1,8,0:0:0:0:
256,192,254630,1,8,0:0:0:0:
256,192,254730,1,8,0:0:0:0:
256,192,254830,1,0,0:0:0:0:
256,192,255030,1,8,0:0:0:0:
256,192,255130,1,8,0:0:0:0:
256,192,255230,1,0,0:0:0:0:
256,192,255517,1,8,0:0:0:0:
256,192,255780,1,8,0:0:0:0:
256,192,255930,1,0,0:0:0:0:
256,192,256080,1,0,0:0:0:0:
256,192,256230,1,8,0:0:0:0:
256,192,256380,1,8,0:0:0:0:
256,192,256530,1,8,0:0:0:0:
256,192,256680,1,0,0:0:0:0:
256,192,256830,1,8,0:0:0:0:
256,192,256980,1,8,0:0:0:0:
256,192,257055,1,8,0:0:0:0:
256,192,257130,1,0,0:0:0:0:
256,192,257280,1,8,0:0:0:0:
256,192,257355,1,8,0:0:0:0:
256,192,257430,1,8,0:0:0:0:
256,192,257505,1,0,0:0:0:0:
256,192,257580,1,8,0:0:0:0:
256,192,257730,12,8,257880,0:0:0:0:
256,192,258030,5,8,0:0:0:0:
256,192,258180,5,8,0:0:0:0:
256,192,258330,1,8,0:0:0:0:
256,192,258480,1,0,0:0:0:0:
256,192,258555,1,0,0:0:0:0:
256,192,258630,1,8,0:0:0:0:
256,192,258780,1,8,0:0:0:0:
256,192,258855,1,8,0:0:0:0:
256,192,258930,1,0,0:0:0:0:
256,192,259080,1,8,0:0:0:0:
256,192,259155,1,8,0:0:0:0:
256,192,259230,1,0,0:0:0:0:
256,192,259380,1,8,0:0:0:0:
256,192,259455,1,8,0:0:0:0:
256,192,259530,1,8,0:0:0:0:
256,192,259830,1,0,0:0:0:0:
256,192,259905,1,0,0:0:0:0:
256,192,259980,1,0,0:0:0:0:
256,192,260130,1,8,0:0:0:0:
256,192,260205,1,0,0:0:0:0:
256,192,260280,1,8,0:0:0:0:
256,192,260430,1,0,0:0:0:0:
256,192,260580,1,8,0:0:0:0:
256,192,260655,1,8,0:0:0:0:
256,192,260730,1,8,0:0:0:0:
256,192,260880,1,0,0:0:0:0:
256,192,261030,1,8,0:0:0:0:
256,192,261105,1,8,0:0:0:0:
256,192,261180,1,0,0:0:0:0:
256,192,261255,1,0,0:0:0:0:
256,192,261330,1,8,0:0:0:0:
256,192,261480,1,8,0:0:0:0:
256,192,261630,1,0,0:0:0:0:
256,192,261780,1,8,0:0:0:0:
256,192,261855,1,8,0:0:0:0:
256,192,261930,1,0,0:0:0:0:
256,192,262005,1,0,0:0:0:0:
256,192,262080,1,0,0:0:0:0:
256,192,262230,1,8,0:0:0:0:
256,192,262305,1,0,0:0:0:0:
256,192,262380,1,8,0:0:0:0:
256,192,262530,1,0,0:0:0:0:
256,192,262605,1,0,0:0:0:0:
256,192,262680,1,0,0:0:0:0:
256,192,262755,1,0,0:0:0:0:
256,192,262830,1,8,0:0:0:0:
256,192,262980,1,0,0:0:0:0:
256,192,263055,1,0,0:0:0:0:
256,192,263130,1,8,0:0:0:0:
256,192,263280,1,8,0:0:0:0:
256,192,263430,1,0,0:0:0:0:
256,192,263692,1,8,0:0:0:0:
256,192,263992,1,0,0:0:0:0:
256,192,264180,1,8,0:0:0:0:
256,192,264255,1,8,0:0:0:0:
256,192,264330,1,0,0:0:0:0:
256,192,264480,1,8,0:0:0:0:
256,192,264630,12,0,265080,0:0:0:0:
256,192,265230,5,8,0:0:0:0:
256,192,265380,5,8,0:0:0:0:
256,192,265455,1,8,0:0:0:0:
256,192,265530,1,0,0:0:0:0:
256,192,265680,1,8,0:0:0:0:
256,192,265755,1,8,0:0:0:0:
256,192,265830,1,0,0:0:0:0:
256,192,265980,12,0,266280,0:0:0:0:
256,192,266430,5,8,0:0:0:0:
256,192,266580,1,8,0:0:0:0:
256,192,266730,1,0,0:0:0:0:
256,192,266880,1,8,0:0:0:0:
256,192,266955,1,8,0:0:0:0:
256,192,267030,1,0,0:0:0:0:
256,192,267180,1,8,0:0:0:0:
256,192,267255,1,8,0:0:0:0:
256,192,267330,1,0,0:0:0:0:
256,192,267405,1,0,0:0:0:0:
256,192,267480,1,8,0:0:0:0:
256,192,267630,1,8,0:0:0:0:
256,192,267780,1,8,0:0:0:0:
256,192,267855,1,8,0:0:0:0:
256,192,267930,1,0,0:0:0:0:
256,192,268080,1,8,0:0:0:0:
256,192,268155,1,8,0:0:0:0:
256,192,268230,1,8,0:0:0:0:
256,192,268380,1,0,0:0:0:0:
256,192,268530,1,8,0:0:0:0:
256,192,268605,1,0,0:0:0:0:
256,192,268680,1,8,0:0:0:0:
256,192,268755,1,8,0:0:0:0:
256,192,268830,1,0,0:0:0:0:
256,192,269092,1,8,0:0:0:0:
256,192,269392,1,0,0:0:0:0:
256,192,269542,1,0,0:0:0:0:
256,192,269692,1,8,0:0:0:0:
256,192,270030,1,0,0:0:0:0:
256,192,270180,1,8,0:0:0:0:
256,192,270255,1,8,0:0:0:0:
256,192,270330,1,0,0:0:0:0:
256,192,270480,1,8,0:0:0:0:
256,192,270555,1,0,0:0:0:0:
256,192,270630,1,8,0:0:0:0:
256,192,270780,1,0,0:0:0:0:
256,192,270930,1,8,0:0:0:0:
256,192,271005,1,8,0:0:0:0:
256,192,271080,1,8,0:0:0:0:
256,192,271155,1,8,0:0:0:0:
256,192,271230,1,0,0:0:0:0:
256,192,271380,1,8,0:0:0:0:
256,192,271530,1,0,0:0:0:0:
256,192,271605,1,0,0:0:0:0:
256,192,271680,1,8,0:0:0:0:
256,192,271755,1,8,0:0:0:0:
256,192,271830,1,0,0:0:0:0:
256,192,271980,1,0,0:0:0:0:
256,192,272130,1,8,0:0:0:0:
256,192,272205,1,8,0:0:0:0:
256,192,272280,1,8,0:0:0:0:
256,192,272430,1,0,0:0:0:0:
256,192,272580,1,8,0:0:0:0:
256,192,272655,1,8,0:0:0:0:
256,192,272730,1,0,0:0:0:0:
256,192,272880,1,8,0:0:0:0:
256,192,273030,1,8,0:0:0:0:
256,192,273105,1,8,0:0:0:0:
256,192,273180,1,8,0:0:0:0:
256,192,273255,1,0,0:0:0:0:
256,192,273330,1,8,0:0:0:0:
256,192,273630,1,8,0:0:0:0:
256,192,273705,1,8,0:0:0:0:
256,192,273780,1,8,0:0:0:0:
256,192,273930,1,0,0:0:0:0:
256,192,274080,1,8,0:0:0:0:
256,192,274155,1,8,0:0:0:0:
256,192,274230,1,0,0:0:0:0:
128,96,274530,2,0,L|288:64,1,140
256,192,275130,1,0,0:0:0:0:
256,192,275280,1,0,0:0:0:0:
256,192,275355,1,0,0:0:0:0:
256,192,275430,1,8,0:0:0:0:
256,192,275505,1,8,0:0:0:0:
256,192,275580,1,0,0:0:0:0:
256,192,275730,1,0,0:0:0:0:
256,192,275805,1,0,0:0:0:0:
256,192,275880,1,8,0:0:0:0:
256,192,276030,1,0,0:0:0:0:
256,192,276180,1,8,0:0:0:0:
256,192,276330,1,8,0:0:0:0:
256,192,276405,1,8,0:0:0:0:
256,192,276480,1,8,0:0:0:0:
256,192,276555,1,8,0:0:0:0:
256,192,276630,1,0,0:0:0:0:
256,192,276930,1,0,0:0:0:0:
256,192,277005,1,0,0:0:0:0:
256,192,277080,1,0,0:0:0:0:
256,192,277155,1,0,0:0:0:0:
256,192,277230,1,8,0:0:0:0:
256,192,277380,1,0,0:0:0:0:
256,192,277455,1,0,0:0:0:0:
256,192,277530,1,8,0:0:0:0:
256,192,277680,1,8,0:0:0:0:
256,192,277755,1,8,0:0:0:0:
256,192,277830,1,0,0:0:0:0:
256,192,278130,1,0,0:0:0:0:
256,192,278430,1,8,0:0:0:0:
256,192,278530,1,8,0:0:0:0:
256,192,278630,1,8,0:0:0:0:
256,192,278830,1,8,0:0:0:0:
256,192,279030,1,0,0:0:0:0:
256,192,279330,1,8,0:0:0:0:
256,192,279510,1,8,0:0:0:0:
256,192,279630,1,0,0:0:0:0:
256,192,279930,1,0,0:0:0:0:
256,192,280230,1,8,0:0:0:0:
256,192,280380,1,8,0:0:0:0:
256,192,280530,1,8,0:0:0:0:
256,192,280680,1,8,0:0:0:0:
256,192,280830,1,0,0:0:0:0:
256,192,280980,1,8,0:0:0:0:
256,192,281130,1,0,0:0:0:0:
256,192,281430,1,8,0:0:0:0:
256,192,281580,12,0,281880,0:0:0:0:
256,192,282030,5,8,0:0:0:0:
256,192,282180,5,8,0:0:0:0:
256,192,282255,1,8,0:0:0:0:
256,192,282330,1,0,0:0:0:0:
256,192,282480,1,8,0:0:0:0:
256,192,282555,1,8,0:0:0:0:
256,192,282630,1,0,0:0:0:0:
256,192,282780,12,0,283080,0:0:0:0:
256,192,283230,5,8,0:0:0:0:
256,192,283380,1,8,0:0:0:0:
256,192,283530,1,8,0:0:0:0:
256,192,283680,1,8,0:0:0:0:
256,192,283755,1,8,0:0:0:0:
256,192,283830,1,0,0:0:0:0:
256,192,283980,1,8,0:0:0:0:
256,192,284055,1,8,0:0:0:0:
256,192,284130,1,0,0:0:0:0:
256,192,284205,1,0,0:0:0:0:
256,192,284280,1,8,0:0:0:0:
256,192,284430,1,0,0:0:0:0:
256,192,284505,1,0,0:0:0:0:
256,192,284580,1,8,0:0:0:0:
256,192,284730,1,8,0:0:0:0:
256,192,284880,1,8,0:0:0:0:
256,192,284955,1,8,0:0:0:0:
256,192,285030,1,0,0:0:0:0:
256,192,285180,1,8,0:0:0:0:
256,192,285330,1,8,0:0:0:0:
256,192,285405,1,8,0:0:0:0:
256,192,285480,1,0,0:0:0:0:
256,192,285630,1,0,0:0:0:0:
256,192,285780,1,8,0:0:0:0:
256,192,285855,1,0,0:0:0:0:
256,192,286230,1,8,0:0:0:0:
256,192,286380,1,0,0:0:0:0:
256,192,286530,12,8,286680,0:0:0:0:
256,192,286830,5,8,0:0:0:0:
256,192,286980,5,8,0:0:0:0:
256,192,287130,1,8,0:0:0:0:
256,192,287280,1,0,0:0:0:0:
256,192,287355,1,0,0:0:0:0:
256,192,287430,1,8,0:0:0:0:
256,192,287580,1,8,0:0:0:0:
256,192,287655,1,8,0:0:0:0:
256,192,287730,1,0,0:0:0:0:
256,192,287880,1,8,0:0:0:0:
256,192,288030,1,0,0:0:0:0:
256,192,288292,1,8,0:0:0:0:
256,192,288442,1,8,0:0:0:0:
256,192,288592,1,0,0:0:0:0:
256,192,288855,1,8,0:0:0:0:
256,192,288930,1,0,0:0:0:0:
256,192,289080,1,8,0:0:0:0:
256,192,289155,1,8,0:0:0:0:
256,192,289230,1,0,0:0:0:0:
256,192,289380,1,8,0:0:0:0:
256,192,289530,1,8,0:0:0:0:
256,192,289605,1,8,0:0:0:0:
256,192,289680,1,8,0:0:0:0:
256,192,289830,1,0,0:0:0:0:
256,192,289905,1,0,0:0:0:0:
256,192,289980,1,0,0:0:0:0:
256,192,290055,1,0,0:0:0:0:
256,192,290205,1,0,0:0:0:0:
256,192,290430,1,8,0:0:0:0:
256,192,290580,1,8,0:0:0:0:
256,192,290730,1,8,0:0:0:0:
256,192,290880,1,8,0:0:0:0:
256,192,291030,1,0,0:0:0:0:
256,192,291105,1,0,0:0:0:0:
256,192,291180,1,8,0:0:0:0:
256,192,291330,1,8,0:0:0:0:
256,192,291405,1,8,0:0:0:0:
256,192,291480,1,0,0:0:0:0:
256,192,291630,1,0,0:0:0:0:
256,192,291780,1,8,0:0:0:0:
256,192,291855,1,8,0:0:0:0:
256,192,291930,1,8,0:0:0:0:
256,192,292080,1,8,0:0:0:0:
256,192,292230,1,0,0:0:0:0:
256,192,292530,1,0,0:0:0:0:
256,192,292680,1,8,0:0:0:0:
256,192,292830,1,8,0:0:0:0:
256,192,292930,1,8,0:0:0:0:
256,192,293030,1,8,0:0:0:0:
256,192,293130,1,8,0:0:0:0:
256,192,293230,1,0,0:0:0:0:
256,192,293430,1,8,0:0:0:0:
256,192,293530,1,8,0:0:0:0:
256,192,293630,1,0,0:0:0:0:
256,192,293917,1,8,0:0:0:0:
256,192,294180,1,8,0:0:0:0:
256,192,294330,1,0,0:0:0:0:
256,192,294480,1,0,0:0:0:0:
256,192,294630,1,8,0:0:0:0:
256,192,294780,1,8,0:0:0:0:
256,192,294930,1,8,0:0:0:0:
256,192,295080,1,0,0:0:0:0:
256,192,295230,1,8,0:0:0:0:
256,192,295380,1,8,0:0:0:0:
256,192,295455,1,8,0:0:0:0:
256,192,295530,1,0,0:0:0:0:
256,192,295680,1,8,0:0:0:0:
256,192,295755,1,8,0:0:0:0:
256,192,295830,1,0,0:0:0:0:
256,192,295905,1,0,0:0:0:0:
256,192,295980,1,8,0:0:0:0:
256,192,296130,12,8,296280,0:0:0:0:
256,192,296430,5,8,0:0:0:0:
256,192,296580,5,8,0:0:0:0:
256,192,296730,1,8,0:0:0:0:
256,192,296880,1,0,0:0:0:0:
256,192,296955,1,0,0:0:0:0:
256,192,297030,1,8,0:0:0:0:
256,192,297180,1,8,0:0:0:0:
256,192,297255,1,8,0:0:0:0:
256,192,297330,1,0,0:0:0:0:
256,192,297480,1,8,0:0:0:0:
256,192,297555,1,8,0:0:0:0:
256,192,297630,1,0,0:0:0:0:
256,192,297780,1,8,0:0:0:0:
256,192,297855,1,0,0:0:0:0:
256,192,297930,1,8,0:0:0:0:
256,192,298230,1,0,0:0:0:0:
256,192,298305,1,0,0:0:0:0:
256,192,298380,1,0,0:0:0:0:
256,192,298530,1,8,0:0:0:0:
256,192,298605,1,0,0:0:0:0:
256,192,298680,1,8,0:0:0:0:
256,192,298830,1,0,0:0:0:0:
256,192,298980,1,8,0:0:0:0:
256,192,299055,1,8,0:0:0:0:
256,192,299130,1,8,0:0:0:0:
256,192,299280,1,0,0:0:0:0:
256,192,299430,1,8,0:0:0:0:
256,192,299505,1,8,0:0:0:0:
256,192,299580,1,0,0:0:0:0:
256,192,299655,1,0,0:0:0:0:
256,192,299730,1,8,0:0:0:0:
256,192,299880,1,8,0:0:0:0:
256,192,300030,1,0,0:0:0:0:
256,192,300180,1,8,0:0:0:0:
256,192,300255,1,8,0:0:0:0:
256,192,300330,1,0,0:0:0:0:
256,192,300405,1,0,0:0:0:0:
256,192,300480,1,0,0:0:0:0:
256,192,300630,1,8,0:0:0:0:
256,192,300705,1,0,0:0:0:0:
256,192,300780,1,8,0:0:0:0:
256,192,300930,1,0,0:0:0:0:
256,192,301005,1,0,0:0:0:0:
256,192,301080,1,0,0:0:0:0:
256,192,301155,1,0,0:0:0:0:
256,192,301230,1,8,0:0:0:0:
256,192,301380,1,0,0:0:0:0:
256,192,301455,1,0,0:0:0:0:
256,192,301530,1,8,0:0:0:0:
256,192,301680,1,8,0:0:0:0:
256,192,301830,1,0,0:0:0:0:
256,192,302092,1,8,0:0:0:0:
256,192,302392,1,0,0:0:0:0:
256,192,302580,1,8,0:0:0:0:
256,192,302655,1,8,0:0:0:0:
256,192,302730,1,0,0:0:0:0:
256,192,302880,1,8,0:0:0:0:
256,192,303030,12,0,303480,0:0:0:0:
256,192,303630,5,8,0:0:0:0:
256,192,303780,5,8,0:0:0:0:
256,192,303855,1,8,0:0:0:0:
256,192,303930,1,0,0:0:0:0:
256,192,304080,1,8,0:0:0:0:
256,192,304155,1,8,0:0:0:0:
256,192,304230,1,0,0:0:0:0:
256,192,304380,12,0,304680,0:0:0:0:
256,192,304830,5,8,0:0:0:0:
256,192,304980,1,8,0:0:0:0:
256,192,305130,1,0,0:0:0:0:
256,192,305280,1,8,0:0:0:0:
256,192,305355,1,8,0:0:0:0:
256,192,305430,1,0,0:0:0:0:
256,192,305580,1,8,0:0:0:0:
256,192,305655,1,8,0:0:0:0:
256,192,305730,1,8,0:0:0:0:
256,192,305805,1,0,0:0:0:0:
256,192,305880,1,8,0:0:0:0:
256,192,306030,1,8,0:0:0:0:
256,192,306180,1,8,0:0:0:0:
256,192,306255,1,8,0:0:0:0:
256,192,306330,1,0,0:0:0:0:
256,192,306480,1,8,0:0:0:0:
256,192,306555,1,8,0:0:0:0:
256,192,306630,1,8,0:0:0:0:
256,192,306780,1,0,0:0:0:0:
256,192,306930,1,8,0:0:0:0:
256,192,307005,1,0,0:0:0:0:
256,192,307080,1,8,0:0:0:0:
256,192,307155,1,8,0:0:0:0:
256,192,307230,1,0,0:0:0:0:
256,192,307492,1,8,0:0:0:0:
256,192,307792,1,0,0:0:0:0:
256,192,307942,1,0,0:0:0:0:
256,192,308092,1,8,0:0:0:0:
256,192,308430,1,0,0:0:0:0:
256,192,308580,1,8,0:0:0:0:
256,192,308655,1,8,0:0:0:0:
256,192,308730,1,0,0:0:0:0:
256,192,308880,1,8,0:0:0:0:
256,192,308955,1,8,0:0:0:0:
256,192,309030,1,0,0:0:0:0:
256,192,309180,1,0,0:0:0:0:
256,192,309330,1,0,0:0:0:0:
256,192,309405,1,0,0:0:0:0:
256,192,309480,1,0,0:0:0:0:
256,192,309555,1,0,0:0:0:0:
256,192,309630,1,0,0:0:0:0:
256,192,309705,1,0,0:0:0:0:
256,192,309780,1,0,0:0:0:0:
256,192,309930,1,0,0:0:0:0:
256,192,310080,1,0,0:0:0:0:
256,192,310380,1,0,0:0:0:0:
256,192,310830,12,0,319230,0:0:0:0:
