osu file format v14

[General]
AudioFilename: audio.ogg
AudioLeadIn: 0
PreviewTime: 2161
Countdown: 0
SampleSet: Soft
StackLeniency: 0.7
Mode: 0
LetterboxInBreaks: 0
WidescreenStoryboard: 1

[Editor]
DistanceSpacing: 1.6
BeatDivisor: 4
GridSize: 4
TimelineZoom: 1

[Metadata]
Title:Re Ai 105C De Ni
TitleUnicode:热爱105°C的你
Artist:wase
ArtistUnicode:早稻叽
Creator:-Rei
Version:Super you!!
Source:
Tags:阿肆 a si ā sì rè ài 105 dù de nǐ 105度 105ど 105°C 105 Do Degree Celsius Chinese pop Japanese C-pop Cpop vtuber covered virtual youtuber バーチャル ユーチューバー super idol de Xiao Rong zao dao ji zǎo dào jī ハヤイネチー Hayainechi takekii takeki hanasaka yui nana abe usaha Kyuuchie Liyuu Rielle Aquivery Japanese Pop anime J-pop jpop idol Vtuber
BeatmapID:3667416
BeatmapSetID:1781793

[Difficulty]
HPDrainRate:5
CircleSize:4
OverallDifficulty:7
ApproachRate:8.5
SliderMultiplier:1.8
SliderTickRate:1

[Events]
//Background and Video events
0,0,"aaaaaaaaaadadadadad.jpg",0,0
//Break Periods
//Storyboard Layer 0 (Background)
//Storyboard Layer 1 (Fail)
//Storyboard Layer 2 (Pass)
//Storyboard Layer 3 (Foreground)
//Storyboard Layer 4 (Overlay)
//Storyboard Sound Samples

[TimingPoints]
1833,437.956204379562,4,2,1,60,1,0
2270,-166.666666666667,4,2,1,45,0,0
16723,-166.666666666667,4,2,2,50,0,0
17599,-125,4,2,1,50,0,0
31614,-125,4,2,1,50,0,0
45628,-100,4,2,1,70,0,1
87672,-100,4,2,1,60,0,0
98183,-400,4,2,1,60,0,0
99935,-100,4,2,2,55,0,0
101687,-133.333333333333,4,2,1,45,0,0
115701,-125,4,2,1,50,0,0
129716,-100,4,2,1,70,0,1
171760,-100,4,2,1,60,0,0
182270,-166.666666666667,4,2,1,45,0,0
184987,468.75,4,2,1,45,1,0
185924,468.75,4,2,1,60,1,0
192838,437.956204379562,4,2,1,45,1,0

[Colours]
Combo1 : 255,226,128
Combo2 : 201,155,227
Combo3 : 234,170,149
Combo4 : 224,158,201

[HitObjects]
97,233,2270,5,2,0:0:0:0:
21,193,2489,1,2,0:0:0:0:
156,172,2708,1,2,0:0:0:0:
34,110,2927,1,0,0:0:0:0:
118,96,3146,1,2,0:0:0:0:
2,197,3365,1,2,0:0:0:0:
176,168,3584,6,0,P|205:104|95:28,2,215.999993408203,2|0|2,0:0|0:0|0:0,0:0:0:0:
467,267,5774,5,2,0:0:0:0:
392,220,5993,1,2,0:0:0:0:
439,145,6212,1,2,0:0:0:0:
512,192,6431,1,0,0:0:0:0:
467,267,6650,2,0,L|403:245,1,53.9999983520508,2|0,0:0|0:0,0:0:0:0:
314,230,7088,6,0,P|285:166|395:90,2,215.999993408203,2|0|2,0:0|0:0|0:0,0:0:0:0:
48,351,9278,5,2,0:0:0:0:
127,312,9497,1,2,0:0:0:0:
11,271,9716,1,2,0:0:0:0:
88,232,9935,1,0,0:0:0:0:
52,354,10154,2,0,L|-13:338,1,53.9999983520508,2|0,0:0|0:0,0:0:0:0:
204,330,10592,6,0,P|255:309|269:243,1,107.999996704102,2|0,0:0|0:0,0:0:0:0:
232,189,11249,1,2,0:0:0:0:
88,232,11468,2,0,P|44:198|49:131,1,107.999996704102,2|0,0:0|0:0,0:0:0:0:
94,85,12124,1,0,0:0:0:0:
94,85,12343,5,2,0:0:0:0:
224,41,12781,1,0,0:0:0:0:
94,220,13219,1,2,0:0:0:0:
304,152,13657,1,2,0:0:0:0:
224,264,14095,1,2,0:0:0:0:
256,192,14314,12,0,16723,1:0:0:0:
492,322,17599,6,0,L|308:271,1,144,0|0,3:0|0:0,0:0:0:0:
266,307,18256,2,0,P|251:343|240:392,1,72,8|2,0:0|0:0,0:0:0:0:
485,245,18694,5,8,0:0:0:0:
485,245,18913,2,0,P|475:210|461:177,1,72,10|2,0:0|0:0,0:0:0:0:
290,59,19351,6,0,L|474:8,1,144,0|0,3:0|0:0,0:0:0:0:
512,116,20008,2,0,L|432:93,1,72,8|0,0:0|0:0,0:0:0:0:
197,26,20446,5,10,0:0:0:0:
197,26,20665,2,0,L|185:112,1,72,10|0,0:0|0:0,0:0:0:0:
313,301,21103,6,0,L|296:134,1,144,0|0,3:0|0:0,0:0:0:0:
290,59,21760,1,8,0:0:0:0:
212,178,21978,2,0,L|117:158,1,72,0|8,0:0|0:0,0:0:0:0:
388,244,22416,2,0,L|483:224,1,72,10|2,0:0|0:0,0:0:0:0:
121,384,22854,6,0,P|65:318|110:250,1,144,0|2,3:0|0:0,0:0:0:0:
310,244,23511,2,0,P|300:280|276:307,1,72,8|0,0:0|0:0,0:0:0:0:
199,301,23949,5,10,0:0:0:0:
185,299,24168,1,10,0:0:0:0:
171,297,24387,1,0,0:0:0:0:
391,384,24606,6,0,P|447:318|402:250,1,144,0|0,3:0|0:0,0:0:0:0:
310,244,25263,2,0,P|320:280|344:307,1,72,10|2,0:0|0:0,0:0:0:0:
512,187,25701,5,8,0:0:0:0:
430,146,25920,1,8,0:0:0:0:
437,236,26139,1,0,0:0:0:0:
510,90,26358,6,0,P|477:28|390:27,1,144,0|0,3:0|0:0,0:0:0:0:
339,122,27015,1,8,0:0:0:0:
282,39,27234,1,0,0:0:0:0:
339,136,27453,1,10,0:0:0:0:
398,41,27672,1,10,0:0:0:0:
339,152,27891,1,0,0:0:0:0:
179,121,28110,6,0,L|-5:70,1,144,0|0,3:0|0:0,0:0:0:0:
133,20,28767,1,8,0:0:0:0:
226,222,28986,2,0,P|298:196|321:112,1,144,2|10,0:0|0:0,0:0:0:0:
214,0,29862,5,2,0:0:0:0:
256,65,30081,1,2,0:0:0:0:
302,2,30300,1,2,0:0:0:0:
141,202,30738,6,0,L|-43:151,2,144,2|2|2,0:0|0:0|3:2,0:0:0:0:
311,163,32051,5,2,0:0:0:0:
371,222,32270,1,0,0:0:0:0:
315,287,32489,2,0,P|314:333|335:361,1,72,2|8,0:0|0:0,0:0:0:0:
409,380,32927,2,0,P|410:334|389:306,1,72,10|0,0:0|0:0,0:0:0:0:
240,353,33365,6,0,P|185:348|171:258,1,144,0|0,3:0|0:0,0:0:0:0:
241,112,34022,2,0,P|241:161|206:192,2,72,0|2|0,0:0|0:0|0:0,0:0:0:0:
140,49,34679,1,10,0:0:0:0:
316,260,35117,6,0,B|398:232|383:290|479:254,1,144,0|0,3:0|0:0,0:0:0:0:
488,190,35774,2,0,P|431:149|362:158,1,144,8|8,0:0|0:0,0:0:0:0:
269,188,36431,1,10,0:0:0:0:
217,114,36650,1,8,0:0:0:0:
261,42,36869,1,0,3:0:0:0:
206,340,37307,5,0,3:0:0:0:
191,261,37526,2,0,P|154:242|111:244,1,72,8|2,0:0|0:0,0:0:0:0:
51,279,37964,1,0,0:0:0:0:
200,246,38183,2,0,P|182:208|147:183,1,72,10|0,0:0|0:0,0:0:0:0:
289,354,38621,6,0,P|342:374|418:323,1,144,0|0,3:0|0:0,0:0:0:0:
383,241,39278,1,8,0:0:0:0:
411,147,39497,1,2,0:0:0:0:
301,265,39716,1,8,0:0:0:0:
470,250,39935,1,10,0:0:0:0:
342,103,40154,1,8,0:0:0:0:
274,177,40373,6,0,P|211:158|192:74,1,144,0|2,3:0|0:0,0:0:0:0:
254,9,41030,2,0,P|269:49|267:96,1,72,8|2,0:0|0:0,0:0:0:0:
120,165,41468,2,0,P|105:125|107:78,1,72,8|10,0:0|0:0,0:0:0:0:
170,19,41905,1,8,0:0:0:0:
222,205,42124,1,0,3:0:0:0:
256,192,42343,12,0,43657,0:0:0:0:
330,223,43876,5,8,0:0:0:0:
172,196,44205,1,8,0:0:0:0:
337,193,44533,1,8,0:0:0:0:
179,168,44862,1,2,0:0:0:0:
341,171,45190,1,8,0:0:0:0:
344,144,45299,1,8,0:0:0:0:
347,117,45408,1,8,0:0:0:0:
350,90,45518,1,8,0:0:0:0:
354,63,45628,6,0,P|430:63|440:173,1,180,12|8,0:0|0:0,0:0:0:0:
235,148,46285,1,0,3:2:0:0:
282,85,46504,2,0,P|287:31|270:-2,1,90,2|0,0:0|0:0,0:0:0:0:
151,136,46942,2,0,L|163:238,1,90,8|0,0:0|0:0,0:0:0:0:
31,77,47380,6,0,P|54:29|169:62,1,180,6|10,3:0|0:0,0:0:0:0:
151,136,48037,1,0,3:2:0:0:
61,172,48256,1,2,0:2:0:0:
236,113,48475,1,0,0:2:0:0:
201,290,48694,1,10,0:2:0:0:
176,214,48913,1,2,0:2:0:0:
339,315,49132,6,0,B|455:328|455:328|508:282,1,180,6|8,3:0|0:0,0:0:0:0:
335,199,49789,1,0,3:2:0:0:
410,242,50008,2,0,P|435:198|431:153,1,90,2|0,0:0|0:0,0:0:0:0:
429,1,50446,2,0,P|404:45|408:90,1,90,10|0,0:0|0:0,0:0:0:0:
258,248,50884,6,0,P|204:237|204:103,1,180,6|10,3:0|0:2,0:0:0:0:
275,115,51541,1,0,3:2:0:0:
88,163,51760,1,2,0:2:0:0:
151,2,51978,1,0,0:2:0:0:
88,163,52197,1,10,0:2:0:0:
174,97,52416,1,2,0:2:0:0:
158,329,52635,6,0,P|102:345|55:247,1,180,6|8,3:0|0:0,0:0:0:0:
146,243,53292,1,0,3:2:0:0:
241,331,53511,2,0,P|263:279|254:227,1,90,2|0,0:0|0:0,0:0:0:0:
174,97,53949,1,8,0:2:0:0:
203,178,54168,1,2,0:2:0:0:
354,149,54387,6,0,L|458:135,1,90,6|0,3:0|0:0,0:0:0:0:
491,73,54825,1,8,0:0:0:0:
284,116,55044,2,0,P|262:62|267:24,1,90,0|2,3:0|0:0,0:0:0:0:
344,57,55482,1,0,0:0:0:0:
244,185,55701,2,0,P|199:185|159:165,1,90,10|0,0:0|0:0,0:0:0:0:
336,278,56139,6,0,B|433:250|412:302|522:259,2,180,6|8|0,3:0|0:0|0:0,0:0:0:0:
228,363,57234,1,0,0:0:0:0:
228,363,57453,2,0,L|246:268,1,90,10|0,0:0|0:0,0:0:0:0:
284,116,57891,5,0,3:0:0:0:
157,224,58110,1,8,0:0:0:0:
196,67,58329,5,2,0:2:0:0:
236,259,58548,1,2,3:2:0:0:
379,156,58767,5,10,0:2:0:0:
250,188,58986,1,8,0:2:0:0:
223,175,59095,1,8,0:0:0:0:
196,162,59204,1,10,0:0:0:0:
340,251,59424,1,2,3:2:0:0:
414,44,59643,6,0,P|334:70|308:-10,1,180,4|10,2:0|0:0,0:0:0:0:
462,109,60300,1,2,3:2:0:0:
232,53,60519,2,0,P|193:53|141:103,1,90,2|0,0:0|0:0,0:0:0:0:
236,228,60957,2,0,L|258:139,1,90,10|0,0:0|0:0,0:0:0:0:
381,356,61395,6,0,P|300:284|342:250,1,180,6|10,3:0|0:0,0:0:0:0:
489,300,62051,1,0,3:2:0:0:
395,356,62270,1,2,0:2:0:0:
501,300,62489,1,0,0:2:0:0:
398,242,62708,1,10,0:2:0:0:
512,299,62927,1,2,0:2:0:0:
293,208,63146,6,0,P|218:223|173:317,1,180,6|10,3:0|2:0,2:2:0:0:
232,366,63803,1,0,3:2:0:0:
35,279,64022,2,0,L|54:378,1,90,2|0,2:0|2:0,2:2:0:0:
169,151,64460,2,0,L|188:52,1,90,10|0,2:0|2:0,2:2:0:0:
23,180,64898,6,0,B|121:198|79:235|196:246,1,180,6|10,3:0|0:0,0:0:0:0:
294,119,65555,1,0,3:2:0:0:
204,32,65774,1,2,0:2:0:0:
273,223,65993,1,0,0:2:0:0:
424,94,66212,1,10,0:2:0:0:
294,119,66431,1,2,0:2:0:0:
439,296,66650,6,0,P|461:218|383:195,1,180,6|10,3:0|0:0,0:0:0:0:
272,307,67307,1,0,3:2:0:0:
313,375,67526,2,0,L|430:358,1,90,2|0,0:0|0:0,0:0:0:0:
317,234,67964,1,10,0:2:0:0:
317,234,68183,1,2,0:2:0:0:
137,345,68402,6,0,P|90:317|82:254,1,90,6|0,3:0|0:0,0:0:0:0:
165,169,68840,1,10,0:0:0:0:
95,209,69059,2,0,L|-3:184,1,90,0|2,3:0|0:0,0:0:0:0:
166,78,69497,1,0,0:0:0:0:
244,124,69716,2,0,L|342:99,1,90,10|0,0:2|0:0,0:0:0:0:
482,25,70154,6,0,B|439:48|439:48|296:-9,2,180,6|8|0,3:0|0:0|0:0,0:0:0:0:
246,39,71249,1,2,3:2:0:0:
246,39,71468,2,0,L|162:71,1,90,10|0,0:0|0:0,0:0:0:0:
31,127,71905,5,0,3:0:0:0:
31,127,72124,1,8,0:0:0:0:
121,200,72343,5,10,0:2:0:0:
246,39,72562,1,2,3:2:0:0:
307,216,72781,5,10,0:2:0:0:
236,133,73000,1,8,0:2:0:0:
236,133,73110,1,8,0:0:0:0:
236,133,73219,1,10,0:0:0:0:
476,108,73438,1,2,3:2:0:0:
415,176,73657,6,0,B|379:175|357:155|357:155|350:88|397:37,1,180,12|10,2:0|0:0,0:0:0:0:
382,257,74314,1,0,3:2:0:0:
307,216,74533,2,0,P|284:203|200:187,1,90,2|0,0:0|0:0,0:0:0:0:
361,345,74971,2,0,P|404:336|445:316,1,90,10|0,0:0|0:0,0:0:0:0:
196,258,75409,6,0,P|164:322|255:380,1,180,6|10,3:0|0:0,0:0:0:0:
278,292,76066,1,0,3:2:0:0:
133,183,76285,1,2,0:2:0:0:
99,275,76504,1,0,0:2:0:0:
196,258,76723,1,10,0:2:0:0:
171,99,76942,1,0,0:2:0:0:
239,163,77161,6,0,P|292:156|286:41,1,180,6|10,3:0|0:0,0:0:0:0:
414,191,77818,1,0,3:2:0:0:
487,135,78037,2,0,L|509:28,1,90,2|0,0:0|0:0,0:0:0:0:
338,282,78475,2,0,L|316:175,1,90,10|0,0:0|0:0,0:0:0:0:
500,306,78913,6,0,B|402:324|444:361|327:372,1,180,6|10,3:0|0:2,0:0:0:0:
239,305,79570,1,0,3:2:0:0:
355,190,79789,1,2,0:2:0:0:
331,282,80008,1,0,0:2:0:0:
200,148,80227,1,10,0:2:0:0:
292,128,80446,1,0,0:2:0:0:
175,241,80665,6,0,P|104:238|98:139,1,180,6|10,3:0|0:0,0:0:0:0:
131,332,81322,1,0,3:2:0:0:
242,282,81541,2,0,P|274:279|335:299,1,90,2|0,0:2|0:0,0:0:0:0:
263,201,81978,1,10,0:2:0:0:
328,295,82197,1,2,0:2:0:0:
372,127,82416,6,0,L|361:19,1,90,6|0,3:0|0:0,0:0:0:0:
450,79,82854,1,8,0:0:0:0:
263,201,83073,2,0,P|229:167|226:109,1,90,0|2,3:0|0:0,0:0:0:0:
279,61,83511,1,0,0:0:0:0:
451,221,83730,2,0,P|485:187|488:129,1,90,10|0,0:0|0:0,0:0:0:0:
257,341,84168,6,0,P|223:307|220:249,1,90,6|0,3:0|0:0,0:0:0:0:
405,373,84606,2,0,P|383:297|287:274,1,180,10|2,0:0|0:0,0:0:0:0:
469,0,85482,2,0,P|419:61|322:44,1,180,10|0,0:0|3:0,0:0:0:0:
504,124,86139,5,8,0:0:0:0:
311,33,86358,1,10,0:0:0:0:
409,176,86577,1,0,3:0:0:0:
386,0,86796,5,10,0:0:0:0:
288,199,87015,1,8,0:0:0:0:
288,199,87124,1,8,0:0:0:0:
288,199,87234,1,10,0:0:0:0:
408,291,87453,1,0,3:0:0:0:
292,368,87672,6,0,P|198:277|70:300,1,270,10|0,0:0|3:0,0:0:0:0:
70,300,88767,1,8,0:0:0:0:
190,250,88986,1,8,0:0:0:0:
87,162,89205,1,8,0:0:0:0:
189,163,89424,6,0,P|217:123|178:-4,1,180,2|0,3:2|0:0,0:0:0:0:
253,105,90081,2,0,L|307:292,1,180,0|8,3:0|0:0,0:0:0:0:
340,371,90738,1,8,0:0:0:0:
127,210,91176,6,0,P|111:165|126:113,1,90,2|0,3:2|0:0,0:0:0:0:
231,72,91614,2,0,L|218:233,1,135,2|0,0:0|0:0,0:0:0:0:
303,257,92051,2,0,P|328:216|325:162,1,90,2|8,0:0|0:0,0:0:0:0:
225,293,92489,1,10,0:0:0:0:
363,330,92708,1,0,3:0:0:0:
297,192,92927,6,0,L|262:96,1,90,2|0,3:2|0:0,0:0:0:0:
416,90,93365,2,0,P|446:116|378:142,1,135,2|0,0:0|0:0,0:0:0:0:
341,77,93803,2,0,P|337:23|358:-14,1,90,2|0,0:0|0:0,0:0:0:0:
377,236,94241,2,0,P|381:290|360:327,1,90,10|0,0:0|3:0,0:0:0:0:
223,163,94679,6,0,L|26:147,1,180,2|0,3:2|0:0,0:0:0:0:
164,132,95336,2,0,P|208:101|134:37,1,180,0|8,3:0|0:0,0:0:0:0:
79,132,95993,2,0,P|88:179|128:215,1,90,8|8,0:0|0:0,0:0:0:0:
299,228,96431,6,0,B|390:195|383:254|491:204,1,180,2|8,3:2|0:0,0:0:0:0:
244,173,97088,2,0,P|223:219|236:272,1,90,0|0,3:0|0:0,0:0:0:0:
333,141,97526,1,8,0:0:0:0:
267,95,97745,2,0,P|216:99|177:137,1,90,8|0,0:0|0:0,0:0:0:0:
407,172,98183,6,0,P|472:167|490:57,1,180,2|0,3:2|1:0,0:0:0:0:
238,260,101687,6,0,P|172:269|113:239,1,135.000005149842,2|2,0:0|0:0,0:0:0:0:
122,154,102343,2,0,P|171:174|186:201,2,67.5000025749208,0|2|0,0:0|0:0|0:0,0:0:0:0:
35,181,103000,2,0,L|39:271,1,67.5000025749208,2|0,0:0|0:0,0:0:0:0:
68,106,103438,1,2,0:0:0:0:
363,305,104095,5,0,0:0:0:0:
363,305,104314,2,0,P|395:260|336:190,1,135.000005149842,2|2,0:0|0:0,0:0:0:0:
285,188,104971,1,0,0:0:0:0:
402,237,105190,6,0,P|381:185|290:197,1,135.000005149842,2|2,0:0|0:0,0:0:0:0:
239,221,105847,1,0,0:0:0:0:
186,161,106066,2,0,P|179:119|187:87,1,67.5000025749208,2|0,0:0|0:0,0:0:0:0:
265,39,106504,2,0,P|272:81|264:113,1,67.5000025749208,2|0,0:0|0:0,0:0:0:0:
135,30,106942,1,2,0:0:0:0:
131,295,108256,6,0,L|136:386,1,67.5000025749208,2|0,0:0|3:0,0:0:0:0:
207,263,108694,2,0,P|156:220|90:227,1,135.000005149842,2|2,3:2|0:0,0:0:0:0:
169,190,109351,1,0,0:0:0:0:
280,249,109570,2,0,L|369:240,1,67.5000025749208,2|0,0:0|0:0,0:0:0:0:
407,186,110008,2,0,P|380:168|347:163,1,67.5000025749208,2|0,0:0|3:0,0:0:0:0:
342,346,110446,6,0,P|381:362|417:273,1,135.000005149842,2|2,3:2|0:0,0:0:0:0:
377,220,111103,1,0,0:0:0:0:
419,135,111322,1,2,0:0:0:0:
375,57,111541,1,0,0:0:0:0:
419,135,111760,1,2,0:0:0:0:
503,112,111978,1,0,0:0:0:0:
322,151,112197,6,0,P|275:149|228:71,1,135.000005149842,2|2,3:2|0:0,0:0:0:0:
286,23,112854,1,0,0:0:0:0:
149,85,113073,2,0,P|104:77|78:59,1,67.5000025749208,2|0,0:0|0:0,0:0:0:0:
147,6,113511,2,0,P|192:14|218:32,1,67.5000025749208,2|0,0:0|0:0,0:0:0:0:
122,158,113949,2,0,P|77:150|51:132,1,67.5000025749208,2|0,0:0|0:0,0:0:0:0:
224,120,114387,1,2,0:0:0:0:
464,320,114825,6,0,P|434:263|479:219,2,135.000005149842,2|2|0,0:0|0:0|3:0,0:0:0:0:
263,231,116139,5,0,0:0:0:0:
195,287,116358,1,8,0:0:0:0:
284,317,116577,2,0,P|314:308|349:269,1,72,0|10,3:0|0:0,0:0:0:0:
184,138,117015,2,0,P|176:168|193:218,1,72,10|0,0:0|0:0,0:0:0:0:
393,160,117453,6,0,P|330:132|254:154,1,144,0|0,3:0|0:0,0:0:0:0:
274,224,118110,2,0,L|290:310,2,72,8|2|0,0:0|0:0|0:0,0:0:0:0:
243,75,118767,1,10,0:0:0:0:
98,235,119205,6,0,P|40:194|54:124,1,144,0|0,3:0|0:0,0:0:0:0:
176,171,119862,2,0,P|240:141|240:70,1,144,0|10,3:0|0:0,0:0:0:0:
166,47,120519,1,10,0:0:0:0:
353,107,120738,1,8,0:0:0:0:
206,247,120957,1,0,3:0:0:0:
498,323,121395,5,0,3:0:0:0:
374,369,121614,2,0,P|344:347|339:296,1,72,8|2,0:0|0:0,0:0:0:0:
411,290,122052,1,0,0:0:0:0:
360,374,122270,2,0,P|324:369|299:344,1,72,10|0,0:0|0:0,0:0:0:0:
444,212,122709,6,0,L|431:373,1,144,0|0,3:0|0:0,0:0:0:0:
339,266,123366,1,8,0:0:0:0:
368,163,123585,1,0,0:0:0:0:
444,212,123804,1,10,0:0:0:0:
358,249,124023,1,10,0:0:0:0:
296,107,124242,1,0,0:0:0:0:
201,242,124461,6,0,P|138:223|119:139,1,144,0|0,3:0|0:0,0:0:0:0:
217,82,125118,2,0,L|196:163,1,72,8|2,0:0|0:0,0:0:0:0:
18,263,125555,2,0,L|-3:182,1,72,8|10,0:0|0:0,0:0:0:0:
114,214,125993,1,0,0:0:0:0:
46,351,126212,1,0,3:0:0:0:
256,192,126431,12,0,127745,0:0:0:0:
182,223,127964,5,8,0:0:0:0:
340,196,128293,1,8,0:0:0:0:
175,193,128621,1,8,0:0:0:0:
333,168,128950,1,8,0:0:0:0:
171,171,129278,1,8,0:0:0:0:
168,144,129387,1,8,0:0:0:0:
165,117,129496,1,8,0:0:0:0:
162,90,129606,1,8,0:0:0:0:
158,63,129717,6,0,P|82:63|72:173,1,180,12|8,0:0|0:0,0:0:0:0:
120,337,130373,1,0,3:2:0:0:
101,261,130592,2,0,P|62:234|-9:218,1,90,2|0,0:0|0:0,0:0:0:0:
227,207,131030,2,0,P|261:178|308:156,1,90,10|0,0:0|0:0,0:0:0:0:
15,127,131468,6,0,P|90:145|119:64,1,180,6|10,3:0|0:0,0:0:0:0:
45,48,132125,1,0,3:2:0:0:
141,162,132344,1,2,0:2:0:0:
270,82,132563,1,0,0:2:0:0:
250,1,132782,1,10,0:2:0:0:
250,1,133001,1,2,0:2:0:0:
315,162,133220,6,0,B|290:193|255:184|255:184|221:116|286:66,1,180,6|8,3:0|0:0,0:0:0:0:
352,38,133877,1,0,3:2:0:0:
512,121,134096,2,0,P|468:109|417:107,1,90,2|0,0:0|0:0,0:0:0:0:
200,185,134533,2,0,P|247:171|295:171,1,90,10|0,0:0|0:0,0:0:0:0:
194,339,134972,6,0,P|140:328|140:194,1,180,6|10,3:0|0:2,0:0:0:0:
268,138,135629,1,0,3:2:0:0:
232,259,135848,1,2,0:2:0:0:
363,121,136066,1,0,3:2:0:0:
337,225,136285,1,10,0:2:0:0:
261,158,136504,1,2,0:2:0:0:
421,205,136723,6,0,P|496:169|464:83,1,180,6|8,3:0|0:0,0:0:0:0:
437,287,137380,1,0,3:2:0:0:
336,227,137599,2,0,P|308:218|239:230,1,90,2|0,0:0|0:0,0:0:0:0:
266,333,138037,1,8,0:2:0:0:
355,309,138256,1,2,0:2:0:0:
139,358,138475,6,0,P|177:318|175:268,1,90,6|0,3:0|0:0,0:0:0:0:
151,193,138913,1,8,0:0:0:0:
84,270,139132,2,0,L|30:186,1,90,0|2,3:0|0:0,0:0:0:0:
122,92,139570,1,0,0:0:0:0:
222,133,139789,2,0,L|237:38,1,90,10|0,0:0|0:0,0:0:0:0:
284,265,140227,6,0,P|360:280|383:184,2,180,6|8|0,3:0|0:0|0:0,0:0:0:0:
305,181,141322,1,0,0:0:0:0:
199,298,141541,2,0,P|194:258|210:209,1,90,10|0,0:0|0:0,0:0:0:0:
393,190,141979,5,0,3:0:0:0:
191,108,142198,1,8,0:0:0:0:
332,97,142417,5,2,0:2:0:0:
142,25,142636,1,2,3:2:0:0:
294,22,142854,5,10,0:2:0:0:
242,188,143074,1,8,0:2:0:0:
242,188,143183,1,8,0:0:0:0:
242,188,143292,1,10,0:0:0:0:
219,0,143512,1,2,3:2:0:0:
154,182,143730,6,0,L|180:371,1,180,4|10,2:0|0:0,0:0:0:0:
83,239,144387,1,2,3:2:0:0:
241,268,144606,2,0,P|246:214|221:178,1,90,2|0,0:0|0:0,0:0:0:0:
61,167,145044,2,0,L|50:271,1,90,10|0,0:0|0:0,0:0:0:0:
266,189,145482,6,0,L|277:85,1,90,6|0,3:0|0:0,0:0:0:0:
119,28,145920,1,10,0:0:0:0:
119,28,146139,1,0,3:2:0:0:
179,147,146358,1,2,0:2:0:0:
325,94,146577,1,0,0:2:0:0:
225,54,146796,1,10,0:2:0:0:
291,195,147015,1,2,0:2:0:0:
512,42,147234,6,0,P|464:36|427:147,1,180,6|10,3:0|2:0,2:2:0:0:
349,337,147891,1,0,3:2:0:0:
405,282,148110,2,0,P|394:226|367:199,1,90,2|0,2:0|2:0,2:2:0:0:
175,254,148548,2,0,P|176:311|198:342,1,90,10|0,2:0|2:0,2:2:0:0:
272,199,148986,6,0,B|260:67|260:67|203:7,1,180,6|10,3:0|0:0,0:0:0:0:
164,115,149643,1,0,3:2:0:0:
327,107,149862,2,0,P|335:61|321:19,1,90,2|0,0:2|0:2,0:0:0:0:
245,68,150300,1,10,0:2:0:0:
408,9,150519,1,2,0:2:0:0:
256,279,150738,6,0,P|302:287|338:161,1,180,6|10,3:0|0:0,0:0:0:0:
251,187,151395,1,0,3:2:0:0:
424,290,151614,2,0,P|442:250|441:205,1,90,2|0,0:0|0:0,0:0:0:0:
322,291,152051,2,0,L|346:394,1,90,10|2,0:2|0:2,0:0:0:0:
152,202,152489,6,0,L|176:305,1,90,6|0,3:0|0:0,0:0:0:0:
289,165,152927,1,10,0:0:0:0:
98,133,153146,2,0,L|122:236,1,90,0|0,3:0|0:0,0:0:0:0:
242,79,153584,1,0,0:0:0:0:
58,98,153803,2,0,L|82:201,1,90,10|0,0:2|0:0,0:0:0:0:
318,132,154241,6,0,B|386:119|386:119|426:139|426:139|501:149,1,180,6|8,3:0|0:0,0:0:0:0:
306,217,154898,2,0,P|220:228|168:160,1,180,0|2,0:0|3:2,0:0:0:0:
256,51,155555,2,0,P|272:92|263:135,1,90,10|0,0:0|0:0,0:0:0:0:
96,247,155993,5,0,3:0:0:0:
261,215,156212,1,8,0:0:0:0:
167,192,156431,5,10,0:2:0:0:
359,227,156650,1,2,3:2:0:0:
267,197,156869,5,10,0:2:0:0:
424,289,157088,1,8,0:2:0:0:
438,322,157197,1,8,0:0:0:0:
432,358,157307,1,10,0:0:0:0:
494,231,157526,5,2,3:2:0:0:
288,358,157745,2,0,P|208:354|168:248,1,180,12|10,2:0|0:0,0:0:0:0:
255,231,158402,1,0,3:2:0:0:
80,259,158621,2,0,P|27:252|-4:226,1,90,2|0,0:0|0:0,0:0:0:0:
26,135,159059,2,0,P|79:142|110:168,1,90,10|0,0:0|0:0,0:0:0:0:
255,281,159497,6,0,L|287:87,1,180,6|10,3:0|0:0,0:0:0:0:
274,0,160154,1,0,3:2:0:0:
190,172,160373,1,2,0:2:0:0:
382,151,160592,1,0,0:2:0:0:
190,172,160811,1,10,0:2:0:0:
276,103,161030,1,0,0:2:0:0:
129,290,161249,6,0,B|-5:259|-5:259|56:235,1,180,6|10,3:0|0:0,0:0:0:0:
86,361,161905,1,0,3:2:0:0:
131,210,162124,2,0,P|131:160|101:115,1,90,2|0,0:0|0:0,0:0:0:0:
212,270,162562,2,0,P|247:234|257:181,1,90,10|0,0:0|0:0,0:0:0:0:
224,21,163000,6,0,P|266:94|349:80,1,180,6|10,3:0|0:2,0:0:0:0:
499,147,163657,1,0,3:2:0:0:
444,32,163876,5,2,0:2:0:0:
401,195,164095,1,0,0:2:0:0:
339,52,164314,5,10,0:2:0:0:
307,235,164533,1,0,0:2:0:0:
146,157,164752,6,0,B|79:126|79:126|115:245,1,180,6|10,3:0|0:0,0:0:0:0:
229,132,165409,1,0,3:2:0:0:
192,367,165628,2,0,P|232:335|198:214,1,180,2|10,0:2|0:2,0:0:0:0:
131,307,166285,1,2,0:2:0:0:
308,358,166504,6,0,B|382:346|382:346|422:361|422:361|499:346,1,180,6|8,3:0|0:0,0:0:0:0:
375,205,167161,1,0,3:0:0:0:
293,262,167380,2,0,P|241:251|212:226,1,90,2|0,0:0|0:0,0:0:0:0:
292,81,167818,2,0,P|344:92|373:117,1,90,10|0,0:0|0:0,0:0:0:0:
179,162,168256,6,0,B|71:113|93:195|-25:141,1,180,6|10,3:0|0:0,0:0:0:0:
50,84,168913,1,0,3:0:0:0:
278,146,169132,2,0,P|298:95|282:50,1,90,2|0,0:0|0:0,0:0:0:0:
185,6,169570,2,0,P|181:60|210:98,1,90,10|0,0:0|0:0,0:0:0:0:
224,311,170008,5,0,3:0:0:0:
389,172,170227,1,8,0:0:0:0:
336,225,170446,1,10,0:0:0:0:
260,209,170665,1,0,3:0:0:0:
415,314,170884,5,10,0:0:0:0:
353,102,171103,1,8,0:0:0:0:
346,86,171212,1,8,0:0:0:0:
340,71,171322,1,10,0:0:0:0:
476,148,171541,1,0,3:0:0:0:
320,301,171760,6,0,P|195:260|223:138,1,270,12|0,0:0|3:0,0:0:0:0:
213,145,172855,1,8,0:0:0:0:
332,57,173074,1,8,0:0:0:0:
302,141,173293,1,8,0:0:0:0:
173,18,173512,6,0,P|144:96|228:142,1,180,2|0,3:2|0:0,0:0:0:0:
298,226,174169,2,0,B|222:194|172:268|172:268|194:257|224:262,1,180,0|10,3:0|0:0,0:0:0:0:
113,210,174826,1,10,0:0:0:0:
113,210,175264,6,0,L|1:234,1,90,0|0,3:0|0:0,0:0:0:0:
194,185,175702,2,0,L|34:148,1,135,2|0,0:0|0:0,0:0:0:0:
25,154,176139,2,0,P|0:113|3:59,1,90,2|8,0:0|0:0,0:0:0:0:
178,24,176577,1,10,0:0:0:0:
160,98,176796,1,0,3:0:0:0:
313,210,177015,6,0,P|304:155|303:109,1,90,2|0,3:2|0:0,0:0:0:0:
467,8,177453,2,0,L|427:173,1,135,2|0,0:0|0:0,0:0:0:0:
480,216,177891,2,0,P|518:172|480:156,1,90,2|0,0:0|0:0,0:0:0:0:
313,210,178329,2,0,P|351:244|376:221,1,90,10|0,0:0|3:0,0:0:0:0:
211,98,178767,6,0,L|237:315,1,180,2|0,3:2|0:0,0:0:0:0:
130,384,179424,2,0,P|78:303|4:264,1,180,2|10,3:2|0:0,0:0:0:0:
48,188,180081,2,0,P|85:214|140:237,1,90,10|8,0:0|0:0,0:0:0:0:
303,210,180519,6,0,P|244:204|219:304,1,180,2|8,3:2|0:0,0:0:0:0:
363,353,181176,2,0,L|391:244,1,90,0|0,3:0|0:0,0:0:0:0:
376,181,181614,5,10,0:0:0:0:
455,313,181833,2,0,L|481:204,1,90,10|0,0:0|0:0,0:0:0:0:
276,334,182270,6,0,L|157:311,1,107.999996704102,0|2,3:0|0:0,0:0:0:0:
61,293,183146,1,2,0:0:0:0:
264,254,183584,1,2,0:0:0:0:
0,200,184022,1,2,0:0:0:0:
285,144,184460,1,2,0:0:0:0:
22,91,184987,5,2,0:0:0:0:
224,51,185455,5,2,0:0:0:0:
115,30,185924,5,2,0:0:0:0:
