osu file format v14

[General]
AudioFilename: audio.ogg
AudioLeadIn: 0
PreviewTime: 90349
Countdown: 0
SampleSet: Soft
StackLeniency: 0.7
Mode: 3
LetterboxInBreaks: 0
SpecialStyle: 0
WidescreenStoryboard: 1

[Editor]
Bookmarks: 25383,30151,39687,52402,65118,66794,77920
DistanceSpacing: 0.85
BeatDivisor: 4
GridSize: 32
TimelineZoom: 1.3

[Metadata]
Title:NightTheater
TitleUnicode:NightTheater
Artist:*wakadori
ArtistUnicode:わかどり
Creator:Lam-
Version:Normal Rehearsal
Source:THE BMS OF FIGHTERS XVI -NEO DYSTOPIA-
Tags:SEGA CHUNITHM NEW PLUS WACCA Reserve ワッカ Marvelous Sixtar Gate Startrail チュウニズムニュー BEST MUSIC SELECTION 2 VARIETY SOUNDTRACK BOFXVI Muse Dash Give Up TREATMENT 音ゲー依存症 Vol.10 Jazz-Funk Jazz Funk Saxophone Trumpet Blues Electronic Instrumental Night Theater ウオウオ UOUO by-ad
BeatmapID:3339376
BeatmapSetID:1636208

[Difficulty]
HPDrainRate:7
CircleSize:6
OverallDifficulty:7
ApproachRate:5
SliderMultiplier:1.4
SliderTickRate:1

[Events]
//Background and Video events
0,0,"2741451.jpg",0,0
//Break Periods
//Storyboard Layer 0 (Background)
//Storyboard Layer 1 (Fail)
//Storyboard Layer 2 (Pass)
//Storyboard Layer 3 (Foreground)
//Storyboard Layer 4 (Overlay)
//Storyboard Sound Samples

[TimingPoints]
1542,397.350993377483,4,2,1,55,1,0
39687,-100,4,2,1,55,0,1
52402,-100,4,2,1,55,0,0
90548,-100,4,2,1,55,0,1
119157,-100,4,2,1,55,0,0

[HitObjects]
469,192,1542,5,0,0:0:0:0:
298,192,1542,1,0,0:0:0:0:
469,192,1840,1,0,0:0:0:0:
42,192,2038,1,0,0:0:0:0:
213,192,2138,1,0,0:0:0:0:
384,192,2237,128,0,2535:0:0:0:0:
298,192,2535,1,0,0:0:0:0:
469,192,2833,128,0,3131:0:0:0:0:
42,192,3131,1,0,0:0:0:0:
42,192,3429,1,0,0:0:0:0:
469,192,3628,1,0,0:0:0:0:
298,192,3727,1,0,0:0:0:0:
128,192,3826,128,0,4124:0:0:0:0:
213,192,4124,1,0,0:0:0:0:
42,192,4422,1,0,0:0:0:0:
298,192,4522,1,0,0:0:0:0:
213,192,4621,1,0,0:0:0:0:
469,192,4720,1,0,0:0:0:0:
469,192,5018,1,0,0:0:0:0:
298,192,5217,1,0,0:0:0:0:
42,192,5316,1,0,0:0:0:0:
128,192,5416,128,0,5714:0:0:0:0:
469,192,5714,1,0,0:0:0:0:
213,192,6012,128,0,6310:0:0:0:0:
42,192,6310,1,0,0:0:0:0:
42,192,6608,1,0,0:0:0:0:
298,192,6906,5,0,0:0:0:0:
469,192,7005,128,0,7303:0:0:0:0:
213,192,7303,1,0,0:0:0:0:
298,192,7601,1,0,0:0:0:0:
42,192,7700,1,0,0:0:0:0:
213,192,7800,1,0,0:0:0:0:
384,192,7899,128,0,8197:0:0:0:0:
469,192,8197,1,0,0:0:0:0:
128,192,8396,1,0,0:0:0:0:
298,192,8495,1,0,0:0:0:0:
469,192,8594,128,0,8892:0:0:0:0:
42,192,8892,1,0,0:0:0:0:
213,192,9091,1,0,0:0:0:0:
384,192,9191,128,0,9489:0:0:0:0:
213,192,9489,128,0,9787:0:0:0:0:
42,192,9787,1,0,0:0:0:0:
469,192,9985,1,0,0:0:0:0:
298,192,10085,1,0,0:0:0:0:
128,192,10184,128,0,10482:0:0:0:0:
213,192,10482,1,0,0:0:0:0:
42,192,10780,1,0,0:0:0:0:
298,192,10879,1,0,0:0:0:0:
213,192,10979,1,0,0:0:0:0:
469,192,11078,128,0,11376:0:0:0:0:
298,192,11376,1,0,0:0:0:0:
42,192,11575,1,0,0:0:0:0:
213,192,11674,1,0,0:0:0:0:
384,192,11773,128,0,12071:0:0:0:0:
128,192,12071,1,0,0:0:0:0:
42,192,12270,1,0,0:0:0:0:
298,192,12369,128,0,12667:0:0:0:0:
128,192,12667,128,0,12965:0:0:0:0:
384,192,12965,1,0,0:0:0:0:
469,192,13363,128,0,13661:0:0:0:0:
298,192,13661,1,0,0:0:0:0:
213,192,13859,1,0,0:0:0:0:
128,192,13959,1,0,0:0:0:0:
42,192,14058,128,0,14257:0:0:0:0:
298,192,14257,1,0,0:0:0:0:
469,192,14257,1,0,0:0:0:0:
213,192,14555,1,0,0:0:0:0:
298,192,14555,1,0,0:0:0:0:
42,192,14654,1,0,0:0:0:0:
384,192,14952,1,0,0:0:0:0:
128,192,14952,1,0,0:0:0:0:
469,192,15250,1,0,0:0:0:0:
213,192,15250,1,0,0:0:0:0:
42,192,15449,1,0,0:0:0:0:
384,192,15548,128,0,15846:0:0:0:0:
213,192,15846,1,0,0:0:0:0:
128,192,15846,1,0,0:0:0:0:
213,192,16144,1,0,0:0:0:0:
384,192,16243,1,0,0:0:0:0:
469,192,16243,1,0,0:0:0:0:
298,192,16541,1,0,0:0:0:0:
213,192,16541,1,0,0:0:0:0:
128,192,16840,1,0,0:0:0:0:
42,192,16840,1,0,0:0:0:0:
384,192,17138,1,0,0:0:0:0:
213,192,17237,1,0,0:0:0:0:
42,192,17336,1,0,0:0:0:0:
298,192,17436,1,0,0:0:0:0:
469,192,17436,1,0,0:0:0:0:
213,192,17734,1,0,0:0:0:0:
298,192,17734,1,0,0:0:0:0:
469,192,17833,1,0,0:0:0:0:
128,192,18131,1,0,0:0:0:0:
384,192,18131,1,0,0:0:0:0:
42,192,18429,1,0,0:0:0:0:
298,192,18429,1,0,0:0:0:0:
469,192,18628,1,0,0:0:0:0:
128,192,18727,128,0,19025:0:0:0:0:
213,192,19025,1,0,0:0:0:0:
298,192,19025,1,0,0:0:0:0:
298,192,19323,1,0,0:0:0:0:
42,192,19422,1,0,0:0:0:0:
128,192,19422,1,0,0:0:0:0:
213,192,19720,1,0,0:0:0:0:
469,192,19720,1,0,0:0:0:0:
384,192,20018,1,0,0:0:0:0:
298,192,20018,1,0,0:0:0:0:
469,192,20316,1,0,0:0:0:0:
384,192,20416,1,0,0:0:0:0:
298,192,20515,1,0,0:0:0:0:
213,192,20614,1,0,0:0:0:0:
42,192,20614,1,0,0:0:0:0:
213,192,20813,1,0,0:0:0:0:
384,192,21012,1,0,0:0:0:0:
128,192,21012,1,0,0:0:0:0:
128,192,21210,1,0,0:0:0:0:
469,192,21409,1,0,0:0:0:0:
298,192,21409,1,0,0:0:0:0:
298,192,21608,1,0,0:0:0:0:
384,192,21806,1,0,0:0:0:0:
128,192,21806,1,0,0:0:0:0:
384,192,22005,1,0,0:0:0:0:
42,192,22204,1,0,0:0:0:0:
213,192,22204,1,0,0:0:0:0:
42,192,22402,1,0,0:0:0:0:
298,192,22601,1,0,0:0:0:0:
469,192,22601,1,0,0:0:0:0:
469,192,22800,1,0,0:0:0:0:
128,192,22998,1,0,0:0:0:0:
213,192,22998,1,0,0:0:0:0:
213,192,23197,1,0,0:0:0:0:
384,192,23396,1,0,0:0:0:0:
298,192,23396,1,0,0:0:0:0:
298,192,23594,1,0,0:0:0:0:
469,192,23793,1,0,0:0:0:0:
42,192,23793,1,0,0:0:0:0:
128,192,23892,1,0,0:0:0:0:
213,192,23992,1,0,0:0:0:0:
469,192,24191,1,0,0:0:0:0:
384,192,24290,1,0,0:0:0:0:
298,192,24389,1,0,0:0:0:0:
213,192,24588,1,0,0:0:0:0:
128,192,24687,1,0,0:0:0:0:
42,192,24787,1,0,0:0:0:0:
298,192,24985,1,0,0:0:0:0:
384,192,25085,1,0,0:0:0:0:
469,192,25184,1,0,0:0:0:0:
213,192,25383,1,0,0:0:0:0:
42,192,25482,1,0,0:0:0:0:
213,192,25681,1,0,0:0:0:0:
384,192,25879,1,0,0:0:0:0:
128,192,26078,1,0,0:0:0:0:
298,192,26277,1,0,0:0:0:0:
469,192,26475,128,0,26674:0:0:0:0:
384,192,26674,1,0,0:0:0:0:
298,192,26773,1,0,0:0:0:0:
213,192,26873,1,0,0:0:0:0:
128,192,26972,1,0,0:0:0:0:
42,192,26972,1,0,0:0:0:0:
128,192,27369,1,0,0:0:0:0:
469,192,27369,128,0,27767:0:0:0:0:
298,192,27369,1,0,0:0:0:0:
384,192,27767,1,0,0:0:0:0:
213,192,27866,1,0,0:0:0:0:
128,192,27965,1,0,0:0:0:0:
42,192,28065,1,0,0:0:0:0:
213,192,28263,1,0,0:0:0:0:
298,192,28363,1,0,0:0:0:0:
469,192,28561,1,0,0:0:0:0:
384,192,28661,1,0,0:0:0:0:
298,192,28760,1,0,0:0:0:0:
128,192,28959,1,0,0:0:0:0:
213,192,29157,1,0,0:0:0:0:
42,192,29356,1,0,0:0:0:0:
384,192,29455,1,0,0:0:0:0:
128,192,29555,1,0,0:0:0:0:
469,192,29654,1,0,0:0:0:0:
298,192,29853,1,0,0:0:0:0:
213,192,29952,1,0,0:0:0:0:
128,192,30051,1,0,0:0:0:0:
298,192,30349,1,0,0:0:0:0:
128,192,30548,1,0,0:0:0:0:
384,192,30647,1,0,0:0:0:0:
213,192,30846,1,0,0:0:0:0:
128,192,30945,1,0,0:0:0:0:
42,192,31045,1,0,0:0:0:0:
298,192,31243,1,0,0:0:0:0:
469,192,31442,1,0,0:0:0:0:
384,192,31541,1,0,0:0:0:0:
298,192,31641,1,0,0:0:0:0:
213,192,31740,1,0,0:0:0:0:
213,192,31939,1,0,0:0:0:0:
128,192,32138,1,0,0:0:0:0:
128,192,32336,1,0,0:0:0:0:
298,192,32535,1,0,0:0:0:0:
42,192,32634,1,0,0:0:0:0:
42,192,32833,1,0,0:0:0:0:
213,192,33032,1,0,0:0:0:0:
298,192,33131,1,0,0:0:0:0:
384,192,33230,1,0,0:0:0:0:
469,192,33528,1,0,0:0:0:0:
298,192,33727,1,0,0:0:0:0:
213,192,33926,1,0,0:0:0:0:
128,192,34124,1,0,0:0:0:0:
469,192,34224,1,0,0:0:0:0:
298,192,34323,1,0,0:0:0:0:
213,192,34422,1,0,0:0:0:0:
42,192,34522,1,0,0:0:0:0:
128,192,34621,1,0,0:0:0:0:
298,192,34820,1,0,0:0:0:0:
384,192,34919,1,0,0:0:0:0:
213,192,35018,1,0,0:0:0:0:
128,192,35118,1,0,0:0:0:0:
469,192,35316,1,0,0:0:0:0:
298,192,35416,1,0,0:0:0:0:
298,192,35614,1,0,0:0:0:0:
384,192,35813,1,0,0:0:0:0:
298,192,35912,1,0,0:0:0:0:
213,192,36012,1,0,0:0:0:0:
42,192,36210,1,0,0:0:0:0:
298,192,36409,1,0,0:0:0:0:
128,192,36707,1,0,0:0:0:0:
384,192,36906,1,0,0:0:0:0:
42,192,37005,1,0,0:0:0:0:
213,192,37204,1,0,0:0:0:0:
298,192,37402,1,0,0:0:0:0:
469,192,37601,1,0,0:0:0:0:
298,192,37899,1,0,0:0:0:0:
384,192,37998,1,0,0:0:0:0:
469,192,38098,1,0,0:0:0:0:
213,192,38296,1,0,0:0:0:0:
384,192,38495,1,0,0:0:0:0:
128,192,38594,1,0,0:0:0:0:
298,192,38793,1,0,0:0:0:0:
42,192,38992,1,0,0:0:0:0:
128,192,39091,1,0,0:0:0:0:
213,192,39191,1,0,0:0:0:0:
469,192,39290,1,0,0:0:0:0:
384,192,39489,1,0,0:0:0:0:
298,192,39588,1,0,0:0:0:0:
42,192,39687,1,0,0:0:0:0:
213,192,39687,1,0,0:0:0:0:
469,192,40085,128,0,40283:0:0:0:0:
128,192,40283,1,0,0:0:0:0:
384,192,40383,1,0,0:0:0:0:
298,192,40482,1,0,0:0:0:0:
213,192,40581,1,0,0:0:0:0:
42,192,40780,1,0,0:0:0:0:
384,192,40979,1,0,0:0:0:0:
128,192,41078,1,0,0:0:0:0:
298,192,41277,1,0,0:0:0:0:
384,192,41475,1,0,0:0:0:0:
128,192,41575,1,0,0:0:0:0:
469,192,41674,1,0,0:0:0:0:
42,192,41873,1,0,0:0:0:0:
298,192,41972,1,0,0:0:0:0:
213,192,42071,1,0,0:0:0:0:
469,192,42171,1,0,0:0:0:0:
384,192,42369,1,0,0:0:0:0:
213,192,42568,1,0,0:0:0:0:
128,192,42667,1,0,0:0:0:0:
42,192,42767,1,0,0:0:0:0:
298,192,43065,1,0,0:0:0:0:
298,192,43263,1,0,0:0:0:0:
213,192,43462,1,0,0:0:0:0:
384,192,43561,1,0,0:0:0:0:
128,192,43661,1,0,0:0:0:0:
298,192,43760,1,0,0:0:0:0:
469,192,43959,1,0,0:0:0:0:
42,192,44257,1,0,0:0:0:0:
213,192,44356,1,0,0:0:0:0:
384,192,44455,1,0,0:0:0:0:
384,192,44654,1,0,0:0:0:0:
128,192,44853,1,0,0:0:0:0:
128,192,45051,1,0,0:0:0:0:
384,192,45250,1,0,0:0:0:0:
213,192,45349,1,0,0:0:0:0:
213,192,45548,1,0,0:0:0:0:
42,192,45747,1,0,0:0:0:0:
298,192,45846,1,0,0:0:0:0:
469,192,45945,1,0,0:0:0:0:
384,192,46243,128,0,46442:0:0:0:0:
42,192,46442,128,0,46641:0:0:0:0:
298,192,46641,1,0,0:0:0:0:
213,192,46740,1,0,0:0:0:0:
128,192,46840,1,0,0:0:0:0:
384,192,46939,1,0,0:0:0:0:
213,192,47138,1,0,0:0:0:0:
298,192,47336,1,0,0:0:0:0:
128,192,47436,1,0,0:0:0:0:
213,192,47535,1,0,0:0:0:0:
384,192,47634,1,0,0:0:0:0:
469,192,47734,1,0,0:0:0:0:
298,192,47932,1,0,0:0:0:0:
213,192,48131,1,0,0:0:0:0:
42,192,48330,1,0,0:0:0:0:
469,192,48528,1,0,0:0:0:0:
298,192,48628,1,0,0:0:0:0:
128,192,48727,1,0,0:0:0:0:
384,192,48926,1,0,0:0:0:0:
213,192,49025,1,0,0:0:0:0:
42,192,49124,1,0,0:0:0:0:
298,192,49422,1,0,0:0:0:0:
213,192,49621,1,0,0:0:0:0:
298,192,49720,1,0,0:0:0:0:
42,192,49820,1,0,0:0:0:0:
469,192,49919,1,0,0:0:0:0:
384,192,50118,1,0,0:0:0:0:
42,192,50316,1,0,0:0:0:0:
298,192,50416,1,0,0:0:0:0:
384,192,50614,1,0,0:0:0:0:
213,192,50714,1,0,0:0:0:0:
469,192,50813,1,0,0:0:0:0:
298,192,51012,1,0,0:0:0:0:
128,192,51210,1,0,0:0:0:0:
384,192,51310,1,0,0:0:0:0:
42,192,51508,1,0,0:0:0:0:
298,192,51707,1,0,0:0:0:0:
128,192,51806,1,0,0:0:0:0:
384,192,51906,1,0,0:0:0:0:
469,192,52104,1,0,0:0:0:0:
298,192,52204,1,0,0:0:0:0:
213,192,52303,1,0,0:0:0:0:
128,192,52402,128,0,53992:0:0:0:0:
42,192,52402,128,0,53992:0:0:0:0:
298,192,53992,1,0,0:0:0:0:
469,192,53992,1,0,0:0:0:0:
298,192,54290,1,0,0:0:0:0:
469,192,54389,1,0,0:0:0:0:
213,192,54687,1,0,0:0:0:0:
213,192,54985,1,0,0:0:0:0:
42,192,55184,1,0,0:0:0:0:
128,192,55283,1,0,0:0:0:0:
384,192,55581,1,0,0:0:0:0:
384,192,55879,1,0,0:0:0:0:
298,192,55979,1,0,0:0:0:0:
128,192,56277,1,0,0:0:0:0:
128,192,56575,1,0,0:0:0:0:
213,192,56773,1,0,0:0:0:0:
384,192,56873,1,0,0:0:0:0:
42,192,57171,1,0,0:0:0:0:
42,192,57469,1,0,0:0:0:0:
213,192,57568,1,0,0:0:0:0:
469,192,57866,1,0,0:0:0:0:
469,192,58164,1,0,0:0:0:0:
298,192,58363,1,0,0:0:0:0:
213,192,58462,1,0,0:0:0:0:
384,192,58760,5,0,0:0:0:0:
128,192,58760,1,0,0:0:0:0:
298,192,59058,1,0,0:0:0:0:
42,192,59257,1,0,0:0:0:0:
213,192,59455,1,0,0:0:0:0:
42,192,59753,1,0,0:0:0:0:
298,192,59753,1,0,0:0:0:0:
384,192,60051,1,0,0:0:0:0:
128,192,60051,1,0,0:0:0:0:
469,192,60349,1,0,0:0:0:0:
213,192,60349,1,0,0:0:0:0:
128,192,60647,1,0,0:0:0:0:
469,192,60846,1,0,0:0:0:0:
298,192,61045,1,0,0:0:0:0:
469,192,61343,1,0,0:0:0:0:
213,192,61343,1,0,0:0:0:0:
128,192,61641,1,0,0:0:0:0:
384,192,61641,1,0,0:0:0:0:
42,192,61939,1,0,0:0:0:0:
298,192,61939,1,0,0:0:0:0:
213,192,62237,1,0,0:0:0:0:
384,192,62436,1,0,0:0:0:0:
128,192,62634,1,0,0:0:0:0:
298,192,62734,1,0,0:0:0:0:
469,192,62734,1,0,0:0:0:0:
42,192,62932,1,0,0:0:0:0:
298,192,63131,1,0,0:0:0:0:
213,192,63429,1,0,0:0:0:0:
469,192,63528,1,0,0:0:0:0:
128,192,63528,1,0,0:0:0:0:
42,192,63826,1,0,0:0:0:0:
384,192,63826,1,0,0:0:0:0:
469,192,64124,128,0,65118:0:0:0:0:
298,192,64124,128,0,65118:0:0:0:0:
42,192,64522,1,0,0:0:0:0:
128,192,64720,1,0,0:0:0:0:
213,192,64919,1,0,0:0:0:0:
384,192,65118,1,0,0:0:0:0:
42,192,65118,128,0,65714:0:0:0:0:
213,192,65714,1,0,0:0:0:0:
384,192,65912,1,0,0:0:0:0:
469,192,65912,1,0,0:0:0:0:
298,192,66210,1,0,0:0:0:0:
213,192,66210,1,0,0:0:0:0:
128,192,66508,1,0,0:0:0:0:
42,192,66508,1,0,0:0:0:0:
298,192,66707,128,0,67303:0:0:0:0:
384,192,66707,1,0,0:0:0:0:
213,192,67303,1,0,0:0:0:0:
128,192,67402,1,0,0:0:0:0:
42,192,67502,1,0,0:0:0:0:
469,192,67502,1,0,0:0:0:0:
384,192,67700,1,0,0:0:0:0:
42,192,67899,1,0,0:0:0:0:
298,192,67899,1,0,0:0:0:0:
128,192,68098,1,0,0:0:0:0:
213,192,68296,1,0,0:0:0:0:
384,192,68296,128,0,69091:0:0:0:0:
213,192,69091,1,0,0:0:0:0:
42,192,69091,1,0,0:0:0:0:
469,192,69389,1,0,0:0:0:0:
298,192,69389,1,0,0:0:0:0:
384,192,69687,1,0,0:0:0:0:
213,192,69687,1,0,0:0:0:0:
128,192,69886,128,0,70482:0:0:0:0:
42,192,69886,1,0,0:0:0:0:
213,192,70482,1,0,0:0:0:0:
298,192,70581,1,0,0:0:0:0:
469,192,70681,1,0,0:0:0:0:
384,192,70681,1,0,0:0:0:0:
128,192,70879,1,0,0:0:0:0:
213,192,71078,1,0,0:0:0:0:
298,192,71078,1,0,0:0:0:0:
42,192,71277,1,0,0:0:0:0:
128,192,71475,1,0,0:0:0:0:
213,192,71475,128,0,72071:0:0:0:0:
384,192,72071,1,0,0:0:0:0:
469,192,72071,1,0,0:0:0:0:
128,192,72270,1,0,0:0:0:0:
42,192,72270,1,0,0:0:0:0:
213,192,72568,1,0,0:0:0:0:
128,192,72568,1,0,0:0:0:0:
213,192,72866,1,0,0:0:0:0:
298,192,72866,1,0,0:0:0:0:
469,192,73065,1,0,0:0:0:0:
42,192,73065,1,0,0:0:0:0:
384,192,73363,1,0,0:0:0:0:
128,192,73363,1,0,0:0:0:0:
213,192,73661,1,0,0:0:0:0:
384,192,73859,1,0,0:0:0:0:
42,192,73859,1,0,0:0:0:0:
298,192,74058,1,0,0:0:0:0:
128,192,74257,1,0,0:0:0:0:
469,192,74257,1,0,0:0:0:0:
213,192,74455,1,0,0:0:0:0:
384,192,74654,1,0,0:0:0:0:
42,192,74654,128,0,75250:0:0:0:0:
298,192,75250,1,0,0:0:0:0:
469,192,75250,1,0,0:0:0:0:
384,192,75449,1,0,0:0:0:0:
128,192,75449,1,0,0:0:0:0:
298,192,75747,1,0,0:0:0:0:
42,192,75747,1,0,0:0:0:0:
213,192,76045,1,0,0:0:0:0:
128,192,76045,1,0,0:0:0:0:
469,192,76243,1,0,0:0:0:0:
384,192,76243,128,0,77038:0:0:0:0:
128,192,77038,1,0,0:0:0:0:
42,192,77038,1,0,0:0:0:0:
298,192,77237,1,0,0:0:0:0:
213,192,77436,128,0,77833:0:0:0:0:
384,192,77833,1,0,0:0:0:0:
469,192,77833,128,0,78429:0:0:0:0:
42,192,77833,1,0,0:0:0:0:
213,192,78230,1,0,0:0:0:0:
298,192,78429,1,0,0:0:0:0:
128,192,78628,1,0,0:0:0:0:
42,192,78628,1,0,0:0:0:0:
213,192,78926,1,0,0:0:0:0:
298,192,78926,1,0,0:0:0:0:
42,192,79025,1,0,0:0:0:0:
384,192,79224,1,0,0:0:0:0:
469,192,79224,1,0,0:0:0:0:
213,192,79422,128,0,80018:0:0:0:0:
128,192,79422,1,0,0:0:0:0:
469,192,79820,1,0,0:0:0:0:
298,192,80018,1,0,0:0:0:0:
384,192,80118,1,0,0:0:0:0:
469,192,80217,1,0,0:0:0:0:
42,192,80217,1,0,0:0:0:0:
128,192,80416,1,0,0:0:0:0:
469,192,80614,1,0,0:0:0:0:
213,192,80614,1,0,0:0:0:0:
384,192,80813,1,0,0:0:0:0:
298,192,81012,1,0,0:0:0:0:
128,192,81012,128,0,81806:0:0:0:0:
384,192,81409,1,0,0:0:0:0:
298,192,81806,1,0,0:0:0:0:
469,192,81806,1,0,0:0:0:0:
42,192,82104,1,0,0:0:0:0:
213,192,82104,1,0,0:0:0:0:
469,192,82204,1,0,0:0:0:0:
128,192,82402,1,0,0:0:0:0:
298,192,82402,1,0,0:0:0:0:
384,192,82601,128,0,83197:0:0:0:0:
42,192,82601,1,0,0:0:0:0:
128,192,82998,1,0,0:0:0:0:
298,192,83197,1,0,0:0:0:0:
213,192,83296,1,0,0:0:0:0:
469,192,83396,1,0,0:0:0:0:
42,192,83396,1,0,0:0:0:0:
384,192,83594,1,0,0:0:0:0:
298,192,83793,1,0,0:0:0:0:
42,192,83793,1,0,0:0:0:0:
42,192,83992,1,0,0:0:0:0:
128,192,84191,1,0,0:0:0:0:
384,192,84191,1,0,0:0:0:0:
469,192,84191,1,0,0:0:0:0:
213,192,84389,1,0,0:0:0:0:
298,192,84588,1,0,0:0:0:0:
384,192,84588,1,0,0:0:0:0:
469,192,84787,1,0,0:0:0:0:
42,192,84985,1,0,0:0:0:0:
128,192,84985,1,0,0:0:0:0:
469,192,85184,1,0,0:0:0:0:
384,192,85184,1,0,0:0:0:0:
213,192,85482,1,0,0:0:0:0:
128,192,85482,1,0,0:0:0:0:
298,192,85780,1,0,0:0:0:0:
384,192,85780,1,0,0:0:0:0:
213,192,85979,1,0,0:0:0:0:
128,192,86177,1,0,0:0:0:0:
42,192,86177,1,0,0:0:0:0:
384,192,86376,1,0,0:0:0:0:
298,192,86475,1,0,0:0:0:0:
213,192,86575,1,0,0:0:0:0:
128,192,86575,1,0,0:0:0:0:
384,192,86773,1,0,0:0:0:0:
469,192,86773,1,0,0:0:0:0:
42,192,87071,1,0,0:0:0:0:
128,192,87071,1,0,0:0:0:0:
469,192,87369,1,0,0:0:0:0:
298,192,87369,1,0,0:0:0:0:
469,192,87568,1,0,0:0:0:0:
213,192,87767,1,0,0:0:0:0:
384,192,87767,1,0,0:0:0:0:
384,192,87965,1,0,0:0:0:0:
213,192,88164,1,0,0:0:0:0:
42,192,88164,1,0,0:0:0:0:
42,192,88363,1,0,0:0:0:0:
128,192,88561,1,0,0:0:0:0:
298,192,88561,1,0,0:0:0:0:
128,192,88760,1,0,0:0:0:0:
298,192,88959,1,0,0:0:0:0:
469,192,88959,1,0,0:0:0:0:
213,192,89257,1,0,0:0:0:0:
384,192,89257,1,0,0:0:0:0:
42,192,89555,128,0,90151:0:0:0:0:
128,192,89555,128,0,90151:0:0:0:0:
469,192,90151,1,0,0:0:0:0:
384,192,90151,1,0,0:0:0:0:
213,192,90349,1,0,0:0:0:0:
298,192,90449,1,0,0:0:0:0:
384,192,90548,1,0,0:0:0:0:
42,192,90548,1,0,0:0:0:0:
128,192,90548,1,0,0:0:0:0:
298,192,90747,1,0,0:0:0:0:
42,192,90945,1,0,0:0:0:0:
213,192,91045,1,0,0:0:0:0:
469,192,91243,1,0,0:0:0:0:
469,192,91442,1,0,0:0:0:0:
384,192,91541,1,0,0:0:0:0:
298,192,91641,1,0,0:0:0:0:
42,192,91840,1,0,0:0:0:0:
128,192,91939,1,0,0:0:0:0:
213,192,92038,1,0,0:0:0:0:
298,192,92138,1,0,0:0:0:0:
469,192,92138,1,0,0:0:0:0:
384,192,92336,1,0,0:0:0:0:
213,192,92535,1,0,0:0:0:0:
298,192,92634,1,0,0:0:0:0:
42,192,92833,1,0,0:0:0:0:
42,192,93032,1,0,0:0:0:0:
128,192,93131,1,0,0:0:0:0:
298,192,93230,1,0,0:0:0:0:
384,192,93330,1,0,0:0:0:0:
213,192,93528,1,0,0:0:0:0:
384,192,93628,1,0,0:0:0:0:
469,192,93727,1,0,0:0:0:0:
42,192,93727,1,0,0:0:0:0:
213,192,93926,1,0,0:0:0:0:
298,192,94124,1,0,0:0:0:0:
384,192,94224,1,0,0:0:0:0:
42,192,94422,1,0,0:0:0:0:
213,192,94621,1,0,0:0:0:0:
128,192,94720,1,0,0:0:0:0:
469,192,94919,1,0,0:0:0:0:
298,192,95118,1,0,0:0:0:0:
128,192,95316,1,0,0:0:0:0:
42,192,95316,1,0,0:0:0:0:
213,192,95515,1,0,0:0:0:0:
298,192,95714,1,0,0:0:0:0:
469,192,95813,1,0,0:0:0:0:
384,192,96012,1,0,0:0:0:0:
298,192,96210,1,0,0:0:0:0:
213,192,96310,1,0,0:0:0:0:
42,192,96409,1,0,0:0:0:0:
128,192,96608,1,0,0:0:0:0:
469,192,96906,1,0,0:0:0:0:
298,192,96906,1,0,0:0:0:0:
42,192,97104,1,0,0:0:0:0:
213,192,97303,1,0,0:0:0:0:
298,192,97402,1,0,0:0:0:0:
469,192,97601,1,0,0:0:0:0:
469,192,97800,1,0,0:0:0:0:
298,192,97899,1,0,0:0:0:0:
128,192,97998,1,0,0:0:0:0:
213,192,98197,1,0,0:0:0:0:
298,192,98296,1,0,0:0:0:0:
384,192,98396,1,0,0:0:0:0:
469,192,98495,1,0,0:0:0:0:
42,192,98495,1,0,0:0:0:0:
298,192,98694,1,0,0:0:0:0:
384,192,98892,1,0,0:0:0:0:
213,192,98992,1,0,0:0:0:0:
42,192,99191,1,0,0:0:0:0:
384,192,99389,1,0,0:0:0:0:
298,192,99489,1,0,0:0:0:0:
213,192,99588,1,0,0:0:0:0:
128,192,99687,1,0,0:0:0:0:
469,192,99886,1,0,0:0:0:0:
298,192,99985,1,0,0:0:0:0:
384,192,100085,1,0,0:0:0:0:
128,192,100085,1,0,0:0:0:0:
42,192,100283,1,0,0:0:0:0:
213,192,100482,1,0,0:0:0:0:
469,192,100581,1,0,0:0:0:0:
384,192,100780,1,0,0:0:0:0:
42,192,100979,1,0,0:0:0:0:
298,192,101078,1,0,0:0:0:0:
213,192,101277,1,0,0:0:0:0:
128,192,101475,1,0,0:0:0:0:
42,192,101674,1,0,0:0:0:0:
469,192,101674,1,0,0:0:0:0:
128,192,101873,1,0,0:0:0:0:
384,192,102071,1,0,0:0:0:0:
213,192,102171,1,0,0:0:0:0:
298,192,102469,1,0,0:0:0:0:
42,192,102469,1,0,0:0:0:0:
469,192,102767,1,0,0:0:0:0:
213,192,102866,1,0,0:0:0:0:
42,192,103065,1,0,0:0:0:0:
213,192,103263,1,0,0:0:0:0:
469,192,103263,1,0,0:0:0:0:
128,192,103363,1,0,0:0:0:0:
384,192,103462,1,0,0:0:0:0:
42,192,103561,1,0,0:0:0:0:
298,192,103760,1,0,0:0:0:0:
213,192,103959,1,0,0:0:0:0:
213,192,104157,1,0,0:0:0:0:
42,192,104257,1,0,0:0:0:0:
469,192,104455,1,0,0:0:0:0:
298,192,104654,1,0,0:0:0:0:
469,192,104753,1,0,0:0:0:0:
42,192,104853,1,0,0:0:0:0:
128,192,104952,1,0,0:0:0:0:
213,192,105151,1,0,0:0:0:0:
384,192,105349,1,0,0:0:0:0:
298,192,105449,1,0,0:0:0:0:
213,192,105548,1,0,0:0:0:0:
128,192,105647,1,0,0:0:0:0:
469,192,105647,1,0,0:0:0:0:
298,192,105945,1,0,0:0:0:0:
42,192,106144,1,0,0:0:0:0:
128,192,106243,1,0,0:0:0:0:
213,192,106343,1,0,0:0:0:0:
469,192,106442,1,0,0:0:0:0:
298,192,106442,1,0,0:0:0:0:
128,192,106740,1,0,0:0:0:0:
42,192,107038,1,0,0:0:0:0:
213,192,107138,1,0,0:0:0:0:
469,192,107237,1,0,0:0:0:0:
384,192,107237,1,0,0:0:0:0:
42,192,107535,1,0,0:0:0:0:
128,192,107833,1,0,0:0:0:0:
213,192,107932,1,0,0:0:0:0:
298,192,108032,1,0,0:0:0:0:
384,192,108032,1,0,0:0:0:0:
128,192,108330,1,0,0:0:0:0:
298,192,108528,1,0,0:0:0:0:
469,192,108727,1,0,0:0:0:0:
213,192,108926,1,0,0:0:0:0:
384,192,109124,1,0,0:0:0:0:
298,192,109323,1,0,0:0:0:0:
42,192,109422,1,0,0:0:0:0:
128,192,109522,1,0,0:0:0:0:
213,192,109621,128,0,110217:0:0:0:0:
384,192,109621,1,0,0:0:0:0:
384,192,110217,1,0,0:0:0:0:
128,192,110316,1,0,0:0:0:0:
469,192,110416,1,0,0:0:0:0:
213,192,110515,1,0,0:0:0:0:
298,192,110714,1,0,0:0:0:0:
213,192,110912,1,0,0:0:0:0:
42,192,111012,1,0,0:0:0:0:
469,192,111111,1,0,0:0:0:0:
298,192,111210,1,0,0:0:0:0:
128,192,111210,128,0,111707:0:0:0:0:
213,192,111707,1,0,0:0:0:0:
298,192,111806,1,0,0:0:0:0:
384,192,111906,1,0,0:0:0:0:
42,192,112005,1,0,0:0:0:0:
469,192,112005,1,0,0:0:0:0:
384,192,112303,1,0,0:0:0:0:
213,192,112502,1,0,0:0:0:0:
42,192,112700,1,0,0:0:0:0:
298,192,112800,1,0,0:0:0:0:
469,192,112800,128,0,113197:0:0:0:0:
128,192,113197,1,0,0:0:0:0:
213,192,113396,1,0,0:0:0:0:
42,192,113594,1,0,0:0:0:0:
384,192,113594,1,0,0:0:0:0:
298,192,113892,1,0,0:0:0:0:
42,192,114091,1,0,0:0:0:0:
213,192,114290,1,0,0:0:0:0:
384,192,114389,1,0,0:0:0:0:
469,192,114389,1,0,0:0:0:0:
298,192,114687,1,0,0:0:0:0:
469,192,114787,1,0,0:0:0:0:
384,192,114787,1,0,0:0:0:0:
213,192,114985,1,0,0:0:0:0:
128,192,115184,1,0,0:0:0:0:
42,192,115184,1,0,0:0:0:0:
128,192,115581,1,0,0:0:0:0:
42,192,115581,1,0,0:0:0:0:
298,192,115780,1,0,0:0:0:0:
384,192,115979,128,0,116376:0:0:0:0:
213,192,115979,1,0,0:0:0:0:
42,192,116376,1,0,0:0:0:0:
213,192,116575,1,0,0:0:0:0:
128,192,116773,1,0,0:0:0:0:
298,192,116773,1,0,0:0:0:0:
469,192,116873,1,0,0:0:0:0:
42,192,117071,1,0,0:0:0:0:
213,192,117270,1,0,0:0:0:0:
298,192,117469,1,0,0:0:0:0:
384,192,117568,1,0,0:0:0:0:
469,192,117568,1,0,0:0:0:0:
384,192,117866,1,0,0:0:0:0:
469,192,117866,1,0,0:0:0:0:
42,192,118164,128,0,119157:0:0:0:0:
128,192,118164,128,0,119157:0:0:0:0:
384,192,119157,1,0,0:0:0:0:
298,192,119157,1,0,0:0:0:0:
