osu file format v14

[General]
AudioFilename: audio.ogg
AudioLeadIn: 0
PreviewTime: 90349
Countdown: 0
SampleSet: Soft
StackLeniency: 0.7
Mode: 3
LetterboxInBreaks: 0
SpecialStyle: 0
WidescreenStoryboard: 0

[Editor]
Bookmarks: 66794,77920
DistanceSpacing: 0.85
BeatDivisor: 4
GridSize: 32
TimelineZoom: 0.6999999

[Metadata]
Title:NightTheater
TitleUnicode:NightTheater
Artist:*wakadori
ArtistUnicode:わかどり
Creator:Lam-
Version:Beginner Reservation
Source:THE BMS OF FIGHTERS XVI -NEO DYSTOPIA-
Tags:SEGA CHUNITHM NEW PLUS WACCA Reserve ワッカ Marvelous Sixtar Gate Startrail チュウニズムニュー BEST MUSIC SELECTION 2 VARIETY SOUNDTRACK BOFXVI Muse Dash Give Up TREATMENT 音ゲー依存症 Vol.10 Jazz-Funk Jazz Funk Saxophone Trumpet Blues Electronic Instrumental Night Theater ウオウオ UOUO by-ad
BeatmapID:3339374
BeatmapSetID:1636208

[Difficulty]
HPDrainRate:6.5
CircleSize:6
OverallDifficulty:6.5
ApproachRate:5
SliderMultiplier:1.4
SliderTickRate:1

[Events]
//Background and Video events
0,0,"2741451.jpg",0,0
//Break Periods
//Storyboard Layer 0 (Background)
//Storyboard Layer 1 (Fail)
//Storyboard Layer 2 (Pass)
//Storyboard Layer 3 (Foreground)
//Storyboard Layer 4 (Overlay)
//Storyboard Sound Samples

[TimingPoints]
1542,397.350993377483,4,2,1,55,1,0
39687,-100,4,2,1,55,0,1
52402,-100,4,2,1,55,0,0
90548,-100,4,2,1,55,0,1
119157,-100,4,2,1,55,0,0

[HitObjects]
213,192,1542,128,0,1840:0:0:0:0:
384,192,1840,1,0,0:0:0:0:
128,192,2237,128,0,2535:0:0:0:0:
298,192,2535,1,0,0:0:0:0:
42,192,2833,128,0,3131:0:0:0:0:
469,192,3131,128,0,3429:0:0:0:0:
213,192,3429,1,0,0:0:0:0:
384,192,3826,128,0,4124:0:0:0:0:
128,192,4124,1,0,0:0:0:0:
298,192,4422,1,0,0:0:0:0:
213,192,4720,128,0,5018:0:0:0:0:
42,192,5018,1,0,0:0:0:0:
298,192,5416,128,0,5714:0:0:0:0:
128,192,5714,1,0,0:0:0:0:
469,192,6012,128,0,6310:0:0:0:0:
42,192,6310,128,0,6608:0:0:0:0:
298,192,6608,1,0,0:0:0:0:
384,192,7005,128,0,7303:0:0:0:0:
128,192,7303,1,0,0:0:0:0:
213,192,7601,1,0,0:0:0:0:
298,192,7899,5,0,0:0:0:0:
42,192,8296,1,0,0:0:0:0:
298,192,8694,1,0,0:0:0:0:
42,192,9091,1,0,0:0:0:0:
384,192,9489,1,0,0:0:0:0:
128,192,9886,1,0,0:0:0:0:
384,192,10283,1,0,0:0:0:0:
128,192,10681,1,0,0:0:0:0:
469,192,11078,1,0,0:0:0:0:
213,192,11475,1,0,0:0:0:0:
469,192,11873,1,0,0:0:0:0:
213,192,12270,1,0,0:0:0:0:
42,192,12667,128,0,14257:0:0:0:0:
128,192,13462,128,0,14257:0:0:0:0:
298,192,14257,1,0,0:0:0:0:
213,192,14257,1,0,0:0:0:0:
469,192,14654,1,0,0:0:0:0:
298,192,15051,1,0,0:0:0:0:
469,192,15449,1,0,0:0:0:0:
213,192,15846,1,0,0:0:0:0:
384,192,16243,1,0,0:0:0:0:
213,192,16641,1,0,0:0:0:0:
384,192,17038,1,0,0:0:0:0:
128,192,17436,1,0,0:0:0:0:
298,192,17833,1,0,0:0:0:0:
128,192,18230,1,0,0:0:0:0:
298,192,18628,1,0,0:0:0:0:
42,192,19025,1,0,0:0:0:0:
213,192,19422,1,0,0:0:0:0:
42,192,19820,1,0,0:0:0:0:
213,192,20217,1,0,0:0:0:0:
384,192,20614,1,0,0:0:0:0:
469,192,20614,1,0,0:0:0:0:
213,192,20813,1,0,0:0:0:0:
42,192,21012,1,0,0:0:0:0:
298,192,21409,1,0,0:0:0:0:
128,192,21608,1,0,0:0:0:0:
469,192,21806,1,0,0:0:0:0:
384,192,22204,1,0,0:0:0:0:
213,192,22402,1,0,0:0:0:0:
42,192,22601,1,0,0:0:0:0:
469,192,22998,1,0,0:0:0:0:
298,192,23197,1,0,0:0:0:0:
128,192,23396,1,0,0:0:0:0:
42,192,23793,1,0,0:0:0:0:
128,192,23992,1,0,0:0:0:0:
213,192,24191,1,0,0:0:0:0:
298,192,24389,1,0,0:0:0:0:
469,192,24588,128,0,25383:0:0:0:0:
384,192,24985,128,0,25383:0:0:0:0:
42,192,25383,128,0,25681:0:0:0:0:
213,192,25681,1,0,0:0:0:0:
298,192,25879,1,0,0:0:0:0:
213,192,26078,128,0,26376:0:0:0:0:
469,192,26376,1,0,0:0:0:0:
42,192,26575,1,0,0:0:0:0:
298,192,26972,1,0,0:0:0:0:
469,192,27369,1,0,0:0:0:0:
42,192,27369,1,0,0:0:0:0:
213,192,27767,128,0,28164:0:0:0:0:
298,192,28164,1,0,0:0:0:0:
469,192,28164,1,0,0:0:0:0:
128,192,28561,128,0,28959:0:0:0:0:
213,192,28959,1,0,0:0:0:0:
384,192,28959,1,0,0:0:0:0:
42,192,29356,128,0,29753:0:0:0:0:
128,192,29753,1,0,0:0:0:0:
298,192,29753,1,0,0:0:0:0:
384,192,30151,128,0,30548:0:0:0:0:
213,192,30548,1,0,0:0:0:0:
42,192,30548,1,0,0:0:0:0:
469,192,30945,128,0,31343:0:0:0:0:
298,192,31343,1,0,0:0:0:0:
128,192,31343,1,0,0:0:0:0:
42,192,31740,128,0,32138:0:0:0:0:
384,192,32138,1,0,0:0:0:0:
213,192,32138,1,0,0:0:0:0:
128,192,32535,128,0,32932:0:0:0:0:
469,192,32932,1,0,0:0:0:0:
298,192,32932,1,0,0:0:0:0:
213,192,33330,128,0,33727:0:0:0:0:
128,192,33727,1,0,0:0:0:0:
42,192,33727,1,0,0:0:0:0:
298,192,34124,128,0,34522:0:0:0:0:
213,192,34522,1,0,0:0:0:0:
128,192,34522,1,0,0:0:0:0:
384,192,34919,128,0,35316:0:0:0:0:
213,192,35316,1,0,0:0:0:0:
298,192,35316,1,0,0:0:0:0:
469,192,35714,128,0,36111:0:0:0:0:
298,192,36111,1,0,0:0:0:0:
384,192,36111,1,0,0:0:0:0:
42,192,36508,128,0,36906:0:0:0:0:
128,192,36906,1,0,0:0:0:0:
213,192,36906,1,0,0:0:0:0:
298,192,37303,128,0,37700:0:0:0:0:
42,192,37700,1,0,0:0:0:0:
469,192,37700,1,0,0:0:0:0:
213,192,38098,128,0,38495:0:0:0:0:
384,192,38495,1,0,0:0:0:0:
469,192,38495,1,0,0:0:0:0:
128,192,38892,128,0,39290:0:0:0:0:
384,192,39290,1,0,0:0:0:0:
298,192,39290,1,0,0:0:0:0:
42,192,39687,1,0,0:0:0:0:
213,192,39687,1,0,0:0:0:0:
469,192,40085,1,0,0:0:0:0:
298,192,40085,1,0,0:0:0:0:
213,192,40283,1,0,0:0:0:0:
128,192,40482,1,0,0:0:0:0:
42,192,40879,1,0,0:0:0:0:
213,192,40879,1,0,0:0:0:0:
298,192,41078,1,0,0:0:0:0:
384,192,41277,1,0,0:0:0:0:
469,192,41674,1,0,0:0:0:0:
213,192,41674,1,0,0:0:0:0:
128,192,41873,1,0,0:0:0:0:
384,192,42071,1,0,0:0:0:0:
42,192,42469,1,0,0:0:0:0:
298,192,42469,1,0,0:0:0:0:
384,192,42667,1,0,0:0:0:0:
128,192,42866,1,0,0:0:0:0:
213,192,43263,1,0,0:0:0:0:
469,192,43263,1,0,0:0:0:0:
42,192,43462,1,0,0:0:0:0:
384,192,43661,1,0,0:0:0:0:
298,192,44058,1,0,0:0:0:0:
42,192,44058,1,0,0:0:0:0:
469,192,44257,1,0,0:0:0:0:
128,192,44455,1,0,0:0:0:0:
298,192,44853,1,0,0:0:0:0:
213,192,44853,1,0,0:0:0:0:
384,192,45051,1,0,0:0:0:0:
42,192,45250,1,0,0:0:0:0:
213,192,45647,1,0,0:0:0:0:
298,192,45647,1,0,0:0:0:0:
128,192,45846,1,0,0:0:0:0:
469,192,46045,1,0,0:0:0:0:
128,192,46442,1,0,0:0:0:0:
298,192,46442,1,0,0:0:0:0:
384,192,46641,1,0,0:0:0:0:
469,192,46840,1,0,0:0:0:0:
384,192,47237,1,0,0:0:0:0:
213,192,47237,1,0,0:0:0:0:
128,192,47436,1,0,0:0:0:0:
42,192,47634,1,0,0:0:0:0:
213,192,48032,1,0,0:0:0:0:
469,192,48032,1,0,0:0:0:0:
298,192,48230,1,0,0:0:0:0:
384,192,48429,1,0,0:0:0:0:
42,192,48826,1,0,0:0:0:0:
298,192,48826,1,0,0:0:0:0:
213,192,49025,1,0,0:0:0:0:
128,192,49224,1,0,0:0:0:0:
213,192,49621,1,0,0:0:0:0:
469,192,49621,1,0,0:0:0:0:
384,192,49820,1,0,0:0:0:0:
298,192,50018,1,0,0:0:0:0:
42,192,50416,1,0,0:0:0:0:
469,192,50416,1,0,0:0:0:0:
128,192,50614,1,0,0:0:0:0:
213,192,50813,1,0,0:0:0:0:
384,192,51210,1,0,0:0:0:0:
128,192,51210,1,0,0:0:0:0:
298,192,51409,1,0,0:0:0:0:
213,192,51608,1,0,0:0:0:0:
384,192,52005,1,0,0:0:0:0:
128,192,52005,1,0,0:0:0:0:
213,192,52204,1,0,0:0:0:0:
42,192,52402,128,0,53992:0:0:0:0:
298,192,52402,1,0,0:0:0:0:
384,192,52800,1,0,0:0:0:0:
384,192,53594,1,0,0:0:0:0:
298,192,53992,1,0,0:0:0:0:
469,192,54389,1,0,0:0:0:0:
42,192,54389,1,0,0:0:0:0:
469,192,55184,1,0,0:0:0:0:
42,192,55184,1,0,0:0:0:0:
384,192,55979,1,0,0:0:0:0:
128,192,55979,1,0,0:0:0:0:
384,192,56773,1,0,0:0:0:0:
128,192,56773,1,0,0:0:0:0:
213,192,57568,5,0,0:0:0:0:
298,192,57568,1,0,0:0:0:0:
213,192,58363,1,0,0:0:0:0:
298,192,58363,1,0,0:0:0:0:
469,192,58760,5,0,0:0:0:0:
42,192,58760,1,0,0:0:0:0:
298,192,59753,1,0,0:0:0:0:
213,192,60051,1,0,0:0:0:0:
384,192,60349,1,0,0:0:0:0:
128,192,60349,1,0,0:0:0:0:
128,192,61343,1,0,0:0:0:0:
213,192,61641,1,0,0:0:0:0:
384,192,61939,1,0,0:0:0:0:
298,192,61939,1,0,0:0:0:0:
213,192,62734,1,0,0:0:0:0:
128,192,62734,1,0,0:0:0:0:
298,192,63528,1,0,0:0:0:0:
213,192,63826,1,0,0:0:0:0:
42,192,64124,1,0,0:0:0:0:
469,192,64124,1,0,0:0:0:0:
128,192,64522,1,0,0:0:0:0:
384,192,64720,1,0,0:0:0:0:
213,192,64919,1,0,0:0:0:0:
469,192,65118,1,0,0:0:0:0:
42,192,65118,1,0,0:0:0:0:
298,192,65714,1,0,0:0:0:0:
469,192,65912,1,0,0:0:0:0:
42,192,66210,1,0,0:0:0:0:
213,192,66508,1,0,0:0:0:0:
384,192,66707,1,0,0:0:0:0:
128,192,67303,128,0,67700:0:0:0:0:
298,192,67700,1,0,0:0:0:0:
384,192,67899,1,0,0:0:0:0:
469,192,68098,1,0,0:0:0:0:
213,192,68296,1,0,0:0:0:0:
128,192,69091,1,0,0:0:0:0:
469,192,69389,1,0,0:0:0:0:
298,192,69687,1,0,0:0:0:0:
42,192,69886,1,0,0:0:0:0:
384,192,70482,128,0,70879:0:0:0:0:
298,192,70879,1,0,0:0:0:0:
213,192,71078,1,0,0:0:0:0:
128,192,71277,1,0,0:0:0:0:
42,192,71475,1,0,0:0:0:0:
298,192,72071,1,0,0:0:0:0:
469,192,72270,1,0,0:0:0:0:
128,192,72568,1,0,0:0:0:0:
384,192,72866,1,0,0:0:0:0:
213,192,73065,1,0,0:0:0:0:
42,192,73363,1,0,0:0:0:0:
298,192,73661,1,0,0:0:0:0:
469,192,73859,1,0,0:0:0:0:
128,192,74058,128,0,74455:0:0:0:0:
213,192,74455,1,0,0:0:0:0:
384,192,74654,1,0,0:0:0:0:
128,192,75250,1,0,0:0:0:0:
298,192,75449,1,0,0:0:0:0:
469,192,75747,1,0,0:0:0:0:
213,192,76045,1,0,0:0:0:0:
42,192,76243,1,0,0:0:0:0:
128,192,76840,1,0,0:0:0:0:
469,192,77038,128,0,77833:0:0:0:0:
213,192,77436,128,0,77833:0:0:0:0:
298,192,77833,1,0,0:0:0:0:
42,192,77833,1,0,0:0:0:0:
213,192,78429,1,0,0:0:0:0:
469,192,78628,1,0,0:0:0:0:
42,192,78926,1,0,0:0:0:0:
213,192,79224,1,0,0:0:0:0:
384,192,79422,1,0,0:0:0:0:
128,192,80018,128,0,80416:0:0:0:0:
298,192,80416,1,0,0:0:0:0:
469,192,80614,1,0,0:0:0:0:
213,192,80813,1,0,0:0:0:0:
384,192,81012,1,0,0:0:0:0:
42,192,81806,1,0,0:0:0:0:
469,192,82104,1,0,0:0:0:0:
298,192,82402,1,0,0:0:0:0:
213,192,82601,1,0,0:0:0:0:
384,192,83197,128,0,83594:0:0:0:0:
128,192,83594,1,0,0:0:0:0:
213,192,83793,1,0,0:0:0:0:
298,192,83992,1,0,0:0:0:0:
42,192,84191,1,0,0:0:0:0:
469,192,84191,1,0,0:0:0:0:
384,192,85184,1,0,0:0:0:0:
213,192,85482,1,0,0:0:0:0:
384,192,85780,1,0,0:0:0:0:
42,192,85780,1,0,0:0:0:0:
128,192,86773,1,0,0:0:0:0:
298,192,87071,1,0,0:0:0:0:
128,192,87369,1,0,0:0:0:0:
469,192,87369,1,0,0:0:0:0:
42,192,87767,1,0,0:0:0:0:
298,192,88164,1,0,0:0:0:0:
213,192,88164,1,0,0:0:0:0:
469,192,88561,128,0,88959:0:0:0:0:
384,192,88959,1,0,0:0:0:0:
42,192,88959,1,0,0:0:0:0:
213,192,89257,1,0,0:0:0:0:
384,192,89555,1,0,0:0:0:0:
42,192,89555,128,0,90151:0:0:0:0:
128,192,90151,1,0,0:0:0:0:
213,192,90151,1,0,0:0:0:0:
298,192,90548,1,0,0:0:0:0:
384,192,90548,1,0,0:0:0:0:
42,192,90747,1,0,0:0:0:0:
213,192,91045,1,0,0:0:0:0:
469,192,91243,128,0,91641:0:0:0:0:
298,192,91641,1,0,0:0:0:0:
128,192,91840,128,0,92138:0:0:0:0:
469,192,92138,1,0,0:0:0:0:
213,192,92336,1,0,0:0:0:0:
384,192,92634,1,0,0:0:0:0:
42,192,92833,1,0,0:0:0:0:
298,192,93032,128,0,93330:0:0:0:0:
128,192,93330,1,0,0:0:0:0:
469,192,93528,1,0,0:0:0:0:
42,192,93727,1,0,0:0:0:0:
384,192,93926,1,0,0:0:0:0:
298,192,94224,1,0,0:0:0:0:
42,192,94422,1,0,0:0:0:0:
128,192,94720,1,0,0:0:0:0:
384,192,94919,1,0,0:0:0:0:
213,192,95118,1,0,0:0:0:0:
42,192,95316,1,0,0:0:0:0:
298,192,95515,1,0,0:0:0:0:
469,192,95813,1,0,0:0:0:0:
298,192,96012,128,0,96608:0:0:0:0:
128,192,96608,1,0,0:0:0:0:
384,192,96906,1,0,0:0:0:0:
42,192,97104,1,0,0:0:0:0:
298,192,97402,1,0,0:0:0:0:
469,192,97601,128,0,97998:0:0:0:0:
213,192,97998,1,0,0:0:0:0:
128,192,98197,128,0,98495:0:0:0:0:
469,192,98495,1,0,0:0:0:0:
298,192,98694,1,0,0:0:0:0:
213,192,98992,1,0,0:0:0:0:
42,192,99191,1,0,0:0:0:0:
298,192,99389,128,0,99687:0:0:0:0:
128,192,99687,1,0,0:0:0:0:
384,192,99886,1,0,0:0:0:0:
213,192,100085,1,0,0:0:0:0:
42,192,100283,1,0,0:0:0:0:
469,192,100581,1,0,0:0:0:0:
128,192,100780,128,0,101078:0:0:0:0:
384,192,101078,1,0,0:0:0:0:
298,192,101277,1,0,0:0:0:0:
42,192,101475,1,0,0:0:0:0:
213,192,101674,1,0,0:0:0:0:
469,192,101674,1,0,0:0:0:0:
384,192,102071,1,0,0:0:0:0:
128,192,102071,1,0,0:0:0:0:
298,192,102469,1,0,0:0:0:0:
42,192,102469,1,0,0:0:0:0:
128,192,102866,1,0,0:0:0:0:
384,192,102866,1,0,0:0:0:0:
469,192,103263,1,0,0:0:0:0:
213,192,103263,128,0,105647:0:0:0:0:
42,192,103661,1,0,0:0:0:0:
384,192,104058,1,0,0:0:0:0:
128,192,104455,1,0,0:0:0:0:
469,192,104853,1,0,0:0:0:0:
384,192,105250,1,0,0:0:0:0:
298,192,105647,128,0,106045:0:0:0:0:
42,192,106045,128,0,106442:0:0:0:0:
469,192,106442,128,0,107237:0:0:0:0:
298,192,106840,1,0,0:0:0:0:
213,192,107237,128,0,108032:0:0:0:0:
42,192,107634,1,0,0:0:0:0:
384,192,108032,128,0,108826:0:0:0:0:
298,192,108429,1,0,0:0:0:0:
128,192,108826,128,0,109621:0:0:0:0:
213,192,109224,1,0,0:0:0:0:
42,192,109621,1,0,0:0:0:0:
469,192,109621,1,0,0:0:0:0:
384,192,110018,1,0,0:0:0:0:
213,192,110416,1,0,0:0:0:0:
384,192,110813,1,0,0:0:0:0:
469,192,111210,1,0,0:0:0:0:
42,192,111210,1,0,0:0:0:0:
128,192,111608,1,0,0:0:0:0:
298,192,112005,1,0,0:0:0:0:
128,192,112402,1,0,0:0:0:0:
42,192,112800,1,0,0:0:0:0:
469,192,112800,1,0,0:0:0:0:
298,192,113197,1,0,0:0:0:0:
384,192,113594,1,0,0:0:0:0:
128,192,113594,1,0,0:0:0:0:
213,192,113992,1,0,0:0:0:0:
42,192,114389,1,0,0:0:0:0:
469,192,114389,1,0,0:0:0:0:
384,192,114787,1,0,0:0:0:0:
128,192,114787,1,0,0:0:0:0:
298,192,115184,1,0,0:0:0:0:
213,192,115184,1,0,0:0:0:0:
384,192,115581,1,0,0:0:0:0:
128,192,115581,1,0,0:0:0:0:
469,192,115979,128,0,116773:0:0:0:0:
42,192,115979,128,0,116773:0:0:0:0:
298,192,116773,128,0,117568:0:0:0:0:
213,192,116773,128,0,117568:0:0:0:0:
469,192,117568,1,0,0:0:0:0:
42,192,117568,1,0,0:0:0:0:
298,192,117866,1,0,0:0:0:0:
213,192,117866,1,0,0:0:0:0:
128,192,118164,128,0,119157:0:0:0:0:
384,192,118164,128,0,119157:0:0:0:0:
42,192,119157,1,0,0:0:0:0:
469,192,119157,1,0,0:0:0:0:
