osu file format v14

[General]
AudioFilename: audio.ogg
AudioLeadIn: 0
PreviewTime: 90349
Countdown: 0
SampleSet: Soft
StackLeniency: 0.7
Mode: 3
LetterboxInBreaks: 0
SpecialStyle: 0
WidescreenStoryboard: 1

[Editor]
Bookmarks: 14344,20614,26972,27457,39638,39687,39775,54079,65205,66794,77920
DistanceSpacing: 0.85
BeatDivisor: 4
GridSize: 32
TimelineZoom: 1.5

[Metadata]
Title:NightTheater
TitleUnicode:NightTheater
Artist:*wakadori
ArtistUnicode:わかどり
Creator:Lam-
Version:Another Open Night
Source:THE BMS OF FIGHTERS XVI -NEO DYSTOPIA-
Tags:SEGA CHUNITHM NEW PLUS WACCA Reserve ワッカ Marvelous Sixtar Gate Startrail チュウニズムニュー BEST MUSIC SELECTION 2 VARIETY SOUNDTRACK BOFXVI Muse Dash Give Up TREATMENT 音ゲー依存症 Vol.10 Jazz-Funk Jazz Funk Saxophone Trumpet Blues Electronic Instrumental Night Theater ウオウオ UOUO by-ad
BeatmapID:3354286
BeatmapSetID:1636208

[Difficulty]
HPDrainRate:8
CircleSize:6
OverallDifficulty:8
ApproachRate:5
SliderMultiplier:1.4
SliderTickRate:1

[Events]
//Background and Video events
0,0,"2741451.jpg",0,0
//Break Periods
//Storyboard Layer 0 (Background)
//Storyboard Layer 1 (Fail)
//Storyboard Layer 2 (Pass)
//Storyboard Layer 3 (Foreground)
//Storyboard Layer 4 (Overlay)
//Storyboard Sound Samples

[TimingPoints]
1542,397.350993377483,4,2,1,55,1,0
39687,-100,4,2,1,55,0,1
52402,-100,4,2,1,55,0,0
90548,-100,4,2,1,55,0,1
119157,-100,4,2,1,55,0,0

[HitObjects]
469,192,349,128,0,1541:0:0:0:0:
384,192,1541,5,0,0:0:0:0:
298,192,1541,1,0,0:0:0:0:
42,192,1541,1,0,0:0:0:0:
384,192,1840,1,0,0:0:0:0:
298,192,1840,1,0,0:0:0:0:
128,192,2038,1,0,0:0:0:0:
213,192,2138,1,0,0:0:0:0:
298,192,2237,1,0,0:0:0:0:
384,192,2237,1,0,0:0:0:0:
298,192,2535,1,0,0:0:0:0:
384,192,2535,1,0,0:0:0:0:
469,192,2833,128,0,3131:0:0:0:0:
298,192,2833,128,0,3131:0:0:0:0:
128,192,3131,1,0,0:0:0:0:
42,192,3131,1,0,0:0:0:0:
128,192,3429,1,0,0:0:0:0:
42,192,3429,1,0,0:0:0:0:
384,192,3628,1,0,0:0:0:0:
298,192,3727,1,0,0:0:0:0:
42,192,3826,1,0,0:0:0:0:
128,192,3826,1,0,0:0:0:0:
128,192,4124,1,0,0:0:0:0:
42,192,4124,1,0,0:0:0:0:
42,192,4422,1,0,0:0:0:0:
213,192,4422,1,0,0:0:0:0:
384,192,4522,1,0,0:0:0:0:
128,192,4621,1,0,0:0:0:0:
469,192,4720,1,0,0:0:0:0:
298,192,4720,1,0,0:0:0:0:
298,192,5018,1,0,0:0:0:0:
469,192,5018,1,0,0:0:0:0:
42,192,5217,1,0,0:0:0:0:
213,192,5316,1,0,0:0:0:0:
469,192,5416,1,0,0:0:0:0:
298,192,5416,1,0,0:0:0:0:
469,192,5714,1,0,0:0:0:0:
298,192,5714,1,0,0:0:0:0:
384,192,6012,128,0,6310:0:0:0:0:
298,192,6012,128,0,6310:0:0:0:0:
213,192,6310,1,0,0:0:0:0:
42,192,6310,1,0,0:0:0:0:
213,192,6608,1,0,0:0:0:0:
42,192,6608,1,0,0:0:0:0:
384,192,6906,1,0,0:0:0:0:
128,192,7005,128,0,7303:0:0:0:0:
213,192,7005,128,0,7303:0:0:0:0:
384,192,7303,1,0,0:0:0:0:
469,192,7303,1,0,0:0:0:0:
128,192,7601,1,0,0:0:0:0:
298,192,7601,1,0,0:0:0:0:
384,192,7700,1,0,0:0:0:0:
213,192,7800,1,0,0:0:0:0:
42,192,7899,1,0,0:0:0:0:
128,192,7899,1,0,0:0:0:0:
469,192,7899,1,0,0:0:0:0:
469,192,8197,1,0,0:0:0:0:
384,192,8197,1,0,0:0:0:0:
128,192,8296,1,0,0:0:0:0:
42,192,8296,1,0,0:0:0:0:
298,192,8396,1,0,0:0:0:0:
213,192,8495,1,0,0:0:0:0:
384,192,8594,1,0,0:0:0:0:
469,192,8594,1,0,0:0:0:0:
128,192,8694,1,0,0:0:0:0:
42,192,8694,1,0,0:0:0:0:
298,192,8892,1,0,0:0:0:0:
384,192,8892,1,0,0:0:0:0:
128,192,9091,1,0,0:0:0:0:
42,192,9091,1,0,0:0:0:0:
469,192,9191,128,0,9489:0:0:0:0:
384,192,9191,128,0,9489:0:0:0:0:
42,192,9489,1,0,0:0:0:0:
213,192,9489,1,0,0:0:0:0:
298,192,9489,1,0,0:0:0:0:
469,192,9787,1,0,0:0:0:0:
298,192,9787,1,0,0:0:0:0:
42,192,9886,1,0,0:0:0:0:
213,192,9886,1,0,0:0:0:0:
384,192,9985,1,0,0:0:0:0:
128,192,10085,1,0,0:0:0:0:
469,192,10184,1,0,0:0:0:0:
298,192,10184,1,0,0:0:0:0:
213,192,10283,1,0,0:0:0:0:
42,192,10283,1,0,0:0:0:0:
298,192,10482,1,0,0:0:0:0:
469,192,10482,1,0,0:0:0:0:
213,192,10681,1,0,0:0:0:0:
42,192,10681,1,0,0:0:0:0:
384,192,10780,1,0,0:0:0:0:
298,192,10780,1,0,0:0:0:0:
128,192,10879,1,0,0:0:0:0:
298,192,10979,1,0,0:0:0:0:
213,192,11078,1,0,0:0:0:0:
384,192,11078,1,0,0:0:0:0:
128,192,11078,1,0,0:0:0:0:
298,192,11376,1,0,0:0:0:0:
384,192,11376,1,0,0:0:0:0:
213,192,11475,1,0,0:0:0:0:
128,192,11475,1,0,0:0:0:0:
469,192,11575,1,0,0:0:0:0:
42,192,11674,1,0,0:0:0:0:
384,192,11773,1,0,0:0:0:0:
298,192,11773,1,0,0:0:0:0:
213,192,11873,1,0,0:0:0:0:
128,192,11873,1,0,0:0:0:0:
298,192,12071,1,0,0:0:0:0:
384,192,12071,1,0,0:0:0:0:
128,192,12270,1,0,0:0:0:0:
213,192,12270,1,0,0:0:0:0:
469,192,12369,128,0,12667:0:0:0:0:
384,192,12369,128,0,12667:0:0:0:0:
42,192,12667,128,0,12866:0:0:0:0:
128,192,12667,128,0,12866:0:0:0:0:
42,192,12965,1,0,0:0:0:0:
128,192,12965,1,0,0:0:0:0:
384,192,13363,128,0,13561:0:0:0:0:
469,192,13363,128,0,13561:0:0:0:0:
384,192,13661,1,0,0:0:0:0:
469,192,13661,1,0,0:0:0:0:
298,192,13859,1,0,0:0:0:0:
384,192,13859,1,0,0:0:0:0:
128,192,13959,1,0,0:0:0:0:
213,192,13959,1,0,0:0:0:0:
469,192,14058,1,0,0:0:0:0:
384,192,14108,1,0,0:0:0:0:
298,192,14157,1,0,0:0:0:0:
213,192,14207,1,0,0:0:0:0:
384,192,14257,1,0,0:0:0:0:
42,192,14257,1,0,0:0:0:0:
128,192,14257,1,0,0:0:0:0:
469,192,14257,1,0,0:0:0:0:
298,192,14356,1,0,0:0:0:0:
213,192,14455,1,0,0:0:0:0:
384,192,14555,1,0,0:0:0:0:
128,192,14555,1,0,0:0:0:0:
298,192,14654,1,0,0:0:0:0:
213,192,14654,1,0,0:0:0:0:
42,192,14654,1,0,0:0:0:0:
469,192,14753,1,0,0:0:0:0:
384,192,14853,1,0,0:0:0:0:
128,192,14952,1,0,0:0:0:0:
298,192,14952,1,0,0:0:0:0:
213,192,15051,1,0,0:0:0:0:
42,192,15051,1,0,0:0:0:0:
469,192,15051,1,0,0:0:0:0:
298,192,15151,1,0,0:0:0:0:
384,192,15250,1,0,0:0:0:0:
128,192,15250,1,0,0:0:0:0:
469,192,15349,1,0,0:0:0:0:
213,192,15449,1,0,0:0:0:0:
384,192,15449,1,0,0:0:0:0:
298,192,15449,1,0,0:0:0:0:
42,192,15548,128,0,15846:0:0:0:0:
128,192,15548,128,0,15846:0:0:0:0:
298,192,15647,1,0,0:0:0:0:
384,192,15747,1,0,0:0:0:0:
469,192,15846,1,0,0:0:0:0:
213,192,15846,1,0,0:0:0:0:
298,192,15945,1,0,0:0:0:0:
384,192,16045,1,0,0:0:0:0:
213,192,16144,1,0,0:0:0:0:
42,192,16144,1,0,0:0:0:0:
384,192,16243,1,0,0:0:0:0:
298,192,16243,1,0,0:0:0:0:
128,192,16243,1,0,0:0:0:0:
469,192,16343,1,0,0:0:0:0:
42,192,16442,1,0,0:0:0:0:
298,192,16541,1,0,0:0:0:0:
213,192,16541,1,0,0:0:0:0:
469,192,16641,1,0,0:0:0:0:
384,192,16641,1,0,0:0:0:0:
128,192,16641,1,0,0:0:0:0:
298,192,16740,1,0,0:0:0:0:
42,192,16840,1,0,0:0:0:0:
213,192,16840,1,0,0:0:0:0:
128,192,16939,1,0,0:0:0:0:
213,192,17038,1,0,0:0:0:0:
384,192,17038,1,0,0:0:0:0:
469,192,17038,1,0,0:0:0:0:
128,192,17138,1,0,0:0:0:0:
42,192,17138,1,0,0:0:0:0:
298,192,17237,1,0,0:0:0:0:
213,192,17336,1,0,0:0:0:0:
469,192,17436,1,0,0:0:0:0:
298,192,17436,1,0,0:0:0:0:
384,192,17436,1,0,0:0:0:0:
128,192,17535,1,0,0:0:0:0:
469,192,17634,1,0,0:0:0:0:
42,192,17734,1,0,0:0:0:0:
213,192,17734,1,0,0:0:0:0:
128,192,17833,1,0,0:0:0:0:
384,192,17833,1,0,0:0:0:0:
298,192,17833,1,0,0:0:0:0:
469,192,17932,1,0,0:0:0:0:
42,192,18032,1,0,0:0:0:0:
384,192,18131,1,0,0:0:0:0:
213,192,18131,1,0,0:0:0:0:
298,192,18230,1,0,0:0:0:0:
128,192,18230,1,0,0:0:0:0:
42,192,18230,1,0,0:0:0:0:
469,192,18330,1,0,0:0:0:0:
298,192,18429,1,0,0:0:0:0:
213,192,18429,1,0,0:0:0:0:
384,192,18528,1,0,0:0:0:0:
128,192,18628,1,0,0:0:0:0:
42,192,18628,1,0,0:0:0:0:
213,192,18628,1,0,0:0:0:0:
469,192,18727,128,0,19025:0:0:0:0:
384,192,18727,128,0,19025:0:0:0:0:
298,192,18826,1,0,0:0:0:0:
213,192,18926,1,0,0:0:0:0:
128,192,19025,1,0,0:0:0:0:
42,192,19025,1,0,0:0:0:0:
469,192,19124,1,0,0:0:0:0:
213,192,19224,1,0,0:0:0:0:
128,192,19323,1,0,0:0:0:0:
298,192,19323,1,0,0:0:0:0:
42,192,19422,1,0,0:0:0:0:
469,192,19422,1,0,0:0:0:0:
384,192,19422,1,0,0:0:0:0:
128,192,19522,1,0,0:0:0:0:
213,192,19621,1,0,0:0:0:0:
298,192,19720,128,0,19919:0:0:0:0:
469,192,19720,128,0,19919:0:0:0:0:
128,192,19820,1,0,0:0:0:0:
42,192,19820,1,0,0:0:0:0:
213,192,19919,1,0,0:0:0:0:
298,192,20018,1,0,0:0:0:0:
469,192,20018,1,0,0:0:0:0:
42,192,20118,1,0,0:0:0:0:
469,192,20217,1,0,0:0:0:0:
384,192,20217,1,0,0:0:0:0:
128,192,20316,128,0,20515:0:0:0:0:
213,192,20316,128,0,20515:0:0:0:0:
298,192,20416,1,0,0:0:0:0:
384,192,20515,1,0,0:0:0:0:
298,192,20614,1,0,0:0:0:0:
213,192,20614,1,0,0:0:0:0:
469,192,20614,1,0,0:0:0:0:
42,192,20614,1,0,0:0:0:0:
42,192,20813,1,0,0:0:0:0:
298,192,20813,1,0,0:0:0:0:
213,192,20912,1,0,0:0:0:0:
128,192,20912,1,0,0:0:0:0:
42,192,21012,1,0,0:0:0:0:
298,192,21012,1,0,0:0:0:0:
384,192,21012,1,0,0:0:0:0:
213,192,21210,1,0,0:0:0:0:
469,192,21210,1,0,0:0:0:0:
298,192,21310,1,0,0:0:0:0:
384,192,21310,1,0,0:0:0:0:
469,192,21409,1,0,0:0:0:0:
128,192,21409,1,0,0:0:0:0:
213,192,21409,1,0,0:0:0:0:
42,192,21608,1,0,0:0:0:0:
469,192,21608,1,0,0:0:0:0:
298,192,21707,1,0,0:0:0:0:
384,192,21707,1,0,0:0:0:0:
213,192,21806,1,0,0:0:0:0:
128,192,21806,1,0,0:0:0:0:
469,192,21906,128,0,22104:0:0:0:0:
384,192,21906,128,0,22104:0:0:0:0:
128,192,22005,1,0,0:0:0:0:
42,192,22005,1,0,0:0:0:0:
213,192,22104,1,0,0:0:0:0:
298,192,22104,1,0,0:0:0:0:
42,192,22204,1,0,0:0:0:0:
469,192,22204,1,0,0:0:0:0:
384,192,22204,1,0,0:0:0:0:
298,192,22402,1,0,0:0:0:0:
384,192,22402,1,0,0:0:0:0:
128,192,22502,1,0,0:0:0:0:
469,192,22502,1,0,0:0:0:0:
42,192,22601,1,0,0:0:0:0:
298,192,22601,1,0,0:0:0:0:
213,192,22601,1,0,0:0:0:0:
213,192,22800,1,0,0:0:0:0:
128,192,22800,1,0,0:0:0:0:
469,192,22899,1,0,0:0:0:0:
298,192,22899,1,0,0:0:0:0:
384,192,22998,1,0,0:0:0:0:
42,192,22998,1,0,0:0:0:0:
128,192,22998,1,0,0:0:0:0:
213,192,23197,1,0,0:0:0:0:
128,192,23197,1,0,0:0:0:0:
42,192,23296,1,0,0:0:0:0:
384,192,23296,1,0,0:0:0:0:
213,192,23396,1,0,0:0:0:0:
298,192,23396,1,0,0:0:0:0:
469,192,23396,1,0,0:0:0:0:
42,192,23495,1,0,0:0:0:0:
128,192,23495,1,0,0:0:0:0:
384,192,23594,1,0,0:0:0:0:
298,192,23594,1,0,0:0:0:0:
213,192,23694,1,0,0:0:0:0:
128,192,23694,1,0,0:0:0:0:
469,192,23793,1,0,0:0:0:0:
42,192,23793,1,0,0:0:0:0:
384,192,23793,1,0,0:0:0:0:
298,192,23892,1,0,0:0:0:0:
213,192,23892,1,0,0:0:0:0:
128,192,23992,1,0,0:0:0:0:
42,192,23992,1,0,0:0:0:0:
384,192,24091,1,0,0:0:0:0:
298,192,24091,1,0,0:0:0:0:
213,192,24191,1,0,0:0:0:0:
42,192,24191,1,0,0:0:0:0:
469,192,24290,1,0,0:0:0:0:
384,192,24290,1,0,0:0:0:0:
128,192,24389,1,0,0:0:0:0:
298,192,24389,1,0,0:0:0:0:
469,192,24489,1,0,0:0:0:0:
42,192,24489,1,0,0:0:0:0:
384,192,24588,1,0,0:0:0:0:
213,192,24588,1,0,0:0:0:0:
42,192,24687,1,0,0:0:0:0:
128,192,24687,1,0,0:0:0:0:
298,192,24787,1,0,0:0:0:0:
469,192,24787,1,0,0:0:0:0:
213,192,24886,1,0,0:0:0:0:
128,192,24886,1,0,0:0:0:0:
384,192,24985,1,0,0:0:0:0:
469,192,24985,1,0,0:0:0:0:
298,192,25035,1,0,0:0:0:0:
213,192,25085,1,0,0:0:0:0:
128,192,25134,1,0,0:0:0:0:
42,192,25184,1,0,0:0:0:0:
213,192,25234,1,0,0:0:0:0:
298,192,25283,1,0,0:0:0:0:
384,192,25333,1,0,0:0:0:0:
469,192,25383,1,0,0:0:0:0:
42,192,25383,1,0,0:0:0:0:
213,192,25482,1,0,0:0:0:0:
298,192,25482,1,0,0:0:0:0:
128,192,25581,1,0,0:0:0:0:
298,192,25681,1,0,0:0:0:0:
384,192,25681,1,0,0:0:0:0:
213,192,25780,1,0,0:0:0:0:
42,192,25879,1,0,0:0:0:0:
469,192,25879,1,0,0:0:0:0:
128,192,26078,1,0,0:0:0:0:
384,192,26078,1,0,0:0:0:0:
298,192,26277,1,0,0:0:0:0:
42,192,26376,128,0,26575:0:0:0:0:
213,192,26376,1,0,0:0:0:0:
384,192,26475,1,0,0:0:0:0:
298,192,26575,1,0,0:0:0:0:
128,192,26575,1,0,0:0:0:0:
213,192,26575,1,0,0:0:0:0:
42,192,26674,128,0,26972:0:0:0:0:
469,192,26674,1,0,0:0:0:0:
384,192,26773,1,0,0:0:0:0:
298,192,26873,1,0,0:0:0:0:
469,192,26972,1,0,0:0:0:0:
213,192,26972,1,0,0:0:0:0:
128,192,26972,1,0,0:0:0:0:
128,192,27369,1,0,0:0:0:0:
469,192,27369,128,0,27767:0:0:0:0:
298,192,27369,1,0,0:0:0:0:
384,192,27369,1,0,0:0:0:0:
213,192,27767,1,0,0:0:0:0:
42,192,27767,1,0,0:0:0:0:
298,192,27767,1,0,0:0:0:0:
384,192,27866,1,0,0:0:0:0:
128,192,27965,1,0,0:0:0:0:
213,192,28065,1,0,0:0:0:0:
384,192,28164,1,0,0:0:0:0:
469,192,28164,1,0,0:0:0:0:
42,192,28164,1,0,0:0:0:0:
128,192,28164,1,0,0:0:0:0:
298,192,28263,1,0,0:0:0:0:
213,192,28363,1,0,0:0:0:0:
128,192,28462,1,0,0:0:0:0:
298,192,28561,1,0,0:0:0:0:
469,192,28561,1,0,0:0:0:0:
42,192,28561,1,0,0:0:0:0:
298,192,28661,1,0,0:0:0:0:
384,192,28760,1,0,0:0:0:0:
128,192,28859,1,0,0:0:0:0:
42,192,28959,1,0,0:0:0:0:
469,192,28959,1,0,0:0:0:0:
213,192,28959,1,0,0:0:0:0:
298,192,28959,1,0,0:0:0:0:
128,192,29058,1,0,0:0:0:0:
384,192,29157,1,0,0:0:0:0:
213,192,29257,1,0,0:0:0:0:
469,192,29356,1,0,0:0:0:0:
298,192,29356,1,0,0:0:0:0:
42,192,29356,1,0,0:0:0:0:
384,192,29455,1,0,0:0:0:0:
213,192,29555,1,0,0:0:0:0:
128,192,29654,1,0,0:0:0:0:
469,192,29753,1,0,0:0:0:0:
298,192,29753,1,0,0:0:0:0:
42,192,29753,1,0,0:0:0:0:
213,192,29753,1,0,0:0:0:0:
384,192,29853,1,0,0:0:0:0:
298,192,29952,1,0,0:0:0:0:
213,192,30051,1,0,0:0:0:0:
42,192,30151,1,0,0:0:0:0:
469,192,30151,1,0,0:0:0:0:
128,192,30151,1,0,0:0:0:0:
213,192,30349,128,0,30548:0:0:0:0:
42,192,30548,1,0,0:0:0:0:
128,192,30548,1,0,0:0:0:0:
469,192,30548,1,0,0:0:0:0:
384,192,30548,1,0,0:0:0:0:
298,192,30647,1,0,0:0:0:0:
469,192,30747,1,0,0:0:0:0:
298,192,30846,1,0,0:0:0:0:
384,192,30945,1,0,0:0:0:0:
213,192,30945,1,0,0:0:0:0:
128,192,30945,1,0,0:0:0:0:
42,192,31045,1,0,0:0:0:0:
469,192,31243,1,0,0:0:0:0:
384,192,31293,1,0,0:0:0:0:
128,192,31343,1,0,0:0:0:0:
42,192,31343,1,0,0:0:0:0:
213,192,31343,1,0,0:0:0:0:
298,192,31343,1,0,0:0:0:0:
469,192,31442,1,0,0:0:0:0:
384,192,31541,1,0,0:0:0:0:
213,192,31641,1,0,0:0:0:0:
469,192,31740,1,0,0:0:0:0:
42,192,31740,1,0,0:0:0:0:
128,192,31740,1,0,0:0:0:0:
298,192,31840,1,0,0:0:0:0:
469,192,31939,1,0,0:0:0:0:
469,192,32138,1,0,0:0:0:0:
42,192,32138,1,0,0:0:0:0:
298,192,32138,1,0,0:0:0:0:
384,192,32138,1,0,0:0:0:0:
213,192,32237,1,0,0:0:0:0:
42,192,32336,1,0,0:0:0:0:
128,192,32535,1,0,0:0:0:0:
298,192,32535,1,0,0:0:0:0:
213,192,32535,1,0,0:0:0:0:
384,192,32634,1,0,0:0:0:0:
42,192,32734,1,0,0:0:0:0:
213,192,32833,1,0,0:0:0:0:
42,192,32932,1,0,0:0:0:0:
128,192,32932,1,0,0:0:0:0:
469,192,32932,1,0,0:0:0:0:
384,192,32932,1,0,0:0:0:0:
298,192,33032,1,0,0:0:0:0:
384,192,33131,1,0,0:0:0:0:
469,192,33230,1,0,0:0:0:0:
42,192,33330,1,0,0:0:0:0:
128,192,33330,1,0,0:0:0:0:
213,192,33330,1,0,0:0:0:0:
298,192,33528,128,0,33727:0:0:0:0:
469,192,33727,1,0,0:0:0:0:
384,192,33727,1,0,0:0:0:0:
128,192,33727,1,0,0:0:0:0:
42,192,33727,1,0,0:0:0:0:
213,192,33926,1,0,0:0:0:0:
128,192,34124,1,0,0:0:0:0:
42,192,34124,1,0,0:0:0:0:
384,192,34124,1,0,0:0:0:0:
469,192,34224,1,0,0:0:0:0:
298,192,34323,1,0,0:0:0:0:
128,192,34422,1,0,0:0:0:0:
298,192,34522,1,0,0:0:0:0:
384,192,34522,1,0,0:0:0:0:
42,192,34522,1,0,0:0:0:0:
469,192,34522,1,0,0:0:0:0:
213,192,34621,1,0,0:0:0:0:
298,192,34820,1,0,0:0:0:0:
469,192,34919,1,0,0:0:0:0:
42,192,34919,1,0,0:0:0:0:
213,192,34919,1,0,0:0:0:0:
384,192,35018,1,0,0:0:0:0:
384,192,35118,1,0,0:0:0:0:
128,192,35217,1,0,0:0:0:0:
298,192,35316,1,0,0:0:0:0:
384,192,35316,1,0,0:0:0:0:
42,192,35316,1,0,0:0:0:0:
469,192,35316,1,0,0:0:0:0:
213,192,35416,1,0,0:0:0:0:
42,192,35515,1,0,0:0:0:0:
298,192,35614,1,0,0:0:0:0:
469,192,35714,1,0,0:0:0:0:
384,192,35714,1,0,0:0:0:0:
128,192,35714,1,0,0:0:0:0:
298,192,35813,1,0,0:0:0:0:
213,192,35912,1,0,0:0:0:0:
128,192,36012,1,0,0:0:0:0:
298,192,36111,1,0,0:0:0:0:
384,192,36111,1,0,0:0:0:0:
42,192,36111,1,0,0:0:0:0:
469,192,36111,1,0,0:0:0:0:
213,192,36210,1,0,0:0:0:0:
128,192,36310,1,0,0:0:0:0:
298,192,36409,1,0,0:0:0:0:
469,192,36508,1,0,0:0:0:0:
384,192,36508,1,0,0:0:0:0:
213,192,36508,1,0,0:0:0:0:
42,192,36707,128,0,36906:0:0:0:0:
384,192,36906,1,0,0:0:0:0:
469,192,36906,1,0,0:0:0:0:
213,192,36906,1,0,0:0:0:0:
298,192,36906,1,0,0:0:0:0:
128,192,37005,1,0,0:0:0:0:
213,192,37204,1,0,0:0:0:0:
128,192,37303,1,0,0:0:0:0:
42,192,37303,1,0,0:0:0:0:
384,192,37303,1,0,0:0:0:0:
298,192,37402,1,0,0:0:0:0:
384,192,37601,1,0,0:0:0:0:
213,192,37700,1,0,0:0:0:0:
128,192,37700,1,0,0:0:0:0:
298,192,37700,1,0,0:0:0:0:
42,192,37700,1,0,0:0:0:0:
469,192,37800,1,0,0:0:0:0:
213,192,37899,1,0,0:0:0:0:
469,192,37998,1,0,0:0:0:0:
298,192,38098,1,0,0:0:0:0:
42,192,38098,1,0,0:0:0:0:
128,192,38098,1,0,0:0:0:0:
384,192,38147,1,0,0:0:0:0:
213,192,38296,1,0,0:0:0:0:
128,192,38495,1,0,0:0:0:0:
384,192,38495,1,0,0:0:0:0:
213,192,38495,1,0,0:0:0:0:
469,192,38495,1,0,0:0:0:0:
42,192,38594,1,0,0:0:0:0:
298,192,38793,1,0,0:0:0:0:
128,192,38892,1,0,0:0:0:0:
42,192,38892,1,0,0:0:0:0:
213,192,38892,1,0,0:0:0:0:
469,192,38992,1,0,0:0:0:0:
298,192,39091,1,0,0:0:0:0:
213,192,39191,1,0,0:0:0:0:
128,192,39290,1,0,0:0:0:0:
384,192,39290,1,0,0:0:0:0:
42,192,39290,1,0,0:0:0:0:
469,192,39290,1,0,0:0:0:0:
298,192,39389,1,0,0:0:0:0:
469,192,39489,1,0,0:0:0:0:
42,192,39588,1,0,0:0:0:0:
213,192,39687,1,0,0:0:0:0:
128,192,39687,1,0,0:0:0:0:
384,192,39687,1,0,0:0:0:0:
298,192,39687,1,0,0:0:0:0:
128,192,40085,128,0,40283:0:0:0:0:
213,192,40085,1,0,0:0:0:0:
42,192,40085,1,0,0:0:0:0:
469,192,40085,1,0,0:0:0:0:
384,192,40283,128,0,40383:0:0:0:0:
298,192,40283,1,0,0:0:0:0:
469,192,40383,128,0,40482:0:0:0:0:
213,192,40482,128,0,40581:0:0:0:0:
42,192,40482,1,0,0:0:0:0:
128,192,40482,1,0,0:0:0:0:
298,192,40581,128,0,40681:0:0:0:0:
384,192,40681,1,0,0:0:0:0:
128,192,40780,128,0,40879:0:0:0:0:
298,192,40879,1,0,0:0:0:0:
469,192,40879,1,0,0:0:0:0:
42,192,40879,1,0,0:0:0:0:
213,192,40979,128,0,41078:0:0:0:0:
42,192,41078,128,0,41177:0:0:0:0:
384,192,41078,1,0,0:0:0:0:
128,192,41277,128,0,41376:0:0:0:0:
469,192,41277,1,0,0:0:0:0:
298,192,41277,1,0,0:0:0:0:
213,192,41475,128,0,41575:0:0:0:0:
42,192,41475,1,0,0:0:0:0:
469,192,41575,128,0,41674:0:0:0:0:
298,192,41674,128,0,41773:0:0:0:0:
384,192,41674,1,0,0:0:0:0:
128,192,41674,1,0,0:0:0:0:
42,192,41773,128,0,41873:0:0:0:0:
384,192,41873,128,0,41972:0:0:0:0:
213,192,41873,1,0,0:0:0:0:
128,192,41972,128,0,42071:0:0:0:0:
469,192,42071,128,0,42171:0:0:0:0:
298,192,42071,1,0,0:0:0:0:
42,192,42071,1,0,0:0:0:0:
213,192,42171,128,0,42270:0:0:0:0:
128,192,42270,1,0,0:0:0:0:
384,192,42369,128,0,42469:0:0:0:0:
298,192,42469,1,0,0:0:0:0:
42,192,42469,1,0,0:0:0:0:
469,192,42469,1,0,0:0:0:0:
213,192,42568,128,0,42667:0:0:0:0:
128,192,42667,128,0,42767:0:0:0:0:
384,192,42667,1,0,0:0:0:0:
42,192,42767,128,0,42866:0:0:0:0:
469,192,42866,1,0,0:0:0:0:
298,192,42866,1,0,0:0:0:0:
213,192,43065,128,0,43164:0:0:0:0:
298,192,43065,1,0,0:0:0:0:
128,192,43164,128,0,43263:0:0:0:0:
213,192,43263,128,0,43363:0:0:0:0:
384,192,43263,1,0,0:0:0:0:
469,192,43263,1,0,0:0:0:0:
42,192,43263,1,0,0:0:0:0:
42,192,43462,128,0,43561:0:0:0:0:
298,192,43462,1,0,0:0:0:0:
128,192,43561,128,0,43661:0:0:0:0:
213,192,43661,128,0,43760:0:0:0:0:
384,192,43661,1,0,0:0:0:0:
469,192,43661,1,0,0:0:0:0:
298,192,43760,128,0,43859:0:0:0:0:
128,192,43859,1,0,0:0:0:0:
469,192,43959,128,0,44058:0:0:0:0:
42,192,44058,1,0,0:0:0:0:
298,192,44058,1,0,0:0:0:0:
384,192,44058,1,0,0:0:0:0:
298,192,44257,128,0,44356:0:0:0:0:
128,192,44257,1,0,0:0:0:0:
384,192,44356,128,0,44455:0:0:0:0:
469,192,44455,128,0,44555:0:0:0:0:
128,192,44455,1,0,0:0:0:0:
42,192,44455,1,0,0:0:0:0:
469,192,44654,128,0,44753:0:0:0:0:
298,192,44654,1,0,0:0:0:0:
213,192,44853,128,0,44952:0:0:0:0:
384,192,44853,1,0,0:0:0:0:
469,192,44853,1,0,0:0:0:0:
42,192,44853,1,0,0:0:0:0:
213,192,45051,128,0,45151:0:0:0:0:
128,192,45051,1,0,0:0:0:0:
298,192,45250,128,0,45449:0:0:0:0:
213,192,45250,1,0,0:0:0:0:
42,192,45250,1,0,0:0:0:0:
469,192,45283,1,0,0:0:0:0:
384,192,45449,1,0,0:0:0:0:
298,192,45548,128,0,45647:0:0:0:0:
42,192,45647,1,0,0:0:0:0:
128,192,45647,1,0,0:0:0:0:
469,192,45647,1,0,0:0:0:0:
213,192,45747,128,0,45846:0:0:0:0:
384,192,45846,128,0,45945:0:0:0:0:
298,192,45846,1,0,0:0:0:0:
469,192,45945,128,0,46045:0:0:0:0:
213,192,46045,1,0,0:0:0:0:
42,192,46045,1,0,0:0:0:0:
469,192,46243,128,0,46442:0:0:0:0:
213,192,46442,128,0,46541:0:0:0:0:
298,192,46442,1,0,0:0:0:0:
384,192,46442,1,0,0:0:0:0:
128,192,46442,1,0,0:0:0:0:
42,192,46541,128,0,46641:0:0:0:0:
469,192,46641,128,0,46740:0:0:0:0:
213,192,46641,1,0,0:0:0:0:
298,192,46740,128,0,46840:0:0:0:0:
128,192,46840,128,0,46939:0:0:0:0:
384,192,46840,1,0,0:0:0:0:
42,192,46840,1,0,0:0:0:0:
469,192,46939,128,0,47038:0:0:0:0:
213,192,47038,1,0,0:0:0:0:
384,192,47138,128,0,47237:0:0:0:0:
128,192,47237,1,0,0:0:0:0:
298,192,47237,1,0,0:0:0:0:
469,192,47237,1,0,0:0:0:0:
213,192,47336,128,0,47436:0:0:0:0:
42,192,47436,128,0,47535:0:0:0:0:
384,192,47436,1,0,0:0:0:0:
213,192,47535,128,0,47634:0:0:0:0:
384,192,47634,128,0,47734:0:0:0:0:
42,192,47634,1,0,0:0:0:0:
128,192,47634,1,0,0:0:0:0:
469,192,47734,128,0,47833:0:0:0:0:
213,192,47833,1,0,0:0:0:0:
298,192,47932,128,0,48032:0:0:0:0:
384,192,48032,1,0,0:0:0:0:
469,192,48032,1,0,0:0:0:0:
128,192,48032,1,0,0:0:0:0:
213,192,48131,128,0,48230:0:0:0:0:
42,192,48230,1,0,0:0:0:0:
128,192,48330,128,0,48429:0:0:0:0:
298,192,48429,1,0,0:0:0:0:
213,192,48429,1,0,0:0:0:0:
384,192,48528,128,0,48628:0:0:0:0:
298,192,48628,128,0,48727:0:0:0:0:
469,192,48628,1,0,0:0:0:0:
213,192,48727,128,0,48826:0:0:0:0:
42,192,48826,1,0,0:0:0:0:
128,192,48826,1,0,0:0:0:0:
469,192,48826,128,0,48926:0:0:0:0:
384,192,48826,1,0,0:0:0:0:
298,192,48926,128,0,49025:0:0:0:0:
128,192,49025,128,0,49124:0:0:0:0:
213,192,49025,1,0,0:0:0:0:
42,192,49124,128,0,49224:0:0:0:0:
469,192,49224,1,0,0:0:0:0:
384,192,49224,1,0,0:0:0:0:
213,192,49422,128,0,49522:0:0:0:0:
128,192,49422,1,0,0:0:0:0:
298,192,49621,1,0,0:0:0:0:
469,192,49621,1,0,0:0:0:0:
213,192,49621,128,0,49720:0:0:0:0:
42,192,49621,1,0,0:0:0:0:
128,192,49720,128,0,49820:0:0:0:0:
384,192,49820,128,0,49919:0:0:0:0:
469,192,49820,1,0,0:0:0:0:
298,192,49919,128,0,50018:0:0:0:0:
128,192,50018,1,0,0:0:0:0:
42,192,50018,1,0,0:0:0:0:
213,192,50118,128,0,50217:0:0:0:0:
298,192,50217,1,0,0:0:0:0:
128,192,50316,1,0,0:0:0:0:
42,192,50416,1,0,0:0:0:0:
213,192,50416,1,0,0:0:0:0:
469,192,50416,128,0,50515:0:0:0:0:
384,192,50416,1,0,0:0:0:0:
298,192,50515,128,0,50614:0:0:0:0:
42,192,50614,128,0,50714:0:0:0:0:
128,192,50614,1,0,0:0:0:0:
213,192,50714,128,0,50813:0:0:0:0:
469,192,50813,128,0,50912:0:0:0:0:
298,192,50813,1,0,0:0:0:0:
42,192,50813,1,0,0:0:0:0:
384,192,50863,1,0,0:0:0:0:
128,192,51012,128,0,51111:0:0:0:0:
213,192,51012,1,0,0:0:0:0:
298,192,51210,128,0,51310:0:0:0:0:
384,192,51210,1,0,0:0:0:0:
469,192,51210,1,0,0:0:0:0:
128,192,51210,1,0,0:0:0:0:
42,192,51310,128,0,51409:0:0:0:0:
298,192,51409,1,0,0:0:0:0:
213,192,51508,128,0,51608:0:0:0:0:
384,192,51608,1,0,0:0:0:0:
42,192,51608,1,0,0:0:0:0:
128,192,51707,128,0,51806:0:0:0:0:
469,192,51806,128,0,51906:0:0:0:0:
384,192,51806,1,0,0:0:0:0:
298,192,51906,128,0,52005:0:0:0:0:
213,192,52005,128,0,52104:0:0:0:0:
128,192,52005,1,0,0:0:0:0:
42,192,52005,1,0,0:0:0:0:
469,192,52005,1,0,0:0:0:0:
384,192,52104,128,0,52204:0:0:0:0:
213,192,52204,128,0,52303:0:0:0:0:
298,192,52204,1,0,0:0:0:0:
128,192,52303,128,0,52402:0:0:0:0:
42,192,52402,128,0,53892:0:0:0:0:
384,192,52402,1,0,0:0:0:0:
469,192,52402,1,0,0:0:0:0:
298,192,52402,1,0,0:0:0:0:
213,192,52502,1,0,0:0:0:0:
384,192,52601,1,0,0:0:0:0:
128,192,52700,1,0,0:0:0:0:
298,192,52800,1,0,0:0:0:0:
469,192,52800,1,0,0:0:0:0:
213,192,52899,1,0,0:0:0:0:
384,192,52998,1,0,0:0:0:0:
298,192,53098,1,0,0:0:0:0:
128,192,53197,1,0,0:0:0:0:
384,192,53296,1,0,0:0:0:0:
469,192,53396,1,0,0:0:0:0:
213,192,53495,1,0,0:0:0:0:
469,192,53594,1,0,0:0:0:0:
298,192,53594,1,0,0:0:0:0:
213,192,53694,1,0,0:0:0:0:
128,192,53793,1,0,0:0:0:0:
298,192,53892,1,0,0:0:0:0:
384,192,53942,1,0,0:0:0:0:
128,192,53992,1,0,0:0:0:0:
469,192,53992,1,0,0:0:0:0:
42,192,53992,1,0,0:0:0:0:
213,192,54091,1,0,0:0:0:0:
469,192,54191,1,0,0:0:0:0:
213,192,54290,1,0,0:0:0:0:
128,192,54290,1,0,0:0:0:0:
298,192,54389,1,0,0:0:0:0:
384,192,54389,1,0,0:0:0:0:
469,192,54489,1,0,0:0:0:0:
42,192,54588,1,0,0:0:0:0:
128,192,54687,1,0,0:0:0:0:
213,192,54687,1,0,0:0:0:0:
384,192,54787,1,0,0:0:0:0:
298,192,54886,1,0,0:0:0:0:
213,192,54985,1,0,0:0:0:0:
128,192,54985,1,0,0:0:0:0:
42,192,55085,1,0,0:0:0:0:
384,192,55184,1,0,0:0:0:0:
469,192,55184,1,0,0:0:0:0:
128,192,55283,1,0,0:0:0:0:
42,192,55283,1,0,0:0:0:0:
213,192,55383,1,0,0:0:0:0:
298,192,55482,1,0,0:0:0:0:
213,192,55581,1,0,0:0:0:0:
384,192,55581,1,0,0:0:0:0:
469,192,55581,1,0,0:0:0:0:
128,192,55681,1,0,0:0:0:0:
298,192,55780,1,0,0:0:0:0:
384,192,55879,1,0,0:0:0:0:
469,192,55879,1,0,0:0:0:0:
128,192,55979,1,0,0:0:0:0:
42,192,55979,1,0,0:0:0:0:
469,192,56078,1,0,0:0:0:0:
213,192,56177,1,0,0:0:0:0:
298,192,56277,1,0,0:0:0:0:
384,192,56277,1,0,0:0:0:0:
42,192,56376,1,0,0:0:0:0:
128,192,56475,1,0,0:0:0:0:
298,192,56575,1,0,0:0:0:0:
384,192,56575,1,0,0:0:0:0:
469,192,56674,1,0,0:0:0:0:
128,192,56773,1,0,0:0:0:0:
42,192,56773,1,0,0:0:0:0:
298,192,56873,1,0,0:0:0:0:
469,192,56873,1,0,0:0:0:0:
384,192,56972,1,0,0:0:0:0:
128,192,57071,1,0,0:0:0:0:
298,192,57171,1,0,0:0:0:0:
213,192,57171,1,0,0:0:0:0:
42,192,57270,1,0,0:0:0:0:
469,192,57369,1,0,0:0:0:0:
298,192,57469,1,0,0:0:0:0:
213,192,57469,1,0,0:0:0:0:
128,192,57568,1,0,0:0:0:0:
42,192,57568,1,0,0:0:0:0:
213,192,57667,5,0,0:0:0:0:
384,192,57767,1,0,0:0:0:0:
298,192,57866,1,0,0:0:0:0:
469,192,57866,1,0,0:0:0:0:
42,192,57965,1,0,0:0:0:0:
213,192,58065,1,0,0:0:0:0:
298,192,58164,1,0,0:0:0:0:
469,192,58164,1,0,0:0:0:0:
384,192,58263,1,0,0:0:0:0:
128,192,58363,1,0,0:0:0:0:
42,192,58363,1,0,0:0:0:0:
213,192,58462,1,0,0:0:0:0:
469,192,58462,1,0,0:0:0:0:
298,192,58561,1,0,0:0:0:0:
213,192,58661,1,0,0:0:0:0:
384,192,58760,5,0,0:0:0:0:
42,192,58760,1,0,0:0:0:0:
128,192,58760,1,0,0:0:0:0:
469,192,58760,1,0,0:0:0:0:
469,192,58959,1,0,0:0:0:0:
42,192,58959,1,0,0:0:0:0:
298,192,59058,1,0,0:0:0:0:
128,192,59157,1,0,0:0:0:0:
384,192,59157,1,0,0:0:0:0:
213,192,59157,1,0,0:0:0:0:
42,192,59257,1,0,0:0:0:0:
469,192,59356,1,0,0:0:0:0:
298,192,59356,1,0,0:0:0:0:
384,192,59455,1,0,0:0:0:0:
213,192,59555,1,0,0:0:0:0:
42,192,59555,1,0,0:0:0:0:
128,192,59654,1,0,0:0:0:0:
213,192,59753,1,0,0:0:0:0:
384,192,59753,1,0,0:0:0:0:
469,192,59753,1,0,0:0:0:0:
298,192,59753,1,0,0:0:0:0:
384,192,60051,1,0,0:0:0:0:
469,192,60051,1,0,0:0:0:0:
42,192,60051,1,0,0:0:0:0:
213,192,60051,1,0,0:0:0:0:
298,192,60349,5,0,0:0:0:0:
128,192,60349,1,0,0:0:0:0:
42,192,60349,1,0,0:0:0:0:
469,192,60349,1,0,0:0:0:0:
42,192,60548,1,0,0:0:0:0:
469,192,60548,1,0,0:0:0:0:
213,192,60647,1,0,0:0:0:0:
384,192,60747,1,0,0:0:0:0:
128,192,60747,1,0,0:0:0:0:
298,192,60747,1,0,0:0:0:0:
469,192,60846,1,0,0:0:0:0:
42,192,60945,1,0,0:0:0:0:
213,192,60945,1,0,0:0:0:0:
128,192,61045,1,0,0:0:0:0:
298,192,61144,1,0,0:0:0:0:
469,192,61144,1,0,0:0:0:0:
384,192,61243,1,0,0:0:0:0:
42,192,61343,1,0,0:0:0:0:
298,192,61343,1,0,0:0:0:0:
128,192,61343,1,0,0:0:0:0:
213,192,61343,1,0,0:0:0:0:
128,192,61641,1,0,0:0:0:0:
213,192,61641,1,0,0:0:0:0:
384,192,61641,1,0,0:0:0:0:
298,192,61641,1,0,0:0:0:0:
384,192,61939,1,0,0:0:0:0:
213,192,61939,1,0,0:0:0:0:
469,192,61939,1,0,0:0:0:0:
42,192,61939,1,0,0:0:0:0:
384,192,62138,1,0,0:0:0:0:
469,192,62138,1,0,0:0:0:0:
298,192,62237,1,0,0:0:0:0:
42,192,62336,1,0,0:0:0:0:
213,192,62336,1,0,0:0:0:0:
128,192,62336,1,0,0:0:0:0:
384,192,62436,1,0,0:0:0:0:
42,192,62535,1,0,0:0:0:0:
128,192,62535,1,0,0:0:0:0:
469,192,62634,1,0,0:0:0:0:
384,192,62734,1,0,0:0:0:0:
213,192,62734,1,0,0:0:0:0:
42,192,62734,1,0,0:0:0:0:
298,192,62734,1,0,0:0:0:0:
298,192,62932,1,0,0:0:0:0:
384,192,62932,1,0,0:0:0:0:
42,192,63032,1,0,0:0:0:0:
128,192,63131,1,0,0:0:0:0:
213,192,63131,1,0,0:0:0:0:
469,192,63131,1,0,0:0:0:0:
384,192,63230,1,0,0:0:0:0:
128,192,63330,1,0,0:0:0:0:
213,192,63330,1,0,0:0:0:0:
298,192,63429,1,0,0:0:0:0:
128,192,63528,1,0,0:0:0:0:
469,192,63528,1,0,0:0:0:0:
42,192,63528,1,0,0:0:0:0:
384,192,63528,1,0,0:0:0:0:
128,192,63826,1,0,0:0:0:0:
42,192,63826,1,0,0:0:0:0:
384,192,63826,1,0,0:0:0:0:
469,192,63826,1,0,0:0:0:0:
469,192,64124,128,0,65118:0:0:0:0:
42,192,64124,128,0,65118:0:0:0:0:
213,192,64124,1,0,0:0:0:0:
298,192,64124,1,0,0:0:0:0:
128,192,64522,1,0,0:0:0:0:
213,192,64720,1,0,0:0:0:0:
298,192,64919,1,0,0:0:0:0:
384,192,65118,1,0,0:0:0:0:
128,192,65118,1,0,0:0:0:0:
213,192,65118,1,0,0:0:0:0:
298,192,65118,1,0,0:0:0:0:
469,192,65316,1,0,0:0:0:0:
42,192,65316,1,0,0:0:0:0:
298,192,65515,1,0,0:0:0:0:
469,192,65614,1,0,0:0:0:0:
42,192,65614,1,0,0:0:0:0:
213,192,65714,1,0,0:0:0:0:
469,192,65912,1,0,0:0:0:0:
298,192,65912,1,0,0:0:0:0:
128,192,65912,1,0,0:0:0:0:
42,192,66111,1,0,0:0:0:0:
298,192,66210,1,0,0:0:0:0:
384,192,66210,1,0,0:0:0:0:
213,192,66210,1,0,0:0:0:0:
384,192,66508,1,0,0:0:0:0:
128,192,66508,1,0,0:0:0:0:
469,192,66508,1,0,0:0:0:0:
42,192,66707,1,0,0:0:0:0:
213,192,66707,1,0,0:0:0:0:
298,192,66707,1,0,0:0:0:0:
298,192,66906,1,0,0:0:0:0:
469,192,66906,1,0,0:0:0:0:
384,192,67104,1,0,0:0:0:0:
213,192,67204,1,0,0:0:0:0:
42,192,67204,1,0,0:0:0:0:
469,192,67303,1,0,0:0:0:0:
384,192,67402,1,0,0:0:0:0:
298,192,67502,1,0,0:0:0:0:
128,192,67502,1,0,0:0:0:0:
469,192,67502,1,0,0:0:0:0:
213,192,67700,1,0,0:0:0:0:
42,192,67700,1,0,0:0:0:0:
384,192,67700,1,0,0:0:0:0:
213,192,67899,1,0,0:0:0:0:
469,192,67899,1,0,0:0:0:0:
128,192,67899,1,0,0:0:0:0:
298,192,68098,1,0,0:0:0:0:
384,192,68098,1,0,0:0:0:0:
42,192,68098,1,0,0:0:0:0:
469,192,68296,1,0,0:0:0:0:
128,192,68296,1,0,0:0:0:0:
298,192,68296,1,0,0:0:0:0:
42,192,68495,1,0,0:0:0:0:
384,192,68495,1,0,0:0:0:0:
384,192,68694,1,0,0:0:0:0:
213,192,68793,1,0,0:0:0:0:
42,192,68793,1,0,0:0:0:0:
469,192,68992,1,0,0:0:0:0:
128,192,69091,1,0,0:0:0:0:
213,192,69091,1,0,0:0:0:0:
384,192,69091,1,0,0:0:0:0:
42,192,69290,1,0,0:0:0:0:
298,192,69389,1,0,0:0:0:0:
213,192,69389,1,0,0:0:0:0:
469,192,69389,1,0,0:0:0:0:
298,192,69687,1,0,0:0:0:0:
128,192,69687,1,0,0:0:0:0:
384,192,69687,1,0,0:0:0:0:
42,192,69886,1,0,0:0:0:0:
384,192,69886,1,0,0:0:0:0:
213,192,69886,1,0,0:0:0:0:
469,192,70085,1,0,0:0:0:0:
128,192,70085,1,0,0:0:0:0:
298,192,70283,1,0,0:0:0:0:
384,192,70383,1,0,0:0:0:0:
42,192,70383,1,0,0:0:0:0:
128,192,70482,1,0,0:0:0:0:
213,192,70581,1,0,0:0:0:0:
42,192,70681,1,0,0:0:0:0:
469,192,70681,1,0,0:0:0:0:
298,192,70681,1,0,0:0:0:0:
384,192,70879,1,0,0:0:0:0:
128,192,70879,1,0,0:0:0:0:
213,192,70879,1,0,0:0:0:0:
42,192,71078,1,0,0:0:0:0:
128,192,71078,1,0,0:0:0:0:
298,192,71078,1,0,0:0:0:0:
469,192,71277,1,0,0:0:0:0:
384,192,71277,1,0,0:0:0:0:
213,192,71277,1,0,0:0:0:0:
384,192,71475,1,0,0:0:0:0:
298,192,71475,1,0,0:0:0:0:
128,192,71475,1,0,0:0:0:0:
42,192,71674,1,0,0:0:0:0:
213,192,71674,1,0,0:0:0:0:
128,192,71873,1,0,0:0:0:0:
213,192,71972,1,0,0:0:0:0:
384,192,72071,1,0,0:0:0:0:
298,192,72071,1,0,0:0:0:0:
42,192,72071,1,0,0:0:0:0:
469,192,72270,1,0,0:0:0:0:
298,192,72270,1,0,0:0:0:0:
213,192,72270,1,0,0:0:0:0:
384,192,72469,1,0,0:0:0:0:
298,192,72568,1,0,0:0:0:0:
128,192,72568,1,0,0:0:0:0:
42,192,72568,1,0,0:0:0:0:
384,192,72866,1,0,0:0:0:0:
128,192,72866,1,0,0:0:0:0:
213,192,72866,1,0,0:0:0:0:
213,192,73065,1,0,0:0:0:0:
469,192,73065,1,0,0:0:0:0:
42,192,73065,1,0,0:0:0:0:
298,192,73263,1,0,0:0:0:0:
384,192,73263,1,0,0:0:0:0:
213,192,73363,1,0,0:0:0:0:
128,192,73462,1,0,0:0:0:0:
469,192,73561,1,0,0:0:0:0:
298,192,73561,1,0,0:0:0:0:
42,192,73661,1,0,0:0:0:0:
128,192,73760,1,0,0:0:0:0:
384,192,73859,1,0,0:0:0:0:
213,192,73859,1,0,0:0:0:0:
469,192,73859,1,0,0:0:0:0:
298,192,74058,1,0,0:0:0:0:
42,192,74058,1,0,0:0:0:0:
128,192,74058,1,0,0:0:0:0:
42,192,74257,1,0,0:0:0:0:
213,192,74257,1,0,0:0:0:0:
384,192,74257,1,0,0:0:0:0:
469,192,74455,1,0,0:0:0:0:
298,192,74455,1,0,0:0:0:0:
128,192,74455,1,0,0:0:0:0:
384,192,74654,1,0,0:0:0:0:
469,192,74654,1,0,0:0:0:0:
213,192,74654,1,0,0:0:0:0:
128,192,74853,1,0,0:0:0:0:
42,192,74853,1,0,0:0:0:0:
298,192,75051,1,0,0:0:0:0:
128,192,75151,1,0,0:0:0:0:
42,192,75151,1,0,0:0:0:0:
469,192,75250,1,0,0:0:0:0:
298,192,75349,1,0,0:0:0:0:
384,192,75449,1,0,0:0:0:0:
213,192,75449,1,0,0:0:0:0:
128,192,75449,1,0,0:0:0:0:
298,192,75747,1,0,0:0:0:0:
469,192,75747,1,0,0:0:0:0:
42,192,75747,1,0,0:0:0:0:
213,192,76045,1,0,0:0:0:0:
128,192,76045,1,0,0:0:0:0:
42,192,76045,1,0,0:0:0:0:
384,192,76243,1,0,0:0:0:0:
213,192,76243,1,0,0:0:0:0:
469,192,76243,1,0,0:0:0:0:
128,192,76442,1,0,0:0:0:0:
298,192,76442,1,0,0:0:0:0:
469,192,76641,1,0,0:0:0:0:
213,192,76740,1,0,0:0:0:0:
42,192,76740,1,0,0:0:0:0:
384,192,76906,1,0,0:0:0:0:
298,192,76972,1,0,0:0:0:0:
213,192,77038,1,0,0:0:0:0:
469,192,77038,1,0,0:0:0:0:
42,192,77038,1,0,0:0:0:0:
384,192,77237,1,0,0:0:0:0:
128,192,77237,1,0,0:0:0:0:
298,192,77237,1,0,0:0:0:0:
213,192,77436,1,0,0:0:0:0:
42,192,77436,1,0,0:0:0:0:
469,192,77568,1,0,0:0:0:0:
384,192,77568,1,0,0:0:0:0:
298,192,77700,1,0,0:0:0:0:
213,192,77700,1,0,0:0:0:0:
128,192,77833,1,0,0:0:0:0:
469,192,77833,1,0,0:0:0:0:
42,192,77833,1,0,0:0:0:0:
384,192,77833,128,0,78429:0:0:0:0:
213,192,78032,1,0,0:0:0:0:
128,192,78230,1,0,0:0:0:0:
42,192,78230,1,0,0:0:0:0:
213,192,78330,1,0,0:0:0:0:
298,192,78429,1,0,0:0:0:0:
42,192,78429,1,0,0:0:0:0:
469,192,78429,1,0,0:0:0:0:
469,192,78628,128,0,79224:0:0:0:0:
213,192,78628,1,0,0:0:0:0:
384,192,78628,1,0,0:0:0:0:
298,192,78926,1,0,0:0:0:0:
213,192,78926,1,0,0:0:0:0:
128,192,79025,1,0,0:0:0:0:
42,192,79025,1,0,0:0:0:0:
213,192,79224,1,0,0:0:0:0:
384,192,79224,1,0,0:0:0:0:
298,192,79224,1,0,0:0:0:0:
128,192,79323,1,0,0:0:0:0:
384,192,79422,1,0,0:0:0:0:
469,192,79422,1,0,0:0:0:0:
42,192,79422,128,0,80018:0:0:0:0:
213,192,79621,1,0,0:0:0:0:
384,192,79820,1,0,0:0:0:0:
469,192,79820,1,0,0:0:0:0:
298,192,79919,1,0,0:0:0:0:
213,192,80018,1,0,0:0:0:0:
128,192,80018,1,0,0:0:0:0:
384,192,80118,1,0,0:0:0:0:
469,192,80118,1,0,0:0:0:0:
42,192,80217,1,0,0:0:0:0:
128,192,80217,128,0,80813:0:0:0:0:
298,192,80217,1,0,0:0:0:0:
213,192,80416,1,0,0:0:0:0:
384,192,80416,1,0,0:0:0:0:
213,192,80614,1,0,0:0:0:0:
469,192,80614,1,0,0:0:0:0:
298,192,80614,1,0,0:0:0:0:
384,192,80813,1,0,0:0:0:0:
42,192,80813,1,0,0:0:0:0:
469,192,80813,1,0,0:0:0:0:
298,192,80912,1,0,0:0:0:0:
213,192,81012,1,0,0:0:0:0:
384,192,81012,128,0,81608:0:0:0:0:
128,192,81012,1,0,0:0:0:0:
42,192,81210,1,0,0:0:0:0:
298,192,81409,1,0,0:0:0:0:
213,192,81409,1,0,0:0:0:0:
42,192,81508,1,0,0:0:0:0:
298,192,81757,1,0,0:0:0:0:
213,192,81806,1,0,0:0:0:0:
128,192,81806,128,0,82402:0:0:0:0:
384,192,81806,1,0,0:0:0:0:
469,192,82104,1,0,0:0:0:0:
298,192,82104,1,0,0:0:0:0:
213,192,82204,1,0,0:0:0:0:
384,192,82204,1,0,0:0:0:0:
213,192,82402,1,0,0:0:0:0:
298,192,82402,1,0,0:0:0:0:
42,192,82402,1,0,0:0:0:0:
384,192,82502,1,0,0:0:0:0:
469,192,82601,1,0,0:0:0:0:
128,192,82601,1,0,0:0:0:0:
298,192,82601,128,0,83197:0:0:0:0:
42,192,82601,1,0,0:0:0:0:
128,192,82800,1,0,0:0:0:0:
384,192,82800,1,0,0:0:0:0:
469,192,82998,1,0,0:0:0:0:
213,192,82998,1,0,0:0:0:0:
42,192,83098,1,0,0:0:0:0:
213,192,83197,1,0,0:0:0:0:
469,192,83197,1,0,0:0:0:0:
128,192,83296,1,0,0:0:0:0:
384,192,83296,1,0,0:0:0:0:
298,192,83396,1,0,0:0:0:0:
213,192,83396,128,0,83992:0:0:0:0:
42,192,83396,1,0,0:0:0:0:
384,192,83594,1,0,0:0:0:0:
128,192,83594,1,0,0:0:0:0:
298,192,83793,1,0,0:0:0:0:
469,192,83793,1,0,0:0:0:0:
42,192,83793,1,0,0:0:0:0:
128,192,83992,1,0,0:0:0:0:
298,192,83992,1,0,0:0:0:0:
384,192,84091,1,0,0:0:0:0:
42,192,84191,1,0,0:0:0:0:
469,192,84191,1,0,0:0:0:0:
128,192,84191,1,0,0:0:0:0:
213,192,84191,1,0,0:0:0:0:
298,192,84389,1,0,0:0:0:0:
213,192,84389,1,0,0:0:0:0:
469,192,84588,1,0,0:0:0:0:
42,192,84588,1,0,0:0:0:0:
384,192,84588,1,0,0:0:0:0:
213,192,84787,1,0,0:0:0:0:
128,192,84787,1,0,0:0:0:0:
298,192,84985,1,0,0:0:0:0:
42,192,84985,1,0,0:0:0:0:
469,192,84985,1,0,0:0:0:0:
384,192,85184,1,0,0:0:0:0:
469,192,85184,1,0,0:0:0:0:
42,192,85184,1,0,0:0:0:0:
213,192,85184,1,0,0:0:0:0:
42,192,85482,1,0,0:0:0:0:
128,192,85482,1,0,0:0:0:0:
298,192,85482,1,0,0:0:0:0:
469,192,85482,1,0,0:0:0:0:
384,192,85780,1,0,0:0:0:0:
298,192,85780,1,0,0:0:0:0:
213,192,85780,1,0,0:0:0:0:
42,192,85780,1,0,0:0:0:0:
128,192,85979,1,0,0:0:0:0:
213,192,85979,1,0,0:0:0:0:
42,192,86177,1,0,0:0:0:0:
469,192,86177,1,0,0:0:0:0:
384,192,86177,1,0,0:0:0:0:
469,192,86376,1,0,0:0:0:0:
213,192,86376,1,0,0:0:0:0:
384,192,86475,1,0,0:0:0:0:
128,192,86475,1,0,0:0:0:0:
298,192,86575,1,0,0:0:0:0:
42,192,86575,1,0,0:0:0:0:
128,192,86674,1,0,0:0:0:0:
298,192,86773,1,0,0:0:0:0:
213,192,86773,1,0,0:0:0:0:
384,192,86773,1,0,0:0:0:0:
469,192,86773,1,0,0:0:0:0:
298,192,87071,1,0,0:0:0:0:
384,192,87071,1,0,0:0:0:0:
213,192,87071,1,0,0:0:0:0:
128,192,87071,1,0,0:0:0:0:
213,192,87369,1,0,0:0:0:0:
128,192,87369,1,0,0:0:0:0:
42,192,87369,1,0,0:0:0:0:
384,192,87369,1,0,0:0:0:0:
469,192,87469,1,0,0:0:0:0:
128,192,87568,1,0,0:0:0:0:
213,192,87568,1,0,0:0:0:0:
298,192,87667,1,0,0:0:0:0:
42,192,87767,1,0,0:0:0:0:
469,192,87767,1,0,0:0:0:0:
384,192,87767,1,0,0:0:0:0:
213,192,87866,1,0,0:0:0:0:
384,192,87965,1,0,0:0:0:0:
469,192,87965,1,0,0:0:0:0:
298,192,88065,1,0,0:0:0:0:
469,192,88164,1,0,0:0:0:0:
128,192,88164,1,0,0:0:0:0:
42,192,88164,1,0,0:0:0:0:
213,192,88164,1,0,0:0:0:0:
384,192,88263,1,0,0:0:0:0:
128,192,88363,1,0,0:0:0:0:
42,192,88363,1,0,0:0:0:0:
298,192,88462,1,0,0:0:0:0:
42,192,88561,1,0,0:0:0:0:
469,192,88561,1,0,0:0:0:0:
384,192,88561,1,0,0:0:0:0:
128,192,88611,1,0,0:0:0:0:
213,192,88661,1,0,0:0:0:0:
298,192,88710,1,0,0:0:0:0:
469,192,88760,1,0,0:0:0:0:
384,192,88810,1,0,0:0:0:0:
298,192,88859,1,0,0:0:0:0:
213,192,88909,1,0,0:0:0:0:
128,192,88959,1,0,0:0:0:0:
42,192,88959,1,0,0:0:0:0:
469,192,88959,1,0,0:0:0:0:
384,192,88959,1,0,0:0:0:0:
128,192,89257,1,0,0:0:0:0:
469,192,89257,1,0,0:0:0:0:
42,192,89257,1,0,0:0:0:0:
384,192,89257,1,0,0:0:0:0:
213,192,89555,128,0,90051:0:0:0:0:
42,192,89555,128,0,90548:0:0:0:0:
384,192,89555,1,0,0:0:0:0:
298,192,89555,1,0,0:0:0:0:
469,192,90051,1,0,0:0:0:0:
213,192,90151,1,0,0:0:0:0:
128,192,90151,1,0,0:0:0:0:
384,192,90151,1,0,0:0:0:0:
298,192,90349,128,0,90449:0:0:0:0:
469,192,90349,1,0,0:0:0:0:
384,192,90449,128,0,90548:0:0:0:0:
298,192,90548,128,0,90747:0:0:0:0:
469,192,90548,1,0,0:0:0:0:
128,192,90548,1,0,0:0:0:0:
213,192,90548,1,0,0:0:0:0:
42,192,90747,128,0,90945:0:0:0:0:
128,192,90747,1,0,0:0:0:0:
384,192,90945,128,0,91045:0:0:0:0:
213,192,90945,1,0,0:0:0:0:
469,192,90945,1,0,0:0:0:0:
42,192,91045,1,0,0:0:0:0:
128,192,91045,128,0,91144:0:0:0:0:
469,192,91243,128,0,91641:0:0:0:0:
128,192,91243,1,0,0:0:0:0:
298,192,91343,1,0,0:0:0:0:
384,192,91343,1,0,0:0:0:0:
213,192,91442,128,0,91541:0:0:0:0:
128,192,91541,128,0,91641:0:0:0:0:
42,192,91641,128,0,91840:0:0:0:0:
469,192,91740,1,0,0:0:0:0:
384,192,91740,1,0,0:0:0:0:
213,192,91840,128,0,91939:0:0:0:0:
298,192,91939,128,0,92038:0:0:0:0:
384,192,92038,128,0,92138:0:0:0:0:
469,192,92138,128,0,92336:0:0:0:0:
42,192,92138,1,0,0:0:0:0:
128,192,92138,1,0,0:0:0:0:
213,192,92336,128,0,92535:0:0:0:0:
298,192,92336,1,0,0:0:0:0:
42,192,92535,128,0,92634:0:0:0:0:
128,192,92535,1,0,0:0:0:0:
469,192,92535,1,0,0:0:0:0:
298,192,92634,1,0,0:0:0:0:
384,192,92634,128,0,92734:0:0:0:0:
128,192,92833,128,0,93032:0:0:0:0:
42,192,92833,1,0,0:0:0:0:
384,192,92932,1,0,0:0:0:0:
469,192,92932,1,0,0:0:0:0:
213,192,93032,128,0,93131:0:0:0:0:
298,192,93131,128,0,93230:0:0:0:0:
384,192,93230,128,0,93330:0:0:0:0:
469,192,93330,128,0,93429:0:0:0:0:
42,192,93330,1,0,0:0:0:0:
128,192,93330,1,0,0:0:0:0:
298,192,93429,128,0,93528:0:0:0:0:
213,192,93528,128,0,93628:0:0:0:0:
128,192,93628,128,0,93727:0:0:0:0:
469,192,93727,128,0,93826:0:0:0:0:
384,192,93727,1,0,0:0:0:0:
42,192,93727,128,0,93826:0:0:0:0:
42,192,93926,128,0,94124:0:0:0:0:
298,192,93926,1,0,0:0:0:0:
213,192,94124,1,0,0:0:0:0:
298,192,94124,128,0,94224:0:0:0:0:
128,192,94124,1,0,0:0:0:0:
469,192,94224,128,0,94323:0:0:0:0:
384,192,94224,1,0,0:0:0:0:
42,192,94422,128,0,94522:0:0:0:0:
213,192,94422,1,0,0:0:0:0:
469,192,94522,1,0,0:0:0:0:
298,192,94522,1,0,0:0:0:0:
384,192,94621,128,0,94720:0:0:0:0:
213,192,94720,128,0,94820:0:0:0:0:
42,192,94720,1,0,0:0:0:0:
384,192,94919,1,0,0:0:0:0:
213,192,94919,1,0,0:0:0:0:
469,192,94919,128,0,95018:0:0:0:0:
42,192,95118,128,0,95217:0:0:0:0:
298,192,95118,1,0,0:0:0:0:
128,192,95316,128,0,95416:0:0:0:0:
213,192,95316,1,0,0:0:0:0:
469,192,95316,1,0,0:0:0:0:
298,192,95515,1,0,0:0:0:0:
384,192,95515,128,0,95614:0:0:0:0:
128,192,95714,1,0,0:0:0:0:
42,192,95714,128,0,95813:0:0:0:0:
213,192,95714,1,0,0:0:0:0:
469,192,95813,128,0,95912:0:0:0:0:
384,192,96012,128,0,96409:0:0:0:0:
298,192,96012,1,0,0:0:0:0:
42,192,96111,1,0,0:0:0:0:
128,192,96111,1,0,0:0:0:0:
213,192,96210,128,0,96310:0:0:0:0:
128,192,96310,128,0,96409:0:0:0:0:
42,192,96409,128,0,96508:0:0:0:0:
469,192,96508,1,0,0:0:0:0:
384,192,96508,1,0,0:0:0:0:
213,192,96608,128,0,96806:0:0:0:0:
298,192,96608,1,0,0:0:0:0:
42,192,96906,128,0,97104:0:0:0:0:
298,192,96906,1,0,0:0:0:0:
384,192,96906,1,0,0:0:0:0:
469,192,97104,128,0,97303:0:0:0:0:
213,192,97104,1,0,0:0:0:0:
128,192,97303,128,0,97402:0:0:0:0:
298,192,97303,1,0,0:0:0:0:
42,192,97303,1,0,0:0:0:0:
469,192,97402,1,0,0:0:0:0:
384,192,97402,128,0,97502:0:0:0:0:
42,192,97601,128,0,97998:0:0:0:0:
384,192,97601,1,0,0:0:0:0:
213,192,97700,1,0,0:0:0:0:
128,192,97700,1,0,0:0:0:0:
298,192,97800,128,0,97899:0:0:0:0:
384,192,97899,128,0,97998:0:0:0:0:
469,192,97998,128,0,98197:0:0:0:0:
42,192,98098,1,0,0:0:0:0:
128,192,98098,1,0,0:0:0:0:
298,192,98197,128,0,98296:0:0:0:0:
213,192,98296,128,0,98396:0:0:0:0:
128,192,98396,128,0,98495:0:0:0:0:
42,192,98495,128,0,98694:0:0:0:0:
469,192,98495,1,0,0:0:0:0:
384,192,98495,1,0,0:0:0:0:
298,192,98694,128,0,98892:0:0:0:0:
213,192,98694,1,0,0:0:0:0:
469,192,98892,128,0,98992:0:0:0:0:
384,192,98892,1,0,0:0:0:0:
42,192,98892,1,0,0:0:0:0:
213,192,98992,1,0,0:0:0:0:
128,192,98992,128,0,99091:0:0:0:0:
384,192,99191,128,0,99389:0:0:0:0:
469,192,99191,1,0,0:0:0:0:
128,192,99290,1,0,0:0:0:0:
42,192,99290,1,0,0:0:0:0:
298,192,99389,128,0,99489:0:0:0:0:
213,192,99489,128,0,99588:0:0:0:0:
128,192,99588,128,0,99687:0:0:0:0:
42,192,99687,128,0,99787:0:0:0:0:
469,192,99687,1,0,0:0:0:0:
384,192,99687,1,0,0:0:0:0:
213,192,99787,128,0,99886:0:0:0:0:
469,192,99886,128,0,99985:0:0:0:0:
298,192,99985,128,0,100085:0:0:0:0:
42,192,100085,128,0,100184:0:0:0:0:
128,192,100085,1,0,0:0:0:0:
469,192,100085,128,0,100184:0:0:0:0:
213,192,100283,128,0,100482:0:0:0:0:
384,192,100283,1,0,0:0:0:0:
298,192,100482,1,0,0:0:0:0:
128,192,100482,1,0,0:0:0:0:
42,192,100482,128,0,100681:0:0:0:0:
469,192,100581,128,0,100681:0:0:0:0:
384,192,100780,128,0,100979:0:0:0:0:
213,192,100780,1,0,0:0:0:0:
128,192,100879,1,0,0:0:0:0:
298,192,100979,128,0,101277:0:0:0:0:
42,192,101078,128,0,101277:0:0:0:0:
128,192,101078,1,0,0:0:0:0:
213,192,101277,1,0,0:0:0:0:
469,192,101277,1,0,0:0:0:0:
384,192,101277,128,0,101674:0:0:0:0:
128,192,101475,128,0,101674:0:0:0:0:
42,192,101674,1,0,0:0:0:0:
469,192,101674,1,0,0:0:0:0:
298,192,101674,1,0,0:0:0:0:
128,192,101873,128,0,102171:0:0:0:0:
384,192,102071,1,0,0:0:0:0:
469,192,102071,1,0,0:0:0:0:
213,192,102071,1,0,0:0:0:0:
298,192,102171,128,0,102369:0:0:0:0:
298,192,102469,1,0,0:0:0:0:
42,192,102469,128,0,102767:0:0:0:0:
213,192,102469,1,0,0:0:0:0:
384,192,102469,1,0,0:0:0:0:
469,192,102767,128,0,103065:0:0:0:0:
384,192,102767,1,0,0:0:0:0:
42,192,102866,1,0,0:0:0:0:
128,192,102866,1,0,0:0:0:0:
213,192,102866,1,0,0:0:0:0:
298,192,102965,1,0,0:0:0:0:
128,192,103065,1,0,0:0:0:0:
213,192,103065,128,0,103263:0:0:0:0:
384,192,103164,1,0,0:0:0:0:
298,192,103263,1,0,0:0:0:0:
42,192,103263,128,0,105647:0:0:0:0:
469,192,103263,128,0,103363:0:0:0:0:
384,192,103363,128,0,103462:0:0:0:0:
298,192,103462,128,0,103561:0:0:0:0:
128,192,103561,128,0,103661:0:0:0:0:
298,192,103661,1,0,0:0:0:0:
469,192,103661,1,0,0:0:0:0:
213,192,103760,128,0,103959:0:0:0:0:
384,192,103959,128,0,104058:0:0:0:0:
128,192,104058,1,0,0:0:0:0:
213,192,104058,1,0,0:0:0:0:
384,192,104157,128,0,104257:0:0:0:0:
298,192,104257,128,0,104356:0:0:0:0:
298,192,104455,1,0,0:0:0:0:
469,192,104455,128,0,104555:0:0:0:0:
213,192,104455,1,0,0:0:0:0:
469,192,104654,128,0,104753:0:0:0:0:
298,192,104753,128,0,104853:0:0:0:0:
384,192,104853,128,0,104952:0:0:0:0:
128,192,104853,1,0,0:0:0:0:
213,192,104952,128,0,105051:0:0:0:0:
128,192,105151,128,0,105250:0:0:0:0:
384,192,105250,1,0,0:0:0:0:
469,192,105250,1,0,0:0:0:0:
298,192,105349,128,0,105449:0:0:0:0:
213,192,105449,128,0,105548:0:0:0:0:
128,192,105548,128,0,105647:0:0:0:0:
469,192,105647,128,0,106045:0:0:0:0:
384,192,105647,128,0,105747:0:0:0:0:
298,192,105747,128,0,105846:0:0:0:0:
42,192,105945,128,0,106144:0:0:0:0:
384,192,106045,128,0,106442:0:0:0:0:
128,192,106045,1,0,0:0:0:0:
213,192,106045,1,0,0:0:0:0:
298,192,106144,128,0,106243:0:0:0:0:
128,192,106243,128,0,106343:0:0:0:0:
213,192,106343,128,0,106442:0:0:0:0:
469,192,106442,128,0,107237:0:0:0:0:
42,192,106442,128,0,106541:0:0:0:0:
298,192,106442,1,0,0:0:0:0:
128,192,106541,128,0,106641:0:0:0:0:
298,192,106641,128,0,106740:0:0:0:0:
42,192,106740,128,0,106939:0:0:0:0:
213,192,106840,1,0,0:0:0:0:
298,192,106840,1,0,0:0:0:0:
384,192,106939,128,0,107038:0:0:0:0:
298,192,107038,128,0,107138:0:0:0:0:
213,192,107138,128,0,107237:0:0:0:0:
128,192,107237,128,0,108032:0:0:0:0:
42,192,107237,128,0,107336:0:0:0:0:
384,192,107336,128,0,107436:0:0:0:0:
298,192,107535,128,0,107634:0:0:0:0:
469,192,107634,1,0,0:0:0:0:
384,192,107634,1,0,0:0:0:0:
469,192,107833,128,0,107932:0:0:0:0:
384,192,107932,128,0,108032:0:0:0:0:
42,192,108032,128,0,108429:0:0:0:0:
298,192,108032,128,0,108131:0:0:0:0:
213,192,108131,128,0,108230:0:0:0:0:
298,192,108330,128,0,108429:0:0:0:0:
128,192,108429,128,0,108826:0:0:0:0:
469,192,108429,1,0,0:0:0:0:
213,192,108429,1,0,0:0:0:0:
384,192,108528,128,0,108628:0:0:0:0:
469,192,108727,128,0,108826:0:0:0:0:
213,192,108826,128,0,109224:0:0:0:0:
42,192,108826,1,0,0:0:0:0:
384,192,108826,128,0,108926:0:0:0:0:
298,192,108926,128,0,109025:0:0:0:0:
384,192,109124,128,0,109224:0:0:0:0:
128,192,109224,1,0,0:0:0:0:
42,192,109224,1,0,0:0:0:0:
298,192,109224,128,0,109621:0:0:0:0:
469,192,109323,128,0,109422:0:0:0:0:
42,192,109422,128,0,109522:0:0:0:0:
213,192,109522,128,0,109621:0:0:0:0:
469,192,109621,128,0,110118:0:0:0:0:
384,192,109621,128,0,110118:0:0:0:0:
128,192,109621,1,0,0:0:0:0:
42,192,109621,1,0,0:0:0:0:
213,192,109820,1,0,0:0:0:0:
213,192,110018,1,0,0:0:0:0:
42,192,110018,1,0,0:0:0:0:
298,192,110217,128,0,110316:0:0:0:0:
128,192,110217,1,0,0:0:0:0:
469,192,110316,128,0,110614:0:0:0:0:
128,192,110416,1,0,0:0:0:0:
384,192,110416,128,0,110614:0:0:0:0:
298,192,110515,128,0,110614:0:0:0:0:
42,192,110614,1,0,0:0:0:0:
384,192,110714,128,0,110813:0:0:0:0:
213,192,110813,1,0,0:0:0:0:
42,192,110813,1,0,0:0:0:0:
469,192,110912,128,0,111012:0:0:0:0:
298,192,111012,128,0,111111:0:0:0:0:
128,192,111012,1,0,0:0:0:0:
469,192,111111,128,0,111210:0:0:0:0:
128,192,111210,128,0,111608:0:0:0:0:
42,192,111210,128,0,111608:0:0:0:0:
384,192,111210,1,0,0:0:0:0:
213,192,111210,1,0,0:0:0:0:
298,192,111409,1,0,0:0:0:0:
298,192,111608,1,0,0:0:0:0:
469,192,111608,1,0,0:0:0:0:
128,192,111707,128,0,111806:0:0:0:0:
213,192,111806,128,0,111906:0:0:0:0:
384,192,111806,1,0,0:0:0:0:
42,192,111906,128,0,112204:0:0:0:0:
298,192,112005,1,0,0:0:0:0:
128,192,112005,128,0,112204:0:0:0:0:
384,192,112005,1,0,0:0:0:0:
213,192,112104,128,0,112204:0:0:0:0:
469,192,112204,1,0,0:0:0:0:
128,192,112303,128,0,112402:0:0:0:0:
469,192,112402,1,0,0:0:0:0:
298,192,112402,1,0,0:0:0:0:
42,192,112502,128,0,112601:0:0:0:0:
213,192,112601,128,0,112700:0:0:0:0:
384,192,112601,1,0,0:0:0:0:
298,192,112700,128,0,112800:0:0:0:0:
469,192,112800,128,0,113197:0:0:0:0:
384,192,112800,128,0,113197:0:0:0:0:
128,192,112800,1,0,0:0:0:0:
42,192,112800,1,0,0:0:0:0:
42,192,112998,1,0,0:0:0:0:
213,192,113197,1,0,0:0:0:0:
298,192,113197,1,0,0:0:0:0:
42,192,113197,128,0,113296:0:0:0:0:
384,192,113296,128,0,113396:0:0:0:0:
213,192,113396,1,0,0:0:0:0:
128,192,113396,128,0,113495:0:0:0:0:
469,192,113495,128,0,113594:0:0:0:0:
384,192,113594,1,0,0:0:0:0:
298,192,113594,1,0,0:0:0:0:
213,192,113594,128,0,113694:0:0:0:0:
42,192,113694,128,0,113793:0:0:0:0:
298,192,113793,1,0,0:0:0:0:
384,192,113892,128,0,113992:0:0:0:0:
469,192,113992,1,0,0:0:0:0:
42,192,113992,1,0,0:0:0:0:
128,192,114091,128,0,114191:0:0:0:0:
469,192,114191,1,0,0:0:0:0:
213,192,114191,128,0,114290:0:0:0:0:
298,192,114290,128,0,114389:0:0:0:0:
384,192,114389,128,0,114489:0:0:0:0:
128,192,114389,1,0,0:0:0:0:
42,192,114389,1,0,0:0:0:0:
298,192,114489,128,0,114588:0:0:0:0:
469,192,114687,128,0,114787:0:0:0:0:
42,192,114787,1,0,0:0:0:0:
128,192,114787,1,0,0:0:0:0:
298,192,114787,1,0,0:0:0:0:
213,192,114985,128,0,115482:0:0:0:0:
384,192,115184,1,0,0:0:0:0:
469,192,115184,1,0,0:0:0:0:
298,192,115184,128,0,115482:0:0:0:0:
42,192,115482,128,0,115581:0:0:0:0:
469,192,115581,1,0,0:0:0:0:
384,192,115581,1,0,0:0:0:0:
298,192,115581,128,0,115681:0:0:0:0:
213,192,115681,128,0,115979:0:0:0:0:
128,192,115780,128,0,115979:0:0:0:0:
42,192,115879,128,0,115979:0:0:0:0:
469,192,115979,128,0,116277:0:0:0:0:
384,192,115979,1,0,0:0:0:0:
298,192,115979,1,0,0:0:0:0:
298,192,116177,1,0,0:0:0:0:
384,192,116277,128,0,116376:0:0:0:0:
213,192,116376,128,0,116475:0:0:0:0:
42,192,116376,1,0,0:0:0:0:
128,192,116376,1,0,0:0:0:0:
298,192,116475,128,0,116773:0:0:0:0:
384,192,116575,128,0,116773:0:0:0:0:
42,192,116575,1,0,0:0:0:0:
469,192,116674,128,0,116773:0:0:0:0:
42,192,116773,128,0,116873:0:0:0:0:
128,192,116773,1,0,0:0:0:0:
213,192,116773,1,0,0:0:0:0:
384,192,116873,128,0,116972:0:0:0:0:
469,192,116972,1,0,0:0:0:0:
213,192,116972,1,0,0:0:0:0:
298,192,117071,128,0,117171:0:0:0:0:
128,192,117171,1,0,0:0:0:0:
42,192,117171,1,0,0:0:0:0:
384,192,117171,1,0,0:0:0:0:
213,192,117270,128,0,117369:0:0:0:0:
469,192,117270,1,0,0:0:0:0:
298,192,117369,1,0,0:0:0:0:
128,192,117469,128,0,117568:0:0:0:0:
384,192,117469,1,0,0:0:0:0:
469,192,117568,1,0,0:0:0:0:
42,192,117568,1,0,0:0:0:0:
298,192,117568,1,0,0:0:0:0:
213,192,117568,1,0,0:0:0:0:
469,192,117866,1,0,0:0:0:0:
42,192,117866,1,0,0:0:0:0:
298,192,117866,1,0,0:0:0:0:
213,192,117866,1,0,0:0:0:0:
42,192,118164,128,0,118760:0:0:0:0:
128,192,118164,128,0,118760:0:0:0:0:
384,192,118164,1,0,0:0:0:0:
469,192,118164,1,0,0:0:0:0:
298,192,118363,1,0,0:0:0:0:
469,192,118462,1,0,0:0:0:0:
213,192,118561,1,0,0:0:0:0:
384,192,118661,1,0,0:0:0:0:
213,192,118760,1,0,0:0:0:0:
298,192,118810,1,0,0:0:0:0:
384,192,118859,1,0,0:0:0:0:
469,192,118909,1,0,0:0:0:0:
42,192,118959,1,0,0:0:0:0:
128,192,119008,1,0,0:0:0:0:
213,192,119058,1,0,0:0:0:0:
298,192,119108,1,0,0:0:0:0:
384,192,119157,1,0,0:0:0:0:
469,192,119157,1,0,0:0:0:0:
42,192,119157,1,0,0:0:0:0:
128,192,119157,1,0,0:0:0:0:
