osu file format v14

[General]
AudioFilename: audio.ogg
AudioLeadIn: 0
PreviewTime: 90347
Countdown: 0
SampleSet: Soft
StackLeniency: 0.7
Mode: 3
LetterboxInBreaks: 0
SpecialStyle: 0
WidescreenStoryboard: 1

[Editor]
DistanceSpacing: 1.05
BeatDivisor: 1
GridSize: 32
TimelineZoom: 0.4999998

[Metadata]
Title:NightTheater
TitleUnicode:NightTheater
Artist:*wakadori
ArtistUnicode:わかどり
Creator:Akasha-
Version:[18:45 P.M.] Beginner
Source:THE BMS OF FIGHTERS XVI -NEO DYSTOPIA-
Tags:SEGA CHUNITHM NEW PLUS WACCA Reserve ワッカ Marvelous Sixtar Gate Startrail チュウニズムニュー BEST MUSIC SELECTION 2 VARIETY SOUNDTRACK BOFXVI Muse Dash Give Up TREATMENT 音ゲー依存症 Vol.10 Jazz-Funk Jazz Funk Blues Saxophone Trumpet Electronic Instrumental Night Theater ウオウオ UOUO もがみ Critical_Star Kuo Kyoka FAMoss Seiran-
BeatmapID:3587182
BeatmapSetID:1752717

[Difficulty]
HPDrainRate:6
CircleSize:6
OverallDifficulty:6
ApproachRate:5
SliderMultiplier:1.4
SliderTickRate:1

[Events]
//Background and Video events
0,0,"BG.jpg",0,0
Video,-120,"BGA.mp4"
//Break Periods
//Storyboard Layer 0 (Background)
//Storyboard Layer 1 (Fail)
//Storyboard Layer 2 (Pass)
//Storyboard Layer 3 (Foreground)
//Storyboard Layer 4 (Overlay)
//Storyboard Sound Samples

[TimingPoints]
1540,397.350993377483,4,2,1,50,1,0
90546,-100,4,2,1,50,0,1
101672,-100,4,2,1,50,0,0
103261,-100,4,2,1,50,0,1
119155,-100,4,2,1,50,0,0

[HitObjects]
213,192,1540,128,4,3129:0:0:0:0:
469,192,3129,128,0,4718:0:0:0:0:
128,192,4718,128,0,6308:0:0:0:0:
384,192,6308,128,0,7897:0:0:0:0:
42,192,7897,1,2,0:0:0:0:
42,192,8692,1,2,0:0:0:0:
213,192,9487,1,2,0:0:0:0:
213,192,10281,1,2,0:0:0:0:
384,192,11076,1,2,0:0:0:0:
384,192,11871,1,2,0:0:0:0:
128,192,14255,1,6,0:0:0:0:
128,192,15049,1,2,0:0:0:0:
298,192,15844,1,2,0:0:0:0:
298,192,16639,1,2,0:0:0:0:
469,192,17434,1,2,0:0:0:0:
469,192,18228,1,2,0:0:0:0:
213,192,19023,1,2,0:0:0:0:
213,192,19818,1,2,0:0:0:0:
42,192,20612,1,6,0:0:0:0:
42,192,21407,1,2,0:0:0:0:
298,192,22202,1,2,0:0:0:0:
298,192,22996,1,2,0:0:0:0:
128,192,23791,1,2,0:0:0:0:
128,192,24586,1,2,0:0:0:0:
384,192,25381,1,2,0:0:0:0:
384,192,26573,1,6,0:0:0:0:
213,192,26970,1,2,0:0:0:0:
42,192,27367,1,14,0:0:0:0:
42,192,28162,1,10,0:0:0:0:
469,192,28957,1,10,0:0:0:0:
469,192,29751,1,10,0:0:0:0:
128,192,30546,1,10,0:0:0:0:
128,192,31341,1,10,0:0:0:0:
384,192,32136,1,10,0:0:0:0:
384,192,32930,1,10,0:0:0:0:
213,192,33725,1,10,0:0:0:0:
213,192,34520,1,10,0:0:0:0:
298,192,35314,1,10,0:0:0:0:
298,192,36109,1,10,0:0:0:0:
128,192,36904,1,10,0:0:0:0:
128,192,37698,1,10,0:0:0:0:
384,192,38493,1,10,0:0:0:0:
384,192,39288,1,10,0:0:0:0:
213,192,39685,1,6,0:0:0:0:
42,192,40083,1,10,0:0:0:0:
42,192,40877,1,10,0:0:0:0:
469,192,41672,1,10,0:0:0:0:
469,192,42467,1,10,0:0:0:0:
213,192,43261,1,10,0:0:0:0:
213,192,44056,1,10,0:0:0:0:
384,192,44851,1,10,0:0:0:0:
384,192,45645,1,10,0:0:0:0:
128,192,46440,1,10,0:0:0:0:
128,192,47235,1,10,0:0:0:0:
298,192,48030,1,10,0:0:0:0:
298,192,48824,1,10,0:0:0:0:
42,192,49619,1,10,0:0:0:0:
42,192,50414,1,10,0:0:0:0:
213,192,51208,1,10,0:0:0:0:
213,192,52003,1,10,0:0:0:0:
384,192,52400,128,4,53990:0:0:0:0:
128,192,54387,1,8,0:0:0:0:
128,192,55182,1,8,0:0:0:0:
469,192,55977,1,8,0:0:0:0:
469,192,56771,1,8,0:0:0:0:
42,192,57566,1,8,0:0:0:0:
42,192,58361,1,8,0:0:0:0:
213,192,58758,128,6,59751:0:0:0:0:
384,192,59751,1,6,0:0:0:0:
128,192,60347,128,6,61341:0:0:0:0:
298,192,61341,1,6,0:0:0:0:
469,192,61937,128,6,62732:0:0:0:0:
42,192,62732,128,4,63526:0:0:0:0:
298,192,63526,128,6,64122:0:0:0:0:
213,192,64122,1,6,0:0:0:0:
213,192,65116,128,4,65910:0:0:0:0:
384,192,65910,1,0,0:0:0:0:
128,192,66705,128,0,67500:0:0:0:0:
298,192,67500,1,0,0:0:0:0:
42,192,68294,128,0,69089:0:0:0:0:
213,192,69089,1,0,0:0:0:0:
469,192,69884,128,0,70679:0:0:0:0:
298,192,70679,1,0,0:0:0:0:
298,192,71473,128,0,72268:0:0:0:0:
128,192,72268,1,0,0:0:0:0:
384,192,73063,128,0,73857:0:0:0:0:
213,192,73857,1,0,0:0:0:0:
469,192,74652,128,0,75447:0:0:0:0:
298,192,75447,1,0,0:0:0:0:
42,192,76241,128,0,77036:0:0:0:0:
213,192,77036,1,0,0:0:0:0:
384,192,77831,1,4,0:0:0:0:
128,192,78228,1,8,0:0:0:0:
128,192,79023,1,8,0:0:0:0:
213,192,79818,1,8,0:0:0:0:
213,192,80612,1,8,0:0:0:0:
298,192,81407,1,8,0:0:0:0:
298,192,82202,1,8,0:0:0:0:
384,192,82996,1,8,0:0:0:0:
384,192,83791,1,8,0:0:0:0:
128,192,84189,1,6,0:0:0:0:
298,192,84586,1,10,0:0:0:0:
128,192,84983,1,2,0:0:0:0:
298,192,85381,1,10,0:0:0:0:
469,192,85778,1,6,0:0:0:0:
42,192,86175,1,10,0:0:0:0:
469,192,86573,1,2,0:0:0:0:
42,192,86970,1,10,0:0:0:0:
213,192,87367,1,6,0:0:0:0:
384,192,87765,1,10,0:0:0:0:
213,192,88162,1,6,0:0:0:0:
384,192,88559,1,10,0:0:0:0:
128,192,88957,128,6,89553:0:0:0:0:
384,192,89553,128,6,90149:0:0:0:0:
213,192,90546,1,6,0:0:0:0:
469,192,90943,1,10,0:0:0:0:
469,192,91738,1,10,0:0:0:0:
42,192,92533,1,10,0:0:0:0:
42,192,93328,1,10,0:0:0:0:
384,192,94122,1,10,0:0:0:0:
384,192,94917,1,10,0:0:0:0:
128,192,95712,1,10,0:0:0:0:
128,192,96506,1,10,0:0:0:0:
213,192,96904,1,2,0:0:0:0:
298,192,97301,1,10,0:0:0:0:
298,192,98096,1,10,0:0:0:0:
213,192,98890,1,10,0:0:0:0:
213,192,99685,1,10,0:0:0:0:
384,192,100480,1,10,0:0:0:0:
384,192,101275,1,10,0:0:0:0:
42,192,101672,1,6,0:0:0:0:
213,192,102069,1,14,0:0:0:0:
384,192,102467,1,6,0:0:0:0:
128,192,102864,1,14,0:0:0:0:
298,192,103261,1,6,0:0:0:0:
469,192,103659,1,10,0:0:0:0:
469,192,104453,1,10,0:0:0:0:
213,192,105248,1,10,0:0:0:0:
213,192,106043,1,10,0:0:0:0:
384,192,106838,1,10,0:0:0:0:
384,192,107632,1,10,0:0:0:0:
128,192,108427,1,10,0:0:0:0:
128,192,109222,1,10,0:0:0:0:
213,192,109619,1,6,0:0:0:0:
298,192,110016,1,10,0:0:0:0:
384,192,110414,1,2,0:0:0:0:
469,192,110811,1,10,0:0:0:0:
298,192,111208,1,6,0:0:0:0:
213,192,111606,1,10,0:0:0:0:
128,192,112003,1,2,0:0:0:0:
42,192,112400,1,10,0:0:0:0:
298,192,112798,1,6,0:0:0:0:
128,192,113195,1,10,0:0:0:0:
384,192,113592,1,6,0:0:0:0:
213,192,113990,1,10,0:0:0:0:
469,192,114387,1,6,0:0:0:0:
469,192,114785,1,14,0:0:0:0:
42,192,115182,1,6,0:0:0:0:
42,192,115579,1,14,0:0:0:0:
213,192,115977,1,6,0:0:0:0:
384,192,116374,1,10,0:0:0:0:
128,192,116771,1,6,0:0:0:0:
298,192,117169,1,10,0:0:0:0:
469,192,117566,128,6,118162:0:0:0:0:
42,192,118162,128,6,119155:0:0:0:0:
298,192,119155,1,6,0:0:0:0:
