osu file format v14

[General]
AudioFilename: audio.mp3
AudioLeadIn: 0
PreviewTime: 213200
Countdown: 0
SampleSet: Soft
StackLeniency: 0.7
Mode: 0
LetterboxInBreaks: 0
WidescreenStoryboard: 0

[Editor]
Bookmarks: 34950,66950,93616,114950,146950,181616,213616,237616
DistanceSpacing: 0.5
BeatDivisor: 4
GridSize: 4
TimelineZoom: 2.799999

[Metadata]
Title:Yozora ni Saita Hana
TitleUnicode:夜空に咲いた花
Artist:wakaG
ArtistUnicode:若G
Creator:Reillia
Version:Sakura
Source:
Tags:天響ノ和樂2 Amahibiki no Karaku 2 Garden Hatsune Miku Japanese Vocaloid Curi [C_u_r_i] C_u_r_i
BeatmapID:1699930
BeatmapSetID:810188

[Difficulty]
HPDrainRate:7
CircleSize:4
OverallDifficulty:8.3
ApproachRate:9.2
SliderMultiplier:1.67
SliderTickRate:1

[Events]
//Background and Video events
0,0,"907114.jpg",0,0
//Break Periods
//Storyboard Layer 0 (Background)
//Storyboard Layer 1 (Fail)
//Storyboard Layer 2 (Pass)
//Storyboard Layer 3 (Foreground)
//Storyboard Sound Samples

[TimingPoints]
283,333.333333333333,4,2,1,20,1,0
283,-100,4,2,1,20,0,0
2950,-200,4,2,1,40,0,0
10949,-588.235294117647,4,2,1,50,0,0
12866,-588.235294117647,4,2,1,5,0,0
12949,-100,4,2,2,40,0,0
13533,-100,4,2,1,5,0,0
13616,-100,4,2,99,70,0,0
13782,-100,4,2,1,70,0,0
18949,-100,4,2,99,70,0,0
19116,-100,4,2,1,70,0,0
22949,-100,4,2,1,60,0,0
23449,-166.666666666667,4,2,1,60,0,0
24283,-125,4,2,1,50,0,0
34616,-83.3333333333333,4,2,1,70,0,0
34866,-83.3333333333333,4,2,1,5,0,0
34949,-100,4,2,2,60,0,0
44116,-83.3333333333333,4,2,2,60,0,0
45616,-125,4,2,3,60,0,0
50866,-125,4,2,3,5,0,0
50949,-125,4,2,3,60,0,0
53616,-100,4,2,3,60,0,0
56282,-100,4,2,2,60,0,0
60533,-100,4,2,2,5,0,0
60616,-100,4,2,2,60,0,0
61616,-100,4,2,2,70,0,0
64282,-100,4,2,1,70,0,0
64616,-83.3333333333333,4,2,1,70,0,0
65033,-83.3333333333333,4,2,1,5,0,0
65116,-83.3333333333333,4,2,1,70,0,0
65366,-83.3333333333333,4,2,1,5,0,0
65449,-71.4285714285714,4,2,1,70,0,0
65699,-71.4285714285714,4,2,1,5,0,0
65783,-71.4285714285714,4,2,1,70,0,0
65949,-125,4,2,1,70,0,0
66282,-125,4,2,1,40,0,0
66949,-90.9090909090909,4,2,99,80,0,1
67282,-90.9090909090909,4,2,1,80,0,1
68199,-90.9090909090909,4,2,1,5,0,1
68283,-90.9090909090909,4,2,1,80,0,1
69533,-90.9090909090909,4,2,1,5,0,1
69616,-90.9090909090909,4,2,1,80,0,1
71199,-90.9090909090909,4,2,1,5,0,1
71283,-90.9090909090909,4,2,1,80,0,1
72533,-90.9090909090909,4,2,1,5,0,1
72616,-90.9090909090909,4,2,1,80,0,1
73866,-90.9090909090909,4,2,1,5,0,1
73949,-90.9090909090909,4,2,1,80,0,1
75199,-90.9090909090909,4,2,1,5,0,1
75283,-90.9090909090909,4,2,1,80,0,1
77616,-90.9090909090909,4,2,99,80,0,1
77866,-90.9090909090909,4,2,1,5,0,1
77949,-90.9090909090909,4,2,1,80,0,1
78866,-90.9090909090909,4,2,1,5,0,1
78949,-90.9090909090909,4,2,1,80,0,1
80199,-90.9090909090909,4,2,1,5,0,1
80283,-90.9090909090909,4,2,1,80,0,1
81533,-90.9090909090909,4,2,1,5,0,1
81616,-90.9090909090909,4,2,1,80,0,1
82866,-90.9090909090909,4,2,1,5,0,1
82949,-90.9090909090909,4,2,1,80,0,1
85616,-66.6666666666667,4,2,1,80,0,1
85866,-90.9090909090909,4,2,1,5,0,1
85949,-90.9090909090909,4,2,1,80,0,1
88282,-111.111111111111,4,2,99,80,0,1
88616,-111.111111111111,4,2,1,80,0,1
90949,-142.857142857143,4,2,1,80,0,1
92283,-100,4,2,1,80,0,1
93616,-100,4,2,98,50,0,0
93782,-100,4,2,1,70,0,0
98949,-100,4,2,98,50,0,0
99116,-100,4,2,1,70,0,0
101616,-71.4285714285714,4,2,1,70,0,0
101866,-100,4,2,1,5,0,0
101949,-100,4,2,1,70,0,0
102949,-100,4,2,1,60,0,0
103616,-166.666666666667,4,2,1,60,0,0
104283,-125,4,2,1,50,0,0
114616,-83.3333333333333,4,2,1,70,0,0
114866,-83.3333333333333,4,2,1,5,0,0
114949,-100,4,2,2,60,0,0
124116,-83.3333333333333,4,2,2,60,0,0
125616,-125,4,2,3,60,0,0
130866,-125,4,2,3,5,0,0
130949,-125,4,2,3,60,0,0
133616,-100,4,2,3,60,0,0
136282,-100,4,2,2,60,0,0
141616,-100,4,2,2,70,0,0
144282,-100,4,2,1,70,0,0
144783,-83.3333333333333,4,2,1,70,0,0
145033,-83.3333333333333,4,2,1,5,0,0
145116,-83.3333333333333,4,2,1,70,0,0
145366,-83.3333333333333,4,2,1,5,0,0
145449,-71.4285714285714,4,2,1,70,0,0
145699,-71.4285714285714,4,2,1,5,0,0
145783,-71.4285714285714,4,2,1,70,0,0
145949,-125,4,2,1,70,0,0
146282,-125,4,2,1,40,0,0
146949,-90.9090909090909,4,2,99,80,0,1
147282,-90.9090909090909,4,2,1,80,0,1
148199,-90.9090909090909,4,2,1,5,0,1
148283,-90.9090909090909,4,2,1,80,0,1
149533,-90.9090909090909,4,2,1,5,0,1
149616,-90.9090909090909,4,2,1,80,0,1
150533,-90.9090909090909,4,2,1,5,0,1
150616,-90.9090909090909,4,2,1,80,0,1
152533,-90.9090909090909,4,2,1,5,0,1
152616,-90.9090909090909,4,2,1,80,0,1
153533,-90.9090909090909,4,2,1,5,0,1
153616,-90.9090909090909,4,2,1,80,0,1
154866,-90.9090909090909,4,2,1,5,0,1
154949,-90.9090909090909,4,2,1,80,0,1
157533,-90.9090909090909,4,2,1,5,0,1
157616,-90.9090909090909,4,2,99,80,0,1
157949,-90.9090909090909,4,2,1,80,0,1
159199,-90.9090909090909,4,2,1,5,0,1
159283,-90.9090909090909,4,2,1,80,0,1
160199,-90.9090909090909,4,2,1,5,0,1
160283,-90.9090909090909,4,2,1,80,0,1
161866,-90.9090909090909,4,2,1,5,0,1
161949,-90.9090909090909,4,2,1,80,0,1
164533,-90.9090909090909,4,2,1,5,0,1
164616,-90.9090909090909,4,2,1,80,0,1
165616,-66.6666666666667,4,2,1,80,0,1
165866,-90.9090909090909,4,2,1,5,0,1
165949,-90.9090909090909,4,2,1,80,0,1
168282,-111.111111111111,4,2,99,80,0,1
168616,-111.111111111111,4,2,1,80,0,1
170949,-166.666666666667,4,2,1,40,0,0
171616,-166.666666666667,4,2,1,60,0,0
176282,-166.666666666667,4,2,1,40,0,0
176616,310.880829015544,4,2,1,60,1,0
176616,-166.666666666667,4,2,1,60,0,0
176926,346.820809248555,4,2,1,20,1,0
176926,-166.666666666667,4,2,1,60,0,0
177272,337.078651685393,4,2,1,20,1,0
177272,-166.666666666667,4,2,1,60,0,0
177609,304.568527918782,4,2,1,20,1,0
177609,-166.666666666667,4,2,1,60,0,0
177913,359.281437125748,4,2,1,20,1,0
177913,-166.666666666667,4,2,1,60,0,0
178272,307.692307692308,4,2,1,20,1,0
178272,-166.666666666667,4,2,1,60,0,0
178579,370.37037037037,4,2,1,20,1,0
178579,-166.666666666667,4,2,1,60,0,0
178949,333.333333333333,4,2,1,20,1,0
178949,-166.666666666667,4,2,1,60,0,0
180283,-125,4,2,1,70,0,0
180449,-125,4,2,2,70,0,0
180949,-125,4,2,1,70,0,0
181115,-125,4,2,2,70,0,0
181615,-125,4,2,1,30,0,0
181782,-125,4,2,1,70,0,0
186949,-125,4,2,1,30,0,0
187115,-125,4,2,1,70,0,0
189616,-83.3333333333333,4,2,99,60,0,0
189866,-125,4,2,1,5,0,0
189949,-125,4,2,1,60,0,0
190199,-125,4,2,1,5,0,0
190283,-125,4,2,1,60,0,0
191199,-125,4,2,1,5,0,0
191283,-125,4,2,1,60,0,0
192283,-125,4,2,1,40,0,0
195866,-125,4,2,1,5,0,0
195949,-125,4,2,1,40,0,0
200533,-125,4,2,1,5,0,0
200616,-125,4,2,1,40,0,0
202949,-100,4,2,2,60,0,0
207199,-100,4,2,2,5,0,0
207283,-100,4,2,2,60,0,0
208283,-100,4,2,2,70,0,0
210948,-100,4,2,1,70,0,0
211449,-83.3333333333333,4,2,1,70,0,0
211699,-83.3333333333333,4,2,1,5,0,0
211783,-83.3333333333333,4,2,1,70,0,0
212033,-83.3333333333333,4,2,1,5,0,0
212116,-83.3333333333333,4,2,1,70,0,0
212199,-83.3333333333333,4,2,1,5,0,0
212449,-83.3333333333333,4,2,1,70,0,0
212533,-83.3333333333333,4,2,1,5,0,0
212949,-125,4,2,2,40,0,0
213615,-90.9090909090909,4,2,99,80,0,1
213948,-90.9090909090909,4,2,1,80,0,1
214866,-90.9090909090909,4,2,1,5,0,1
214949,-90.9090909090909,4,2,1,80,0,1
216199,-90.9090909090909,4,2,1,5,0,1
216283,-90.9090909090909,4,2,1,80,0,1
217199,-90.9090909090909,4,2,1,5,0,1
217283,-90.9090909090909,4,2,1,80,0,1
219199,-90.9090909090909,4,2,1,5,0,1
219283,-90.9090909090909,4,2,1,80,0,1
220199,-90.9090909090909,4,2,1,5,0,1
220283,-90.9090909090909,4,2,1,80,0,1
221533,-90.9090909090909,4,2,1,5,0,1
221616,-90.9090909090909,4,2,1,80,0,1
224283,-71.4285714285714,4,2,99,80,0,1
224533,-71.4285714285714,4,2,1,5,0,1
224616,-90.9090909090909,4,2,1,80,0,1
225866,-90.9090909090909,4,2,1,5,0,1
225949,-90.9090909090909,4,2,1,80,0,1
226866,-90.9090909090909,4,2,1,5,0,1
226949,-90.9090909090909,4,2,1,80,0,1
228533,-90.9090909090909,4,2,1,5,0,1
228616,-90.9090909090909,4,2,1,80,0,1
231199,-90.9090909090909,4,2,1,5,0,1
231283,-90.9090909090909,4,2,1,80,0,1
232282,-66.6666666666667,4,2,1,80,0,1
232533,-66.6666666666667,4,2,1,5,0,1
232616,-90.9090909090909,4,2,1,80,0,1
234948,-90.9090909090909,4,2,1,80,0,1
237283,-83.3333333333333,4,2,1,80,0,1
237532,-83.3333333333333,4,2,1,30,0,0
237615,-83.3333333333333,4,2,1,80,0,1
245283,-71.4285714285714,4,2,1,80,0,1
245616,-83.3333333333333,4,2,1,80,0,1
258948,-111.111111111111,4,2,99,80,0,1
259282,-111.111111111111,4,2,1,80,0,1
261616,-142.857142857143,4,2,1,80,0,1
262948,-100,4,2,1,80,0,1
264282,-100,4,2,98,50,0,0
264448,-100,4,2,1,70,0,0
269615,-100,4,2,98,50,0,0
269782,-100,4,2,1,70,0,0
272283,-71.4285714285714,4,2,1,70,0,0
272533,-71.4285714285714,4,2,1,5,0,0
272616,-100,4,2,1,70,0,0
273616,-166.666666666667,4,2,1,50,0,0
274949,-166.666666666667,4,2,1,40,0,0
275949,-250,4,2,1,40,0,0
277616,-166.666666666667,4,2,1,40,0,0
278616,-250,4,2,1,40,0,0
279949,-250,4,2,1,5,0,0
280283,-166.666666666667,4,2,1,30,0,0
284283,-250,4,2,1,30,0,0
284866,-250,4,2,1,5,0,0
284949,-250,4,2,1,30,0,0
285533,-250,4,2,1,5,0,0
285616,659.340659340659,4,2,1,40,1,0
286605,1304.34782608695,4,2,1,40,1,0
287746,-100,4,2,1,5,0,0
287909,722.89156626506,4,2,1,40,1,0
288271,666.666666666667,4,2,1,40,1,0
289271,1857.58513931889,4,2,1,40,1,0
290896,-100,4,2,1,5,0,0
291128,769.230769230769,4,2,1,30,1,0
291897,750,4,2,1,30,1,0
292272,869.565217391304,4,2,1,30,1,0
292706,869.565217391304,4,2,1,30,1,0
293358,-100,4,2,1,5,0,0
293575,1153.84615384615,4,2,1,30,1,0
294440,-100,4,2,1,5,0,0
294728,444.444444444444,4,2,1,30,1,0
294950,882.352941176471,4,2,1,20,1,0
295391,983.606557377049,4,2,1,20,1,0
295882,1276.59574468085,4,2,1,20,1,0
296520,1200,4,2,1,20,1,0
297720,491.803278688525,4,2,1,20,1,0
300301,-100,4,2,1,10,0,0
303621,-100,4,2,1,5,0,0

[Colours]
Combo1 : 255,128,192
Combo2 : 255,79,255
Combo3 : 255,64,159
Combo4 : 244,66,92

[HitObjects]
256,192,283,12,0,2408,0:0:0:0:
43,131,2949,5,2,0:0:0:0:
23,124,3282,1,2,0:0:0:0:
23,103,3615,1,2,0:0:0:0:
43,97,3949,1,2,0:0:0:0:
55,114,4282,1,2,0:0:0:0:
43,131,4616,2,0,B|81:111|124:133|124:133|167:154|214:129,1,167,2|0,0:0|0:0,0:0:0:0:
469,253,5616,5,2,0:0:0:0:
489,260,5949,1,2,0:0:0:0:
489,281,6282,1,2,0:0:0:0:
469,287,6616,1,2,0:0:0:0:
457,270,6949,1,2,0:0:0:0:
469,253,7282,2,0,B|431:273|388:251|388:251|345:230|298:255,1,167,2|0,0:0|0:0,0:0:0:0:
76,302,8283,5,2,0:0:0:0:
90,317,8616,1,2,0:0:0:0:
107,329,8949,1,2,0:0:0:0:
125,338,9283,1,2,0:0:0:0:
145,345,9616,1,2,0:0:0:0:
166,346,9949,2,0,P|185:295|179:172,1,167,2|0,0:0|0:0,0:0:0:0:
64,336,10949,6,0,P|56:253|80:175,1,163.242500996353,0|0,0:0|0:0,0:0:0:0:
71,155,12949,6,0,P|131:194|109:58,1,292.25,4|0,0:3|0:0,0:0:0:0:
231,104,13616,6,0,P|296:100|323:69,1,83.5,14|0,0:0|0:0,0:0:0:0:
459,244,13949,2,0,P|422:225|381:230,1,83.5,10|0,0:0|0:0,0:0:0:0:
275,356,14283,2,0,P|309:333|325:295,1,83.5,10|0,0:1|0:0,0:0:0:0:
274,138,14616,2,0,P|275:179|300:211,1,83.5,10|0,0:0|0:0,0:0:0:0:
82,311,14949,6,0,P|148:290|262:279,1,167,10|8,0:1|0:0,0:0:0:0:
191,196,15449,1,0,0:0:0:0:
141,47,15616,2,0,P|125:104|134:134,1,83.5,8|0,0:1|0:0,0:0:0:0:
314,374,15949,2,0,P|330:317|321:287,1,83.5,8|0,0:0|0:0,0:0:0:0:
108,210,16283,6,0,P|182:196|211:193,1,83.5,10|0,0:1|0:0,0:0:0:0:
362,35,16616,2,0,P|436:49|465:52,1,83.5,10|0,0:0|0:0,0:0:0:0:
309,200,16949,2,0,P|284:128|272:102,1,83.5,10|0,0:1|0:0,0:0:0:0:
471,162,17283,2,0,P|421:219|404:242,1,83.5,10|0,0:0|0:0,0:0:0:0:
279,18,17616,6,0,P|361:34|443:49,1,167,10|8,0:1|0:0,0:0:0:0:
471,162,18116,1,0,0:0:0:0:
255,339,18283,2,0,P|238:287|249:250,1,83.5,8|0,0:1|0:0,0:0:0:0:
471,162,18616,2,0,P|488:214|477:251,1,83.5,8|0,0:0|0:0,0:0:0:0:
219,170,18949,6,0,P|274:183|313:193,1,83.5,14|0,0:0|0:0,0:0:0:0:
102,316,19283,2,0,P|61:326|21:336,1,83.5,10|0,0:0|0:0,0:0:0:0:
264,349,19616,2,0,P|259:309|233:277,1,83.5,10|0,0:1|0:0,0:0:0:0:
162,102,19949,2,0,P|135:134|131:175,1,83.5,10|0,0:0|0:0,0:0:0:0:
379,158,20283,6,0,B|343:180|298:165|298:165|246:149|217:170,1,167,10|8,0:1|0:0,0:0:0:0:
158,252,20783,1,0,0:0:0:0:
19,78,20949,2,0,P|41:141|49:178,1,83.5,8|0,0:1|0:0,0:0:0:0:
132,331,21283,2,0,P|143:290|158:252,1,83.5,8|0,0:0|0:0,0:0:0:0:
94,18,21616,6,0,P|166:61|262:46,1,167,6|10,0:0|0:0,0:0:0:0:
374,228,22116,1,8,0:1:0:0:
374,11,22283,1,10,0:0:0:0:
246,186,22449,1,8,0:0:0:0:
452,119,22616,1,10,0:0:0:0:
246,53,22783,1,8,0:0:0:0:
383,248,22949,5,2,0:0:0:0:
365,231,23116,1,2,0:0:0:0:
342,222,23282,1,2,0:0:0:0:
318,222,23449,2,0,P|333:294|345:377,1,150.299995413208,2|0,0:0|0:0,0:0:0:0:
185,268,24283,6,0,P|223:268|250:287,1,66.8,14|0,0:1|0:0,0:0:0:0:
111,240,24616,2,0,P|130:207|159:193,1,66.8,2|2,0:0|0:0,0:0:0:0:
50,287,24949,2,0,P|31:254|33:221,1,66.8,0|2,0:0|0:0,0:0:0:0:
63,362,25283,2,0,P|25:362|-1:342,1,66.8
104,126,25616,6,0,P|172:114|231:162,1,133.6,2|2,0:0|0:0,0:0:0:0:
318,91,26116,2,0,P|362:143|350:218,1,133.6,2|0,0:0|0:0,0:0:0:0:
235,317,26616,2,0,P|243:265|262:244,1,66.8,2|0,0:0|0:0,0:0:0:0:
460,235,26949,5,2,0:0:0:0:
439,245,27116,1,0,0:0:0:0:
317,311,27283,5,2,0:0:0:0:
338,321,27450,1,2,0:0:0:0:
499,332,27616,5,0,0:0:0:0:
417,358,27783,1,2,0:0:0:0:
412,137,27949,5,0,0:0:0:0:
494,163,28116,1,2,0:0:0:0:
274,179,28283,5,2,0:0:0:0:
250,254,28449,2,0,P|251:207|274:174,1,66.8,0|2,0:0|0:0,0:0:0:0:
169,310,28783,2,0,P|209:334|226:370,1,66.8,2|0,0:0|0:0,0:0:0:0:
165,207,29116,2,0,P|123:229|83:226,1,66.8,2|0,0:0|0:0,0:0:0:0:
37,64,29449,1,2,0:0:0:0:
97,137,29616,6,0,P|172:115|247:101,1,133.6,2|2,0:0|0:0,0:0:0:0:
310,50,30116,1,2,0:0:0:0:
399,225,30283,5,0,0:0:0:0:
311,177,30449,1,2,0:0:0:0:
394,118,30616,1,0,0:0:0:0:
407,238,30783,1,0,0:0:0:0:
406,107,30949,6,0,P|396:44|391:18,1,66.8,2|0,0:0|0:0,0:0:0:0:
480,172,31283,1,2,0:0:0:0:
509,267,31449,2,0,P|503:299|498:332,1,66.8,2|0,0:0|0:0,0:0:0:0:
480,172,31783,1,2,0:0:0:0:
309,255,31949,1,0,0:0:0:0:
407,238,32116,1,2,0:0:0:0:
294,268,32283,6,0,P|236:255|146:243,1,133.6,2|2,0:0|0:0,0:0:0:0:
127,99,32783,2,0,P|94:104|61:109,1,66.8,2|0,0:0|0:0,0:0:0:0:
150,257,33116,2,0,P|188:262|220:268,1,66.8,2|0,0:0|0:0,0:0:0:0:
209,160,33449,1,2,0:0:0:0:
37,311,33616,5,2,0:0:0:0:
37,311,33949,1,0,0:0:0:0:
91,210,34116,1,2,0:0:0:0:
14,232,34283,1,2,0:0:0:0:
280,370,34449,5,10,0:1:0:0:
113,289,34616,2,0,B|151:273|187:287|187:287|231:303|271:279,1,150.299995413208,10|0,0:0|0:0,0:0:0:0:
285,269,34949,6,0,L|276:177,1,83.5,6|0,0:0|0:0,0:0:0:0:
431,132,35283,2,0,L|439:215,1,83.5,8|0,0:0|0:0,0:0:0:0:
339,98,35616,1,2,0:0:0:0:
339,98,35783,1,2,0:0:0:0:
492,54,35949,2,0,P|454:35|413:34,1,83.5,8|0,0:0|0:0,0:0:0:0:
189,128,36283,6,0,P|258:84|338:97,1,167,2|8,0:0|0:0,0:0:0:0:
285,269,36783,2,0,L|276:185,1,83.5,2|0,0:0|0:0,0:0:0:0:
460,241,37116,1,2,0:0:0:0:
380,301,37283,2,0,L|390:409,1,83.5,8|0,0:0|0:0,0:0:0:0:
209,332,37616,6,0,P|172:313|130:315,1,83.5,2|0,0:0|0:0,0:0:0:0:
0,245,37949,2,0,P|41:247|78:229,1,83.5,8|0,0:0|0:0,0:0:0:0:
130,145,38283,1,2,0:0:0:0:
130,145,38449,1,2,0:0:0:0:
41,21,38616,2,0,L|36:104,1,83.5,8|0,0:0|0:0,0:0:0:0:
178,232,38949,6,0,B|273:260|273:260|307:244|312:193,1,167,2|8,0:0|0:0,0:0:0:0:
462,145,39449,2,0,P|421:150|382:136,1,83.5,2|0,0:0|0:0,0:0:0:0:
360,3,39783,1,2,0:0:0:0:
219,98,39949,2,0,P|259:79|301:82,1,83.5,8|0,0:0|0:0,0:0:0:0:
368,283,40283,6,0,P|342:214|383:134,2,167,2|8|2,0:0|0:0|0:0,0:0:0:0:
461,384,41116,2,0,L|467:300,1,83.5,2|8,0:0|0:0,0:0:0:0:
310,206,41449,1,0,0:0:0:0:
310,206,41616,6,0,B|234:170|234:251|152:227,1,167,2|8,0:0|0:0,0:0:0:0:
0,184,42116,2,0,P|37:166|79:167,1,83.5,2|0,0:0|0:0,0:0:0:0:
152,227,42449,1,2,0:0:0:0:
201,51,42616,2,0,L|181:132,1,83.5,8|0,0:0|0:0,0:0:0:0:
61,286,42949,6,0,B|108:304|131:337|131:337|167:315|206:318,1,167,2|8,0:0|0:0,0:0:0:0:
420,276,43449,2,0,L|428:359,1,83.5,2|0,0:0|0:0,0:0:0:0:
292,171,43783,2,0,L|301:253,1,83.5,2|0,0:0|0:0,0:0:0:0:
457,121,44116,6,0,B|380:109|380:109|352:74|352:74|276:61,1,200.399993884278,8|2,0:0|0:0,0:0:0:0:
131,246,44616,1,8,0:0:0:0:
292,171,44783,1,0,0:0:0:0:
173,50,44949,1,2,0:0:0:0:
173,50,45116,1,2,0:0:0:0:
125,269,45283,1,8,0:0:0:0:
300,178,45449,1,8,0:0:0:0:
300,178,45533,1,8,0:0:0:0:
300,178,45616,6,0,L|220:164,1,66.8,6|0,0:0|0:0,0:0:0:0:
173,50,45949,2,0,L|107:39,1,66.8,2|0,0:0|0:0,0:0:0:0:
135,203,46283,2,0,L|124:268,1,66.8,2|0,0:0|0:0,0:0:0:0:
209,372,46616,2,0,L|219:306,1,66.8,2|0,0:0|0:0,0:0:0:0:
313,273,46949,6,0,P|386:275|432:233,1,133.6,2|2,0:0|0:0,0:0:0:0:
429,237,47449,1,0,0:0:0:0:
512,152,47616,2,0,L|446:143,1,66.8,2|0,0:0|0:0,0:0:0:0:
279,54,47949,2,0,L|345:63,1,66.8,2|8,0:0|0:0,0:0:0:0:
373,88,48199,1,8,0:0:0:0:
373,88,48283,6,0,P|352:126|352:158,1,66.8,6|0,0:0|0:0,0:0:0:0:
439,300,48616,2,0,P|440:266|428:236,1,66.8,2|0,0:0|0:0,0:0:0:0:
263,198,48949,1,2,0:0:0:0:
263,198,49116,1,0,0:0:0:0:
346,285,49283,1,2,0:0:0:0:
346,285,49449,1,0,0:0:0:0:
249,351,49616,6,0,P|190:320|125:330,1,133.6,2|2,0:0|0:0,0:0:0:0:
0,264,50116,2,0,L|66:255,1,66.8,8|2,0:0|0:0,0:0:0:0:
147,67,50449,1,2,0:0:0:0:
147,67,50616,2,0,L|159:166,1,100.2,2|0,0:0|0:0,0:0:0:0:
132,186,50949,6,0,P|98:178|68:153,1,66.8,6|0,0:0|0:0,0:0:0:0:
256,166,51283,2,0,P|251:204|230:236,1,66.8,2|0,0:0|0:0,0:0:0:0:
244,73,51616,1,2,0:0:0:0:
244,73,51783,1,0,0:0:0:0:
339,82,51949,2,0,L|408:74,1,66.8,2|0,0:0|0:0,0:0:0:0:
512,209,52283,6,0,P|458:171|392:173,1,133.6,6|2,0:0|0:0,0:0:0:0:
392,173,52783,1,0,0:0:0:0:
303,222,52949,2,0,L|211:230,1,66.8,2|0,0:0|0:0,0:0:0:0:
395,341,53283,2,0,B|401:309|401:309|389:278,1,66.8,2|0,0:0|0:0,0:0:0:0:
168,151,53616,6,0,B|133:201|133:201|147:305,1,167,6|8,0:0|0:0,0:0:0:0:
3,91,54116,2,0,L|86:86,1,83.5,2|0,0:0|0:0,0:0:0:0:
319,220,54449,2,0,L|235:226,1,83.5,2|0,0:0|0:0,0:0:0:0:
58,363,54783,6,0,B|100:347|164:330|164:330|176:358|203:368,1,167,6|2,0:0|0:0,0:0:0:0:
389,278,55283,2,0,P|378:323|371:371,1,83.5,8|0,0:0|0:0,0:0:0:0:
278,129,55616,1,2,0:0:0:0:
460,212,55783,1,2,0:0:0:0:
460,212,55866,1,2,0:0:0:0:
460,212,55949,1,8,0:0:0:0:
483,176,56033,1,8,0:0:0:0:
482,134,56116,1,8,0:0:0:0:
461,97,56199,1,8,0:0:0:0:
423,78,56283,6,0,P|375:124|260:121,1,167,6|8,0:0|0:0,0:0:0:0:
327,36,56783,1,0,0:0:0:0:
183,186,56949,2,0,L|171:96,1,83.5,2|2,0:0|0:0,0:0:0:0:
352,230,57283,2,0,L|363:312,1,83.5,8|0,0:0|0:0,0:0:0:0:
190,281,57616,6,0,B|107:296|129:217|29:245,1,167,2|8,0:0|0:0,0:0:0:0:
183,186,58116,1,0,0:0:0:0:
280,323,58283,2,0,L|370:311,1,83.5,2|2,0:0|0:0,0:0:0:0:
363,155,58616,2,0,L|280:167,1,83.5,8|0,0:0|0:0,0:0:0:0:
466,346,58949,6,0,B|473:288|473:288|450:250|450:250|458:186,1,167,6|8,0:0|0:0,0:0:0:0:
448,0,59449,2,0,B|434:82,1,83.5,0|2,0:0|0:0,0:0:0:0:
330,64,59783,1,2,0:0:0:0:
330,64,59949,2,0,P|291:47|241:51,1,83.5,8|0,0:0|0:0,0:0:0:0:
89,188,60283,6,0,P|153:193|215:157,1,125.25,2|0,0:0|0:0,0:0:0:0:
228,146,60616,2,0,P|211:201|216:240,1,83.5,8|0,0:0|0:0,0:0:0:0:
136,101,60949,1,2,0:0:0:0:
136,101,61116,1,2,0:0:0:0:
314,204,61283,2,0,L|406:187,1,83.5,8|0,0:0|0:0,0:0:0:0:
133,301,61616,5,12,0:0:0:0:
314,204,61783,1,2,0:0:0:0:
136,101,61949,1,8,0:0:0:0:
227,304,62116,1,2,0:0:0:0:
289,49,62283,5,8,0:0:0:0:
234,279,62449,1,2,0:0:0:0:
142,80,62616,1,8,0:0:0:0:
364,197,62783,1,2,0:0:0:0:
380,193,62866,1,0,0:0:0:0:
396,188,62949,5,8,0:0:0:0:
240,257,63116,1,2,0:0:0:0:
504,222,63283,1,8,0:0:0:0:
288,142,63449,1,2,0:0:0:0:
358,384,63616,5,8,0:0:0:0:
484,132,63783,1,2,0:0:0:0:
247,236,63949,1,8,0:0:0:0:
433,314,64116,1,0,0:0:0:0:
395,80,64283,5,10,0:0:0:0:
395,80,64366,1,10,0:0:0:0:
395,80,64449,1,2,0:0:0:0:
395,80,64533,1,2,0:0:0:0:
395,80,64616,2,0,L|382:10,1,50.0999984710694,10|2,0:0|0:0,0:0:0:0:
484,132,64783,6,0,P|408:122|348:172,1,150.299995413208,10|0,0:0|0:0,0:0:0:0:
272,208,65116,2,0,P|344:197|403:240,1,150.299995413208,10|0,0:0|0:0,0:0:0:0:
279,353,65449,6,0,P|354:348|322:280,1,175.349994648743,10|0,0:0|0:0,0:0:0:0:
191,243,65783,2,0,P|208:267|233:283,1,58.4499982162476,10|0,0:0|0:0,0:0:0:0:
352,164,65949,6,0,P|332:135|294:114,1,66.8
214,8,66283,2,0,L|203:142,1,133.6,4|0,0:3|0:0,0:0:0:0:
473,350,66949,6,0,B|450:308|398:316|398:316|351:359|298:334,1,183.700005606079,14|10,0:0|0:0,0:0:0:0:
192,341,67449,1,0,0:0:0:0:
333,173,67616,2,0,B|353:212|353:212|334:266,1,91.8500028030396,10|0,0:1|0:0,0:0:0:0:
111,381,67949,2,0,B|101:327|101:327|113:305|113:305|102:220,1,137.775004204559,10|0,0:0|0:0,0:0:0:0:
55,188,68283,6,0,P|52:136|106:91,1,91.8500028030396,10|0,0:1|0:0,0:0:0:0:
272,66,68616,2,0,P|215:80|176:89,1,91.8500028030396,8|0,0:0|0:0,0:0:0:0:
333,173,68949,1,8,0:1:0:0:
398,20,69116,1,0,0:0:0:0:
236,167,69283,2,0,P|237:219|249:306,1,137.775004204559,8|0,0:0|0:0,0:0:0:0:
309,364,69616,6,0,P|368:356|405:312,1,91.8500028030396,10|0,0:1|0:0,0:0:0:0:
140,239,69949,1,10,0:0:0:0:
179,362,70116,1,0,0:0:0:0:
123,212,70283,2,0,L|141:115,1,91.8500028030396,10|0,0:1|0:0,0:0:0:0:
337,279,70616,2,0,L|319:182,1,91.8500028030396,10|0,0:0|0:0,0:0:0:0:
104,44,70949,6,0,B|162:39|162:39|185:53|185:53|250:48,1,137.775004204559,10|0,0:1|0:0,0:0:0:0:
316,18,71283,2,0,L|407:26,1,91.8500028030396,8|0,0:0|0:0,0:0:0:0:
139,121,71616,2,0,L|48:129,1,91.8500028030396,8|0,0:1|0:0,0:0:0:0:
151,357,71949,2,0,P|189:381|233:377,1,91.8500028030396,8|0,0:0|0:0,0:0:0:0:
47,129,72283,6,0,L|74:288,1,137.775004204559,10|0,0:1|0:0,0:0:0:0:
74,291,72616,1,10,0:0:0:0:
238,154,72783,1,0,0:0:0:0:
151,357,72949,1,10,0:1:0:0:
142,143,73116,1,0,0:0:0:0:
329,222,73283,2,0,L|425:196,1,91.8500028030396,10|0,0:0|0:0,0:0:0:0:
264,356,73616,6,0,P|223:303|242:223,1,137.775004204559,10|0,0:1|0:0,0:0:0:0:
238,154,73949,2,0,L|223:40,1,91.8500028030396,8|0,0:0|0:0,0:0:0:0:
417,197,74283,2,0,L|432:311,1,91.8500028030396,8|0,0:1|0:0,0:0:0:0:
343,110,74616,1,8,0:0:0:0:
512,145,74783,1,0,0:0:0:0:
232,236,74949,6,0,L|89:218,1,137.775004204559,10|0,0:1|0:0,0:0:0:0:
25,184,75283,2,0,B|18:138|18:138|58:79,1,91.8500028030396,10|0,0:0|0:0,0:0:0:0:
292,296,75616,2,0,B|299:342|299:342|259:401,1,91.8500028030396,10|0,0:1|0:0,0:0:0:0:
95,218,75949,2,0,L|206:206,1,91.8500028030396,10|0,0:0|0:0,0:0:0:0:
383,29,76283,6,0,B|348:-3|348:-3|375:145,1,183.700005606079,10|10,0:1|0:0,0:0:0:0:
452,336,76783,1,0,0:0:0:0:
271,212,76949,2,0,P|325:211|369:258,1,91.8500028030396,10|0,0:1|0:0,0:0:0:0:
139,333,77283,2,0,P|100:356|55:352,1,91.8500028030396,10|0,0:0|0:0,0:0:0:0:
34,66,77616,6,0,L|67:207,1,137.775004204559,14|0,0:0|0:0,0:0:0:0:
82,278,77949,1,10,0:0:0:0:
228,79,78116,1,0,0:0:0:0:
228,283,78283,1,10,0:1:0:0:
136,114,78449,1,0,0:0:0:0:
244,306,78616,2,0,P|311:317|365:250,1,137.775004204559,10|0,0:0|0:0,0:0:0:0:
376,192,78949,6,0,L|352:79,1,91.8500028030396,10|0,0:1|0:0,0:0:0:0:
148,279,79283,2,0,L|167:368,1,91.8500028030396,8|0,0:0|0:0,0:0:0:0:
245,198,79616,1,8,0:1:0:0:
245,198,79783,1,0,0:0:0:0:
45,228,79949,2,0,L|65:65,1,137.775004204559,8|0,0:0|0:0,0:0:0:0:
105,26,80283,6,0,P|180:9|256:102,1,183.700005606079,10|10,0:1|0:0,0:0:0:0:
419,47,80783,1,0,0:0:0:0:
245,198,80949,1,10,0:1:0:0:
324,15,81116,1,0,0:0:0:0:
453,181,81283,2,0,P|438:240|423:320,1,137.775004204559,10|0,0:0|0:0,0:0:0:0:
371,372,81616,6,0,P|330:346|279:352,1,91.8500028030396,10|0,0:1|0:0,0:0:0:0:
35,266,81949,2,0,B|82:243|129:274|129:274|171:299|211:279,1,183.700005606079,8|8,0:0|0:1,0:0:0:0:
71,352,82449,1,0,0:0:0:0:
174,197,82616,2,0,B|194:163|194:163|172:28,1,137.775004204559,8|0,0:0|0:0,0:0:0:0:
97,46,82949,6,0,L|115:149,1,91.8500028030396,10|0,0:1|0:0,0:0:0:0:
389,213,83283,2,0,L|371:110,1,91.8500028030396,10|0,0:0|0:0,0:0:0:0:
209,279,83616,2,0,P|260:305|318:290,1,91.8500028030396,10|0,0:1|0:0,0:0:0:0:
492,52,83949,2,0,P|441:26|383:41,1,91.8500028030396,10|0,0:0|0:0,0:0:0:0:
192,154,84283,6,0,L|397:118,1,183.700005606079,10|8,0:1|0:0,0:0:0:0:
451,314,84783,1,0,0:0:0:0:
284,338,84949,2,0,B|278:289|278:289|306:243,1,91.8500028030396,8|0,0:1|0:0,0:0:0:0:
481,130,85283,2,0,B|487:179|487:179|459:225,1,91.8500028030396,8|0,0:0|0:0,0:0:0:0:
193,352,85616,6,0,B|185:287|185:287|160:253|160:253|154:165,1,187.875007166863,10|0,0:1|0:0,0:0:0:0:
154,149,85949,1,10,0:0:0:0:
76,312,86116,1,0,0:0:0:0:
248,94,86283,2,0,L|258:211,1,91.8500028030396,10|0,0:1|0:0,0:0:0:0:
31,159,86616,1,10,0:0:0:0:
167,264,86783,1,0,0:0:0:0:
327,60,86949,6,0,P|286:18|161:69,2,183.700005606079,10|8|8,0:1|0:0|0:1,0:0:0:0:
363,247,87783,1,0,0:0:0:0:
130,151,87949,2,0,P|187:135|239:125,1,91.8500028030396,8|8,0:0|0:0,0:0:0:0:
246,128,88199,1,8,0:0:0:0:
246,128,88282,6,0,P|286:201|263:278,1,150.299995413208,14|0,0:0|0:0,0:0:0:0:
74,381,88949,2,0,P|34:308|57:231,1,150.299995413208,2|0,0:0|0:0,0:0:0:0:
404,229,89616,5,10,0:0:0:0:
175,301,89949,1,8,0:0:0:0:
406,314,90283,5,10,0:0:0:0:
186,215,90616,1,8,0:0:0:0:
457,13,90949,6,0,B|402:4|351:46|351:46|290:90|233:60,1,233.79999286499,6|2,0:0|0:0,0:0:0:0:
156,25,91783,1,2,0:0:0:0:
78,71,91949,2,0,P|92:114|98:146,1,58.4499982162476,0|2,0:0|0:0,0:0:0:0:
289,305,92283,6,0,L|166:332,1,125.25,10|8,0:0|0:0,0:0:0:0:
98,286,92616,2,0,P|102:237|129:207,1,83.5,8|8,0:0|0:0,0:0:0:0:
298,71,92949,5,8,0:0:0:0:
302,91,93032,1,8,0:0:0:0:
307,111,93116,2,0,L|317:166,1,41.75,8|8,0:0|0:0,0:0:0:0:
414,302,93283,1,8,0:0:0:0:
418,282,93366,1,8,0:0:0:0:
423,262,93450,2,0,L|433:207,1,41.75,8|8,0:0|0:0,0:0:0:0:
512,94,93616,6,0,L|431:112,1,83.5,12|0,0:0|0:0,0:0:0:0:
234,247,93949,2,0,P|275:246|312:265,1,83.5,10|0,0:0|0:0,0:0:0:0:
495,366,94283,2,0,L|513:284,1,83.5,10|0,0:1|0:0,0:0:0:0:
430,112,94616,2,0,P|432:154|413:190,1,83.5,10|0,0:0|0:0,0:0:0:0:
292,42,94949,6,0,B|388:68|357:-1|451:20,2,167,10|8|8,0:1|0:0|0:1,0:0:0:0:
100,122,95783,1,0,0:0:0:0:
181,3,95949,2,0,L|194:102,1,83.5,8|0,0:0|0:0,0:0:0:0:
105,224,96283,6,0,P|63:221|29:198,1,83.5,10|0,0:1|0:0,0:0:0:0:
281,145,96616,2,0,L|268:227,1,83.5,10|0,0:0|0:0,0:0:0:0:
84,352,96949,2,0,P|118:329|159:326,1,83.5,10|0,0:1|0:0,0:0:0:0:
351,240,97283,2,0,L|268:226,1,83.5,10|0,0:0|0:0,0:0:0:0:
330,338,97616,6,0,B|422:359|403:281|499:313,1,167,10|8,0:1|0:0,0:0:0:0:
351,240,98116,1,0,0:0:0:0:
433,121,98283,2,0,P|452:157|452:199,1,83.5,8|0,0:1|0:0,0:0:0:0:
243,83,98616,2,0,L|251:0,1,83.5,8|0,0:0|0:0,0:0:0:0:
444,22,98949,6,0,P|402:24|366:45,1,83.5,12|0,0:0|0:0,0:0:0:0:
265,186,99283,2,0,L|181:177,1,83.5,10|0,0:0|0:0,0:0:0:0:
327,317,99616,2,0,P|347:281|350:239,1,83.5,10|0,0:1|0:0,0:0:0:0:
251,0,99949,2,0,L|242:83,1,83.5,10|0,0:0|0:0,0:0:0:0:
120,267,100283,6,0,P|74:199|91:119,2,167,10|8|8,0:1|0:0|0:1,0:0:0:0:
350,239,101116,1,0,0:0:0:0:
225,350,101283,2,0,L|235:259,1,83.5,8|0,0:0|0:0,0:0:0:0:
246,236,101533,1,0,0:0:0:0:
246,236,101616,6,0,B|347:205|307:290|425:262,1,175.349994648743,6|0,0:0|0:0,0:0:0:0:
410,265,101949,1,10,0:1:0:0:
453,60,102116,1,8,0:1:0:0:
255,126,102283,1,10,0:0:0:0:
495,176,102449,1,8,0:0:0:0:
337,38,102616,1,10,0:0:0:0:
295,242,102783,1,8,0:0:0:0:
135,87,102949,5,2,0:0:0:0:
142,63,103116,1,2,0:0:0:0:
167,63,103283,1,2,0:0:0:0:
175,87,103449,1,2,0:0:0:0:
155,101,103616,2,0,P|103:95|51:94,1,100.199996942139,2|0,0:0|0:0,0:0:0:0:
55,93,104116,1,0,0:0:0:0:
138,223,104283,6,0,P|169:211|190:186,1,66.8,14|0,0:1|0:0,0:0:0:0:
66,265,104616,2,0,P|88:290|119:301,1,66.8,2|2,0:0|0:0,0:0:0:0:
334,254,104949,2,0,P|308:232|297:201,1,66.8,0|2,0:0|0:0,0:0:0:0:
433,146,105283,2,0,P|401:157|380:182,1,66.8,0|2,0:0|0:0,0:0:0:0:
249,118,105616,5,2,0:0:0:0:
249,118,105783,2,0,L|326:109,1,66.8,0|2,0:0|0:0,0:0:0:0:
437,13,106116,2,0,L|304:25,1,133.6,2|0,0:0|0:0,0:0:0:0:
433,146,106616,2,0,P|462:127|477:86,1,66.8,2|0,0:0|0:0,0:0:0:0:
353,190,106949,6,0,L|348:265,1,66.8,2|0,0:0|0:0,0:0:0:0:
400,331,107283,1,2,0:0:0:0:
400,331,107449,2,0,P|343:297|278:305,1,133.6,2|2,0:0|0:0,0:0:0:0:
109,296,107949,2,0,L|120:361,1,66.8,0|2,0:0|0:0,0:0:0:0:
201,258,108283,5,2,0:0:0:0:
201,258,108449,2,0,P|214:226|211:174,1,66.8,0|2,0:0|0:0,0:0:0:0:
72,123,108783,2,0,P|97:144|129:152,1,66.8,2|0,0:0|0:0,0:0:0:0:
336,63,109116,2,0,P|280:98|215:95,1,133.6,2|2,0:0|0:0,0:0:0:0:
94,226,109616,6,0,P|149:190|215:193,1,133.6,2|2,0:0|0:0,0:0:0:0:
294,292,110116,2,0,L|302:225,1,66.8,2|0,0:0|0:0,0:0:0:0:
404,145,110449,1,2,0:0:0:0:
404,145,110616,2,0,L|392:223,1,66.8
473,329,110949,6,0,L|494:197,1,133.6,2|2,0:0|0:0,0:0:0:0:
376,336,111449,2,0,P|324:376|259:374,1,133.6,2|2,0:0|0:0,0:0:0:0:
111,333,111949,2,0,L|178:325,1,66.8,0|2,0:0|0:0,0:0:0:0:
294,292,112283,5,2,0:0:0:0:
273,288,112449,1,0,0:0:0:0:
174,229,112616,1,2,0:0:0:0:
195,225,112783,1,2,0:0:0:0:
282,162,112949,2,0,L|273:24,1,133.6
273,28,113449,1,2,0:0:0:0:
69,92,113616,6,0,P|134:88|186:129,1,133.6,2|0,0:0|0:0,0:0:0:0:
290,264,114116,1,2,0:0:0:0:
436,213,114283,2,0,L|369:208,1,66.8,2|10,0:0|0:1,0:0:0:0:
214,373,114616,6,0,P|206:298|194:224,1,150.299995413208,10|0,0:0|0:0,0:0:0:0:
258,167,114949,5,6,0:0:0:0:
368,292,115116,1,0,0:0:0:0:
332,111,115283,1,8,0:0:0:0:
194,224,115449,1,0,0:0:0:0:
343,85,115616,1,2,0:0:0:0:
343,85,115783,1,2,0:0:0:0:
444,242,115949,2,0,P|454:285|460:338,1,83.5,8|0,0:0|0:0,0:0:0:0:
149,358,116283,6,0,P|188:308|295:335,1,167,2|8,0:0|0:0,0:0:0:0:
382,182,116783,2,0,P|357:236|359:270,1,83.5,2|0,0:0|0:0,0:0:0:0:
470,159,117116,1,2,0:0:0:0:
343,85,117283,2,0,P|294:95|252:102,1,83.5,8|0,0:0|0:0,0:0:0:0:
70,187,117616,6,0,P|111:194|152:202,1,83.5,2|0,0:0|0:0,0:0:0:0:
215,37,117949,2,0,P|182:91|188:126,1,83.5,8|0,0:0|0:0,0:0:0:0:
254,252,118283,1,2,0:0:0:0:
254,252,118449,1,2,0:0:0:0:
343,85,118616,2,0,P|294:95|252:102,1,83.5,8|0,0:0|0:0,0:0:0:0:
172,284,118949,5,2,0:0:0:0:
306,177,119116,1,0,0:0:0:0:
333,346,119283,1,8,0:0:0:0:
189,205,119449,2,0,P|132:211|104:246,1,83.5,2|0,0:0|0:0,0:0:0:0:
349,260,119783,2,0,P|406:254|434:219,1,83.5,2|8,0:0|0:0,0:0:0:0:
457,31,120116,1,0,0:0:0:0:
388,104,120283,6,0,P|333:92|212:76,2,167,2|8|2,0:0|0:0|0:0,0:0:0:0:
499,256,121116,2,0,P|440:252|415:223,1,83.5,2|8,0:0|0:0,0:0:0:0:
262,350,121449,1,0,0:0:0:0:
262,350,121616,6,0,B|275:288|275:288|259:256|259:256|278:169,1,167,2|8,0:0|0:0,0:0:0:0:
145,40,122116,2,0,B|137:82|137:82|155:122,1,83.5,2|0,0:0|0:0,0:0:0:0:
152,227,122449,1,2,0:0:0:0:
306,90,122616,2,0,L|223:76,1,83.5,8|0,0:0|0:0,0:0:0:0:
53,262,122949,6,0,L|135:248,1,83.5,2|0,0:0|0:0,0:0:0:0:
310,194,123283,1,8,0:0:0:0:
219,348,123449,2,0,P|227:288|250:267,1,83.5,2|0,0:0|0:0,0:0:0:0:
423,103,123783,2,0,P|415:163|392:184,1,83.5,2|0,0:0|0:0,0:0:0:0:
149,121,124116,6,0,B|191:92|249:119|249:119|301:140|343:113,1,200.399993884278,8|2,0:0|0:0,0:0:0:0:
195,195,124616,1,8,0:0:0:0:
294,44,124783,1,0,0:0:0:0:
405,182,124949,1,2,0:0:0:0:
405,182,125116,1,2,0:0:0:0:
173,207,125283,1,8,0:0:0:0:
294,44,125449,1,8,0:0:0:0:
294,44,125533,1,8,0:0:0:0:
294,44,125616,6,0,P|346:32|384:46,1,66.8,6|0,0:0|0:0,0:0:0:0:
149,121,125949,2,0,P|115:122|84:111,1,66.8,2|0,0:0|0:0,0:0:0:0:
330,178,126283,2,0,P|342:127|333:97,1,66.8,2|0,0:0|0:0,0:0:0:0:
139,56,126616,2,0,P|137:89|148:120,1,66.8,2|0,0:0|0:0,0:0:0:0:
365,274,126949,6,0,P|314:260|227:245,1,133.6,2|2,0:0|0:0,0:0:0:0:
234,245,127449,1,0,0:0:0:0:
96,310,127616,2,0,P|153:301|180:298,1,66.8,2|0,0:0|0:0,0:0:0:0:
263,167,127949,2,0,P|320:176|347:179,1,66.8,2|8,0:0|0:0,0:0:0:0:
362,179,128199,1,8,0:0:0:0:
362,179,128283,6,0,P|360:140|350:95,1,66.8,6|0,0:0|0:0,0:0:0:0:
488,251,128616,2,0,P|482:283|480:317,1,66.8,2|0,0:0|0:0,0:0:0:0:
457,163,128949,1,2,0:0:0:0:
457,163,129116,1,0,0:0:0:0:
365,274,129283,1,2,0:0:0:0:
365,274,129449,1,0,0:0:0:0:
263,167,129616,6,0,P|199:158|136:213,1,133.6,2|2,0:0|0:0,0:0:0:0:
50,59,130116,2,0,P|70:114|76:142,1,66.8,8|2,0:0|0:0,0:0:0:0:
27,302,130449,1,2,0:0:0:0:
27,302,130616,2,0,L|145:282,1,100.2,2|0,0:0|0:0,0:0:0:0:
154,267,130949,6,0,L|221:278,1,66.8,6|0,0:0|0:0,0:0:0:0:
373,344,131283,2,0,L|307:354,1,66.8,2|0,0:0|0:0,0:0:0:0:
420,241,131616,1,2,0:0:0:0:
420,241,131783,1,0,0:0:0:0:
347,112,131949,2,0,P|332:169|341:194,1,66.8,2|0,0:0|0:0,0:0:0:0:
395,28,132283,6,0,P|316:19|267:67,1,133.6,6|2,0:0|0:0,0:0:0:0:
239,142,132783,1,0,0:0:0:0:
117,51,132949,2,0,P|168:62|196:67,1,66.8,2|0,0:0|0:0,0:0:0:0:
220,232,133283,2,0,P|187:238|154:245,1,66.8,2|0,0:0|0:0,0:0:0:0:
23,37,133616,6,0,P|42:110|61:213,1,167,6|8,0:0|0:0,0:0:0:0:
175,358,134116,2,0,P|117:335|85:345,1,83.5,2|0,0:0|0:0,0:0:0:0:
295,277,134449,2,0,P|368:261|399:249,1,83.5,2|0,0:0|0:0,0:0:0:0:
202,18,134783,6,0,P|152:79|174:167,1,167,6|2,0:0|0:0,0:0:0:0:
432,314,135283,2,0,P|453:252|438:220,1,83.5,8|0,0:0|0:0,0:0:0:0:
293,361,135616,1,2,0:0:0:0:
251,198,135783,1,2,0:0:0:0:
251,198,135866,1,2,0:0:0:0:
251,198,135949,1,8,0:0:0:0:
273,163,136032,1,8,0:0:0:0:
309,143,136115,1,8,0:0:0:0:
350,144,136199,1,8,0:0:0:0:
386,164,136283,6,0,P|340:221|235:213,1,167,6|8,0:0|0:0,0:0:0:0:
179,358,136783,1,0,0:0:0:0:
64,238,136949,2,0,L|159:253,1,83.5,2|2,0:0|0:0,0:0:0:0:
236,98,137283,2,0,L|153:84,1,83.5,8|0,0:0|0:0,0:0:0:0:
268,317,137616,6,0,B|334:305|334:305|366:320|366:320|443:306,1,167,2|8,0:0|0:0,0:0:0:0:
421,154,138116,1,0,0:0:0:0:
487,361,138283,2,0,P|506:320|496:272,1,83.5,2|2,0:0|0:0,0:0:0:0:
360,99,138616,2,0,P|341:140|351:188,1,83.5,8|0,0:0|0:0,0:0:0:0:
113,262,138949,6,0,P|199:244|295:235,1,167,6|8,0:0|0:0,0:0:0:0:
380,83,139449,2,0,P|328:76|292:68,1,83.5,0|2,0:0|0:0,0:0:0:0:
165,161,139783,1,2,0:0:0:0:
165,161,139949,2,0,P|146:113|160:77,1,83.5,8|0,0:0|0:0,0:0:0:0:
368,200,140283,6,0,P|375:244|353:284,1,83.5,2|0,0:0|0:0,0:0:0:0:
194,248,140616,2,0,P|235:243|276:235,1,83.5,8|0,0:0|0:0,0:0:0:0:
414,373,140949,2,0,P|372:365|331:360,1,83.5,2|2,0:0|0:0,0:0:0:0:
126,303,141283,2,0,P|104:253|113:217,1,83.5,8|0,0:0|0:0,0:0:0:0:
310,47,141616,5,12,0:0:0:0:
276,235,141783,1,2,0:0:0:0:
130,105,141949,1,8,0:0:0:0:
345,155,142116,1,2,0:0:0:0:
109,98,142283,5,8,0:0:0:0:
272,314,142449,1,2,0:0:0:0:
310,47,142616,1,8,0:0:0:0:
108,226,142783,1,2,0:0:0:0:
91,223,142866,1,0,0:0:0:0:
74,221,142949,5,8,0:0:0:0:
291,327,143116,1,2,0:0:0:0:
206,129,143283,1,8,0:0:0:0:
78,308,143449,1,2,0:0:0:0:
316,209,143616,5,8,0:0:0:0:
89,93,143783,1,2,0:0:0:0:
204,333,143949,1,8,0:0:0:0:
305,94,144116,1,0,0:0:0:0:
56,219,144283,5,2,0:0:0:0:
56,219,144366,1,2,0:0:0:0:
56,219,144449,1,2,0:0:0:0:
56,219,144533,1,2,0:0:0:0:
56,219,144616,2,0,L|106:210,1,41.75,2|2,0:0|0:0,0:0:0:0:
307,284,144783,6,0,L|153:261,1,150.299995413208,10|0,0:0|0:0,0:0:0:0:
167,186,145116,2,0,L|321:209,1,150.299995413208,10|0,0:0|0:0,0:0:0:0:
433,199,145449,6,0,B|451:165|401:131|343:159|348:220|367:249|401:273,1,175.349994648743,10|0,0:0|0:0,0:0:0:0:
494,250,145783,2,0,P|512:215|509:181,1,58.4499982162476,10|0,0:0|0:0,0:0:0:0:
323,118,145949,6,0,P|292:177|293:193,1,66.8
402,375,146283,2,0,L|239:354,1,133.6,4|0,0:3|0:0,0:0:0:0:
0,114,146949,6,0,B|69:101|69:101|101:126|101:126|172:114,1,183.700005606079,14|10,0:0|0:0,0:0:0:0:
337,177,147449,1,0,0:0:0:0:
287,0,147616,2,0,P|277:44|270:90,1,91.8500028030396,10|0,0:1|0:0,0:0:0:0:
381,314,147949,2,0,P|426:266|409:199,1,137.775004204559,10|0,0:0|0:0,0:0:0:0:
337,177,148283,6,0,P|292:186|231:196,1,91.8500028030396,10|0,0:1|0:0,0:0:0:0:
61,285,148616,2,0,P|105:283|139:313,1,91.8500028030396,8|0,0:0|0:0,0:0:0:0:
320,264,148949,1,8,0:1:0:0:
157,141,149116,1,0,0:0:0:0:
204,379,149283,2,0,B|171:293|171:293|194:253,1,137.775004204559,8|0,0:0|0:0,0:0:0:0:
246,194,149616,6,0,P|247:156|253:98,1,91.8500028030396,10|0,0:1|0:0,0:0:0:0:
439,185,149949,1,10,0:0:0:0:
320,264,150116,1,0,0:0:0:0:
204,34,150283,2,0,P|270:61|346:81,1,137.775004204559,10|0,0:1|0:0,0:0:0:0:
411,91,150616,2,0,P|406:45|370:7,1,91.8500028030396,10|0,0:0|0:0,0:0:0:0:
246,194,150949,6,0,B|290:161|335:165|335:165|367:200|425:194,2,183.700005606079,10|8|8,0:1|0:0|0:1,0:0:0:0:
90,285,151783,1,0,0:0:0:0:
178,374,151949,2,0,P|181:343|192:283,1,91.8500028030396,8|0,0:0|0:0,0:0:0:0:
72,45,152283,6,0,P|137:68|128:138,1,137.775004204559,10|0,0:1|0:0,0:0:0:0:
91,191,152616,2,0,P|51:186|-28:183,1,91.8500028030396,10|0,0:0|0:0,0:0:0:0:
233,117,152949,1,10,0:1:0:0:
68,301,153116,1,0,0:0:0:0:
300,336,153283,2,0,B|318:252|249:281|276:193,1,137.775004204559,10|0,0:0|0:0,0:0:0:0:
350,218,153616,6,0,P|281:233|154:250,1,183.700005606079,10|8,0:1|0:0,0:0:0:0:
335,88,154116,1,0,0:0:0:0:
246,31,154283,2,0,B|224:70|224:70|232:116,1,91.8500028030396,8|0,0:1|0:0,0:0:0:0:
471,273,154616,2,0,P|515:225|485:167,1,137.775004204559,8|0,0:0|0:0,0:0:0:0:
410,147,154949,6,0,P|390:275|382:349,1,183.700005606079,10|10,0:1|0:0,0:0:0:0:
169,248,155449,1,0,0:0:0:0:
257,384,155616,2,0,P|262:344|274:277,1,91.8500028030396,10|0,0:1|0:0,0:0:0:0:
179,133,155949,2,0,P|141:154|84:154,1,91.8500028030396,10|0,0:0|0:0,0:0:0:0:
410,147,156283,5,10,0:1:0:0:
169,248,156449,1,0,0:0:0:0:
398,269,156616,5,8,0:0:0:0:
186,229,156783,1,0,0:0:0:0:
338,358,156949,5,8,0:1:0:0:
202,211,157116,1,0,0:0:0:0:
74,308,157283,6,0,P|148:323|205:263,1,137.775004204559,8|0,0:0|0:0,0:0:0:0:
261,316,157616,6,0,B|246:280|208:259|208:259|202:207|254:162,2,183.700005606079,14|10|10,0:0|0:0|0:1,0:0:0:0:
471,229,158449,1,0,0:0:0:0:
364,381,158616,2,0,P|369:335|377:290,1,91.8500028030396,10|0,0:0|0:0,0:0:0:0:
428,46,158949,6,0,P|482:85|476:152,1,137.775004204559,10|0,0:1|0:0,0:0:0:0:
407,180,159283,2,0,P|365:173|305:168,1,91.8500028030396,8|0,0:0|0:0,0:0:0:0:
163,197,159616,1,8,0:1:0:0:
286,67,159783,1,0,0:0:0:0:
146,217,159949,2,0,P|150:160|161:71,1,137.775004204559,8|0,0:0|0:0,0:0:0:0:
199,12,160283,6,0,P|120:68|30:62,2,183.700005606079,10|10|10,0:1|0:0|0:1,0:0:0:0:
399,94,161116,1,0,0:0:0:0:
298,157,161283,2,0,P|294:117|285:62,1,91.8500028030396,10|0,0:0|0:0,0:0:0:0:
508,207,161616,6,0,B|469:179|469:179|427:176|380:221,1,137.775004204559,10|0,0:1|0:0,0:0:0:0:
334,268,161949,2,0,P|296:262|228:255,1,91.8500028030396,8|0,0:0|0:0,0:0:0:0:
61,172,162283,1,8,0:1:0:0:
61,172,162449,1,0,0:0:0:0:
242,75,162616,2,0,L|257:169,1,91.8500028030396,8|0,0:0|0:0,0:0:0:0:
148,302,162949,6,0,B|138:241|138:241|162:197|162:197|151:126,1,183.700005606079,10|10,0:1|0:0,0:0:0:0:
46,287,163449,1,0,0:0:0:0:
255,347,163616,2,0,L|242:256,1,91.8500028030396,10|0,0:1|0:0,0:0:0:0:
134,34,163949,2,0,P|95:48|58:90,1,91.8500028030396,10|0,0:0|0:0,0:0:0:0:
256,165,164283,6,0,P|330:165|382:118,1,137.775004204559,10|0,0:1|0:0,0:0:0:0:
456,121,164616,2,0,P|445:93|428:29,1,91.8500028030396,8|0,0:0|0:0,0:0:0:0:
339,270,164949,2,0,P|392:258|435:253,1,91.8500028030396,8|0,0:1|0:0,0:0:0:0:
290,69,165283,2,0,P|245:80|200:89,1,91.8500028030396,8|0,0:0|0:0,0:0:0:0:
61,227,165616,6,0,B|119:223|169:202|169:202|213:221|206:269,1,187.875007166863,10|0,0:1|0:0,0:0:0:0:
210,284,165949,1,10,0:0:0:0:
65,129,166116,1,0,0:0:0:0:
218,0,166283,2,0,P|205:54|200:96,1,91.8500028030396,10|0,0:1|0:0,0:0:0:0:
319,244,166616,2,0,B|340:202|340:202|327:155,1,91.8500028030396,10|0,0:0|0:0,0:0:0:0:
135,318,166949,6,0,B|242:284|208:374|308:351,1,183.700005606079,10|8,0:1|0:0,0:0:0:0:
475,176,167449,1,0,0:0:0:0:
428,377,167616,2,0,P|422:342|413:262,1,91.8500028030396,8|0,0:1|0:0,0:0:0:0:
457,43,167949,1,8,0:0:0:0:
266,172,168116,1,8,0:0:0:0:
297,165,168199,1,8,0:0:0:0:
328,158,168282,6,0,P|388:205|475:174,1,150.299995413208,14|0,0:0|0:0,0:0:0:0:
188,280,168949,2,0,P|128:233|41:264,1,150.299995413208,2|0,0:0|0:0,0:0:0:0:
388,146,169616,5,10,0:0:0:0:
139,53,169949,1,8,0:0:0:0:
421,18,170283,5,10,0:0:0:0:
117,187,170616,1,8,0:0:0:0:
322,342,170949,6,0,P|285:286|280:151,1,200.399993884278,4|2,0:3|0:0,0:0:0:0:
278,155,171949,1,2,0:0:0:0:
366,88,172283,2,0,B|253:67|299:171|166:139,1,200.399993884278,2|0,0:0|0:0,0:0:0:0:
184,142,173616,6,0,P|180:100|141:49,1,100.199996942139,2|2,0:0|0:0,0:0:0:0:
75,224,174283,2,0,P|94:179|88:130,1,100.199996942139,2|2,0:0|0:0,0:0:0:0:
0,285,174949,2,0,P|97:269|182:318,1,200.399993884278,2|0,0:0|0:0,0:0:0:0:
182,318,175949,2,0,L|241:310,1,50.0999984710694,2|2,0:0|0:0,0:0:0:0:
304,345,176283,6,0,P|356:343|396:307,1,100.199996942139,6|0,0:3|0:0,0:0:0:0:
512,222,176926,2,0,L|411:210,1,100.199996942139,2|2,0:0|0:0,0:0:0:0:
343,58,177609,2,0,P|318:104|329:156,1,100.199996942139,2|2,0:0|0:0,0:0:0:0:
423,309,178272,2,0,L|412:210,1,100.199996942139,2|2,0:0|0:0,0:0:0:0:
225,89,178949,6,0,B|177:59|129:75|129:75|97:123|40:117,1,200.399993884278,2|2,0:0|0:0,0:0:0:0:
44,117,179949,1,0,0:0:0:0:
281,249,180283,5,10,0:0:0:0:
196,308,180449,2,0,P|188:241|177:175,1,133.6,2|8,0:0|0:0,0:0:0:0:
225,89,180949,1,10,0:1:0:0:
84,204,181116,1,2,0:0:0:0:
304,255,181283,1,2,0:0:0:0:
304,255,181616,6,0,P|336:260|364:277,1,66.8,6|0,0:3|0:0,0:0:0:0:
207,177,181949,2,0,P|183:153|171:122,1,66.8,2|0,0:0|0:0,0:0:0:0:
240,297,182283,2,0,P|245:329|237:361,1,66.8,10|0,0:0|0:0,0:0:0:0:
283,181,182616,2,0,P|297:151|323:130,1,66.8,2|8,0:0|0:1,0:0:0:0:
179,249,182949,2,0,P|149:264|116:266,1,66.8,2|0,0:0|0:0,0:0:0:0:
281,63,183283,6,0,P|332:52|398:112,2,133.6,8|10|2,0:1|0:0|0:0,0:0:0:0:
280,62,184283,6,0,P|255:82|241:113,1,66.8,2|0,0:0|0:0,0:0:0:0:
194,293,184616,2,0,P|202:261|198:229,1,66.8,2|0,0:0|0:0,0:0:0:0:
129,54,184950,2,0,P|141:85|165:109,1,66.8,10|0,0:0|0:0,0:0:0:0:
322,209,185283,2,0,P|294:192|262:187,1,66.8,2|8,0:0|0:1,0:0:0:0:
74,198,185616,2,0,P|107:195|137:181,1,66.8,2|0,0:0|0:0,0:0:0:0:
307,289,185949,6,0,B|345:295|373:273|373:273|407:269|440:286,2,133.6,8|10|2,0:1|0:0|0:0,0:0:0:0:
307,289,186949,6,0,P|277:280|237:283,1,66.8,6|0,0:3|0:0,0:0:0:0:
166,326,187283,2,0,P|165:294|150:257,1,66.8,2|0,0:0|0:0,0:0:0:0:
83,207,187616,2,0,P|112:196|143:170,1,66.8,10|0,0:0|0:0,0:0:0:0:
174,93,187949,2,0,P|192:117|227:138,1,66.8,2|8,0:0|0:1,0:0:0:0:
310,145,188283,2,0,P|292:170|282:209,1,66.8,2|0,0:0|0:0,0:0:0:0:
205,14,188616,6,0,P|149:11|92:73,2,133.6,8|10|2,0:1|0:0|0:0,0:0:0:0:
489,310,189616,6,0,B|458:290|421:296|421:296|382:336|322:314,1,150.299995413208,14|0,0:0|0:0,0:0:0:0:
272,298,189949,6,0,P|299:257|345:240,1,100.2,10|0,0:0|0:0,0:0:0:0:
359,241,190283,1,10,0:0:0:0:
349,320,190449,1,8,0:1:0:0:
292,378,190616,1,2,0:0:0:0:
206,382,190783,1,8,0:1:0:0:
109,211,190949,6,0,P|134:263|143:332,1,100.2,10|0,0:0|0:0,0:0:0:0:
144,317,191283,2,0,P|118:339|79:340,1,66.8,8|0,0:1|0:0,0:0:0:0:
55,57,191616,1,8,0:1:0:0:
123,118,191783,1,8,0:1:0:0:
40,149,191949,1,8,0:1:0:0:
370,96,192283,5,6,0:0:0:0:
370,96,192949,1,2,0:0:0:0:
370,96,193283,1,0,0:0:0:0:
447,227,193616,5,2,0:0:0:0:
375,275,193949,1,2,0:0:0:0:
372,188,194283,1,2,0:0:0:0:
447,227,194616,1,0,0:0:0:0:
252,341,194949,5,2,0:0:0:0:
252,341,195616,2,0,P|211:334|138:329,1,100.2,2|0,0:0|0:0,0:0:0:0:
80,351,195949,1,0,0:0:0:0:
80,351,196116,1,2,0:0:0:0:
86,202,196283,2,0,P|92:231|98:278,1,66.8,2|0,0:0|0:0,0:0:0:0:
31,137,196616,1,2,0:0:0:0:
31,137,196783,2,0,P|76:115|101:117,1,66.8,2|0,0:0|0:0,0:0:0:0:
297,161,197116,1,2,0:0:0:0:
297,161,197283,6,0,B|264:178|228:165|228:165|197:152|167:163,1,133.6,0|2,0:0|0:0,0:0:0:0:
167,163,198283,1,2,0:0:0:0:
209,240,198449,1,2,0:0:0:0:
291,261,198616,1,0,0:0:0:0:
366,212,198783,6,0,P|374:164|382:75,1,133.6,2|0,0:0|0:0,0:0:0:0:
460,36,199283,2,0,P|491:76|464:166,2,133.6,2|2|0,0:0|0:0|0:0,0:0:0:0:
169,40,200283,6,0,P|107:56|41:66,1,100.2,2|0,0:0|0:0,0:0:0:0:
58,63,200616,1,2,0:0:0:0:
36,237,200783,2,0,P|53:288|55:320,1,66.8,2|2,0:0|0:0,0:0:0:0:
211,172,201116,2,0,P|159:139|88:164,1,133.6,2|0,0:0|0:0,0:0:0:0:
299,364,201616,5,2,0:0:0:0:
365,239,201949,1,2,0:0:0:0:
239,299,202283,1,2,0:0:0:0:
376,326,202616,1,2,0:0:0:0:
282,222,202949,6,0,B|294:166|294:166|283:127|283:127|305:39,1,167,6|2,0:0|0:0,0:0:0:0:
383,169,203449,1,0,0:0:0:0:
216,43,203616,2,0,L|192:134,1,83.5,2|0,0:0|0:0,0:0:0:0:
168,340,203949,2,0,P|120:312|78:323,1,83.5,2|0,0:0|0:0,0:0:0:0:
345,300,204283,6,0,B|384:275|429:300|429:300|472:322|509:302,1,167,2|2,0:0|0:0,0:0:0:0:
298,375,204783,1,0,0:0:0:0:
260,213,204949,2,0,P|258:174|289:127,1,83.5,2|0,0:0|0:0,0:0:0:0:
487,68,205283,2,0,P|489:107|458:154,1,83.5,2|0,0:0|0:0,0:0:0:0:
225,48,205616,6,0,B|289:36|289:36|321:51|321:51|395:39,1,167,6|2,0:0|0:0,0:0:0:0:
495,230,206116,2,0,L|412:215,1,83.5,0|2,0:0|0:0,0:0:0:0:
246,302,206449,1,0,0:0:0:0:
246,302,206616,2,0,P|292:301|322:269,1,83.5,2|0,0:0|0:0,0:0:0:0:
140,103,206949,6,0,P|166:165|177:231,1,125.25,2|0,0:0|0:0,0:0:0:0:
172,238,207283,2,0,L|69:227,1,83.5,2|0,0:0|0:0,0:0:0:0:
278,135,207616,2,0,L|361:126,1,83.5,2|0,0:0|0:0,0:0:0:0:
168,33,207949,2,0,P|136:75|145:113,1,83.5,2|0,0:0|0:0,0:0:0:0:
325,304,208283,5,6,0:0:0:0:
325,304,208616,1,2,0:0:0:0:
278,135,208783,1,2,0:0:0:0:
330,328,208949,1,2,0:0:0:0:
458,168,209116,1,2,0:0:0:0:
335,351,209283,1,2,0:0:0:0:
163,206,209449,1,2,0:0:0:0:
373,109,209616,5,8,0:0:0:0:
340,375,209783,1,8,0:0:0:0:
143,211,209949,1,8,0:0:0:0:
416,273,210116,1,8,0:0:0:0:
142,306,210283,5,8,0:0:0:0:
242,46,210449,1,8,0:0:0:0:
269,325,210616,1,8,0:0:0:0:
123,103,210783,1,8,0:0:0:0:
424,105,210949,5,2,0:0:0:0:
424,105,211033,1,2,0:0:0:0:
424,105,211116,1,2,0:0:0:0:
424,105,211199,1,2,0:0:0:0:
424,105,211283,2,0,L|481:94,1,41.75,2|2,0:0|0:0,0:0:0:0:
363,159,211449,6,0,L|207:138,1,150.299995413208,10|0,0:0|0:0,0:0:0:0:
184,217,211783,2,0,L|332:237,1,150.299995413208,10|0,0:0|0:0,0:0:0:0:
441,150,212116,6,0,P|436:126|423:104,1,50.0999984710694,10|0,0:0|0:0,0:0:0:0:
148,81,212449,2,0,P|153:56|166:35,1,50.0999984710694,10|0,0:0|0:0,0:0:0:0:
423,227,212949,6,0,L|441:365,1,133.6,4|0,0:3|0:0,0:0:0:0:
26,338,213616,6,0,B|78:325|126:305|126:305|179:320|166:379,1,183.700005606079,14|10,0:0|0:0,0:0:0:0:
338,287,214116,1,0,0:0:0:0:
256,169,214283,2,0,P|246:213|239:259,1,91.8500028030396,10|0,0:1|0:0,0:0:0:0:
502,155,214616,2,0,P|435:163|378:97,1,137.775004204559,10|0,0:0|0:0,0:0:0:0:
356,49,214949,6,0,P|305:60|251:69,1,91.8500028030396,10|0,0:1|0:0,0:0:0:0:
62,147,215283,2,0,P|115:150|148:177,1,91.8500028030396,8|0,0:0|0:0,0:0:0:0:
338,287,215616,1,8,0:1:0:0:
256,169,215783,1,0,0:0:0:0:
139,357,215949,2,0,P|218:346|297:339,1,137.775004204559,8|0,0:0|0:0,0:0:0:0:
338,287,216283,6,0,P|382:297|428:304,1,91.8500028030396,10|0,0:1|0:0,0:0:0:0:
216,251,216616,1,10,0:0:0:0:
352,384,216783,1,0,0:0:0:0:
198,233,216949,2,0,P|202:186|218:91,1,137.775004204559,10|0,0:1|0:0,0:0:0:0:
262,27,217283,2,0,P|291:61|295:106,1,91.8500028030396,10|0,0:0|0:0,0:0:0:0:
60,169,217616,6,0,B|163:139|145:223|242:198,2,183.700005606079,10|8|8,0:1|0:0|0:1,0:0:0:0:
213,317,218449,1,0,0:0:0:0:
125,379,218616,2,0,P|122:348|111:288,1,91.8500028030396,8|0,0:0|0:0,0:0:0:0:
332,203,218949,6,0,P|316:284|311:347,1,137.775004204559,10|0,0:1|0:0,0:0:0:0:
383,368,219283,2,0,P|432:369|483:323,1,91.8500028030396,10|0,0:0|0:0,0:0:0:0:
512,129,219616,1,10,0:1:0:0:
430,245,219783,1,0,0:0:0:0:
279,90,219949,2,0,B|365:130|365:130|423:119,1,137.775004204559,10|0,0:0|0:0,0:0:0:0:
462,64,220283,6,0,P|438:190|426:268,1,183.700005606079,10|8,0:1|0:0,0:0:0:0:
196,315,220783,1,0,0:0:0:0:
311,338,220949,2,0,B|319:292|319:292|297:253,1,91.8500028030396,8|0,0:1|0:0,0:0:0:0:
43,216,221283,2,0,P|86:165|167:174,1,137.775004204559,8|0,0:0|0:0,0:0:0:0:
209,219,221616,6,0,B|253:242|299:229|299:229|326:179|397:187,1,183.700005606079,10|10,0:1|0:0,0:0:0:0:
151,60,222116,1,0,0:0:0:0:
271,32,222283,2,0,P|263:77|257:122,1,91.8500028030396,10|0,0:1|0:0,0:0:0:0:
464,252,222616,2,0,P|469:206|476:161,1,91.8500028030396,10|0,0:0|0:0,0:0:0:0:
184,384,222949,5,10,0:1:0:0:
373,185,223116,1,0,0:0:0:0:
131,261,223283,5,10,0:0:0:0:
348,329,223449,1,0,0:0:0:0:
256,122,223616,5,10,0:1:0:0:
223,301,223783,1,0,0:0:0:0:
464,194,223949,6,0,P|412:187|363:184,1,91.8500028030396,10|0,0:0|0:0,0:0:0:0:
117,59,224283,6,0,B|156:25|203:18|203:18|231:55|286:52,1,175.349994648743,14|0,0:0|0:0,0:0:0:0:
292,59,224616,1,10,0:0:0:0:
63,169,224783,1,0,0:0:0:0:
166,236,224949,2,0,P|172:190|182:145,1,91.8500028030396,10|0,0:1|0:0,0:0:0:0:
359,0,225283,2,0,P|386:35|382:80,1,91.8500028030396,10|0,0:0|0:0,0:0:0:0:
290,198,225616,6,0,P|367:186|435:179,1,137.775004204559,10|0,0:1|0:0,0:0:0:0:
477,238,225949,2,0,P|501:200|500:155,1,91.8500028030396,8|0,0:0|0:0,0:0:0:0:
348,300,226283,1,8,0:1:0:0:
512,343,226449,1,0,0:0:0:0:
324,292,226616,2,0,P|264:299|178:314,1,137.775004204559,8|0,0:0|0:0,0:0:0:0:
121,353,226949,6,0,B|157:300|157:300|121:177,2,183.700005606079,10|10|10,0:1|0:0|0:1,0:0:0:0:
235,203,227783,1,0,0:0:0:0:
62,75,227949,2,0,P|107:82|152:87,1,91.8500028030396,10|0,0:0|0:0,0:0:0:0:
421,130,228283,6,0,P|378:181|311:181,1,137.775004204559,10|0,0:1|0:0,0:0:0:0:
255,126,228616,2,0,P|250:80|243:35,1,91.8500028030396,8|0,0:0|0:0,0:0:0:0:
152,201,228949,1,8,0:1:0:0:
336,277,229116,1,0,0:0:0:0:
227,356,229283,2,0,P|231:310|238:265,1,91.8500028030396,8|0,0:0|0:0,0:0:0:0:
445,202,229616,6,0,P|432:289|418:391,1,183.700005606079,10|10,0:1|0:0,0:0:0:0:
336,277,230116,1,0,0:0:0:0:
478,107,230283,2,0,P|434:113|377:120,1,91.8500028030396,10|0,0:1|0:0,0:0:0:0:
216,6,230616,2,0,P|263:15|292:62,1,91.8500028030396,10|0,0:0|0:0,0:0:0:0:
231,299,230949,6,0,P|239:244|258:153,1,137.775004204559,10|0,0:1|0:0,0:0:0:0:
194,113,231283,2,0,P|150:126|105:138,1,91.8500028030396,8|0,0:0|0:0,0:0:0:0:
336,277,231616,2,0,P|381:283|426:293,1,91.8500028030396,8|0,0:1|0:0,0:0:0:0:
142,366,231949,2,0,B|115:328|115:328|125:283,1,91.8500028030396,8|0,0:0|0:0,0:0:0:0:
292,20,232282,6,0,B|302:80|302:80|269:129|269:129|280:196,1,187.875007166863,10|0,0:1|0:0,0:0:0:0:
283,218,232616,1,10,0:0:0:0:
202,25,232783,1,0,0:0:0:0:
389,201,232949,2,0,P|438:189|490:179,1,91.8500028030396,10|0,0:1|0:0,0:0:0:0:
266,384,233283,2,0,P|255:341|240:277,1,91.8500028030396,10|0,0:0|0:0,0:0:0:0:
0,191,233616,6,0,B|107:157|73:247|173:224,1,183.700005606079,10|8,0:1|0:0,0:0:0:0:
280,196,234116,1,0,0:0:0:0:
164,33,234283,2,0,P|158:78|151:123,1,91.8500028030396,8|0,0:1|0:0,0:0:0:0:
244,294,234616,1,8,0:0:0:0:
377,141,234783,1,8,0:0:0:0:
377,141,234866,1,8,0:0:0:0:
377,141,234949,5,14,0:0:0:0:
322,356,235116,1,8,0:1:0:0:
465,76,235283,1,8,0:0:0:0:
512,296,235449,1,8,0:1:0:0:
251,105,235616,5,10,0:0:0:0:
451,211,235783,1,8,0:1:0:0:
148,322,235949,1,8,0:0:0:0:
336,210,236116,1,8,0:1:0:0:
78,105,236283,5,10,0:0:0:0:
86,78,236616,5,8,0:0:0:0:
244,275,236949,5,10,0:0:0:0:
242,263,237032,1,8,0:0:0:0:
240,252,237116,2,0,L|229:192,1,45.9250014015198,8|8,0:0|0:0,0:0:0:0:
408,80,237283,5,10,0:0:0:0:
384,88,237366,1,8,0:0:0:0:
356,88,237449,2,0,P|316:79|300:68,1,50.0999984710694,8|8,0:0|0:0,0:0:0:0:
98,193,237616,5,14,0:0:0:0:
239,122,237783,1,8,0:1:0:0:
77,197,237949,5,10,0:0:0:0:
244,275,238116,1,8,0:1:0:0:
57,202,238283,5,10,0:0:0:0:
256,115,238449,1,8,0:1:0:0:
166,319,238616,5,10,0:0:0:0:
278,107,238783,1,8,0:1:0:0:
333,348,238949,5,10,0:0:0:0:
212,196,239116,1,8,0:1:0:0:
342,365,239283,5,8,0:0:0:0:
420,172,239449,1,8,0:1:0:0:
182,310,239616,6,0,L|69:294,1,100.199996942139,8|8,0:0|0:1,0:0:0:0:
301,97,239949,2,0,L|400:82,1,100.199996942139,8|8,0:0|0:1,0:0:0:0:
261,348,240282,5,10,0:0:0:0:
306,191,240448,1,8,0:1:0:0:
268,365,240615,5,10,0:0:0:0:
212,196,240782,1,8,0:1:0:0:
400,235,240948,5,10,0:0:0:0:
182,310,241115,1,8,0:1:0:0:
376,345,241282,5,10,0:0:0:0:
308,164,241449,1,8,0:1:0:0:
165,320,241616,5,10,0:0:0:0:
314,148,241783,1,8,0:1:0:0:
268,365,241949,5,8,0:0:0:0:
320,131,242116,1,8,0:1:0:0:
62,197,242283,6,0,L|85:309,1,100.199996942139,8|8,0:0|0:1,0:0:0:0:
376,345,242616,2,0,L|396:246,1,100.199996942139,8|8,0:0|0:1,0:0:0:0:
111,119,242949,5,10,0:0:0:0:
258,201,243116,1,8,0:1:0:0:
98,112,243283,5,10,0:0:0:0:
291,62,243449,1,8,0:1:0:0:
84,106,243615,5,10,0:0:0:0:
231,284,243783,1,8,0:1:0:0:
180,53,243949,5,10,0:0:0:0:
413,98,244116,1,8,0:1:0:0:
228,307,244283,5,10,0:0:0:0:
267,123,244449,1,8,0:1:0:0:
225,325,244616,5,8,0:0:0:0:
175,141,244783,1,8,0:1:0:0:
433,218,244949,6,0,L|327:244,1,100.199996942139,8|8,0:0|0:1,0:0:0:0:
68,46,245283,2,0,B|125:31|125:31|179:52,1,116.899996432495,8|8,0:0|0:1,0:0:0:0:
254,102,245533,1,0,0:0:0:0:
282,95,245616,5,10,0:0:0:0:
204,242,245783,1,8,0:1:0:0:
305,88,245949,5,10,0:0:0:0:
292,310,246116,1,8,0:1:0:0:
295,322,246199,1,0,0:0:0:0:
298,334,246282,5,10,0:0:0:0:
103,187,246449,1,8,0:1:0:0:
354,250,246616,5,10,0:0:0:0:
106,293,246783,1,8,0:1:0:0:
93,290,246866,1,0,0:0:0:0:
81,287,246949,5,10,0:0:0:0:
168,93,247116,1,8,0:1:0:0:
196,342,247283,5,10,0:0:0:0:
186,177,247449,1,8,0:1:0:0:
336,356,247616,5,10,0:0:0:0:
249,237,247783,1,8,0:1:0:0:
429,305,247949,5,10,0:0:0:0:
327,269,248116,1,8,0:1:0:0:
449,36,248283,5,14,0:0:0:0:
402,215,248449,1,8,0:1:0:0:
461,23,248616,5,10,0:0:0:0:
289,123,248783,1,8,0:1:0:0:
472,12,248949,5,10,0:0:0:0:
410,233,249116,1,8,0:1:0:0:
309,25,249283,5,10,0:0:0:0:
418,251,249449,1,8,0:1:0:0:
166,236,249616,5,10,0:0:0:0:
349,157,249783,1,8,0:1:0:0:
184,322,249949,5,8,0:0:0:0:
110,97,250116,1,8,0:1:0:0:
113,84,250199,1,0,0:0:0:0:
117,72,250283,6,0,L|238:97,1,100.199996942139,8|8,0:0|0:1,0:0:0:0:
385,352,250616,2,0,L|286:331,1,100.199996942139,8|8,0:0|0:1,0:0:0:0:
446,171,250949,5,10,0:0:0:0:
292,233,251116,1,8,0:1:0:0:
464,170,251283,5,10,0:0:0:0:
300,85,251448,1,8,0:1:0:0:
480,171,251616,5,10,0:0:0:0:
276,240,251783,1,8,0:1:0:0:
410,63,251949,5,10,0:0:0:0:
425,286,252116,1,8,0:1:0:0:
201,157,252283,5,10,0:0:0:0:
371,212,252449,1,8,0:1:0:0:
147,248,252616,5,8,0:0:0:0:
301,141,252783,1,8,0:1:0:0:
297,128,252866,1,0,0:0:0:0:
294,116,252949,6,0,L|307:16,1,100.199996942139,8|8,0:0|0:1,0:0:0:0:
48,206,253283,2,0,L|61:306,1,100.199996942139,8|8,0:0|0:1,0:0:0:0:
196,115,253616,5,10,0:0:0:0:
284,300,253783,1,8,0:1:0:0:
199,95,253949,5,10,0:0:0:0:
182,321,254116,1,8,0:1:0:0:
202,77,254283,5,10,0:0:0:0:
301,307,254449,1,8,0:1:0:0:
111,147,254616,5,10,0:0:0:0:
340,65,254783,1,8,0:1:0:0:
309,325,254949,5,10,0:0:0:0:
278,173,255116,1,8,0:1:0:0:
316,343,255283,5,8,0:0:0:0:
450,224,255449,1,8,0:1:0:0:
437,226,255532,1,0,0:0:0:0:
425,228,255615,5,8,0:0:0:0:
182,321,255783,1,8,0:1:0:0:
388,301,255949,5,8,0:0:0:0:
224,251,256116,1,8,0:1:0:0:
452,357,256283,5,10,0:0:0:0:
444,112,256449,1,8,0:1:0:0:
286,322,256616,5,10,0:0:0:0:
452,90,256783,1,8,0:1:0:0:
195,161,256949,5,10,0:0:0:0:
462,69,257116,1,8,0:1:0:0:
301,198,257283,5,10,0:0:0:0:
368,20,257449,1,8,0:1:0:0:
376,270,257616,5,10,0:0:0:0:
174,156,257783,1,8,0:1:0:0:
299,341,257949,5,8,0:0:0:0:
248,60,258116,1,8,0:1:0:0:
250,47,258199,1,0,0:0:0:0:
253,35,258282,5,8,0:0:0:0:
199,293,258449,1,8,0:1:0:0:
127,17,258616,5,8,0:0:0:0:
405,117,258783,1,8,0:0:0:0:
405,117,258866,1,8,0:0:0:0:
405,117,258948,6,0,P|331:163|258:137,1,150.299995413208,14|0,0:0|0:0,0:0:0:0:
93,256,259615,2,0,P|167:210|240:236,1,150.299995413208,2|0,0:0|0:0,0:0:0:0:
405,117,260283,5,10,0:0:0:0:
174,304,260616,1,8,0:0:0:0:
209,116,260949,5,10,0:0:0:0:
434,308,261283,1,8,0:0:0:0:
55,366,261616,6,0,B|110:375|161:333|161:333|222:289|279:319,1,233.79999286499,6|2,0:0|0:0,0:0:0:0:
356,354,262448,1,2,0:0:0:0:
434,308,262616,2,0,P|420:265|414:233,1,58.4499982162476,0|2,0:0|0:0,0:0:0:0:
223,74,262948,6,0,L|346:47,1,125.25,10|8,0:0|0:0,0:0:0:0:
414,93,263282,2,0,P|410:142|383:172,1,83.5,8|8,0:0|0:0,0:0:0:0:
214,308,263616,5,8,0:0:0:0:
210,288,263699,1,8,0:0:0:0:
205,268,263783,2,0,L|195:213,1,41.75,8|8,0:0|0:0,0:0:0:0:
98,77,263948,1,8,0:0:0:0:
94,97,264033,1,8,0:0:0:0:
89,117,264115,2,0,L|79:172,1,41.75,8|8,0:0|0:0,0:0:0:0:
302,180,264283,6,0,P|244:151|209:164,1,83.5,12|0,0:0|0:0,0:0:0:0:
35,288,264616,2,0,P|107:274|139:270,1,83.5,10|0,0:0|0:0,0:0:0:0:
308,354,264949,2,0,L|281:248,1,83.5,10|0,0:1|0:0,0:0:0:0:
409,86,265283,2,0,L|388:166,1,83.5,10|0,0:0|0:0,0:0:0:0:
173,34,265616,6,0,B|208:9|256:26|256:26|304:46|345:20,2,167,10|8|8,0:1|0:0|0:1,0:0:0:0:
56,177,266449,1,0,0:0:0:0:
82,17,266616,2,0,P|96:77|100:111,1,83.5,8|0,0:0|0:0,0:0:0:0:
315,317,266949,6,0,P|234:300|210:298,1,83.5,10|0,0:1|0:0,0:0:0:0:
384,138,267283,2,0,P|406:200|391:235,1,83.5,10|0,0:0|0:0,0:0:0:0:
148,317,267616,2,0,P|145:275|166:240,1,83.5,10|0,0:1|0:0,0:0:0:0:
272,32,267949,2,0,L|295:129,1,83.5,10|0,0:0|0:0,0:0:0:0:
59,256,268283,6,0,B|68:189|68:189|89:165|89:165|100:89,1,167,10|8,0:1|0:0,0:0:0:0:
271,215,268783,1,0,0:0:0:0:
148,317,268949,2,0,P|209:306|242:304,1,83.5,8|0,0:1|0:0,0:0:0:0:
291,113,269283,2,0,P|352:124|385:126,1,83.5,8|0,0:0|0:0,0:0:0:0:
489,331,269616,6,0,P|490:269|465:235,1,83.5,12|0,0:0|0:0,0:0:0:0:
381,46,269949,2,0,P|366:84|372:125,1,83.5,10|0,0:0|0:0,0:0:0:0:
230,304,270283,2,0,L|138:291,1,83.5,10|0,0:1|0:0,0:0:0:0:
372,125,270616,2,0,L|454:113,1,83.5,10|0,0:0|0:0,0:0:0:0:
213,41,270949,6,0,P|175:103|184:202,2,167,10|8|8,0:1|0:0|0:1,0:0:0:0:
88,61,271783,1,0,0:0:0:0:
289,136,271949,2,0,L|372:124,1,83.5,8|0,0:0|0:0,0:0:0:0:
200,337,272283,6,0,B|156:349|114:328|114:328|66:299|17:328,1,175.349994648743,6|0,0:0|0:0,0:0:0:0:
30,320,272616,1,10,0:1:0:0:
234,218,272783,1,8,0:1:0:0:
37,204,272949,1,10,0:0:0:0:
227,333,273116,1,8,0:0:0:0:
139,155,273283,1,10,0:0:0:0:
124,382,273449,1,8,0:0:0:0:
393,290,273616,5,2,0:0:0:0:
353,64,273949,1,2,0:0:0:0:
344,74,274283,1,2,0:0:0:0:
337,89,274616,1,2,0:0:0:0:
336,104,274949,6,0,P|372:141|430:127,2,100.199996942139,2|2|2,0:0|0:0|0:0,0:0:0:0:
336,104,275949,6,0,B|285:90|253:123|253:123|172:57|83:103,1,267.2,2|2,0:0|0:0,0:0:0:0:
87,100,277449,1,2,0:0:0:0:
141,268,277616,6,0,P|159:232|157:168,2,100.199996942139,2|2|2,0:0|0:0|0:0,0:0:0:0:
141,268,278616,6,0,B|188:252|268:298|268:298|340:338|396:322,1,267.2,2|0,0:0|0:0,0:0:0:0:
395,322,280283,6,0,P|424:276|412:227,1,100.199996942139,2|2,0:0|0:0,0:0:0:0:
327,214,280949,2,0,P|298:260|310:309,1,100.199996942139,2|2,0:0|0:0,0:0:0:0:
390,152,281616,6,0,P|343:126|251:175,2,150.299995413208,2|2|2,0:0|0:0|0:0,0:0:0:0:
390,152,282949,6,0,P|346:143|273:118,1,100.199996942139,2|2,0:0|0:0,0:0:0:0:
149,29,283616,2,0,P|105:38|32:63,1,100.199996942139,2|0,0:0|0:0,0:0:0:0:
177,189,284283,6,0,P|198:153|159:176,1,116.9,2|0,0:0|0:0,0:0:0:0:
158,173,284949,2,0,L|179:296,1,116.9,2|0,0:0|0:0,0:0:0:0:
177,288,285616,6,0,P|215:309|264:299,1,83.5,2|2,0:0|0:0,0:0:0:0:
333,346,286275,1,2,0:0:0:0:
433,148,286605,6,0,P|416:214|408:296,1,146.125,2|0,0:0|0:0,0:0:0:0:
408,291,287909,5,2,0:0:0:0:
479,344,288089,1,2,0:0:0:0:
486,264,288271,5,2,0:0:0:0:
333,346,288604,1,2,0:0:0:0:
220,320,288937,1,2,0:0:0:0:
162,260,289271,6,0,P|159:210|251:169,1,146.125,2|0,0:0|0:0,0:0:0:0:
233,164,291128,6,0,P|169:154|138:143,1,83.5,2|2,0:0|0:0,0:0:0:0:
308,223,291897,2,0,P|348:211|389:207,1,83.5,2|2,0:0|0:0,0:0:0:0:
348,0,292706,6,0,P|293:41|306:111,1,125.25,2|0,0:0|0:0,0:0:0:0:
294,92,293575,6,0,P|356:84|427:74,1,125.25,2|0,0:0|0:0,0:0:0:0:
512,252,294728,6,0,P|468:242|456:241,1,41.75,2|2,0:0|0:0,0:0:0:0:
471,242,294950,6,0,L|491:344,1,83.5,2|2,0:0|0:0,0:0:0:0:
406,369,295882,2,0,L|390:285,1,83.5,2|2,0:0|0:0,0:0:0:0:
140,79,297720,6,0,L|135:104,3,20.875,2|2|2|2,0:0|0:0|0:0|0:0,0:0:0:0:
256,192,297965,12,4,300301,0:3:0:0:
256,192,300424,12,0,303621,0:0:0:0:
