osu file format v14

[General]
AudioFilename: mfw.mp3
AudioLeadIn: 0
PreviewTime: 0
Countdown: 0
SampleSet: Soft
StackLeniency: 0.7
Mode: 0
LetterboxInBreaks: 0
WidescreenStoryboard: 0

[Editor]
Bookmarks: 5217,10434,15652,20869,26086,31304,36521
DistanceSpacing: 0.8
BeatDivisor: 4
GridSize: 4
TimelineZoom: 1.4

[Metadata]
Title:mfw
TitleUnicode:mfw
Artist:waffle
ArtistUnicode:waffle
Creator:fufu-
Version:oof
Source:
Tags:couchdreamz lofi hiphop rap ambient beats roblox loop creeds glitch
BeatmapID:1434099
BeatmapSetID:678210

[Difficulty]
HPDrainRate:5
CircleSize:5
OverallDifficulty:8
ApproachRate:8.8
SliderMultiplier:1.4
SliderTickRate:1

[Events]
//Background and Video events
0,0,"bg.png",0,0
//Break Periods
//Storyboard Layer 0 (Background)
//Storyboard Layer 1 (Fail)
//Storyboard Layer 2 (Pass)
//Storyboard Layer 3 (Foreground)
//Storyboard Sound Samples

[TimingPoints]
0,326.086956521739,4,2,0,50,1,0
9130,-100,4,2,0,30,0,0
9293,-100,4,2,0,40,0,0
9456,-100,4,2,0,50,0,0
18586,-142.857142857143,4,2,0,5,0,0
18913,-100,4,2,0,50,0,0

[Colours]
Combo1 : 0,0,0
Combo2 : 4,95,121
Combo3 : 156,10,105
Combo4 : 159,0,0
Combo5 : 13,134,116
Combo6 : 255,255,255

[HitObjects]
241,137,0,5,0,0:0:0:0:
322,162,163,1,0,0:0:0:0:
322,162,326,2,0,L|407:143,1,70,2|0,3:0|0:0,0:0:0:0:
259,219,652,1,8,0:0:0:0:
223,55,815,1,8,0:0:0:0:
322,162,978,6,0,L|402:145,1,70,2|0,3:0|0:0,0:0:0:0:
434,92,1304,2,0,P|457:125|458:168,1,70,2|0,3:0|0:0,0:0:0:0:
419,212,1630,2,0,B|415:239|415:239|432:295,1,70,4|0,1:0|0:0,0:0:0:0:
378,327,1956,6,8,P|330:337|281:329,2,93.3333333333333
268,248,2608,5,0,0:0:0:0:
187,223,2771,1,0,0:0:0:0:
187,223,2934,2,0,L|101:241,1,70,2|0,3:0|0:0,0:0:0:0:
250,166,3260,1,8,0:0:0:0:
286,330,3423,1,8,0:0:0:0:
187,223,3586,37,2,3:0:0:0:
118,237,3749,1,2,3:0:0:0:
75,293,3913,1,2,3:0:0:0:
48,231,4076,1,2,3:0:0:0:
90,173,4239,2,0,B|90:135|90:135|79:95,1,70,4|0,1:0|0:0,0:0:0:0:
131,58,4564,6,8,P|179:48|228:56,2,93.3333333333333,10|10|10,0:0|0:0|0:0,0:0:0:0:
241,137,5217,5,0,0:0:0:0:
322,162,5380,1,0,0:0:0:0:
322,162,5543,2,0,L|407:143,1,70,2|0,3:0|0:0,0:0:0:0:
259,219,5869,1,8,0:0:0:0:
223,55,6032,1,8,0:0:0:0:
322,162,6195,6,0,L|402:145,1,70,2|0,3:0|0:0,0:0:0:0:
434,92,6521,2,0,P|457:125|458:168,1,70,2|0,3:0|0:0,0:0:0:0:
419,212,6847,2,0,B|415:239|415:239|432:295,1,70,4|0,1:0|0:0,0:0:0:0:
378,327,7173,38,8,P|330:337|281:329,2,93.3333333333333
268,248,7825,5,0,0:0:0:0:
187,223,7988,1,0,0:0:0:0:
187,223,8151,2,0,L|101:241,1,70,2|0,3:0|0:0,0:0:0:0:
250,166,8477,1,8,0:0:0:0:
286,330,8640,1,8,0:0:0:0:
187,223,8803,5,2,3:0:0:0:
118,237,8966,1,2,3:0:0:0:
75,293,9130,22,0,L|36:308,2,23.3333333333333,2|2|2,0:0|0:0|0:0,0:0:0:0:
48,231,9293,2,0,L|18:241,2,23.3333333333333,2|2|2,0:0|0:0|0:0,0:0:0:0:
90,173,9456,2,0,B|90:135|90:135|79:95,1,70,4|0,1:0|0:0,0:0:0:0:
131,58,9782,22,8,P|179:48|237:57,2,93.3333333333333,10|10|10,0:0|0:0|0:0,0:0:0:0:
241,137,10434,5,0,0:0:0:0:
322,162,10597,1,0,0:0:0:0:
322,162,10760,2,0,L|407:143,1,70,2|0,3:0|0:0,0:0:0:0:
259,219,11086,1,8,0:0:0:0:
223,55,11249,1,8,0:0:0:0:
322,162,11412,6,0,L|402:145,1,70,2|0,3:0|0:0,0:0:0:0:
434,92,11738,2,0,P|457:125|458:168,1,70,2|0,3:0|0:0,0:0:0:0:
419,212,12064,2,0,B|415:239|415:239|432:295,1,70,4|0,1:0|0:0,0:0:0:0:
378,327,12391,6,8,P|330:337|281:329,2,93.3333333333333
268,248,13043,37,0,0:0:0:0:
187,223,13206,1,0,0:0:0:0:
187,223,13369,2,0,L|101:241,1,70,2|0,3:0|0:0,0:0:0:0:
250,166,13695,1,8,0:0:0:0:
286,330,13858,1,8,0:0:0:0:
187,223,14021,5,2,3:0:0:0:
118,237,14184,1,2,3:0:0:0:
75,293,14348,1,2,3:0:0:0:
48,231,14511,1,2,3:0:0:0:
90,173,14674,2,0,B|90:135|90:135|79:95,1,70,4|0,1:0|0:0,0:0:0:0:
131,58,14999,6,8,P|179:48|228:56,1,93.3333333333333,10|10,0:0|0:0,0:0:0:0:
222,54,15326,22,0,L|281:39,2,46.6666666666667,2|10|2,0:0|0:0|0:0,0:0:0:0:
241,137,15652,21,0,0:0:0:0:
322,162,15815,1,0,0:0:0:0:
322,162,15978,2,0,L|407:143,1,70,2|0,3:0|0:0,0:0:0:0:
259,219,16304,1,8,0:0:0:0:
223,55,16467,1,8,0:0:0:0:
322,162,16630,22,0,L|402:145,1,70,2|0,3:0|0:0,0:0:0:0:
434,92,16956,2,0,P|457:125|458:168,1,70,2|0,3:0|0:0,0:0:0:0:
419,212,17282,2,0,B|415:239|415:239|432:295,1,70,4|0,1:0|0:0,0:0:0:0:
378,327,17608,6,8,P|330:337|281:329,2,93.3333333333333
268,248,18260,37,0,0:0:0:0:
187,223,18423,1,0,0:0:0:0:
191,235,18586,70,0,L|109:252,1,73.4999977569581
250,166,18913,5,8,0:0:0:0:
286,330,19076,1,8,0:0:0:0:
187,223,19239,5,2,3:0:0:0:
118,237,19402,1,2,3:0:0:0:
75,293,19565,1,2,3:0:0:0:
48,231,19728,1,2,3:0:0:0:
90,173,19891,2,0,B|90:135|90:135|79:95,1,70,4|0,1:0|0:0,0:0:0:0:
131,58,20217,6,8,P|179:48|228:56,2,93.3333333333333,10|10|10,0:0|0:0|0:0,0:0:0:0:
241,137,20869,5,0,0:0:0:0:
322,162,21032,1,0,0:0:0:0:
322,162,21195,2,0,L|407:143,1,70,2|0,3:0|0:0,0:0:0:0:
259,219,21521,1,8,0:0:0:0:
223,55,21684,1,8,0:0:0:0:
322,162,21847,38,0,L|402:145,1,70,2|0,3:0|0:0,0:0:0:0:
434,92,22173,2,0,P|457:125|458:168,1,70,2|0,3:0|0:0,0:0:0:0:
419,212,22499,2,0,B|415:239|415:239|432:295,1,70,4|0,1:0|0:0,0:0:0:0:
378,327,22825,6,8,P|330:337|281:329,2,93.3333333333333
268,248,23477,5,0,0:0:0:0:
187,223,23640,1,0,0:0:0:0:
187,223,23803,2,0,L|101:241,1,70,2|0,3:0|0:0,0:0:0:0:
250,166,24129,1,8,0:0:0:0:
286,330,24292,1,8,0:0:0:0:
187,223,24455,5,2,3:0:0:0:
118,237,24618,1,2,3:0:0:0:
75,293,24782,1,2,3:0:0:0:
48,231,24945,1,2,3:0:0:0:
90,173,25108,2,0,B|90:135|90:135|79:95,1,70,4|0,1:0|0:0,0:0:0:0:
131,58,25433,38,8,P|179:48|228:56,2,93.3333333333333,10|10|10,0:0|0:0|0:0,0:0:0:0:
241,137,26086,5,0,0:0:0:0:
322,162,26249,1,0,0:0:0:0:
322,162,26412,2,0,L|407:143,1,70,2|0,3:0|0:0,0:0:0:0:
259,219,26738,1,8,0:0:0:0:
223,55,26901,1,8,0:0:0:0:
322,162,27064,6,0,L|402:145,1,70,2|0,3:0|0:0,0:0:0:0:
434,92,27390,2,0,P|457:125|458:168,1,70,2|0,3:0|0:0,0:0:0:0:
419,212,27716,2,0,B|415:239|415:239|432:295,1,70,4|0,1:0|0:0,0:0:0:0:
378,327,28042,6,8,P|330:337|281:329,2,93.3333333333333
268,248,28694,37,0,0:0:0:0:
187,223,28857,1,0,0:0:0:0:
187,223,29020,2,0,L|101:241,1,70,2|0,3:0|0:0,0:0:0:0:
250,166,29346,1,8,0:0:0:0:
286,330,29509,1,8,0:0:0:0:
187,223,29672,5,2,3:0:0:0:
118,237,29835,1,2,3:0:0:0:
75,293,29999,1,2,3:0:0:0:
48,231,30162,1,2,3:0:0:0:
90,173,30325,2,0,B|90:135|90:135|79:95,1,70,4|0,1:0|0:0,0:0:0:0:
131,58,30650,6,8,P|179:48|228:56,2,93.3333333333333,10|10|10,0:0|0:0|0:0,0:0:0:0:
241,137,31304,5,0,0:0:0:0:
322,162,31467,1,0,0:0:0:0:
322,162,31630,2,0,L|407:143,1,70,2|0,3:0|0:0,0:0:0:0:
259,219,31956,1,8,0:0:0:0:
223,55,32119,1,8,0:0:0:0:
322,162,32282,38,0,L|402:145,1,70,2|0,3:0|0:0,0:0:0:0:
434,92,32608,2,0,P|457:125|458:168,1,70,2|0,3:0|0:0,0:0:0:0:
419,212,32934,2,0,B|415:239|415:239|432:295,1,70,4|0,1:0|0:0,0:0:0:0:
378,327,33260,6,8,P|330:337|281:329,2,93.3333333333333
268,248,33912,5,0,0:0:0:0:
187,223,34075,1,0,0:0:0:0:
187,223,34238,2,0,L|101:241,1,70,2|0,3:0|0:0,0:0:0:0:
250,166,34564,1,8,0:0:0:0:
286,330,34727,1,8,0:0:0:0:
187,223,34890,5,2,3:0:0:0:
118,237,35053,1,2,3:0:0:0:
75,293,35217,6,0,L|72:324,2,23.3333333333333,2|2|2,3:0|3:0|3:0,3:0:0:0:
48,231,35380,2,0,L|25:225,1,23.3333333333333,2|2,3:0|3:0,3:0:0:0:
90,173,35543,2,0,B|90:135|90:135|79:95,1,70,4|0,1:0|0:0,0:0:0:0:
131,58,35869,22,8,P|179:48|228:56,2,93.3333333333333,10|10|10,0:0|0:0|0:0,0:0:0:0:
241,137,36521,5,0,0:0:0:0:
322,162,36684,1,0,0:0:0:0:
322,162,36847,2,0,L|407:143,1,70,2|0,3:0|0:0,0:0:0:0:
259,219,37173,1,8,0:0:0:0:
223,55,37336,1,8,0:0:0:0:
322,162,37499,6,0,L|402:145,1,70,2|0,3:0|0:0,0:0:0:0:
434,92,37825,2,0,P|457:125|458:168,1,70,2|0,3:0|0:0,0:0:0:0:
419,212,38151,2,0,B|415:239|415:239|432:295,1,70,4|0,1:0|0:0,0:0:0:0:
378,327,38477,6,8,P|330:337|281:329,2,93.3333333333333
268,248,39129,37,0,0:0:0:0:
187,223,39292,1,0,0:0:0:0:
187,223,39455,2,0,L|101:241,1,70,2|0,3:0|0:0,0:0:0:0:
250,166,39781,1,8,0:0:0:0:
286,330,39944,1,8,0:0:0:0:
187,223,40107,5,2,3:0:0:0:
118,237,40270,1,2,3:0:0:0:
75,293,40434,1,2,3:0:0:0:
48,231,40597,1,2,3:0:0:0:
90,173,40760,2,0,B|90:135|90:135|79:95,1,70,4|0,1:0|0:0,0:0:0:0:
131,58,41085,6,8,P|179:48|228:56,2,93.3333333333333,10|10|10,0:0|0:0|0:0,0:0:0:0:
