osu file format v14

[General]
AudioFilename: mfw.mp3
AudioLeadIn: 0
PreviewTime: 0
Countdown: 0
SampleSet: Soft
StackLeniency: 0.7
Mode: 0
LetterboxInBreaks: 0
WidescreenStoryboard: 1

[Editor]
Bookmarks: 5217,10434,15652,20869,26086,31304,36521
DistanceSpacing: 1
BeatDivisor: 4
GridSize: 4
TimelineZoom: 1.4

[Metadata]
Title:mfw
TitleUnicode:mfw
Artist:waffle
ArtistUnicode:waffle
Creator:fufu-
Version:n
Source:
Tags:couchdreamz lofi hiphop rap ambient beats roblox loop creeds glitch
BeatmapID:1434098
BeatmapSetID:678210

[Difficulty]
HPDrainRate:4
CircleSize:3
OverallDifficulty:5
ApproachRate:5
SliderMultiplier:0.9
SliderTickRate:1

[Events]
//Background and Video events
0,0,"bg.png",0,0
//Break Periods
//Storyboard Layer 0 (Background)
//Storyboard Layer 1 (Fail)
//Storyboard Layer 2 (Pass)
//Storyboard Layer 3 (Foreground)
//Storyboard Sound Samples

[TimingPoints]
0,326.086956521739,4,2,0,50,1,0

[Colours]
Combo1 : 255,255,255
Combo2 : 4,95,121
Combo3 : 156,10,105
Combo4 : 159,0,0
Combo5 : 13,134,116

[HitObjects]
307,144,0,5,0,0:0:0:0:
307,144,326,2,0,L|364:137,1,45,2|0,3:0|0:0,0:0:0:0:
381,159,652,2,8,L|432:163,1,45
456,144,978,6,0,L|473:50,1,90
382,67,1630,1,4,1:0:0:0:
297,37,1956,2,8,P|252:26|200:27,1,90
134,76,2608,5,0,0:0:0:0:
134,76,2934,2,0,L|124:131,1,45,2|0,3:0|0:0,0:0:0:0:
139,153,3260,2,8,L|145:213,1,45
127,229,3586,6,0,L|121:291,1,45,2|2,3:0|3:0,3:0:0:0:
150,250,3913,2,0,L|146:301,1,45,2|2,3:0|3:0,3:0:0:0:
175,272,4239,1,4,1:0:0:0:
254,230,4565,2,8,P|293:217|350:220,1,90
395,289,5217,5,0,0:0:0:0:
395,289,5543,2,0,L|344:303,1,45,2|0,3:0|0:0,0:0:0:0:
327,327,5869,2,8,L|276:320,1,45
254,297,6195,6,0,L|152:308,1,90
75,322,6847,1,4,1:0:0:0:
106,237,7173,2,8,L|94:133,1,90
81,58,7826,5,0,0:0:0:0:
81,58,8152,2,0,L|132:67,1,45,2|0,3:0|0:0,0:0:0:0:
156,48,8478,2,8,L|211:44,1,45
226,70,8804,6,0,L|277:78,1,45,2|2,3:0|3:0,3:0:0:0:
299,55,9130,2,0,B|324:46|324:46|355:47,1,45,2|2,3:0|3:0,3:0:0:0:
376,58,9456,1,4,1:0:0:0:
453,103,9782,2,8,L|462:200,1,90
434,278,10434,5,0,0:0:0:0:
434,278,10760,2,0,L|380:269,1,45,2|0,3:0|0:0,0:0:0:0:
361,293,11086,2,8,L|309:296,1,45
285,276,11413,6,0,P|241:273|180:275,1,90
124,329,12065,1,4,1:0:0:0:
53,272,12391,2,8,L|41:170,1,90
60,94,13043,5,0,0:0:0:0:
60,94,13369,2,0,L|110:114,1,45,2|0,3:0|0:0,0:0:0:0:
130,88,13695,2,8,L|175:105,1,45
205,91,14021,6,0,L|268:83,1,45,2|2,3:0|3:0,3:0:0:0:
223,60,14347,2,0,L|283:51,1,45,2|2,3:0|3:0,3:0:0:0:
241,28,14673,1,4,1:0:0:0:
330,20,14999,2,8,B|358:17|358:17|388:33|388:33|435:26,1,90
444,114,15652,5,0,0:0:0:0:
444,114,15978,2,0,L|390:123,1,45,2|0,3:0|0:0,0:0:0:0:
371,99,16304,2,8,L|319:96,1,45
295,116,16631,6,0,P|251:119|190:117,1,90
134,63,17283,1,4,1:0:0:0:
63,120,17609,2,8,L|51:222,1,90
70,298,18261,5,0,0:0:0:0:
70,298,18587,2,0,L|120:278,1,45,2|0,3:0|0:0,0:0:0:0:
140,304,18913,2,8,L|185:287,1,45
215,301,19239,6,0,L|278:309,1,45,2|2,3:0|3:0,3:0:0:0:
233,332,19565,2,0,L|293:341,1,45,2|2,3:0|3:0,3:0:0:0:
251,364,19891,1,4,1:0:0:0:
340,372,20217,2,8,B|380:377|445:366,1,90
472,289,20869,5,0,0:0:0:0:
472,289,21195,2,0,L|448:233,1,45,2|0,3:0|0:0,0:0:0:0:
441,213,21521,2,8,L|450:161,1,45
457,133,21847,6,0,P|449:91|420:38,1,90
341,73,22499,1,4,1:0:0:0:
253,96,22826,2,8,L|162:87,1,90
84,129,23478,5,0,0:0:0:0:
84,129,23804,2,0,L|74:184,1,45,2|0,3:0|0:0,0:0:0:0:
89,206,24130,2,8,L|95:266,1,45
77,282,24456,6,0,L|71:344,1,45,2|2,3:0|3:0,3:0:0:0:
100,303,24783,2,0,L|96:354,1,45,2|2,3:0|3:0,3:0:0:0:
125,325,25109,1,4,1:0:0:0:
204,283,25435,2,8,P|243:270|300:273,1,90
347,201,26086,5,0,0:0:0:0:
347,201,26412,2,0,L|404:194,1,45,2|0,3:0|0:0,0:0:0:0:
421,216,26738,2,8,L|472:220,1,45
496,201,27064,6,0,L|513:107,1,90
422,124,27716,1,4,1:0:0:0:
337,94,28042,2,8,P|292:83|240:84,1,90
163,53,28695,5,0,0:0:0:0:
163,53,29021,2,0,L|154:104,1,45,2|0,3:0|0:0,0:0:0:0:
173,128,29347,2,8,L|177:183,1,45
197,202,29673,6,0,L|189:253,1,45,2|2,3:0|3:0,3:0:0:0:
218,224,29999,2,0,B|211:278,1,45,2|2,3:0|3:0,3:0:0:0:
241,247,30325,1,4,1:0:0:0:
300,315,30652,2,8,L|402:306,1,90
460,251,31304,5,0,0:0:0:0:
460,251,31630,2,0,L|470:196,1,45,2|0,3:0|0:0,0:0:0:0:
455,174,31956,2,8,L|449:114,1,45
467,98,32282,6,0,L|476:6,1,90
395,49,32935,1,4,1:0:0:0:
305,36,33261,2,8,P|266:49|209:46,1,90
171,69,33913,5,0,0:0:0:0:
171,69,34239,2,0,L|161:124,1,45,2|0,3:0|0:0,0:0:0:0:
176,146,34565,2,8,L|182:206,1,45
164,222,34891,6,0,L|158:284,1,45,2|2,3:0|3:0,3:0:0:0:
187,243,35218,2,0,L|183:294,1,45,2|2,3:0|3:0,3:0:0:0:
212,265,35544,1,4,1:0:0:0:
291,223,35870,2,8,P|330:210|387:213,1,90
464,236,36521,5,0,0:0:0:0:
464,236,36847,2,0,L|470:178,1,45,2|0,3:0|0:0,0:0:0:0:
473,155,37173,2,8,L|477:107,1,45
480,74,37499,2,0,P|436:86|386:89,1,90
305,61,38152,1,4,1:0:0:0:
224,100,38478,2,8,P|176:108|131:104,1,90
53,66,39130,5,0,0:0:0:0:
53,66,39456,2,0,L|37:116,1,45,2|0,3:0|0:0,0:0:0:0:
27,143,39782,2,8,L|43:196,1,45
55,218,40108,6,0,L|48:280,1,45,2|2,3:0|3:0,3:0:0:0:
75,237,40434,2,0,L|70:287,1,45,2|2,3:0|3:0,3:0:0:0:
100,262,40760,1,4,1:0:0:0:
175,311,41086,2,8,P|211:304|272:315,1,90
