osu file format v14

[General]
AudioFilename: mfw.mp3
AudioLeadIn: 0
PreviewTime: 0
Countdown: 0
SampleSet: Soft
StackLeniency: 0.7
Mode: 0
LetterboxInBreaks: 0
WidescreenStoryboard: 1

[Editor]
Bookmarks: 5217,10434,15652,20869,26086,31304,36521
DistanceSpacing: 1.3
BeatDivisor: 6
GridSize: 4
TimelineZoom: 1.6

[Metadata]
Title:mfw
TitleUnicode:mfw
Artist:waffle
ArtistUnicode:waffle
Creator:fufu-
Version:h
Source:
Tags:couchdreamz lofi hiphop rap ambient beats roblox loop creeds glitch
BeatmapID:1434097
BeatmapSetID:678210

[Difficulty]
HPDrainRate:5
CircleSize:4
OverallDifficulty:8
ApproachRate:8
SliderMultiplier:1.1
SliderTickRate:1

[Events]
//Background and Video events
0,0,"bg.png",0,0
//Break Periods
//Storyboard Layer 0 (Background)
//Storyboard Layer 1 (Fail)
//Storyboard Layer 2 (Pass)
//Storyboard Layer 3 (Foreground)
//Storyboard Sound Samples

[TimingPoints]
0,326.086956521739,4,2,0,50,1,0
18586,-100,4,2,0,25,0,0
18913,-100,4,2,0,50,0,0

[Colours]
Combo1 : 255,255,255
Combo2 : 4,95,121
Combo3 : 156,10,105
Combo4 : 159,0,0
Combo5 : 13,134,116

[HitObjects]
109,109,0,5,0,0:0:0:0:
152,115,163,1,0,0:0:0:0:
195,120,326,2,0,L|256:111,1,55,2|0,3:0|0:0,0:0:0:0:
287,118,652,2,8,L|348:109,1,55
417,97,978,5,2,3:0:0:0:
439,236,1304,1,2,3:0:0:0:
300,258,1630,1,4,1:0:0:0:
300,258,1956,2,8,P|264:247|200:245,2,73.3333333333333,10|10|10,0:0|0:0|0:0,0:0:0:0:
397,318,2608,5,0,0:0:0:0:
425,284,2771,1,0,0:0:0:0:
436,241,2934,2,0,P|433:213|423:182,1,55,2|0,3:0|0:0,0:0:0:0:
433,149,3260,2,8,P|413:127|386:106,1,55
332,68,3586,5,2,3:0:0:0:
332,68,3749,1,2,3:0:0:0:
325,139,3913,1,2,3:0:0:0:
325,139,4076,1,2,3:0:0:0:
318,210,4239,1,4,1:0:0:0:
318,210,4565,6,8,L|237:220,2,73.3333333333333,10|10|10,0:0|0:0|0:0,0:0:0:0:
197,313,5217,5,0,0:0:0:0:
158,316,5380,1,0,0:0:0:0:
119,318,5543,2,0,L|50:310,1,55,2|0,3:0|0:0,0:0:0:0:
41,280,5869,2,8,L|119:290,1,55
148,238,6195,5,2,3:0:0:0:
290,223,6521,1,2,3:0:0:0:
207,106,6847,1,4,1:0:0:0:
207,106,7173,2,8,L|113:115,2,73.3333333333333,10|10|10,0:0|0:0|0:0,0:0:0:0:
363,42,7826,5,0,0:0:0:0:
360,80,7989,1,0,0:0:0:0:
371,116,8152,2,0,L|364:182,1,55,2|0,3:0|0:0,0:0:0:0:
342,201,8478,2,8,L|334:273,1,55
313,323,8804,5,2,3:0:0:0:
313,323,8967,1,2,3:0:0:0:
243,339,9130,2,0,L|240:370,4,18.3333333333333,2|2|2|2|2,3:0|3:0|3:0|3:0|3:0,3:0:0:0:
182,302,9457,1,4,1:0:0:0:
182,302,9783,6,8,L|193:218,2,73.3333333333333,10|10|10,0:0|0:0|0:0,0:0:0:0:
109,109,10434,5,0,0:0:0:0:
152,115,10597,1,0,0:0:0:0:
195,120,10760,2,0,L|256:111,1,55,2|0,3:0|0:0,0:0:0:0:
287,118,11086,2,8,L|348:109,1,55
417,97,11412,5,2,3:0:0:0:
439,236,11738,1,2,3:0:0:0:
300,258,12064,1,4,1:0:0:0:
300,258,12390,2,8,P|264:247|200:245,2,73.3333333333333,10|10|10,0:0|0:0|0:0,0:0:0:0:
397,318,13043,5,0,0:0:0:0:
425,284,13206,1,0,0:0:0:0:
436,241,13369,2,0,P|433:213|423:182,1,55,2|0,3:0|0:0,0:0:0:0:
433,149,13695,2,8,P|413:127|386:106,1,55
332,68,14021,5,2,3:0:0:0:
332,68,14184,1,2,3:0:0:0:
325,139,14348,1,2,3:0:0:0:
325,139,14511,1,2,3:0:0:0:
318,210,14674,1,4,1:0:0:0:
318,210,15000,6,8,B|302:215|302:215|264:210|264:210|236:221,2,73.3333333333333,10|10|10,0:0|0:0|0:0,0:0:0:0:
197,313,15652,5,0,0:0:0:0:
158,316,15815,1,0,0:0:0:0:
119,318,15978,2,0,L|50:310,1,55,2|0,3:0|0:0,0:0:0:0:
41,280,16304,2,8,L|119:290,1,55
148,238,16630,5,2,3:0:0:0:
290,223,16956,1,2,3:0:0:0:
207,106,17282,1,4,1:0:0:0:
207,106,17608,2,8,L|113:115,2,73.3333333333333,10|10|10,0:0|0:0|0:0,0:0:0:0:
363,42,18261,5,0,0:0:0:0:
360,80,18424,1,0,0:0:0:0:
371,116,18587,2,0,L|364:182,1,55,2|0,3:0|0:0,0:0:0:0:
342,201,18913,2,8,L|334:273,1,55
313,323,19239,5,2,3:0:0:0:
313,323,19402,1,2,3:0:0:0:
243,339,19565,1,2,3:0:0:0:
243,339,19728,1,2,3:0:0:0:
182,302,19892,1,4,1:0:0:0:
182,302,20218,6,8,L|193:218,2,73.3333333333333,10|10|10,0:0|0:0|0:0,0:0:0:0:
109,109,20869,5,0,0:0:0:0:
152,115,21032,1,0,0:0:0:0:
195,120,21195,2,0,L|256:111,1,55,2|0,3:0|0:0,0:0:0:0:
287,118,21521,2,8,L|348:109,1,55
417,97,21847,5,2,3:0:0:0:
439,236,22173,1,2,3:0:0:0:
300,258,22499,1,4,1:0:0:0:
300,258,22825,2,8,P|264:247|200:245,2,73.3333333333333,10|10|10,0:0|0:0|0:0,0:0:0:0:
397,318,23477,5,0,0:0:0:0:
425,284,23640,1,0,0:0:0:0:
436,241,23803,2,0,P|433:213|423:182,1,55,2|0,3:0|0:0,0:0:0:0:
433,149,24129,2,8,P|413:127|386:106,1,55
332,68,24455,5,2,3:0:0:0:
332,68,24618,1,2,3:0:0:0:
325,139,24782,1,2,3:0:0:0:
325,139,24945,1,2,3:0:0:0:
318,210,25108,1,4,1:0:0:0:
318,210,25434,6,8,L|237:220,2,73.3333333333333,10|10|10,0:0|0:0|0:0,0:0:0:0:
197,313,26086,5,0,0:0:0:0:
158,316,26249,1,0,0:0:0:0:
119,318,26412,2,0,L|50:310,1,55,2|0,3:0|0:0,0:0:0:0:
41,280,26738,2,8,L|119:290,1,55
148,238,27064,5,2,3:0:0:0:
290,223,27390,1,2,3:0:0:0:
207,106,27716,1,4,1:0:0:0:
207,106,28042,2,8,L|113:115,2,73.3333333333333,10|10|10,0:0|0:0|0:0,0:0:0:0:
363,42,28695,5,0,0:0:0:0:
360,80,28858,1,0,0:0:0:0:
371,116,29021,2,0,L|364:182,1,55,2|0,3:0|0:0,0:0:0:0:
342,201,29347,2,8,L|334:273,1,55
313,323,29673,5,2,3:0:0:0:
313,323,29836,1,2,3:0:0:0:
243,339,29999,1,2,3:0:0:0:
243,339,30163,1,2,3:0:0:0:
182,302,30326,1,4,1:0:0:0:
182,302,30652,6,8,L|193:218,2,73.3333333333333,10|10|10,0:0|0:0|0:0,0:0:0:0:
109,109,31304,5,0,0:0:0:0:
152,115,31467,1,0,0:0:0:0:
195,120,31630,2,0,L|256:111,1,55,2|0,3:0|0:0,0:0:0:0:
287,118,31956,2,8,L|348:109,1,55
417,97,32282,5,2,3:0:0:0:
439,236,32608,1,2,3:0:0:0:
300,258,32934,1,4,1:0:0:0:
300,258,33260,2,8,P|264:247|200:245,2,73.3333333333333,10|10|10,0:0|0:0|0:0,0:0:0:0:
397,318,33912,5,0,0:0:0:0:
425,284,34075,1,0,0:0:0:0:
436,241,34238,2,0,P|433:213|423:182,1,55,2|0,3:0|0:0,0:0:0:0:
433,149,34564,2,8,P|413:127|386:106,1,55
332,68,34890,5,2,3:0:0:0:
332,68,35053,1,2,3:0:0:0:
325,139,35217,2,0,L|304:141,3,18.3333333333333,2|2|2|2,3:0|3:0|3:0|3:0,3:0:0:0:
318,210,35543,1,4,1:0:0:0:
318,210,35869,6,8,L|237:220,2,73.3333333333333,10|10|10,0:0|0:0|0:0,0:0:0:0:
197,313,36521,5,0,0:0:0:0:
158,316,36684,1,0,0:0:0:0:
119,318,36847,2,0,L|50:310,1,55,2|0,3:0|0:0,0:0:0:0:
41,280,37173,2,8,L|119:290,1,55
148,238,37499,5,2,3:0:0:0:
290,223,37825,1,2,3:0:0:0:
207,106,38151,1,4,1:0:0:0:
207,106,38477,2,8,L|113:115,2,73.3333333333333,10|10|10,0:0|0:0|0:0,0:0:0:0:
363,42,39130,5,0,0:0:0:0:
360,80,39293,1,0,0:0:0:0:
371,116,39456,2,0,L|364:182,1,55,2|0,3:0|0:0,0:0:0:0:
342,201,39782,2,8,L|334:273,1,55
313,323,40108,5,2,3:0:0:0:
313,323,40271,1,2,3:0:0:0:
243,339,40434,1,2,3:0:0:0:
243,339,40597,1,2,3:0:0:0:
182,302,40761,1,4,1:0:0:0:
182,302,41086,6,8,L|193:218,2,73.3333333333333,10|10|10,0:0|0:0|0:0,0:0:0:0:
