osu file format v14

[General]
AudioFilename: audio.mp3
AudioLeadIn: 0
PreviewTime: 216678
Countdown: 0
SampleSet: Soft
StackLeniency: 0.7
Mode: 3
LetterboxInBreaks: 0
SpecialStyle: 0
WidescreenStoryboard: 0

[Editor]
Bookmarks: 11506,21302,60486,75180,82527,116813,121711,141372,156066,163343,197629,217221,251506,253955,277068
DistanceSpacing: 1
BeatDivisor: 4
GridSize: 16
TimelineZoom: 1.4

[Metadata]
Title:Kirameki
TitleUnicode:Kirameki
Artist:wacci
ArtistUnicode:wacci
Creator:Percyqaz
Version:Kiminomonodatta
Source:Your Lie in April
Tags:anime dump
BeatmapID:1850719
BeatmapSetID:885487

[Difficulty]
HPDrainRate:8
CircleSize:4
OverallDifficulty:8
ApproachRate:10
SliderMultiplier:1.4
SliderTickRate:1

[Events]
//Background and Video events
0,0,"lie-april-background-11.jpg",0,0
//Break Periods
//Storyboard Layer 0 (Background)
//Storyboard Layer 1 (Fail)
//Storyboard Layer 2 (Pass)
//Storyboard Layer 3 (Foreground)
//Storyboard Sound Samples

[TimingPoints]
1781,612.244897959184,4,2,0,0,1,0

[HitObjects]
64,192,1780,5,0,0:0:0:0:
448,192,1780,1,0,0:0:0:0:
320,192,1883,1,0,0:0:0:0:
192,192,1985,1,0,0:0:0:0:
64,192,2087,1,0,0:0:0:0:
320,192,2087,1,0,0:0:0:0:
64,192,2240,1,0,0:0:0:0:
448,192,2240,1,0,0:0:0:0:
448,192,2393,1,0,0:0:0:0:
320,192,2546,1,0,0:0:0:0:
64,192,2699,1,0,0:0:0:0:
192,192,2699,1,0,0:0:0:0:
448,192,2852,1,0,0:0:0:0:
192,192,2852,1,0,0:0:0:0:
320,192,3005,1,0,0:0:0:0:
192,192,3107,1,0,0:0:0:0:
64,192,3158,1,0,0:0:0:0:
448,192,3209,1,0,0:0:0:0:
320,192,3311,1,0,0:0:0:0:
192,192,3464,1,0,0:0:0:0:
64,192,3464,1,0,0:0:0:0:
448,192,3617,1,0,0:0:0:0:
320,192,3617,1,0,0:0:0:0:
320,192,3770,1,0,0:0:0:0:
64,192,3770,1,0,0:0:0:0:
448,192,3923,1,0,0:0:0:0:
192,192,3923,1,0,0:0:0:0:
64,192,4076,1,0,0:0:0:0:
192,192,4076,1,0,0:0:0:0:
448,192,4229,1,0,0:0:0:0:
320,192,4229,1,0,0:0:0:0:
192,192,4332,1,0,0:0:0:0:
64,192,4434,1,0,0:0:0:0:
320,192,4536,1,0,0:0:0:0:
448,192,4536,1,0,0:0:0:0:
192,192,4638,1,0,0:0:0:0:
64,192,4689,1,0,0:0:0:0:
320,192,4689,1,0,0:0:0:0:
64,192,4842,1,0,0:0:0:0:
448,192,4944,1,0,0:0:0:0:
192,192,5046,1,0,0:0:0:0:
320,192,5148,1,0,0:0:0:0:
448,192,5148,1,0,0:0:0:0:
64,192,5301,1,0,0:0:0:0:
320,192,5301,1,0,0:0:0:0:
192,192,5454,1,0,0:0:0:0:
320,192,5556,1,0,0:0:0:0:
64,192,5607,1,0,0:0:0:0:
448,192,5658,1,0,0:0:0:0:
192,192,5760,1,0,0:0:0:0:
320,192,5913,1,0,0:0:0:0:
64,192,5913,1,0,0:0:0:0:
192,192,6066,1,0,0:0:0:0:
448,192,6066,1,0,0:0:0:0:
448,192,6219,1,0,0:0:0:0:
320,192,6219,1,0,0:0:0:0:
192,192,6372,1,0,0:0:0:0:
64,192,6372,1,0,0:0:0:0:
192,192,6525,1,0,0:0:0:0:
448,192,6525,1,0,0:0:0:0:
320,192,6678,1,0,0:0:0:0:
64,192,6678,1,0,0:0:0:0:
448,192,6781,1,0,0:0:0:0:
192,192,6883,1,0,0:0:0:0:
320,192,6985,1,0,0:0:0:0:
448,192,6985,1,0,0:0:0:0:
64,192,7138,1,0,0:0:0:0:
320,192,7138,1,0,0:0:0:0:
64,192,7291,1,0,0:0:0:0:
448,192,7444,1,0,0:0:0:0:
320,192,7444,1,0,0:0:0:0:
192,192,7546,1,0,0:0:0:0:
64,192,7597,1,0,0:0:0:0:
320,192,7597,1,0,0:0:0:0:
448,192,7750,1,0,0:0:0:0:
192,192,7750,1,0,0:0:0:0:
320,192,7903,1,0,0:0:0:0:
64,192,8005,1,0,0:0:0:0:
448,192,8056,1,0,0:0:0:0:
192,192,8107,1,0,0:0:0:0:
320,192,8209,1,0,0:0:0:0:
192,192,8362,1,0,0:0:0:0:
64,192,8362,1,0,0:0:0:0:
320,192,8515,1,0,0:0:0:0:
448,192,8515,1,0,0:0:0:0:
64,192,8668,1,0,0:0:0:0:
448,192,8668,1,0,0:0:0:0:
320,192,8821,1,0,0:0:0:0:
192,192,8821,1,0,0:0:0:0:
64,192,8974,1,0,0:0:0:0:
192,192,8974,1,0,0:0:0:0:
320,192,9127,1,0,0:0:0:0:
448,192,9127,1,0,0:0:0:0:
192,192,9229,1,0,0:0:0:0:
448,192,9332,1,0,0:0:0:0:
320,192,9434,1,0,0:0:0:0:
64,192,9434,1,0,0:0:0:0:
192,192,9587,1,0,0:0:0:0:
448,192,9587,1,0,0:0:0:0:
448,192,9740,1,0,0:0:0:0:
64,192,9893,1,0,0:0:0:0:
192,192,9893,1,0,0:0:0:0:
192,192,10046,1,0,0:0:0:0:
448,192,10046,1,0,0:0:0:0:
320,192,10199,1,0,0:0:0:0:
64,192,10199,1,0,0:0:0:0:
448,192,10250,1,0,0:0:0:0:
192,192,10352,1,0,0:0:0:0:
320,192,10454,1,0,0:0:0:0:
64,192,10556,1,0,0:0:0:0:
448,192,10658,1,0,0:0:0:0:
192,192,10735,1,0,0:0:0:0:
320,192,10811,1,0,0:0:0:0:
64,192,10888,1,0,0:0:0:0:
448,192,10964,1,0,0:0:0:0:
192,192,10964,1,0,0:0:0:0:
320,192,10964,1,0,0:0:0:0:
448,192,11117,1,0,0:0:0:0:
64,192,11117,1,0,0:0:0:0:
192,192,11117,1,0,0:0:0:0:
64,192,11270,1,0,0:0:0:0:
320,192,11270,1,0,0:0:0:0:
448,192,11270,1,0,0:0:0:0:
320,192,11423,1,0,0:0:0:0:
64,192,11423,1,0,0:0:0:0:
192,192,11423,1,0,0:0:0:0:
192,192,11576,1,0,0:0:0:0:
448,192,11576,1,0,0:0:0:0:
64,192,11653,1,0,0:0:0:0:
320,192,11678,1,0,0:0:0:0:
192,192,11781,1,0,0:0:0:0:
448,192,11883,1,0,0:0:0:0:
192,192,11959,1,0,0:0:0:0:
320,192,12036,1,0,0:0:0:0:
64,192,12112,1,0,0:0:0:0:
192,192,12189,1,0,0:0:0:0:
320,192,12189,1,0,0:0:0:0:
448,192,12189,1,0,0:0:0:0:
192,192,12342,1,0,0:0:0:0:
64,192,12495,1,0,0:0:0:0:
320,192,12495,1,0,0:0:0:0:
64,192,12648,1,0,0:0:0:0:
192,192,12648,1,0,0:0:0:0:
448,192,12648,1,0,0:0:0:0:
320,192,12801,1,0,0:0:0:0:
192,192,12903,1,0,0:0:0:0:
64,192,13005,1,0,0:0:0:0:
448,192,13107,1,0,0:0:0:0:
192,192,13184,1,0,0:0:0:0:
64,192,13260,1,0,0:0:0:0:
320,192,13260,1,0,0:0:0:0:
448,192,13337,1,0,0:0:0:0:
64,192,13413,1,0,0:0:0:0:
192,192,13413,1,0,0:0:0:0:
320,192,13566,1,0,0:0:0:0:
448,192,13566,1,0,0:0:0:0:
320,192,13719,1,0,0:0:0:0:
64,192,13719,1,0,0:0:0:0:
192,192,13872,1,0,0:0:0:0:
448,192,13872,1,0,0:0:0:0:
64,192,14025,1,0,0:0:0:0:
448,192,14025,1,0,0:0:0:0:
192,192,14127,1,0,0:0:0:0:
320,192,14229,1,0,0:0:0:0:
64,192,14332,1,0,0:0:0:0:
320,192,14408,1,0,0:0:0:0:
192,192,14485,1,0,0:0:0:0:
448,192,14561,1,0,0:0:0:0:
320,192,14638,1,0,0:0:0:0:
64,192,14638,1,0,0:0:0:0:
192,192,14638,1,0,0:0:0:0:
320,192,14791,1,0,0:0:0:0:
448,192,14944,1,0,0:0:0:0:
64,192,14944,1,0,0:0:0:0:
192,192,15097,1,0,0:0:0:0:
320,192,15097,1,0,0:0:0:0:
448,192,15097,1,0,0:0:0:0:
64,192,15250,1,0,0:0:0:0:
320,192,15352,1,0,0:0:0:0:
192,192,15454,1,0,0:0:0:0:
448,192,15556,1,0,0:0:0:0:
320,192,15633,1,0,0:0:0:0:
192,192,15709,1,0,0:0:0:0:
64,192,15709,1,0,0:0:0:0:
448,192,15786,1,0,0:0:0:0:
320,192,15862,1,0,0:0:0:0:
192,192,15862,1,0,0:0:0:0:
64,192,16015,1,0,0:0:0:0:
448,192,16015,1,0,0:0:0:0:
192,192,16168,1,0,0:0:0:0:
448,192,16168,1,0,0:0:0:0:
320,192,16321,1,0,0:0:0:0:
64,192,16321,1,0,0:0:0:0:
64,192,16474,1,0,0:0:0:0:
192,192,16474,1,0,0:0:0:0:
448,192,16576,1,0,0:0:0:0:
320,192,16678,1,0,0:0:0:0:
192,192,16781,1,0,0:0:0:0:
64,192,16781,1,0,0:0:0:0:
448,192,16857,1,0,0:0:0:0:
320,192,16934,1,0,0:0:0:0:
192,192,17010,1,0,0:0:0:0:
320,192,17087,1,0,0:0:0:0:
448,192,17087,1,0,0:0:0:0:
64,192,17087,1,0,0:0:0:0:
448,192,17240,1,0,0:0:0:0:
64,192,17393,1,0,0:0:0:0:
192,192,17393,1,0,0:0:0:0:
448,192,17546,1,0,0:0:0:0:
64,192,17546,1,0,0:0:0:0:
320,192,17546,1,0,0:0:0:0:
192,192,17699,1,0,0:0:0:0:
320,192,17801,1,0,0:0:0:0:
64,192,17903,1,0,0:0:0:0:
320,192,18005,1,0,0:0:0:0:
192,192,18082,1,0,0:0:0:0:
64,192,18158,1,0,0:0:0:0:
448,192,18158,1,0,0:0:0:0:
320,192,18235,1,0,0:0:0:0:
192,192,18311,1,0,0:0:0:0:
64,192,18311,1,0,0:0:0:0:
320,192,18464,1,0,0:0:0:0:
448,192,18464,1,0,0:0:0:0:
64,192,18617,1,0,0:0:0:0:
320,192,18617,1,0,0:0:0:0:
192,192,18770,1,0,0:0:0:0:
448,192,18770,1,0,0:0:0:0:
64,192,18923,1,0,0:0:0:0:
192,192,18923,1,0,0:0:0:0:
320,192,19025,1,0,0:0:0:0:
192,192,19127,1,0,0:0:0:0:
320,192,19229,1,0,0:0:0:0:
64,192,19229,1,0,0:0:0:0:
448,192,19306,1,0,0:0:0:0:
192,192,19383,1,0,0:0:0:0:
320,192,19459,1,0,0:0:0:0:
64,192,19536,1,0,0:0:0:0:
192,192,19536,1,0,0:0:0:0:
448,192,19536,1,0,0:0:0:0:
64,192,19689,1,0,0:0:0:0:
192,192,19842,1,0,0:0:0:0:
448,192,19842,1,0,0:0:0:0:
448,192,19995,1,0,0:0:0:0:
320,192,19995,1,0,0:0:0:0:
64,192,19995,1,0,0:0:0:0:
192,192,20148,1,0,0:0:0:0:
320,192,20250,1,0,0:0:0:0:
64,192,20301,1,0,0:0:0:0:
448,192,20352,1,0,0:0:0:0:
192,192,20454,1,0,0:0:0:0:
320,192,20531,1,0,0:0:0:0:
448,192,20607,1,0,0:0:0:0:
64,192,20607,1,0,0:0:0:0:
192,192,20684,1,0,0:0:0:0:
448,192,20760,1,0,0:0:0:0:
320,192,20760,1,0,0:0:0:0:
64,192,20760,1,0,0:0:0:0:
64,192,20913,1,0,0:0:0:0:
192,192,20913,1,0,0:0:0:0:
448,192,20913,1,0,0:0:0:0:
448,192,21066,1,0,0:0:0:0:
320,192,21066,1,0,0:0:0:0:
192,192,21219,1,0,0:0:0:0:
64,192,21372,1,0,0:0:0:0:
448,192,21372,1,0,0:0:0:0:
320,192,21449,1,0,0:0:0:0:
192,192,21525,1,0,0:0:0:0:
448,192,21602,1,0,0:0:0:0:
64,192,21678,1,0,0:0:0:0:
192,192,21781,1,0,0:0:0:0:
320,192,21883,1,0,0:0:0:0:
448,192,21985,1,0,0:0:0:0:
192,192,21985,1,0,0:0:0:0:
64,192,21985,1,0,0:0:0:0:
64,192,22138,1,0,0:0:0:0:
192,192,22291,1,0,0:0:0:0:
448,192,22291,1,0,0:0:0:0:
448,192,22444,1,0,0:0:0:0:
320,192,22444,1,0,0:0:0:0:
64,192,22444,1,0,0:0:0:0:
192,192,22546,1,0,0:0:0:0:
64,192,22648,1,0,0:0:0:0:
192,192,22750,1,0,0:0:0:0:
320,192,22826,1,0,0:0:0:0:
192,192,22903,1,0,0:0:0:0:
448,192,22903,1,0,0:0:0:0:
64,192,22979,1,0,0:0:0:0:
448,192,23056,1,0,0:0:0:0:
320,192,23056,1,0,0:0:0:0:
320,192,23209,1,0,0:0:0:0:
192,192,23209,1,0,0:0:0:0:
64,192,23209,1,0,0:0:0:0:
192,192,23362,1,0,0:0:0:0:
320,192,23515,1,0,0:0:0:0:
64,192,23668,1,0,0:0:0:0:
192,192,23821,1,0,0:0:0:0:
448,192,23821,1,0,0:0:0:0:
64,192,23923,1,0,0:0:0:0:
320,192,24025,1,0,0:0:0:0:
192,192,24127,1,0,0:0:0:0:
64,192,24127,1,0,0:0:0:0:
320,192,24281,1,0,0:0:0:0:
320,192,24434,1,0,0:0:0:0:
448,192,24434,1,0,0:0:0:0:
64,192,24434,1,0,0:0:0:0:
64,192,24587,1,0,0:0:0:0:
192,192,24740,1,0,0:0:0:0:
320,192,24740,1,0,0:0:0:0:
64,192,24893,1,0,0:0:0:0:
320,192,24893,1,0,0:0:0:0:
448,192,24893,1,0,0:0:0:0:
192,192,24995,1,0,0:0:0:0:
64,192,25097,1,0,0:0:0:0:
320,192,25199,1,0,0:0:0:0:
448,192,25275,1,0,0:0:0:0:
64,192,25352,1,0,0:0:0:0:
192,192,25352,1,0,0:0:0:0:
320,192,25505,1,0,0:0:0:0:
448,192,25505,1,0,0:0:0:0:
448,192,25658,1,0,0:0:0:0:
192,192,25658,1,0,0:0:0:0:
64,192,25658,1,0,0:0:0:0:
192,192,25811,1,0,0:0:0:0:
320,192,25964,1,0,0:0:0:0:
64,192,26117,1,0,0:0:0:0:
64,192,26270,1,0,0:0:0:0:
448,192,26270,1,0,0:0:0:0:
320,192,26372,1,0,0:0:0:0:
192,192,26474,1,0,0:0:0:0:
448,192,26576,1,0,0:0:0:0:
64,192,26576,1,0,0:0:0:0:
192,192,26653,1,0,0:0:0:0:
320,192,26729,1,0,0:0:0:0:
64,192,26806,1,0,0:0:0:0:
448,192,26883,1,0,0:0:0:0:
192,192,26883,1,0,0:0:0:0:
320,192,26883,1,0,0:0:0:0:
64,192,26985,1,0,0:0:0:0:
448,192,27087,1,0,0:0:0:0:
320,192,27189,1,0,0:0:0:0:
64,192,27189,1,0,0:0:0:0:
64,192,27342,1,0,0:0:0:0:
192,192,27342,1,0,0:0:0:0:
448,192,27342,1,0,0:0:0:0:
320,192,27444,1,0,0:0:0:0:
192,192,27546,1,0,0:0:0:0:
448,192,27648,1,0,0:0:0:0:
64,192,27724,1,0,0:0:0:0:
320,192,27801,1,0,0:0:0:0:
192,192,27877,1,0,0:0:0:0:
64,192,27954,1,0,0:0:0:0:
320,192,28005,1,0,0:0:0:0:
448,192,28107,1,0,0:0:0:0:
192,192,28107,1,0,0:0:0:0:
64,192,28107,1,0,0:0:0:0:
192,192,28260,1,0,0:0:0:0:
64,192,28413,1,0,0:0:0:0:
320,192,28413,1,0,0:0:0:0:
192,192,28566,1,0,0:0:0:0:
448,192,28566,1,0,0:0:0:0:
320,192,28719,1,0,0:0:0:0:
448,192,28719,1,0,0:0:0:0:
192,192,28821,1,0,0:0:0:0:
64,192,28923,1,0,0:0:0:0:
320,192,29025,1,0,0:0:0:0:
448,192,29025,1,0,0:0:0:0:
192,192,29178,1,0,0:0:0:0:
64,192,29332,1,0,0:0:0:0:
192,192,29332,1,0,0:0:0:0:
448,192,29332,1,0,0:0:0:0:
448,192,29485,1,0,0:0:0:0:
320,192,29638,1,0,0:0:0:0:
64,192,29638,1,0,0:0:0:0:
64,192,29791,1,0,0:0:0:0:
192,192,29791,1,0,0:0:0:0:
448,192,29791,1,0,0:0:0:0:
320,192,29944,1,0,0:0:0:0:
448,192,30020,1,0,0:0:0:0:
192,192,30097,1,0,0:0:0:0:
320,192,30173,1,0,0:0:0:0:
448,192,30250,1,0,0:0:0:0:
64,192,30250,1,0,0:0:0:0:
192,192,30403,1,0,0:0:0:0:
320,192,30403,1,0,0:0:0:0:
64,192,30556,1,0,0:0:0:0:
192,192,30556,1,0,0:0:0:0:
448,192,30556,1,0,0:0:0:0:
320,192,30658,1,0,0:0:0:0:
64,192,30760,1,0,0:0:0:0:
192,192,30862,1,0,0:0:0:0:
448,192,30964,1,0,0:0:0:0:
64,192,31015,1,0,0:0:0:0:
320,192,31066,1,0,0:0:0:0:
448,192,31168,1,0,0:0:0:0:
192,192,31168,1,0,0:0:0:0:
64,192,31245,1,0,0:0:0:0:
320,192,31321,1,0,0:0:0:0:
192,192,31398,1,0,0:0:0:0:
64,192,31474,1,0,0:0:0:0:
320,192,31474,1,0,0:0:0:0:
448,192,31576,1,0,0:0:0:0:
192,192,31678,1,0,0:0:0:0:
64,192,31781,1,0,0:0:0:0:
320,192,31781,1,0,0:0:0:0:
448,192,31781,1,0,0:0:0:0:
320,192,31934,1,0,0:0:0:0:
448,192,32087,1,0,0:0:0:0:
192,192,32087,1,0,0:0:0:0:
320,192,32240,1,0,0:0:0:0:
192,192,32240,1,0,0:0:0:0:
64,192,32240,1,0,0:0:0:0:
448,192,32342,1,0,0:0:0:0:
320,192,32444,1,0,0:0:0:0:
192,192,32546,1,0,0:0:0:0:
64,192,32622,1,0,0:0:0:0:
320,192,32699,1,0,0:0:0:0:
448,192,32699,1,0,0:0:0:0:
64,192,32852,1,0,0:0:0:0:
192,192,32852,1,0,0:0:0:0:
64,192,33005,1,0,0:0:0:0:
320,192,33005,1,0,0:0:0:0:
448,192,33005,1,0,0:0:0:0:
192,192,33158,1,0,0:0:0:0:
64,192,33235,1,0,0:0:0:0:
320,192,33311,1,0,0:0:0:0:
192,192,33464,1,0,0:0:0:0:
64,192,33617,1,0,0:0:0:0:
320,192,33617,1,0,0:0:0:0:
192,192,33719,1,0,0:0:0:0:
448,192,33770,1,0,0:0:0:0:
64,192,33821,1,0,0:0:0:0:
448,192,33923,1,0,0:0:0:0:
320,192,33923,1,0,0:0:0:0:
320,192,34076,1,0,0:0:0:0:
448,192,34229,1,0,0:0:0:0:
192,192,34229,1,0,0:0:0:0:
64,192,34229,1,0,0:0:0:0:
192,192,34383,1,0,0:0:0:0:
320,192,34536,1,0,0:0:0:0:
448,192,34536,1,0,0:0:0:0:
448,192,34689,1,0,0:0:0:0:
192,192,34689,1,0,0:0:0:0:
64,192,34689,1,0,0:0:0:0:
320,192,34791,1,0,0:0:0:0:
192,192,34893,1,0,0:0:0:0:
64,192,34995,1,0,0:0:0:0:
448,192,35071,1,0,0:0:0:0:
320,192,35148,1,0,0:0:0:0:
64,192,35148,1,0,0:0:0:0:
192,192,35301,1,0,0:0:0:0:
448,192,35301,1,0,0:0:0:0:
320,192,35454,1,0,0:0:0:0:
192,192,35454,1,0,0:0:0:0:
64,192,35454,1,0,0:0:0:0:
320,192,35607,1,0,0:0:0:0:
192,192,35760,1,0,0:0:0:0:
448,192,35913,1,0,0:0:0:0:
64,192,36066,1,0,0:0:0:0:
320,192,36066,1,0,0:0:0:0:
192,192,36168,1,0,0:0:0:0:
64,192,36270,1,0,0:0:0:0:
320,192,36372,1,0,0:0:0:0:
448,192,36372,1,0,0:0:0:0:
192,192,36525,1,0,0:0:0:0:
64,192,36678,1,0,0:0:0:0:
320,192,36678,1,0,0:0:0:0:
448,192,36678,1,0,0:0:0:0:
320,192,36832,1,0,0:0:0:0:
448,192,36985,1,0,0:0:0:0:
64,192,36985,1,0,0:0:0:0:
64,192,37138,1,0,0:0:0:0:
192,192,37138,1,0,0:0:0:0:
320,192,37138,1,0,0:0:0:0:
448,192,37240,1,0,0:0:0:0:
64,192,37342,1,0,0:0:0:0:
448,192,37444,1,0,0:0:0:0:
320,192,37520,1,0,0:0:0:0:
192,192,37597,1,0,0:0:0:0:
64,192,37597,1,0,0:0:0:0:
320,192,37750,1,0,0:0:0:0:
448,192,37750,1,0,0:0:0:0:
448,192,37903,1,0,0:0:0:0:
192,192,37903,1,0,0:0:0:0:
64,192,37903,1,0,0:0:0:0:
192,192,38056,1,0,0:0:0:0:
320,192,38209,1,0,0:0:0:0:
64,192,38362,1,0,0:0:0:0:
192,192,38515,1,0,0:0:0:0:
448,192,38515,1,0,0:0:0:0:
320,192,38617,1,0,0:0:0:0:
192,192,38719,1,0,0:0:0:0:
448,192,38821,1,0,0:0:0:0:
64,192,38821,1,0,0:0:0:0:
320,192,38974,1,0,0:0:0:0:
448,192,39127,1,0,0:0:0:0:
192,192,39127,1,0,0:0:0:0:
64,192,39127,1,0,0:0:0:0:
192,192,39281,1,0,0:0:0:0:
64,192,39434,1,0,0:0:0:0:
448,192,39434,1,0,0:0:0:0:
192,192,39587,1,0,0:0:0:0:
320,192,39587,1,0,0:0:0:0:
448,192,39587,1,0,0:0:0:0:
64,192,39689,1,0,0:0:0:0:
448,192,39791,1,0,0:0:0:0:
320,192,39893,1,0,0:0:0:0:
192,192,39969,1,0,0:0:0:0:
64,192,40046,1,0,0:0:0:0:
448,192,40046,1,0,0:0:0:0:
320,192,40122,1,0,0:0:0:0:
192,192,40199,1,0,0:0:0:0:
64,192,40199,1,0,0:0:0:0:
64,192,40352,1,0,0:0:0:0:
320,192,40352,1,0,0:0:0:0:
448,192,40352,1,0,0:0:0:0:
192,192,40505,1,0,0:0:0:0:
320,192,40505,1,0,0:0:0:0:
448,192,40505,1,0,0:0:0:0:
192,192,40658,1,0,0:0:0:0:
64,192,40658,1,0,0:0:0:0:
320,192,40811,1,0,0:0:0:0:
448,192,40811,1,0,0:0:0:0:
448,192,40964,1,0,0:0:0:0:
64,192,40964,1,0,0:0:0:0:
192,192,41041,1,0,0:0:0:0:
320,192,41117,1,0,0:0:0:0:
64,192,41194,1,0,0:0:0:0:
448,192,41270,1,0,0:0:0:0:
192,192,41372,1,0,0:0:0:0:
320,192,41474,1,0,0:0:0:0:
448,192,41576,1,0,0:0:0:0:
192,192,41576,1,0,0:0:0:0:
64,192,41576,1,0,0:0:0:0:
320,192,41729,1,0,0:0:0:0:
64,192,41729,1,0,0:0:0:0:
448,192,41832,1,0,0:0:0:0:
192,192,41934,1,0,0:0:0:0:
448,192,42036,1,0,0:0:0:0:
64,192,42036,1,0,0:0:0:0:
320,192,42036,1,0,0:0:0:0:
192,192,42138,1,0,0:0:0:0:
320,192,42240,1,0,0:0:0:0:
448,192,42342,1,0,0:0:0:0:
192,192,42418,1,0,0:0:0:0:
320,192,42495,1,0,0:0:0:0:
64,192,42495,1,0,0:0:0:0:
320,192,42648,1,0,0:0:0:0:
192,192,42648,1,0,0:0:0:0:
64,192,42801,1,0,0:0:0:0:
448,192,42801,1,0,0:0:0:0:
320,192,42801,1,0,0:0:0:0:
64,192,42954,1,0,0:0:0:0:
448,192,43107,1,0,0:0:0:0:
192,192,43260,1,0,0:0:0:0:
64,192,43413,1,0,0:0:0:0:
320,192,43413,1,0,0:0:0:0:
448,192,43490,1,0,0:0:0:0:
192,192,43566,1,0,0:0:0:0:
64,192,43643,1,0,0:0:0:0:
320,192,43719,1,0,0:0:0:0:
448,192,43719,1,0,0:0:0:0:
192,192,43872,1,0,0:0:0:0:
64,192,44025,1,0,0:0:0:0:
192,192,44025,1,0,0:0:0:0:
448,192,44025,1,0,0:0:0:0:
448,192,44178,1,0,0:0:0:0:
320,192,44332,1,0,0:0:0:0:
64,192,44332,1,0,0:0:0:0:
64,192,44485,1,0,0:0:0:0:
192,192,44485,1,0,0:0:0:0:
448,192,44485,1,0,0:0:0:0:
320,192,44587,1,0,0:0:0:0:
192,192,44689,1,0,0:0:0:0:
64,192,44791,1,0,0:0:0:0:
320,192,44867,1,0,0:0:0:0:
192,192,44944,1,0,0:0:0:0:
448,192,44944,1,0,0:0:0:0:
64,192,45097,1,0,0:0:0:0:
320,192,45097,1,0,0:0:0:0:
64,192,45250,1,0,0:0:0:0:
192,192,45250,1,0,0:0:0:0:
448,192,45250,1,0,0:0:0:0:
448,192,45403,1,0,0:0:0:0:
192,192,45556,1,0,0:0:0:0:
320,192,45709,1,0,0:0:0:0:
64,192,45709,1,0,0:0:0:0:
64,192,45862,1,0,0:0:0:0:
192,192,45862,1,0,0:0:0:0:
320,192,45964,1,0,0:0:0:0:
448,192,46066,1,0,0:0:0:0:
64,192,46168,1,0,0:0:0:0:
320,192,46168,1,0,0:0:0:0:
192,192,46245,1,0,0:0:0:0:
448,192,46321,1,0,0:0:0:0:
64,192,46398,1,0,0:0:0:0:
320,192,46474,1,0,0:0:0:0:
448,192,46474,1,0,0:0:0:0:
192,192,46474,1,0,0:0:0:0:
448,192,46627,1,0,0:0:0:0:
320,192,46781,1,0,0:0:0:0:
64,192,46781,1,0,0:0:0:0:
448,192,46934,1,0,0:0:0:0:
192,192,46934,1,0,0:0:0:0:
64,192,46934,1,0,0:0:0:0:
320,192,47036,1,0,0:0:0:0:
192,192,47138,1,0,0:0:0:0:
64,192,47240,1,0,0:0:0:0:
192,192,47393,1,0,0:0:0:0:
448,192,47393,1,0,0:0:0:0:
64,192,47546,1,0,0:0:0:0:
320,192,47546,1,0,0:0:0:0:
64,192,47699,1,0,0:0:0:0:
192,192,47699,1,0,0:0:0:0:
448,192,47699,1,0,0:0:0:0:
320,192,47801,1,0,0:0:0:0:
192,192,47903,1,0,0:0:0:0:
64,192,48005,1,0,0:0:0:0:
320,192,48005,1,0,0:0:0:0:
192,192,48158,1,0,0:0:0:0:
448,192,48158,1,0,0:0:0:0:
64,192,48311,1,0,0:0:0:0:
192,192,48311,1,0,0:0:0:0:
320,192,48388,1,0,0:0:0:0:
448,192,48464,1,0,0:0:0:0:
192,192,48541,1,0,0:0:0:0:
320,192,48617,1,0,0:0:0:0:
64,192,48617,1,0,0:0:0:0:
448,192,48719,1,0,0:0:0:0:
192,192,48821,1,0,0:0:0:0:
64,192,48923,1,0,0:0:0:0:
448,192,48923,1,0,0:0:0:0:
320,192,48923,1,0,0:0:0:0:
192,192,49000,1,0,0:0:0:0:
320,192,49076,1,0,0:0:0:0:
448,192,49127,1,0,0:0:0:0:
64,192,49153,1,0,0:0:0:0:
192,192,49229,1,0,0:0:0:0:
320,192,49306,1,0,0:0:0:0:
448,192,49383,1,0,0:0:0:0:
192,192,49383,1,0,0:0:0:0:
64,192,49383,1,0,0:0:0:0:
320,192,49536,1,0,0:0:0:0:
448,192,49638,1,0,0:0:0:0:
64,192,49740,1,0,0:0:0:0:
192,192,49842,1,0,0:0:0:0:
448,192,49842,1,0,0:0:0:0:
320,192,49995,1,0,0:0:0:0:
64,192,49995,1,0,0:0:0:0:
64,192,50148,1,0,0:0:0:0:
192,192,50148,1,0,0:0:0:0:
448,192,50148,1,0,0:0:0:0:
320,192,50224,1,0,0:0:0:0:
192,192,50301,1,0,0:0:0:0:
64,192,50352,1,0,0:0:0:0:
320,192,50377,1,0,0:0:0:0:
448,192,50454,1,0,0:0:0:0:
320,192,50556,1,0,0:0:0:0:
192,192,50607,1,0,0:0:0:0:
64,192,50684,1,0,0:0:0:0:
320,192,50760,1,0,0:0:0:0:
448,192,50760,1,0,0:0:0:0:
192,192,50862,1,0,0:0:0:0:
448,192,50964,1,0,0:0:0:0:
64,192,51066,1,0,0:0:0:0:
320,192,51066,1,0,0:0:0:0:
192,192,51219,1,0,0:0:0:0:
448,192,51372,1,0,0:0:0:0:
192,192,51372,1,0,0:0:0:0:
64,192,51372,1,0,0:0:0:0:
448,192,51525,1,0,0:0:0:0:
64,192,51678,1,0,0:0:0:0:
192,192,51678,1,0,0:0:0:0:
64,192,51832,1,0,0:0:0:0:
320,192,51832,1,0,0:0:0:0:
448,192,51832,1,0,0:0:0:0:
192,192,51934,1,0,0:0:0:0:
320,192,52036,1,0,0:0:0:0:
64,192,52138,1,0,0:0:0:0:
192,192,52214,1,0,0:0:0:0:
320,192,52291,1,0,0:0:0:0:
448,192,52291,1,0,0:0:0:0:
192,192,52444,1,0,0:0:0:0:
64,192,52444,1,0,0:0:0:0:
64,192,52597,1,0,0:0:0:0:
320,192,52597,1,0,0:0:0:0:
448,192,52597,1,0,0:0:0:0:
320,192,52750,1,0,0:0:0:0:
192,192,52903,1,0,0:0:0:0:
448,192,53056,1,0,0:0:0:0:
192,192,53209,1,0,0:0:0:0:
64,192,53209,1,0,0:0:0:0:
320,192,53362,1,0,0:0:0:0:
320,192,53515,1,0,0:0:0:0:
64,192,53515,1,0,0:0:0:0:
192,192,53668,1,0,0:0:0:0:
448,192,53668,1,0,0:0:0:0:
448,192,53821,1,0,0:0:0:0:
320,192,53821,1,0,0:0:0:0:
64,192,53821,1,0,0:0:0:0:
64,192,53974,1,0,0:0:0:0:
320,192,54051,1,0,0:0:0:0:
448,192,54127,1,0,0:0:0:0:
192,192,54127,1,0,0:0:0:0:
64,192,54281,1,0,0:0:0:0:
192,192,54281,1,0,0:0:0:0:
320,192,54281,1,0,0:0:0:0:
448,192,54383,1,0,0:0:0:0:
192,192,54485,1,0,0:0:0:0:
64,192,54587,1,0,0:0:0:0:
320,192,54663,1,0,0:0:0:0:
192,192,54740,1,0,0:0:0:0:
448,192,54740,1,0,0:0:0:0:
320,192,54893,1,0,0:0:0:0:
64,192,54893,1,0,0:0:0:0:
192,192,55046,1,0,0:0:0:0:
320,192,55046,1,0,0:0:0:0:
448,192,55046,1,0,0:0:0:0:
192,192,55199,1,0,0:0:0:0:
320,192,55352,1,0,0:0:0:0:
64,192,55505,1,0,0:0:0:0:
192,192,55658,1,0,0:0:0:0:
448,192,55658,1,0,0:0:0:0:
320,192,55760,1,0,0:0:0:0:
192,192,55862,1,0,0:0:0:0:
64,192,55964,1,0,0:0:0:0:
448,192,55964,1,0,0:0:0:0:
320,192,56117,1,0,0:0:0:0:
448,192,56270,1,0,0:0:0:0:
192,192,56270,1,0,0:0:0:0:
64,192,56270,1,0,0:0:0:0:
320,192,56372,1,0,0:0:0:0:
64,192,56474,1,0,0:0:0:0:
320,192,56576,1,0,0:0:0:0:
192,192,56576,1,0,0:0:0:0:
64,192,56729,1,0,0:0:0:0:
320,192,56729,1,0,0:0:0:0:
448,192,56729,1,0,0:0:0:0:
192,192,56832,1,0,0:0:0:0:
320,192,56934,1,0,0:0:0:0:
448,192,57036,1,0,0:0:0:0:
64,192,57112,1,0,0:0:0:0:
192,192,57189,1,0,0:0:0:0:
320,192,57189,1,0,0:0:0:0:
448,192,57342,1,0,0:0:0:0:
64,192,57342,1,0,0:0:0:0:
64,192,57495,1,0,0:0:0:0:
192,192,57495,1,0,0:0:0:0:
320,192,57495,1,0,0:0:0:0:
320,192,57648,1,0,0:0:0:0:
192,192,57801,1,0,0:0:0:0:
448,192,57954,1,0,0:0:0:0:
320,192,58107,1,0,0:0:0:0:
64,192,58107,1,0,0:0:0:0:
192,192,58209,1,0,0:0:0:0:
320,192,58311,1,0,0:0:0:0:
192,192,58413,1,0,0:0:0:0:
64,192,58413,1,0,0:0:0:0:
448,192,58566,1,0,0:0:0:0:
448,192,58719,1,0,0:0:0:0:
320,192,58719,1,0,0:0:0:0:
64,192,58719,1,0,0:0:0:0:
64,192,58872,1,0,0:0:0:0:
192,192,59025,1,0,0:0:0:0:
448,192,59025,1,0,0:0:0:0:
320,192,59178,1,0,0:0:0:0:
64,192,59178,1,0,0:0:0:0:
448,192,59178,1,0,0:0:0:0:
192,192,59281,1,0,0:0:0:0:
64,192,59383,1,0,0:0:0:0:
320,192,59485,1,0,0:0:0:0:
192,192,59561,1,0,0:0:0:0:
64,192,59638,1,0,0:0:0:0:
448,192,59638,1,0,0:0:0:0:
320,192,59791,1,0,0:0:0:0:
192,192,59791,1,0,0:0:0:0:
64,192,59944,1,0,0:0:0:0:
192,192,59944,1,0,0:0:0:0:
448,192,59944,1,0,0:0:0:0:
192,192,60097,1,0,0:0:0:0:
320,192,60097,1,0,0:0:0:0:
448,192,60097,1,0,0:0:0:0:
64,192,60250,1,0,0:0:0:0:
320,192,60250,1,0,0:0:0:0:
192,192,60403,1,0,0:0:0:0:
448,192,60556,1,0,0:0:0:0:
320,192,60556,1,0,0:0:0:0:
192,192,60633,1,0,0:0:0:0:
64,192,60709,1,0,0:0:0:0:
320,192,60786,1,0,0:0:0:0:
448,192,60862,1,0,0:0:0:0:
192,192,60862,1,0,0:0:0:0:
64,192,61015,1,0,0:0:0:0:
320,192,61015,1,0,0:0:0:0:
192,192,61117,1,0,0:0:0:0:
448,192,61168,1,0,0:0:0:0:
320,192,61168,1,0,0:0:0:0:
64,192,61219,1,0,0:0:0:0:
192,192,61321,1,0,0:0:0:0:
320,192,61474,1,0,0:0:0:0:
448,192,61474,1,0,0:0:0:0:
192,192,61576,1,0,0:0:0:0:
64,192,61627,1,0,0:0:0:0:
448,192,61627,1,0,0:0:0:0:
320,192,61704,1,0,0:0:0:0:
192,192,61781,1,0,0:0:0:0:
64,192,61883,1,0,0:0:0:0:
320,192,61985,1,0,0:0:0:0:
448,192,62087,1,0,0:0:0:0:
192,192,62163,1,0,0:0:0:0:
320,192,62240,1,0,0:0:0:0:
64,192,62316,1,0,0:0:0:0:
192,192,62393,1,0,0:0:0:0:
320,192,62393,1,0,0:0:0:0:
448,192,62393,1,0,0:0:0:0:
448,192,62546,1,0,0:0:0:0:
192,192,62699,1,0,0:0:0:0:
64,192,62699,1,0,0:0:0:0:
320,192,62852,1,0,0:0:0:0:
448,192,62852,1,0,0:0:0:0:
320,192,63005,1,0,0:0:0:0:
64,192,63005,1,0,0:0:0:0:
192,192,63082,1,0,0:0:0:0:
320,192,63158,1,0,0:0:0:0:
64,192,63235,1,0,0:0:0:0:
192,192,63311,1,0,0:0:0:0:
448,192,63311,1,0,0:0:0:0:
64,192,63464,1,0,0:0:0:0:
320,192,63464,1,0,0:0:0:0:
448,192,63566,1,0,0:0:0:0:
64,192,63617,1,0,0:0:0:0:
192,192,63617,1,0,0:0:0:0:
320,192,63668,1,0,0:0:0:0:
448,192,63770,1,0,0:0:0:0:
192,192,63770,1,0,0:0:0:0:
64,192,63923,1,0,0:0:0:0:
320,192,63923,1,0,0:0:0:0:
192,192,64025,1,0,0:0:0:0:
64,192,64076,1,0,0:0:0:0:
448,192,64076,1,0,0:0:0:0:
320,192,64153,1,0,0:0:0:0:
192,192,64229,1,0,0:0:0:0:
448,192,64332,1,0,0:0:0:0:
320,192,64434,1,0,0:0:0:0:
64,192,64536,1,0,0:0:0:0:
320,192,64612,1,0,0:0:0:0:
192,192,64689,1,0,0:0:0:0:
448,192,64765,1,0,0:0:0:0:
320,192,64842,1,0,0:0:0:0:
192,192,64842,1,0,0:0:0:0:
64,192,64842,1,0,0:0:0:0:
320,192,64995,1,0,0:0:0:0:
192,192,65148,1,0,0:0:0:0:
448,192,65301,1,0,0:0:0:0:
64,192,65301,1,0,0:0:0:0:
192,192,65454,1,0,0:0:0:0:
64,192,65454,1,0,0:0:0:0:
320,192,65531,1,0,0:0:0:0:
448,192,65607,1,0,0:0:0:0:
64,192,65684,1,0,0:0:0:0:
192,192,65760,1,0,0:0:0:0:
320,192,65760,1,0,0:0:0:0:
448,192,65913,1,0,0:0:0:0:
64,192,65913,1,0,0:0:0:0:
320,192,66015,1,0,0:0:0:0:
64,192,66066,1,0,0:0:0:0:
192,192,66066,1,0,0:0:0:0:
448,192,66117,1,0,0:0:0:0:
320,192,66219,1,0,0:0:0:0:
192,192,66296,1,0,0:0:0:0:
64,192,66372,1,0,0:0:0:0:
320,192,66449,1,0,0:0:0:0:
192,192,66525,1,0,0:0:0:0:
448,192,66525,1,0,0:0:0:0:
64,192,66525,1,0,0:0:0:0:
320,192,66602,1,0,0:0:0:0:
192,192,66678,1,0,0:0:0:0:
64,192,66781,1,0,0:0:0:0:
320,192,66883,1,0,0:0:0:0:
448,192,66985,1,0,0:0:0:0:
192,192,67061,1,0,0:0:0:0:
320,192,67138,1,0,0:0:0:0:
64,192,67214,1,0,0:0:0:0:
192,192,67291,1,0,0:0:0:0:
320,192,67291,1,0,0:0:0:0:
448,192,67291,1,0,0:0:0:0:
192,192,67444,1,0,0:0:0:0:
448,192,67597,1,0,0:0:0:0:
64,192,67699,1,0,0:0:0:0:
192,192,67801,1,0,0:0:0:0:
320,192,67903,1,0,0:0:0:0:
448,192,67903,1,0,0:0:0:0:
192,192,68005,1,0,0:0:0:0:
448,192,68107,1,0,0:0:0:0:
320,192,68209,1,0,0:0:0:0:
64,192,68209,1,0,0:0:0:0:
448,192,68362,1,0,0:0:0:0:
192,192,68362,1,0,0:0:0:0:
64,192,68464,1,0,0:0:0:0:
320,192,68515,1,0,0:0:0:0:
448,192,68515,1,0,0:0:0:0:
192,192,68566,1,0,0:0:0:0:
320,192,68668,1,0,0:0:0:0:
448,192,68770,1,0,0:0:0:0:
192,192,68872,1,0,0:0:0:0:
64,192,68974,1,0,0:0:0:0:
320,192,68974,1,0,0:0:0:0:
448,192,68974,1,0,0:0:0:0:
192,192,69076,1,0,0:0:0:0:
320,192,69178,1,0,0:0:0:0:
448,192,69281,1,0,0:0:0:0:
320,192,69357,1,0,0:0:0:0:
64,192,69434,1,0,0:0:0:0:
320,192,69510,1,0,0:0:0:0:
192,192,69587,1,0,0:0:0:0:
448,192,69663,1,0,0:0:0:0:
64,192,69740,1,0,0:0:0:0:
192,192,69740,1,0,0:0:0:0:
320,192,69740,1,0,0:0:0:0:
64,192,69893,1,0,0:0:0:0:
320,192,69893,1,0,0:0:0:0:
448,192,69893,1,0,0:0:0:0:
192,192,70046,1,0,0:0:0:0:
448,192,70046,1,0,0:0:0:0:
320,192,70199,1,0,0:0:0:0:
64,192,70352,1,0,0:0:0:0:
192,192,70352,1,0,0:0:0:0:
320,192,70428,1,0,0:0:0:0:
448,192,70505,1,0,0:0:0:0:
192,192,70582,1,0,0:0:0:0:
64,192,70658,1,0,0:0:0:0:
320,192,70658,1,0,0:0:0:0:
192,192,70811,1,0,0:0:0:0:
448,192,70811,1,0,0:0:0:0:
320,192,70913,1,0,0:0:0:0:
64,192,70964,1,0,0:0:0:0:
192,192,70964,1,0,0:0:0:0:
448,192,71015,1,0,0:0:0:0:
320,192,71117,1,0,0:0:0:0:
64,192,71117,1,0,0:0:0:0:
192,192,71270,1,0,0:0:0:0:
448,192,71270,1,0,0:0:0:0:
64,192,71372,1,0,0:0:0:0:
320,192,71423,1,0,0:0:0:0:
448,192,71423,1,0,0:0:0:0:
192,192,71474,1,0,0:0:0:0:
64,192,71576,1,0,0:0:0:0:
320,192,71678,1,0,0:0:0:0:
192,192,71781,1,0,0:0:0:0:
448,192,71883,1,0,0:0:0:0:
192,192,71959,1,0,0:0:0:0:
320,192,72036,1,0,0:0:0:0:
64,192,72112,1,0,0:0:0:0:
192,192,72189,1,0,0:0:0:0:
320,192,72189,1,0,0:0:0:0:
448,192,72189,1,0,0:0:0:0:
192,192,72342,1,0,0:0:0:0:
320,192,72495,1,0,0:0:0:0:
448,192,72495,1,0,0:0:0:0:
192,192,72648,1,0,0:0:0:0:
64,192,72648,1,0,0:0:0:0:
448,192,72801,1,0,0:0:0:0:
64,192,72801,1,0,0:0:0:0:
320,192,72877,1,0,0:0:0:0:
192,192,72954,1,0,0:0:0:0:
448,192,73031,1,0,0:0:0:0:
64,192,73107,1,0,0:0:0:0:
320,192,73107,1,0,0:0:0:0:
192,192,73260,1,0,0:0:0:0:
448,192,73260,1,0,0:0:0:0:
64,192,73362,1,0,0:0:0:0:
320,192,73413,1,0,0:0:0:0:
448,192,73413,1,0,0:0:0:0:
192,192,73464,1,0,0:0:0:0:
64,192,73566,1,0,0:0:0:0:
320,192,73566,1,0,0:0:0:0:
192,192,73719,1,0,0:0:0:0:
448,192,73719,1,0,0:0:0:0:
320,192,73821,1,0,0:0:0:0:
192,192,73872,1,0,0:0:0:0:
64,192,73872,1,0,0:0:0:0:
448,192,73923,1,0,0:0:0:0:
320,192,74025,1,0,0:0:0:0:
192,192,74127,1,0,0:0:0:0:
64,192,74229,1,0,0:0:0:0:
448,192,74332,1,0,0:0:0:0:
192,192,74408,1,0,0:0:0:0:
64,192,74485,1,0,0:0:0:0:
320,192,74485,1,0,0:0:0:0:
448,192,74561,1,0,0:0:0:0:
320,192,74638,1,0,0:0:0:0:
192,192,74638,1,0,0:0:0:0:
64,192,74638,1,0,0:0:0:0:
192,192,74791,1,0,0:0:0:0:
448,192,74791,1,0,0:0:0:0:
320,192,74791,1,0,0:0:0:0:
64,192,74944,1,0,0:0:0:0:
192,192,74944,1,0,0:0:0:0:
320,192,75097,1,0,0:0:0:0:
448,192,75250,1,0,0:0:0:0:
64,192,75250,1,0,0:0:0:0:
192,192,75326,1,0,0:0:0:0:
320,192,75403,1,0,0:0:0:0:
64,192,75479,1,0,0:0:0:0:
192,192,75556,1,0,0:0:0:0:
448,192,75556,1,0,0:0:0:0:
320,192,75658,1,0,0:0:0:0:
192,192,75760,1,0,0:0:0:0:
448,192,75862,1,0,0:0:0:0:
320,192,75862,1,0,0:0:0:0:
64,192,75862,1,0,0:0:0:0:
192,192,76015,1,0,0:0:0:0:
320,192,76168,1,0,0:0:0:0:
64,192,76168,1,0,0:0:0:0:
192,192,76245,1,0,0:0:0:0:
320,192,76321,1,0,0:0:0:0:
64,192,76398,1,0,0:0:0:0:
448,192,76474,1,0,0:0:0:0:
320,192,76576,1,0,0:0:0:0:
64,192,76678,1,0,0:0:0:0:
448,192,76781,1,0,0:0:0:0:
192,192,76857,1,0,0:0:0:0:
320,192,76934,1,0,0:0:0:0:
64,192,77010,1,0,0:0:0:0:
192,192,77087,1,0,0:0:0:0:
320,192,77087,1,0,0:0:0:0:
448,192,77087,1,0,0:0:0:0:
192,192,77240,1,0,0:0:0:0:
64,192,77393,1,0,0:0:0:0:
320,192,77469,1,0,0:0:0:0:
192,192,77546,1,0,0:0:0:0:
448,192,77622,1,0,0:0:0:0:
192,192,77699,1,0,0:0:0:0:
64,192,77699,1,0,0:0:0:0:
320,192,77775,1,0,0:0:0:0:
448,192,77852,1,0,0:0:0:0:
192,192,77928,1,0,0:0:0:0:
64,192,78005,1,0,0:0:0:0:
320,192,78005,1,0,0:0:0:0:
320,192,78158,1,0,0:0:0:0:
448,192,78311,1,0,0:0:0:0:
192,192,78311,1,0,0:0:0:0:
64,192,78311,1,0,0:0:0:0:
320,192,78413,1,0,0:0:0:0:
192,192,78515,1,0,0:0:0:0:
320,192,78617,1,0,0:0:0:0:
64,192,78617,1,0,0:0:0:0:
448,192,78694,1,0,0:0:0:0:
192,192,78770,1,0,0:0:0:0:
320,192,78847,1,0,0:0:0:0:
64,192,78923,1,0,0:0:0:0:
192,192,79025,1,0,0:0:0:0:
320,192,79127,1,0,0:0:0:0:
448,192,79229,1,0,0:0:0:0:
64,192,79229,1,0,0:0:0:0:
192,192,79383,1,0,0:0:0:0:
64,192,79536,1,0,0:0:0:0:
192,192,79536,1,0,0:0:0:0:
448,192,79536,1,0,0:0:0:0:
320,192,79689,1,0,0:0:0:0:
448,192,79842,1,0,0:0:0:0:
320,192,79842,1,0,0:0:0:0:
64,192,79842,1,0,0:0:0:0:
192,192,79918,1,0,0:0:0:0:
64,192,79995,1,0,0:0:0:0:
320,192,80071,1,0,0:0:0:0:
448,192,80148,1,0,0:0:0:0:
192,192,80301,1,0,0:0:0:0:
448,192,80454,1,0,0:0:0:0:
64,192,80607,1,0,0:0:0:0:
448,192,80760,1,0,0:0:0:0:
320,192,80760,1,0,0:0:0:0:
192,192,80913,1,0,0:0:0:0:
320,192,81066,1,0,0:0:0:0:
448,192,81066,1,0,0:0:0:0:
64,192,81219,1,0,0:0:0:0:
448,192,81372,1,0,0:0:0:0:
192,192,81372,1,0,0:0:0:0:
320,192,81372,1,0,0:0:0:0:
320,192,81525,1,0,0:0:0:0:
192,192,81678,1,0,0:0:0:0:
448,192,81678,1,0,0:0:0:0:
320,192,81781,1,0,0:0:0:0:
192,192,81883,1,0,0:0:0:0:
320,192,81985,1,0,0:0:0:0:
64,192,81985,1,0,0:0:0:0:
448,192,81985,1,0,0:0:0:0:
64,192,82138,1,0,0:0:0:0:
192,192,82138,1,0,0:0:0:0:
320,192,82138,1,0,0:0:0:0:
448,192,82291,1,0,0:0:0:0:
192,192,82291,1,0,0:0:0:0:
64,192,82393,1,0,0:0:0:0:
320,192,82495,1,0,0:0:0:0:
448,192,82597,1,0,0:0:0:0:
64,192,82597,1,0,0:0:0:0:
192,192,82673,1,0,0:0:0:0:
320,192,82750,1,0,0:0:0:0:
64,192,82826,1,0,0:0:0:0:
448,192,82903,1,0,0:0:0:0:
192,192,82903,1,0,0:0:0:0:
320,192,83056,1,0,0:0:0:0:
64,192,83056,1,0,0:0:0:0:
192,192,83158,1,0,0:0:0:0:
448,192,83209,1,0,0:0:0:0:
320,192,83209,1,0,0:0:0:0:
64,192,83260,1,0,0:0:0:0:
192,192,83362,1,0,0:0:0:0:
448,192,83362,1,0,0:0:0:0:
320,192,83515,1,0,0:0:0:0:
64,192,83515,1,0,0:0:0:0:
192,192,83592,1,0,0:0:0:0:
320,192,83668,1,0,0:0:0:0:
448,192,83668,1,0,0:0:0:0:
64,192,83745,1,0,0:0:0:0:
192,192,83821,1,0,0:0:0:0:
320,192,83923,1,0,0:0:0:0:
64,192,84025,1,0,0:0:0:0:
192,192,84127,1,0,0:0:0:0:
448,192,84127,1,0,0:0:0:0:
320,192,84204,1,0,0:0:0:0:
64,192,84281,1,0,0:0:0:0:
448,192,84357,1,0,0:0:0:0:
64,192,84434,1,0,0:0:0:0:
192,192,84434,1,0,0:0:0:0:
320,192,84434,1,0,0:0:0:0:
448,192,84536,1,0,0:0:0:0:
192,192,84638,1,0,0:0:0:0:
64,192,84740,1,0,0:0:0:0:
320,192,84893,1,0,0:0:0:0:
448,192,85046,1,0,0:0:0:0:
64,192,85046,1,0,0:0:0:0:
320,192,85122,1,0,0:0:0:0:
192,192,85199,1,0,0:0:0:0:
448,192,85275,1,0,0:0:0:0:
64,192,85352,1,0,0:0:0:0:
320,192,85352,1,0,0:0:0:0:
448,192,85505,1,0,0:0:0:0:
192,192,85505,1,0,0:0:0:0:
320,192,85607,1,0,0:0:0:0:
64,192,85658,1,0,0:0:0:0:
192,192,85658,1,0,0:0:0:0:
448,192,85709,1,0,0:0:0:0:
64,192,85811,1,0,0:0:0:0:
320,192,85811,1,0,0:0:0:0:
448,192,85964,1,0,0:0:0:0:
192,192,85964,1,0,0:0:0:0:
64,192,86041,1,0,0:0:0:0:
448,192,86117,1,0,0:0:0:0:
320,192,86117,1,0,0:0:0:0:
192,192,86194,1,0,0:0:0:0:
448,192,86270,1,0,0:0:0:0:
320,192,86347,1,0,0:0:0:0:
192,192,86423,1,0,0:0:0:0:
64,192,86500,1,0,0:0:0:0:
448,192,86576,1,0,0:0:0:0:
192,192,86653,1,0,0:0:0:0:
320,192,86729,1,0,0:0:0:0:
64,192,86806,1,0,0:0:0:0:
192,192,86883,1,0,0:0:0:0:
320,192,86883,1,0,0:0:0:0:
448,192,86883,1,0,0:0:0:0:
192,192,87036,1,0,0:0:0:0:
64,192,87189,1,0,0:0:0:0:
448,192,87189,1,0,0:0:0:0:
448,192,87342,1,0,0:0:0:0:
192,192,87342,1,0,0:0:0:0:
320,192,87418,1,0,0:0:0:0:
192,192,87495,1,0,0:0:0:0:
64,192,87495,1,0,0:0:0:0:
448,192,87571,1,0,0:0:0:0:
320,192,87648,1,0,0:0:0:0:
192,192,87724,1,0,0:0:0:0:
64,192,87801,1,0,0:0:0:0:
448,192,87801,1,0,0:0:0:0:
320,192,87877,1,0,0:0:0:0:
192,192,87954,1,0,0:0:0:0:
448,192,88031,1,0,0:0:0:0:
64,192,88107,1,0,0:0:0:0:
192,192,88107,1,0,0:0:0:0:
320,192,88107,1,0,0:0:0:0:
448,192,88184,1,0,0:0:0:0:
192,192,88260,1,0,0:0:0:0:
320,192,88337,1,0,0:0:0:0:
448,192,88413,1,0,0:0:0:0:
192,192,88490,1,0,0:0:0:0:
64,192,88566,1,0,0:0:0:0:
320,192,88566,1,0,0:0:0:0:
448,192,88566,1,0,0:0:0:0:
192,192,88668,1,0,0:0:0:0:
320,192,88770,1,0,0:0:0:0:
64,192,88872,1,0,0:0:0:0:
192,192,88949,1,0,0:0:0:0:
448,192,89025,1,0,0:0:0:0:
192,192,89102,1,0,0:0:0:0:
320,192,89178,1,0,0:0:0:0:
64,192,89178,1,0,0:0:0:0:
448,192,89255,1,0,0:0:0:0:
192,192,89332,1,0,0:0:0:0:
64,192,89332,1,0,0:0:0:0:
320,192,89332,1,0,0:0:0:0:
192,192,89485,1,0,0:0:0:0:
320,192,89638,1,0,0:0:0:0:
64,192,89791,1,0,0:0:0:0:
192,192,89944,1,0,0:0:0:0:
448,192,89944,1,0,0:0:0:0:
320,192,90046,1,0,0:0:0:0:
192,192,90148,1,0,0:0:0:0:
64,192,90250,1,0,0:0:0:0:
448,192,90250,1,0,0:0:0:0:
320,192,90326,1,0,0:0:0:0:
192,192,90403,1,0,0:0:0:0:
448,192,90479,1,0,0:0:0:0:
192,192,90556,1,0,0:0:0:0:
64,192,90556,1,0,0:0:0:0:
320,192,90556,1,0,0:0:0:0:
320,192,90709,1,0,0:0:0:0:
448,192,90862,1,0,0:0:0:0:
192,192,90862,1,0,0:0:0:0:
64,192,90939,1,0,0:0:0:0:
320,192,91015,1,0,0:0:0:0:
448,192,91015,1,0,0:0:0:0:
192,192,91117,1,0,0:0:0:0:
64,192,91168,1,0,0:0:0:0:
320,192,91219,1,0,0:0:0:0:
448,192,91321,1,0,0:0:0:0:
64,192,91474,1,0,0:0:0:0:
320,192,91551,1,0,0:0:0:0:
192,192,91627,1,0,0:0:0:0:
448,192,91627,1,0,0:0:0:0:
64,192,91781,1,0,0:0:0:0:
448,192,91781,1,0,0:0:0:0:
320,192,91781,1,0,0:0:0:0:
192,192,91883,1,0,0:0:0:0:
64,192,91985,1,0,0:0:0:0:
320,192,92087,1,0,0:0:0:0:
448,192,92087,1,0,0:0:0:0:
192,192,92240,1,0,0:0:0:0:
64,192,92240,1,0,0:0:0:0:
192,192,92393,1,0,0:0:0:0:
448,192,92393,1,0,0:0:0:0:
64,192,92495,1,0,0:0:0:0:
320,192,92597,1,0,0:0:0:0:
192,192,92699,1,0,0:0:0:0:
64,192,92699,1,0,0:0:0:0:
448,192,92775,1,0,0:0:0:0:
192,192,92852,1,0,0:0:0:0:
320,192,92928,1,0,0:0:0:0:
64,192,93005,1,0,0:0:0:0:
192,192,93005,1,0,0:0:0:0:
448,192,93005,1,0,0:0:0:0:
448,192,93158,1,0,0:0:0:0:
64,192,93311,1,0,0:0:0:0:
320,192,93311,1,0,0:0:0:0:
448,192,93388,1,0,0:0:0:0:
192,192,93464,1,0,0:0:0:0:
64,192,93464,1,0,0:0:0:0:
320,192,93566,1,0,0:0:0:0:
192,192,93617,1,0,0:0:0:0:
448,192,93668,1,0,0:0:0:0:
64,192,93770,1,0,0:0:0:0:
320,192,93770,1,0,0:0:0:0:
448,192,93923,1,0,0:0:0:0:
192,192,93923,1,0,0:0:0:0:
320,192,94000,1,0,0:0:0:0:
192,192,94076,1,0,0:0:0:0:
64,192,94076,1,0,0:0:0:0:
448,192,94153,1,0,0:0:0:0:
64,192,94229,1,0,0:0:0:0:
320,192,94229,1,0,0:0:0:0:
192,192,94229,1,0,0:0:0:0:
320,192,94383,1,0,0:0:0:0:
448,192,94536,1,0,0:0:0:0:
192,192,94536,1,0,0:0:0:0:
320,192,94689,1,0,0:0:0:0:
64,192,94689,1,0,0:0:0:0:
448,192,94791,1,0,0:0:0:0:
192,192,94842,1,0,0:0:0:0:
64,192,94842,1,0,0:0:0:0:
320,192,94944,1,0,0:0:0:0:
448,192,95046,1,0,0:0:0:0:
64,192,95148,1,0,0:0:0:0:
320,192,95224,1,0,0:0:0:0:
192,192,95301,1,0,0:0:0:0:
448,192,95377,1,0,0:0:0:0:
320,192,95454,1,0,0:0:0:0:
192,192,95454,1,0,0:0:0:0:
64,192,95454,1,0,0:0:0:0:
320,192,95607,1,0,0:0:0:0:
64,192,95760,1,0,0:0:0:0:
448,192,95760,1,0,0:0:0:0:
320,192,95913,1,0,0:0:0:0:
192,192,95913,1,0,0:0:0:0:
64,192,96066,1,0,0:0:0:0:
320,192,96066,1,0,0:0:0:0:
448,192,96168,1,0,0:0:0:0:
192,192,96270,1,0,0:0:0:0:
64,192,96372,1,0,0:0:0:0:
320,192,96372,1,0,0:0:0:0:
448,192,96449,1,0,0:0:0:0:
192,192,96525,1,0,0:0:0:0:
64,192,96525,1,0,0:0:0:0:
320,192,96602,1,0,0:0:0:0:
448,192,96678,1,0,0:0:0:0:
64,192,96678,1,0,0:0:0:0:
192,192,96678,1,0,0:0:0:0:
320,192,96781,1,0,0:0:0:0:
192,192,96883,1,0,0:0:0:0:
320,192,96985,1,0,0:0:0:0:
64,192,96985,1,0,0:0:0:0:
192,192,97138,1,0,0:0:0:0:
448,192,97138,1,0,0:0:0:0:
448,192,97291,1,0,0:0:0:0:
320,192,97291,1,0,0:0:0:0:
64,192,97393,1,0,0:0:0:0:
192,192,97495,1,0,0:0:0:0:
448,192,97597,1,0,0:0:0:0:
192,192,97673,1,0,0:0:0:0:
320,192,97750,1,0,0:0:0:0:
64,192,97826,1,0,0:0:0:0:
192,192,97903,1,0,0:0:0:0:
320,192,97903,1,0,0:0:0:0:
448,192,97903,1,0,0:0:0:0:
192,192,98056,1,0,0:0:0:0:
64,192,98209,1,0,0:0:0:0:
448,192,98362,1,0,0:0:0:0:
192,192,98362,1,0,0:0:0:0:
320,192,98464,1,0,0:0:0:0:
64,192,98515,1,0,0:0:0:0:
448,192,98566,1,0,0:0:0:0:
192,192,98668,1,0,0:0:0:0:
320,192,98821,1,0,0:0:0:0:
192,192,98898,1,0,0:0:0:0:
64,192,98974,1,0,0:0:0:0:
448,192,98974,1,0,0:0:0:0:
320,192,99051,1,0,0:0:0:0:
192,192,99127,1,0,0:0:0:0:
64,192,99127,1,0,0:0:0:0:
448,192,99127,1,0,0:0:0:0:
192,192,99281,1,0,0:0:0:0:
320,192,99434,1,0,0:0:0:0:
448,192,99434,1,0,0:0:0:0:
192,192,99587,1,0,0:0:0:0:
64,192,99587,1,0,0:0:0:0:
320,192,99689,1,0,0:0:0:0:
448,192,99740,1,0,0:0:0:0:
192,192,99740,1,0,0:0:0:0:
64,192,99842,1,0,0:0:0:0:
320,192,99944,1,0,0:0:0:0:
64,192,100046,1,0,0:0:0:0:
320,192,100122,1,0,0:0:0:0:
192,192,100199,1,0,0:0:0:0:
448,192,100275,1,0,0:0:0:0:
320,192,100352,1,0,0:0:0:0:
192,192,100352,1,0,0:0:0:0:
64,192,100352,1,0,0:0:0:0:
448,192,100454,1,0,0:0:0:0:
192,192,100556,1,0,0:0:0:0:
320,192,100658,1,0,0:0:0:0:
448,192,100658,1,0,0:0:0:0:
64,192,100811,1,0,0:0:0:0:
192,192,100811,1,0,0:0:0:0:
64,192,100964,1,0,0:0:0:0:
320,192,100964,1,0,0:0:0:0:
192,192,101117,1,0,0:0:0:0:
320,192,101117,1,0,0:0:0:0:
448,192,101117,1,0,0:0:0:0:
64,192,101270,1,0,0:0:0:0:
320,192,101347,1,0,0:0:0:0:
192,192,101423,1,0,0:0:0:0:
448,192,101423,1,0,0:0:0:0:
64,192,101500,1,0,0:0:0:0:
320,192,101576,1,0,0:0:0:0:
448,192,101576,1,0,0:0:0:0:
192,192,101678,1,0,0:0:0:0:
448,192,101781,1,0,0:0:0:0:
320,192,101883,1,0,0:0:0:0:
192,192,101883,1,0,0:0:0:0:
64,192,101883,1,0,0:0:0:0:
64,192,102036,1,0,0:0:0:0:
320,192,102036,1,0,0:0:0:0:
448,192,102036,1,0,0:0:0:0:
448,192,102189,1,0,0:0:0:0:
192,192,102189,1,0,0:0:0:0:
64,192,102265,1,0,0:0:0:0:
320,192,102342,1,0,0:0:0:0:
448,192,102418,1,0,0:0:0:0:
192,192,102495,1,0,0:0:0:0:
64,192,102495,1,0,0:0:0:0:
320,192,102571,1,0,0:0:0:0:
192,192,102648,1,0,0:0:0:0:
448,192,102648,1,0,0:0:0:0:
64,192,102724,1,0,0:0:0:0:
448,192,102801,1,0,0:0:0:0:
320,192,102801,1,0,0:0:0:0:
64,192,102954,1,0,0:0:0:0:
320,192,102954,1,0,0:0:0:0:
192,192,103107,1,0,0:0:0:0:
448,192,103107,1,0,0:0:0:0:
320,192,103184,1,0,0:0:0:0:
192,192,103260,1,0,0:0:0:0:
64,192,103260,1,0,0:0:0:0:
448,192,103337,1,0,0:0:0:0:
192,192,103413,1,0,0:0:0:0:
320,192,103490,1,0,0:0:0:0:
64,192,103566,1,0,0:0:0:0:
192,192,103643,1,0,0:0:0:0:
448,192,103719,1,0,0:0:0:0:
320,192,103719,1,0,0:0:0:0:
192,192,103796,1,0,0:0:0:0:
320,192,103872,1,0,0:0:0:0:
64,192,103872,1,0,0:0:0:0:
448,192,103949,1,0,0:0:0:0:
192,192,104025,1,0,0:0:0:0:
320,192,104025,1,0,0:0:0:0:
64,192,104025,1,0,0:0:0:0:
192,192,104178,1,0,0:0:0:0:
320,192,104332,1,0,0:0:0:0:
64,192,104485,1,0,0:0:0:0:
192,192,104638,1,0,0:0:0:0:
448,192,104638,1,0,0:0:0:0:
64,192,104714,1,0,0:0:0:0:
320,192,104791,1,0,0:0:0:0:
192,192,104867,1,0,0:0:0:0:
64,192,104944,1,0,0:0:0:0:
448,192,104944,1,0,0:0:0:0:
192,192,105097,1,0,0:0:0:0:
320,192,105097,1,0,0:0:0:0:
64,192,105199,1,0,0:0:0:0:
448,192,105250,1,0,0:0:0:0:
320,192,105250,1,0,0:0:0:0:
192,192,105301,1,0,0:0:0:0:
64,192,105403,1,0,0:0:0:0:
448,192,105403,1,0,0:0:0:0:
320,192,105556,1,0,0:0:0:0:
192,192,105556,1,0,0:0:0:0:
448,192,105633,1,0,0:0:0:0:
192,192,105709,1,0,0:0:0:0:
64,192,105709,1,0,0:0:0:0:
320,192,105786,1,0,0:0:0:0:
448,192,105862,1,0,0:0:0:0:
192,192,105939,1,0,0:0:0:0:
320,192,106015,1,0,0:0:0:0:
64,192,106092,1,0,0:0:0:0:
448,192,106168,1,0,0:0:0:0:
192,192,106168,1,0,0:0:0:0:
320,192,106245,1,0,0:0:0:0:
64,192,106321,1,0,0:0:0:0:
192,192,106398,1,0,0:0:0:0:
320,192,106474,1,0,0:0:0:0:
448,192,106474,1,0,0:0:0:0:
64,192,106474,1,0,0:0:0:0:
192,192,106576,1,0,0:0:0:0:
320,192,106678,1,0,0:0:0:0:
448,192,106781,1,0,0:0:0:0:
192,192,106781,1,0,0:0:0:0:
64,192,106857,1,0,0:0:0:0:
320,192,106934,1,0,0:0:0:0:
448,192,106934,1,0,0:0:0:0:
192,192,107010,1,0,0:0:0:0:
64,192,107087,1,0,0:0:0:0:
320,192,107087,1,0,0:0:0:0:
448,192,107163,1,0,0:0:0:0:
192,192,107240,1,0,0:0:0:0:
320,192,107316,1,0,0:0:0:0:
64,192,107393,1,0,0:0:0:0:
448,192,107393,1,0,0:0:0:0:
192,192,107469,1,0,0:0:0:0:
320,192,107546,1,0,0:0:0:0:
64,192,107622,1,0,0:0:0:0:
192,192,107699,1,0,0:0:0:0:
320,192,107699,1,0,0:0:0:0:
448,192,107699,1,0,0:0:0:0:
64,192,107775,1,0,0:0:0:0:
448,192,107852,1,0,0:0:0:0:
192,192,107928,1,0,0:0:0:0:
320,192,108005,1,0,0:0:0:0:
64,192,108082,1,0,0:0:0:0:
192,192,108158,1,0,0:0:0:0:
448,192,108158,1,0,0:0:0:0:
320,192,108260,1,0,0:0:0:0:
192,192,108362,1,0,0:0:0:0:
64,192,108464,1,0,0:0:0:0:
192,192,108541,1,0,0:0:0:0:
448,192,108617,1,0,0:0:0:0:
192,192,108694,1,0,0:0:0:0:
320,192,108770,1,0,0:0:0:0:
448,192,108770,1,0,0:0:0:0:
64,192,108847,1,0,0:0:0:0:
192,192,108923,1,0,0:0:0:0:
320,192,108923,1,0,0:0:0:0:
448,192,108923,1,0,0:0:0:0:
64,192,109025,1,0,0:0:0:0:
320,192,109127,1,0,0:0:0:0:
192,192,109229,1,0,0:0:0:0:
64,192,109332,1,0,0:0:0:0:
448,192,109434,1,0,0:0:0:0:
64,192,109536,1,0,0:0:0:0:
192,192,109536,1,0,0:0:0:0:
320,192,109638,1,0,0:0:0:0:
192,192,109740,1,0,0:0:0:0:
64,192,109842,1,0,0:0:0:0:
448,192,109842,1,0,0:0:0:0:
320,192,109918,1,0,0:0:0:0:
192,192,109995,1,0,0:0:0:0:
448,192,110071,1,0,0:0:0:0:
320,192,110148,1,0,0:0:0:0:
192,192,110148,1,0,0:0:0:0:
64,192,110148,1,0,0:0:0:0:
320,192,110301,1,0,0:0:0:0:
448,192,110454,1,0,0:0:0:0:
192,192,110454,1,0,0:0:0:0:
64,192,110607,1,0,0:0:0:0:
320,192,110607,1,0,0:0:0:0:
64,192,110760,1,0,0:0:0:0:
448,192,110760,1,0,0:0:0:0:
192,192,110862,1,0,0:0:0:0:
320,192,110964,1,0,0:0:0:0:
448,192,111066,1,0,0:0:0:0:
64,192,111066,1,0,0:0:0:0:
320,192,111143,1,0,0:0:0:0:
192,192,111219,1,0,0:0:0:0:
448,192,111296,1,0,0:0:0:0:
320,192,111372,1,0,0:0:0:0:
192,192,111372,1,0,0:0:0:0:
64,192,111372,1,0,0:0:0:0:
320,192,111525,1,0,0:0:0:0:
64,192,111678,1,0,0:0:0:0:
320,192,111781,1,0,0:0:0:0:
192,192,111883,1,0,0:0:0:0:
64,192,111985,1,0,0:0:0:0:
320,192,111985,1,0,0:0:0:0:
448,192,111985,1,0,0:0:0:0:
192,192,112061,1,0,0:0:0:0:
320,192,112138,1,0,0:0:0:0:
64,192,112214,1,0,0:0:0:0:
448,192,112291,1,0,0:0:0:0:
192,192,112367,1,0,0:0:0:0:
320,192,112444,1,0,0:0:0:0:
64,192,112520,1,0,0:0:0:0:
448,192,112597,1,0,0:0:0:0:
192,192,112597,1,0,0:0:0:0:
320,192,112699,1,0,0:0:0:0:
192,192,112801,1,0,0:0:0:0:
64,192,112903,1,0,0:0:0:0:
448,192,112903,1,0,0:0:0:0:
320,192,113056,1,0,0:0:0:0:
192,192,113056,1,0,0:0:0:0:
64,192,113209,1,0,0:0:0:0:
192,192,113209,1,0,0:0:0:0:
320,192,113311,1,0,0:0:0:0:
448,192,113413,1,0,0:0:0:0:
64,192,113515,1,0,0:0:0:0:
320,192,113592,1,0,0:0:0:0:
192,192,113668,1,0,0:0:0:0:
448,192,113668,1,0,0:0:0:0:
64,192,113745,1,0,0:0:0:0:
448,192,113821,1,0,0:0:0:0:
320,192,113821,1,0,0:0:0:0:
192,192,113821,1,0,0:0:0:0:
320,192,113974,1,0,0:0:0:0:
64,192,113974,1,0,0:0:0:0:
192,192,114127,1,0,0:0:0:0:
448,192,114127,1,0,0:0:0:0:
64,192,114204,1,0,0:0:0:0:
320,192,114281,1,0,0:0:0:0:
192,192,114357,1,0,0:0:0:0:
64,192,114434,1,0,0:0:0:0:
320,192,114434,1,0,0:0:0:0:
448,192,114434,1,0,0:0:0:0:
64,192,114587,1,0,0:0:0:0:
192,192,114587,1,0,0:0:0:0:
320,192,114587,1,0,0:0:0:0:
192,192,114740,1,0,0:0:0:0:
448,192,114740,1,0,0:0:0:0:
320,192,114893,1,0,0:0:0:0:
192,192,114969,1,0,0:0:0:0:
64,192,115046,1,0,0:0:0:0:
448,192,115046,1,0,0:0:0:0:
320,192,115148,1,0,0:0:0:0:
192,192,115250,1,0,0:0:0:0:
64,192,115352,1,0,0:0:0:0:
320,192,115454,1,0,0:0:0:0:
192,192,115556,1,0,0:0:0:0:
448,192,115658,1,0,0:0:0:0:
320,192,115760,1,0,0:0:0:0:
192,192,115862,1,0,0:0:0:0:
64,192,115964,1,0,0:0:0:0:
320,192,116041,1,0,0:0:0:0:
192,192,116117,1,0,0:0:0:0:
448,192,116117,1,0,0:0:0:0:
64,192,116270,1,0,0:0:0:0:
320,192,116270,1,0,0:0:0:0:
448,192,116270,1,0,0:0:0:0:
64,192,116423,1,0,0:0:0:0:
192,192,116423,1,0,0:0:0:0:
448,192,116423,1,0,0:0:0:0:
320,192,116576,1,0,0:0:0:0:
320,192,116729,1,0,0:0:0:0:
192,192,116832,1,0,0:0:0:0:
64,192,116883,1,0,0:0:0:0:
448,192,116883,1,0,0:0:0:0:
320,192,116985,1,0,0:0:0:0:
192,192,117087,1,0,0:0:0:0:
448,192,117189,1,0,0:0:0:0:
192,192,117265,1,0,0:0:0:0:
320,192,117342,1,0,0:0:0:0:
64,192,117418,1,0,0:0:0:0:
192,192,117495,1,0,0:0:0:0:
320,192,117495,1,0,0:0:0:0:
448,192,117495,1,0,0:0:0:0:
192,192,117648,1,0,0:0:0:0:
64,192,117801,1,0,0:0:0:0:
320,192,117801,1,0,0:0:0:0:
192,192,117954,1,0,0:0:0:0:
320,192,117954,1,0,0:0:0:0:
448,192,117954,1,0,0:0:0:0:
64,192,118056,1,0,0:0:0:0:
320,192,118158,1,0,0:0:0:0:
192,192,118260,1,0,0:0:0:0:
64,192,118337,1,0,0:0:0:0:
448,192,118413,1,0,0:0:0:0:
192,192,118490,1,0,0:0:0:0:
320,192,118566,1,0,0:0:0:0:
64,192,118566,1,0,0:0:0:0:
448,192,118643,1,0,0:0:0:0:
320,192,118719,1,0,0:0:0:0:
192,192,118719,1,0,0:0:0:0:
64,192,118719,1,0,0:0:0:0:
448,192,118872,1,0,0:0:0:0:
320,192,118872,1,0,0:0:0:0:
192,192,118872,1,0,0:0:0:0:
192,192,119025,1,0,0:0:0:0:
64,192,119025,1,0,0:0:0:0:
320,192,119178,1,0,0:0:0:0:
192,192,119332,1,0,0:0:0:0:
448,192,119332,128,0,120250:0:0:0:0:
192,192,120862,1,0,0:0:0:0:
320,192,121015,1,0,0:0:0:0:
448,192,121168,1,0,0:0:0:0:
64,192,121168,1,0,0:0:0:0:
