osu file format v14

[General]
AudioFilename: audio.mp3
AudioLeadIn: 0
PreviewTime: 5564
Countdown: 0
SampleSet: Soft
StackLeniency: 0.7
Mode: 0
LetterboxInBreaks: 0
WidescreenStoryboard: 1

[Editor]
Bookmarks: 55782
DistanceSpacing: 2.2
BeatDivisor: 1
GridSize: 32
TimelineZoom: 2.699999

[Metadata]
Title:I
TitleUnicode:I
Artist:wac
ArtistUnicode:wac
Creator:Joe Castle
Version:at first glance
Source:
Tags:Vulkin Zuga 脇田潤 Jun Wakita Primo ノスタルジア NOSTALGIA WAY OF Chapter One 1 音楽 Ongaku BEMANI PIANO COLLECTION Konami Amusement Digital Entertainment Yamaha Music Communications Company Limited Co. Ltd. Videogame Video Game Instrumental
BeatmapID:2242863
BeatmapSetID:1071537

[Difficulty]
HPDrainRate:5.5
CircleSize:7
OverallDifficulty:5.5
ApproachRate:7
SliderMultiplier:0.75
SliderTickRate:0.5

[Events]
//Background and Video events
0,0,"snow_by_iku_t0_dcjw0ds.jpg",0,0
//Break Periods
//Storyboard Layer 0 (Background)
//Storyboard Layer 1 (Fail)
//Storyboard Layer 2 (Pass)
//Storyboard Layer 3 (Foreground)
//Storyboard Layer 4 (Overlay)
//Storyboard Sound Samples

[TimingPoints]
690,829.703381041278,3,2,2,25,1,0
690,-314.663310258024,3,2,2,25,0,0
2349,-314.663310258024,3,2,2,15,0,0
4008,-314.663310258024,3,2,2,5,0,0
5668,674.157303370787,3,2,3,25,1,0
6342,612.244897959184,3,2,4,20,1,0
6954,681.818181818182,3,2,2,20,1,0
7635,618.556701030928,3,2,5,35,1,0
8872,-100,3,2,5,5,0,0
9413,-100,3,2,2,5,0,0
9490,652.173913043478,3,2,5,25,1,0
10142,545.454545454546,3,2,6,20,1,0
10687,727.272727272727,3,2,4,20,1,0
11414,759.493670886076,3,2,3,35,1,0
12838,-314.663310258024,3,2,2,5,0,0
12932,779.220779220779,3,2,6,25,1,0
13711,571.428571428571,3,2,7,35,1,0
14282,606.060606060606,3,2,4,25,1,0
14888,588.235294117647,3,2,2,25,1,0
15476,631.578947368421,3,2,2,35,1,0
16660,-314.663310258024,3,2,2,5,0,0
16739,769.230769230769,3,2,8,25,1,0
17508,689.655172413793,3,2,7,35,1,0
18887,-100,3,2,7,5,0,0
19576,759.493670886076,3,2,2,25,1,0
21854,571.428571428571,3,2,9,35,1,0
22425,535.714285714286,3,2,8,25,1,0
22960,512.820512820513,3,2,10,25,1,0
23472,545.454545454546,3,2,8,25,1,0
24017,512.820512820513,3,2,4,25,1,0
24529,526.315789473684,3,2,11,40,1,0
25055,530.973451327434,3,2,11,45,1,0
25585,585.365853658537,3,2,2,50,1,0
26170,745.341614906832,3,2,12,50,1,0
26915,558.139534883721,3,2,12,30,1,0
28031,-100,3,2,12,5,0,0
28519,-100,3,2,2,5,0,0
28589,631.578947368421,3,2,10,35,1,0
29220,571.428571428571,3,2,13,25,1,0
29791,705.882352941176,3,2,9,20,1,0
30496,759.493670886076,3,2,8,35,1,0
32014,821.917808219178,3,2,2,20,1,0
32835,754.716981132075,3,2,13,35,1,0
33589,-100,3,2,3,35,0,0
34344,714.285714285714,3,2,3,30,1,0
35058,750,3,2,2,25,1,0
35808,720.720720720721,3,2,14,25,1,0
36528,882.352941176471,3,2,14,35,1,0
37410,612.244897959184,3,2,12,20,1,0
38022,722.89156626506,3,2,15,20,1,0
38744,810.810810810811,3,2,15,20,1,0
39554,722.89156626506,3,2,16,26,1,0
40276,705.882352941176,3,2,10,32,1,0
40981,902.255639097744,3,2,3,40,1,0
41883,932.763311309755,3,2,4,50,1,0
43748,1016.94915254237,3,2,16,30,1,0
43748,-39.3333333333333,3,2,16,30,0,0
43811,-39.3333333333333,3,2,14,30,0,0
43875,1348.31460674157,3,2,17,40,1,0
45223,674.157303370787,3,2,11,40,1,0
45223,-59.3333333333333,3,2,11,40,0,0
45265,-59.3333333333333,3,2,5,40,0,0
45307,1000,3,2,12,50,1,0
46307,689.655172413793,3,2,10,40,1,0
46350,-100,3,2,2,40,0,0
47341,-100,3,2,4,5,0,0
47686,689.655172413793,3,2,10,20,1,0
47686,-58,3,2,10,20,0,0
47729,-58,3,2,2,20,0,0
47772,1218.27411167513,3,2,3,20,1,0
48990,1132.07547169811,3,2,50,20,1,0
48990,-66.1764705882353,3,2,50,20,0,0
49060,-66.1764705882353,3,2,50,5,0,0
55782,-66.1764705882353,3,2,2,5,0,0

[Colours]
Combo1 : 255,91,91
Combo2 : 255,170,170
Combo3 : 170,213,255
Combo4 : 255,255,170

[HitObjects]
44,76,690,6,0,B|26:110|44:144|44:144|61:178|45:211,1,140.030629760563,10|0,0:0|1:0,0:0:0:0:
33,231,5668,5,6,0:0:0:0:
126,284,6342,1,2,0:0:0:0:
12,359,6954,1,2,0:0:0:0:
158,80,7635,2,0,B|123:77|103:110|103:110|148:131|168:62|250:74,1,215.625,6|0,0:0|1:0,0:0:0:0:
266,80,9490,5,10,0:0:0:0:
374,76,10142,1,2,0:0:0:0:
438,132,10687,1,2,0:0:0:0:
266,212,11414,6,0,L|276:359,1,140.625,10|0,0:0|1:0,0:0:0:0:
278,376,12932,1,4,0:0:0:0:
459,240,13711,5,6,0:0:0:0:
419,163,14282,1,2,0:0:0:0:
331,154,14888,1,2,0:0:0:0:
266,212,15476,2,0,P|199:227|146:185,1,140.625,6|0,0:0|1:0,0:0:0:0:
137,159,16739,1,2,0:0:0:0:
451,124,17508,5,8,0:0:0:0:
451,124,17551,2,0,B|469:90|441:65|405:58|382:103|373:142|439:172|411:222,1,220.3125,2|2,0:0|0:0,0:0:0:0:
411,221,21854,5,10,0:0:0:0:
346,280,22425,1,2,0:0:0:0:
278,186,22960,1,6,0:0:0:0:
346,280,23472,5,10,0:0:0:0:
278,375,24017,1,2,0:0:0:0:
167,339,24529,1,2,0:0:0:0:
167,222,25055,1,12,0:0:0:0:
278,375,25585,1,2,0:0:0:0:
338,64,26170,5,2,0:0:0:0:
338,64,26915,6,0,B|350:72|373:65|373:65|329:87|282:56|282:56|243:29|204:47,1,215.625,12|0,0:0|1:0,0:0:0:0:
182,60,28589,5,10,0:0:0:0:
78,88,29220,1,2,0:0:0:0:
30,16,29791,1,8,0:0:0:0:
50,200,30496,6,0,P|62:260|38:364,1,150,12|2,0:0|0:0,0:0:0:0:
306,232,32835,5,12,0:0:0:0:
260,168,33589,1,8,0:0:0:0:
265,76,34344,1,4,0:0:0:0:
362,3,35058,1,4,0:0:0:0:
500,74,35808,1,2,0:0:0:0:
433,251,36528,1,8,0:0:0:0:
207,70,37410,5,4,0:0:0:0:
213,160,38022,1,2,0:0:0:0:
220,280,38744,1,8,0:0:0:0:
340,360,39554,5,6,0:0:0:0:
216,352,40276,1,2,0:0:0:0:
100,268,40981,1,2,0:0:0:0:
68,68,41883,5,2,0:0:0:0:
402,177,43748,6,0,L|420:172,2,11.9173732666201,8|8|4,0:0|0:0|0:0,0:0:0:0:
68,285,45223,6,0,L|54:282,2,7.90028106818641,2|2|2,0:0|0:0|0:0,0:0:0:0:
68,68,46307,5,2,0:0:0:0:
68,68,46350,1,2,0:0:0:0:
275,353,47686,6,0,L|274:362,2,8.08189655172414,4|4|4,0:0|0:0|0:0,0:0:0:0:
274,0,48990,6,0,B|319:16|365:3|395:-18|395:-18|432:30|424:103|380:156|276:205|257:43|177:32|71:179|131:358|299:334|389:219|289:142,1,680.000027669272,4|0,0:0|1:0,0:0:0:0:
