osu file format v14

[General]
AudioFilename: audio.mp3
AudioLeadIn: 0
PreviewTime: 5668
Countdown: 0
SampleSet: Soft
StackLeniency: 0.7
Mode: 3
LetterboxInBreaks: 0
SpecialStyle: 0
WidescreenStoryboard: 1

[Editor]
DistanceSpacing: 2.2
BeatDivisor: 16
GridSize: 32
TimelineZoom: 0.8999999

[Metadata]
Title:I
TitleUnicode:I
Artist:wac
ArtistUnicode:wac
Creator:Carpihat
Version:Profound Normal // 10K
Source:ノスタルジア
Tags:脇田潤 Jun Wakita Classical Instrumental videogame video game piano solo konami amusement 音楽 ongaku bemani collection primo way of nostalgia chapter 1 one
BeatmapID:4492690
BeatmapSetID:2132017

[Difficulty]
HPDrainRate:6
CircleSize:10
OverallDifficulty:6
ApproachRate:5
SliderMultiplier:1.4
SliderTickRate:1

[Events]
//Background and Video events
0,0,"carpihathaikyotopiano.jpg",0,0
//Break Periods
//Storyboard Layer 0 (Background)
//Storyboard Layer 1 (Fail)
//Storyboard Layer 2 (Pass)
//Storyboard Layer 3 (Foreground)
//Storyboard Layer 4 (Overlay)
//Storyboard Sound Samples

[TimingPoints]
690,829.703381041278,3,2,1,5,1,0
690,-136.4433962,3,2,1,5,0,0
5668,674.157303370787,3,2,1,5,1,0
5668,-167.9245283,3,2,1,5,0,0
6342,612.244897959184,3,2,1,5,1,0
6342,-184.9056604,3,2,1,5,0,0
6954,681.818181818182,3,2,1,5,1,0
6954,-166.0377358,3,2,1,5,0,0
7635,618.556701030928,3,2,1,5,1,0
7635,-183.0188679,3,2,1,5,0,0
9490,652.173913043478,3,2,1,5,1,0
9490,-173.5849057,3,2,1,5,0,0
10142,545.454545454546,3,2,1,5,1,0
10142,-207.5471698,3,2,1,5,0,0
10687,727.272727272727,3,2,1,5,1,0
10687,-155.6603774,3,2,1,5,0,0
11414,759.493670886076,3,2,1,5,1,0
11414,-149.0566038,3,2,1,5,0,0
12932,779.220779220779,3,2,1,5,1,0
12932,-145.2830189,3,2,1,5,0,0
13711,571.428571428571,3,2,1,5,1,0
13711,-198.1132075,3,2,1,5,0,0
14282,606.060606060606,3,2,1,5,1,0
14282,-186.7924528,3,2,1,5,0,0
14888,588.235294117647,3,2,1,5,1,0
14888,-192.4528302,3,2,1,5,0,0
15476,631.578947368421,3,2,1,5,1,0
15476,-179.245283,3,2,1,5,0,0
16739,769.230769230769,3,2,1,5,1,0
16739,-147.1698113,3,2,1,5,0,0
17508,689.655172413793,3,2,1,5,1,0
17508,-164.1509434,3,2,1,5,0,0
19576,759.493670886076,3,2,1,5,1,0
19576,-149.0566038,3,2,1,5,0,0
21854,571.428571428571,3,2,1,5,1,0
21854,-198.1132075,3,2,1,5,0,0
22425,535.714285714286,3,2,1,5,1,0
22425,-211.3207547,3,2,1,5,0,0
22960,512.820512820513,3,2,1,5,1,0
22960,-220.754717,3,2,1,5,0,0
23472,545.454545454546,3,2,1,5,1,0
23472,-207.5471698,3,2,1,5,0,0
24017,512.820512820513,3,2,1,5,1,0
24017,-220.754717,3,2,1,5,0,0
24529,526.315789473684,3,2,1,5,1,0
24529,-215.0943396,3,2,1,5,0,0
25055,530.973451327434,3,2,1,5,1,0
25055,-213.2075472,3,2,1,5,0,0
25585,585.365853658537,3,2,1,5,1,0
25585,-193.3962264,3,2,1,5,0,0
26170,745.341614906832,3,2,1,5,1,0
26170,-151.8867925,3,2,1,5,0,0
26915,558.139534883721,3,2,1,5,1,0
26915,-202.8301887,3,2,1,5,0,0
28589,631.578947368421,3,2,1,5,1,0
28589,-179.245283,3,2,1,5,0,0
29220,571.428571428571,3,2,1,5,1,0
29220,-198.1132075,3,2,1,5,0,0
29791,705.882352941176,3,2,1,5,1,0
29791,-160.3773585,3,2,1,5,0,0
30496,759.493670886076,3,2,1,5,1,0
30496,-149.0566038,3,2,1,5,0,0
32014,821.917808219178,3,2,1,5,1,0
32014,-137.7358491,3,2,1,5,0,0
32835,754.716981132075,3,2,1,5,1,0
32835,-150,3,2,1,5,0,0
34344,722.89156626506,3,2,1,5,1,0
34344,-156.6037736,3,2,1,5,0,0
35066,742.115027829314,3,2,1,5,1,0
35066,-152.5471698,3,2,1,5,0,0
35808,720.720720720721,3,2,1,5,1,0
35808,-157.0754717,3,2,1,5,0,0
36528,882.352941176471,3,2,1,5,1,0
36528,-128.3018868,3,2,1,5,0,0
37410,612.244897959184,3,2,1,5,1,0
37410,-184.9056604,3,2,1,5,0,0
38022,722.89156626506,3,2,1,5,1,0
38022,-156.6037736,3,2,1,5,0,0
38744,810.810810810811,3,2,1,5,1,0
38744,-139.6226415,3,2,1,5,0,0
39554,722.89156626506,3,2,1,5,1,0
39554,-156.6037736,3,2,1,5,0,0
40276,705.882352941176,3,2,1,5,1,0
40276,-160.3773585,3,2,1,5,0,0
40981,902.255639097744,3,2,1,5,1,0
40981,-125.4716981,3,2,1,5,0,0
41883,932.763311309755,3,2,1,5,1,0
41883,-121.3679245,3,2,1,5,0,0
43748,1016.94915254237,3,2,1,5,1,0
43748,-111.3207547,3,2,1,5,0,0
43875,1348.31460674157,3,2,1,5,1,0
43875,-83.96226415,3,2,1,5,0,0
45223,674.157303370787,3,2,1,5,1,0
45223,-167.9245283,3,2,1,5,0,0
45307,1000,3,2,1,5,1,0
45307,-113.2075472,3,2,1,5,0,0
46307,689.655172413793,3,2,1,5,1,0
46307,-164.1509434,3,2,1,5,0,0
47686,689.655172413793,3,2,1,5,1,0
47686,-164.1509434,3,2,1,5,0,0
47772,1218.27411167513,3,2,1,5,1,0
47772,-92.9245283,3,2,1,5,0,0
48990,1132.07547169811,3,2,1,5,1,0

[HitObjects]
332,192,690,128,0,4838:0:0:0:0:
128,192,5668,128,0,6342:0:0:0:0:
384,192,5668,128,0,6342:0:0:0:0:
435,192,6342,128,0,6954:0:0:0:0:
332,192,6954,128,0,7635:0:0:0:0:
76,192,7635,128,0,8253:0:0:0:0:
486,192,7635,128,0,9490:0:0:0:0:
76,192,9490,128,0,10142:0:0:0:0:
179,192,9490,128,0,10142:0:0:0:0:
435,192,10142,128,0,10687:0:0:0:0:
332,192,10687,128,0,11414:0:0:0:0:
128,192,11414,128,0,12173:0:0:0:0:
281,192,11414,128,0,12932:0:0:0:0:
25,192,12932,128,0,13711:0:0:0:0:
281,192,13711,128,0,14282:0:0:0:0:
128,192,13711,128,0,14282:0:0:0:0:
486,192,14282,128,0,14888:0:0:0:0:
384,192,14888,1,0,0:0:0:0:
384,192,15476,128,0,16107:0:0:0:0:
179,192,15476,128,0,16739:0:0:0:0:
281,192,16739,128,0,17508:0:0:0:0:
230,192,17508,128,0,21094:0:0:0:0:
435,192,17508,1,0,0:0:0:0:
76,192,19576,128,0,21094:0:0:0:0:
332,192,21854,128,0,22425:0:0:0:0:
128,192,21854,128,0,22425:0:0:0:0:
384,192,22425,128,0,22960:0:0:0:0:
179,192,22960,128,0,23472:0:0:0:0:
25,192,22960,128,0,23472:0:0:0:0:
230,192,23472,128,0,24017:0:0:0:0:
281,192,24017,128,0,24529:0:0:0:0:
332,192,24529,128,0,25055:0:0:0:0:
384,192,25055,128,0,25585:0:0:0:0:
179,192,25055,128,0,25585:0:0:0:0:
25,192,25585,128,0,26170:0:0:0:0:
486,192,26170,128,0,26915:0:0:0:0:
332,192,26915,128,0,28589:0:0:0:0:
76,192,26915,128,0,27473:0:0:0:0:
486,192,28589,128,0,29220:0:0:0:0:
230,192,28589,128,0,29220:0:0:0:0:
332,192,29220,128,0,29791:0:0:0:0:
25,192,29791,128,0,30496:0:0:0:0:
179,192,30496,128,0,31255:0:0:0:0:
281,192,30496,128,0,32014:0:0:0:0:
384,192,32014,1,0,0:0:0:0:
76,192,32835,1,0,0:0:0:0:
384,192,32835,128,0,33589:0:0:0:0:
435,192,33589,128,0,34344:0:0:0:0:
230,192,34344,128,0,35066:0:0:0:0:
179,192,35066,128,0,35808:0:0:0:0:
486,192,35808,128,0,36528:0:0:0:0:
384,192,36528,128,0,37410:0:0:0:0:
76,192,37410,128,0,38022:0:0:0:0:
230,192,38022,128,0,38744:0:0:0:0:
128,192,38744,128,0,39554:0:0:0:0:
25,192,39554,128,0,40276:0:0:0:0:
435,192,39554,128,0,40276:0:0:0:0:
281,192,40276,128,0,40981:0:0:0:0:
384,192,40981,128,0,41883:0:0:0:0:
486,192,41883,128,0,43748:0:0:0:0:
384,192,43748,128,0,45223:0:0:0:0:
281,192,45223,128,0,46307:0:0:0:0:
179,192,46307,128,0,47686:0:0:0:0:
128,192,47686,128,0,48990:0:0:0:0:
486,192,48990,128,0,55782:0:0:0:0:
25,192,48990,128,0,55782:0:0:0:0:
