osu file format v14

[General]
AudioFilename: audio.mp3
AudioLeadIn: 0
PreviewTime: 66250
Countdown: 0
SampleSet: Soft
StackLeniency: 0.7
Mode: 3
LetterboxInBreaks: 0
SpecialStyle: 0
WidescreenStoryboard: 1

[Editor]
DistanceSpacing: 0.7
BeatDivisor: 4
GridSize: 4
TimelineZoom: 2.1

[Metadata]
Title:Akasagarbha
TitleUnicode:Akasagarbha
Artist:wa. vs. ETIA.
ArtistUnicode:wa. vs. ETIA.
Creator:PORTTAYER
Version:Normal
Source:Mutual Faith
Tags:bms be music source hardcore J-core jcore instrumental electronic piano video game MUSYNX CHUNITHM NEW!! O.N.G.E.K.I. ONGEKI オンゲキ bright MEMORY SEGA multiverse Llkkm Lucky Clover
BeatmapID:4256822
BeatmapSetID:2040593

[Difficulty]
HPDrainRate:6.9
CircleSize:4
OverallDifficulty:6.9
ApproachRate:5
SliderMultiplier:1.4
SliderTickRate:1

[Events]
//Background and Video events
0,0,"BG.jpg",0,0
//Break Periods
//Storyboard Layer 0 (Background)
//Storyboard Layer 1 (Fail)
//Storyboard Layer 2 (Pass)
//Storyboard Layer 3 (Foreground)
//Storyboard Layer 4 (Overlay)
//Storyboard Sound Samples

[TimingPoints]
1250,312.5,4,2,1,30,1,0
86250,-100,4,2,1,30,0,1
106250,-100,4,2,1,30,0,0

[HitObjects]
448,192,1250,5,0,0:0:0:0:
64,192,2500,1,0,0:0:0:0:
448,192,2656,1,0,0:0:0:0:
320,192,2812,1,0,0:0:0:0:
192,192,2968,1,0,0:0:0:0:
64,192,3125,1,0,0:0:0:0:
448,192,3437,1,0,0:0:0:0:
320,192,3750,1,0,0:0:0:0:
192,192,4375,1,0,0:0:0:0:
64,192,4531,1,0,0:0:0:0:
448,192,4687,1,0,0:0:0:0:
320,192,4843,1,0,0:0:0:0:
192,192,5000,1,0,0:0:0:0:
448,192,5625,1,0,0:0:0:0:
192,192,5937,1,0,0:0:0:0:
320,192,6250,1,0,0:0:0:0:
448,192,6406,1,0,0:0:0:0:
64,192,6718,1,0,0:0:0:0:
192,192,7500,1,0,0:0:0:0:
64,192,7656,1,0,0:0:0:0:
320,192,7968,1,0,0:0:0:0:
64,192,8437,1,0,0:0:0:0:
448,192,8750,1,0,0:0:0:0:
192,192,9062,1,0,0:0:0:0:
320,192,9218,1,0,0:0:0:0:
64,192,10000,1,0,0:0:0:0:
192,192,10156,1,0,0:0:0:0:
448,192,10312,1,0,0:0:0:0:
320,192,10625,1,0,0:0:0:0:
448,192,10781,1,0,0:0:0:0:
192,192,10937,1,0,0:0:0:0:
448,192,11250,1,0,0:0:0:0:
64,192,11250,1,0,0:0:0:0:
192,192,11718,1,0,0:0:0:0:
320,192,11718,1,0,0:0:0:0:
64,192,12500,1,0,0:0:0:0:
192,192,12656,1,0,0:0:0:0:
320,192,12812,1,0,0:0:0:0:
448,192,12968,1,0,0:0:0:0:
64,192,13125,1,0,0:0:0:0:
320,192,13437,1,0,0:0:0:0:
192,192,13750,1,0,0:0:0:0:
448,192,14375,1,0,0:0:0:0:
64,192,14531,1,0,0:0:0:0:
320,192,14687,1,0,0:0:0:0:
448,192,14843,1,0,0:0:0:0:
64,192,15000,1,0,0:0:0:0:
192,192,15625,1,0,0:0:0:0:
448,192,16250,1,0,0:0:0:0:
320,192,16406,1,0,0:0:0:0:
192,192,16562,1,0,0:0:0:0:
448,192,16718,1,0,0:0:0:0:
64,192,17031,1,0,0:0:0:0:
320,192,17187,1,0,0:0:0:0:
192,192,17500,1,0,0:0:0:0:
64,192,17656,1,0,0:0:0:0:
448,192,17812,1,0,0:0:0:0:
320,192,17968,1,0,0:0:0:0:
64,192,18281,1,0,0:0:0:0:
448,192,18437,1,0,0:0:0:0:
192,192,18750,1,0,0:0:0:0:
64,192,18906,1,0,0:0:0:0:
448,192,19062,1,0,0:0:0:0:
320,192,19218,1,0,0:0:0:0:
192,192,19531,1,0,0:0:0:0:
448,192,19687,1,0,0:0:0:0:
64,192,20000,1,0,0:0:0:0:
192,192,20625,1,0,0:0:0:0:
320,192,20937,1,0,0:0:0:0:
448,192,21250,1,0,0:0:0:0:
64,192,21250,1,0,0:0:0:0:
320,192,21875,1,0,0:0:0:0:
448,192,22500,1,0,0:0:0:0:
64,192,22968,1,0,0:0:0:0:
192,192,23437,1,0,0:0:0:0:
448,192,23750,1,0,0:0:0:0:
320,192,23906,1,0,0:0:0:0:
192,192,24062,1,0,0:0:0:0:
64,192,24218,1,0,0:0:0:0:
448,192,24531,1,0,0:0:0:0:
192,192,24687,1,0,0:0:0:0:
320,192,24843,1,0,0:0:0:0:
64,192,25000,1,0,0:0:0:0:
448,192,25000,1,0,0:0:0:0:
64,192,25468,1,0,0:0:0:0:
448,192,25468,1,0,0:0:0:0:
320,192,25937,1,0,0:0:0:0:
192,192,25937,1,0,0:0:0:0:
64,192,26250,1,0,0:0:0:0:
448,192,26250,1,0,0:0:0:0:
448,192,26562,1,0,0:0:0:0:
320,192,26562,1,0,0:0:0:0:
192,192,26718,1,0,0:0:0:0:
64,192,26718,1,0,0:0:0:0:
320,192,26875,1,0,0:0:0:0:
64,192,27031,1,0,0:0:0:0:
320,192,27187,1,0,0:0:0:0:
192,192,27187,1,0,0:0:0:0:
448,192,27343,1,0,0:0:0:0:
64,192,27500,1,0,0:0:0:0:
192,192,27500,1,0,0:0:0:0:
64,192,27812,1,0,0:0:0:0:
192,192,27812,1,0,0:0:0:0:
448,192,27968,1,0,0:0:0:0:
320,192,27968,1,0,0:0:0:0:
192,192,28125,1,0,0:0:0:0:
448,192,28437,1,0,0:0:0:0:
64,192,28437,1,0,0:0:0:0:
320,192,28750,1,0,0:0:0:0:
448,192,28750,1,0,0:0:0:0:
320,192,29062,1,0,0:0:0:0:
448,192,29062,1,0,0:0:0:0:
64,192,29218,1,0,0:0:0:0:
192,192,29218,1,0,0:0:0:0:
320,192,29375,1,0,0:0:0:0:
448,192,29687,1,0,0:0:0:0:
64,192,29687,1,0,0:0:0:0:
320,192,29843,1,0,0:0:0:0:
192,192,30000,1,0,0:0:0:0:
64,192,30000,1,0,0:0:0:0:
192,192,30312,1,0,0:0:0:0:
320,192,30312,1,0,0:0:0:0:
64,192,30625,1,0,0:0:0:0:
448,192,30625,1,0,0:0:0:0:
64,192,30937,1,0,0:0:0:0:
320,192,30937,1,0,0:0:0:0:
192,192,31093,1,0,0:0:0:0:
320,192,31250,1,0,0:0:0:0:
448,192,31250,1,0,0:0:0:0:
64,192,31562,1,0,0:0:0:0:
192,192,31562,1,0,0:0:0:0:
448,192,31875,1,0,0:0:0:0:
192,192,32031,1,0,0:0:0:0:
448,192,32187,1,0,0:0:0:0:
320,192,32187,1,0,0:0:0:0:
64,192,32343,1,0,0:0:0:0:
192,192,32500,1,0,0:0:0:0:
320,192,32500,1,0,0:0:0:0:
192,192,32812,1,0,0:0:0:0:
64,192,32812,1,0,0:0:0:0:
448,192,32968,1,0,0:0:0:0:
64,192,33125,1,0,0:0:0:0:
320,192,33281,1,0,0:0:0:0:
448,192,33281,1,0,0:0:0:0:
64,192,33437,1,0,0:0:0:0:
192,192,33437,1,0,0:0:0:0:
448,192,33750,1,0,0:0:0:0:
192,192,33750,1,0,0:0:0:0:
448,192,34062,1,0,0:0:0:0:
320,192,34062,1,0,0:0:0:0:
64,192,34218,1,0,0:0:0:0:
192,192,34218,1,0,0:0:0:0:
320,192,34375,1,0,0:0:0:0:
320,192,34687,1,0,0:0:0:0:
192,192,34687,1,0,0:0:0:0:
64,192,35000,1,0,0:0:0:0:
448,192,35000,1,0,0:0:0:0:
64,192,35312,1,0,0:0:0:0:
192,192,35312,1,0,0:0:0:0:
320,192,35625,1,0,0:0:0:0:
448,192,35859,1,0,0:0:0:0:
64,192,35937,1,0,0:0:0:0:
192,192,36093,1,0,0:0:0:0:
448,192,36250,1,0,0:0:0:0:
320,192,36250,1,0,0:0:0:0:
448,192,36562,1,0,0:0:0:0:
320,192,36562,1,0,0:0:0:0:
192,192,36718,1,0,0:0:0:0:
64,192,36718,1,0,0:0:0:0:
64,192,37031,1,0,0:0:0:0:
320,192,37187,1,0,0:0:0:0:
192,192,37187,1,0,0:0:0:0:
448,192,37343,1,0,0:0:0:0:
64,192,37500,1,0,0:0:0:0:
192,192,37500,1,0,0:0:0:0:
64,192,37812,1,0,0:0:0:0:
192,192,37812,1,0,0:0:0:0:
448,192,37968,1,0,0:0:0:0:
320,192,37968,1,0,0:0:0:0:
192,192,38125,1,0,0:0:0:0:
448,192,38437,1,0,0:0:0:0:
64,192,38437,1,0,0:0:0:0:
320,192,38750,1,0,0:0:0:0:
448,192,38750,1,0,0:0:0:0:
320,192,39062,1,0,0:0:0:0:
448,192,39062,1,0,0:0:0:0:
192,192,39218,1,0,0:0:0:0:
64,192,39218,1,0,0:0:0:0:
320,192,39375,1,0,0:0:0:0:
448,192,39687,1,0,0:0:0:0:
64,192,39687,1,0,0:0:0:0:
320,192,39843,1,0,0:0:0:0:
192,192,40000,1,0,0:0:0:0:
64,192,40000,1,0,0:0:0:0:
192,192,40312,1,0,0:0:0:0:
320,192,40312,1,0,0:0:0:0:
64,192,40625,1,0,0:0:0:0:
448,192,40625,1,0,0:0:0:0:
64,192,40937,1,0,0:0:0:0:
320,192,40937,1,0,0:0:0:0:
192,192,41093,1,0,0:0:0:0:
320,192,41250,1,0,0:0:0:0:
448,192,41250,1,0,0:0:0:0:
64,192,41562,1,0,0:0:0:0:
192,192,41562,1,0,0:0:0:0:
448,192,41875,1,0,0:0:0:0:
192,192,41875,1,0,0:0:0:0:
448,192,42187,1,0,0:0:0:0:
64,192,42187,1,0,0:0:0:0:
64,192,42500,1,0,0:0:0:0:
320,192,42500,1,0,0:0:0:0:
64,192,42812,1,0,0:0:0:0:
192,192,42812,1,0,0:0:0:0:
448,192,42968,1,0,0:0:0:0:
320,192,42968,1,0,0:0:0:0:
192,192,43125,1,0,0:0:0:0:
192,192,43437,1,0,0:0:0:0:
320,192,43437,1,0,0:0:0:0:
448,192,43750,1,0,0:0:0:0:
64,192,43750,1,0,0:0:0:0:
448,192,44062,1,0,0:0:0:0:
320,192,44062,1,0,0:0:0:0:
192,192,44218,1,0,0:0:0:0:
64,192,44218,1,0,0:0:0:0:
64,192,44531,1,0,0:0:0:0:
320,192,44687,1,0,0:0:0:0:
192,192,44687,1,0,0:0:0:0:
448,192,44843,1,0,0:0:0:0:
64,192,45000,1,0,0:0:0:0:
192,192,45000,1,0,0:0:0:0:
64,192,45859,1,0,0:0:0:0:
448,192,45937,1,0,0:0:0:0:
192,192,46093,1,0,0:0:0:0:
64,192,46250,1,0,0:0:0:0:
448,192,46250,1,0,0:0:0:0:
320,192,46406,1,0,0:0:0:0:
192,192,46562,1,0,0:0:0:0:
64,192,46562,1,0,0:0:0:0:
448,192,46875,1,0,0:0:0:0:
64,192,47031,1,0,0:0:0:0:
192,192,47187,1,0,0:0:0:0:
320,192,47187,1,0,0:0:0:0:
64,192,47500,1,0,0:0:0:0:
192,192,47656,1,0,0:0:0:0:
320,192,47812,1,0,0:0:0:0:
448,192,47812,1,0,0:0:0:0:
192,192,48125,1,0,0:0:0:0:
320,192,48281,1,0,0:0:0:0:
64,192,48437,1,0,0:0:0:0:
448,192,48437,1,0,0:0:0:0:
320,192,48750,1,0,0:0:0:0:
448,192,48750,1,0,0:0:0:0:
64,192,48906,1,0,0:0:0:0:
192,192,49062,1,0,0:0:0:0:
448,192,49062,1,0,0:0:0:0:
320,192,49218,1,0,0:0:0:0:
64,192,49375,1,0,0:0:0:0:
448,192,49531,1,0,0:0:0:0:
192,192,49687,1,0,0:0:0:0:
64,192,49687,1,0,0:0:0:0:
320,192,49843,1,0,0:0:0:0:
192,192,50156,1,0,0:0:0:0:
320,192,50312,1,0,0:0:0:0:
64,192,50312,1,0,0:0:0:0:
448,192,50468,1,0,0:0:0:0:
192,192,50625,1,0,0:0:0:0:
64,192,50781,1,0,0:0:0:0:
320,192,50937,1,0,0:0:0:0:
448,192,50937,1,0,0:0:0:0:
192,192,51093,1,0,0:0:0:0:
448,192,51250,1,0,0:0:0:0:
192,192,51406,1,0,0:0:0:0:
64,192,51562,1,0,0:0:0:0:
320,192,51562,1,0,0:0:0:0:
192,192,51875,1,0,0:0:0:0:
320,192,52031,1,0,0:0:0:0:
448,192,52187,1,0,0:0:0:0:
64,192,52187,1,0,0:0:0:0:
320,192,52500,1,0,0:0:0:0:
64,192,52656,1,0,0:0:0:0:
192,192,52812,1,0,0:0:0:0:
448,192,52812,1,0,0:0:0:0:
64,192,53125,1,0,0:0:0:0:
448,192,53281,1,0,0:0:0:0:
192,192,53437,1,0,0:0:0:0:
320,192,53437,1,0,0:0:0:0:
448,192,53750,1,0,0:0:0:0:
64,192,53750,1,0,0:0:0:0:
320,192,53906,1,0,0:0:0:0:
192,192,54062,1,0,0:0:0:0:
64,192,54062,1,0,0:0:0:0:
448,192,54218,1,0,0:0:0:0:
192,192,54375,1,0,0:0:0:0:
320,192,54531,1,0,0:0:0:0:
448,192,54687,1,0,0:0:0:0:
64,192,54687,1,0,0:0:0:0:
192,192,54843,1,0,0:0:0:0:
320,192,55000,1,0,0:0:0:0:
64,192,55156,1,0,0:0:0:0:
320,192,55312,1,0,0:0:0:0:
448,192,55312,1,0,0:0:0:0:
192,192,55468,1,0,0:0:0:0:
448,192,55625,1,0,0:0:0:0:
64,192,55859,1,0,0:0:0:0:
448,192,55937,1,0,0:0:0:0:
320,192,56093,1,0,0:0:0:0:
192,192,56250,1,0,0:0:0:0:
64,192,56250,1,0,0:0:0:0:
320,192,56406,1,0,0:0:0:0:
448,192,56562,1,0,0:0:0:0:
64,192,56562,1,0,0:0:0:0:
320,192,56875,1,0,0:0:0:0:
192,192,57031,1,0,0:0:0:0:
64,192,57187,1,0,0:0:0:0:
448,192,57187,1,0,0:0:0:0:
192,192,57500,1,0,0:0:0:0:
320,192,57656,1,0,0:0:0:0:
64,192,57812,1,0,0:0:0:0:
448,192,57812,1,0,0:0:0:0:
320,192,58125,1,0,0:0:0:0:
448,192,58281,1,0,0:0:0:0:
192,192,58437,1,0,0:0:0:0:
64,192,58437,1,0,0:0:0:0:
448,192,58750,1,0,0:0:0:0:
320,192,58750,1,0,0:0:0:0:
64,192,58906,1,0,0:0:0:0:
192,192,59062,1,0,0:0:0:0:
320,192,59062,1,0,0:0:0:0:
448,192,59218,1,0,0:0:0:0:
64,192,59375,1,0,0:0:0:0:
192,192,59531,1,0,0:0:0:0:
320,192,59687,1,0,0:0:0:0:
448,192,59687,1,0,0:0:0:0:
64,192,59843,1,0,0:0:0:0:
192,192,60000,1,0,0:0:0:0:
448,192,60156,1,0,0:0:0:0:
320,192,60312,1,0,0:0:0:0:
192,192,60312,1,0,0:0:0:0:
64,192,60468,1,0,0:0:0:0:
448,192,60625,1,0,0:0:0:0:
320,192,60781,1,0,0:0:0:0:
192,192,60937,1,0,0:0:0:0:
64,192,60937,1,0,0:0:0:0:
448,192,61093,1,0,0:0:0:0:
320,192,61250,1,0,0:0:0:0:
192,192,61250,1,0,0:0:0:0:
64,192,61406,1,0,0:0:0:0:
320,192,61562,1,0,0:0:0:0:
448,192,61562,1,0,0:0:0:0:
192,192,61875,1,0,0:0:0:0:
320,192,62031,1,0,0:0:0:0:
64,192,62187,1,0,0:0:0:0:
448,192,62187,1,0,0:0:0:0:
320,192,62500,1,0,0:0:0:0:
192,192,62656,1,0,0:0:0:0:
448,192,62812,1,0,0:0:0:0:
64,192,62812,1,0,0:0:0:0:
192,192,63125,1,0,0:0:0:0:
448,192,63281,1,0,0:0:0:0:
320,192,63437,1,0,0:0:0:0:
64,192,63437,1,0,0:0:0:0:
448,192,63750,1,0,0:0:0:0:
192,192,63750,1,0,0:0:0:0:
320,192,63906,1,0,0:0:0:0:
192,192,64062,1,0,0:0:0:0:
64,192,64062,1,0,0:0:0:0:
320,192,64218,1,0,0:0:0:0:
448,192,64375,1,0,0:0:0:0:
64,192,64375,1,0,0:0:0:0:
192,192,64531,1,0,0:0:0:0:
320,192,64687,1,0,0:0:0:0:
448,192,64687,1,0,0:0:0:0:
192,192,64843,1,0,0:0:0:0:
64,192,65000,128,0,65312:0:0:0:0:
448,192,65000,1,0,0:0:0:0:
320,192,65312,128,0,65625:0:0:0:0:
192,192,65625,128,0,65937:0:0:0:0:
448,192,65937,128,0,66250:0:0:0:0:
64,192,66250,1,0,0:0:0:0:
192,192,66250,1,0,0:0:0:0:
320,192,66406,1,0,0:0:0:0:
448,192,66875,1,0,0:0:0:0:
192,192,67500,1,0,0:0:0:0:
448,192,67656,1,0,0:0:0:0:
320,192,67890,1,0,0:0:0:0:
192,192,68046,1,0,0:0:0:0:
64,192,68125,1,0,0:0:0:0:
320,192,68281,1,0,0:0:0:0:
448,192,68437,1,0,0:0:0:0:
192,192,68593,1,0,0:0:0:0:
320,192,68750,1,0,0:0:0:0:
64,192,69218,1,0,0:0:0:0:
192,192,69531,1,0,0:0:0:0:
448,192,69687,1,0,0:0:0:0:
320,192,69843,1,0,0:0:0:0:
192,192,69921,1,0,0:0:0:0:
64,192,70000,1,0,0:0:0:0:
192,192,70468,1,0,0:0:0:0:
448,192,70625,1,0,0:0:0:0:
320,192,70781,1,0,0:0:0:0:
64,192,70937,1,0,0:0:0:0:
192,192,71093,1,0,0:0:0:0:
320,192,71250,1,0,0:0:0:0:
192,192,71718,1,0,0:0:0:0:
64,192,72031,1,0,0:0:0:0:
448,192,72187,1,0,0:0:0:0:
320,192,72265,1,0,0:0:0:0:
192,192,72343,1,0,0:0:0:0:
64,192,72500,1,0,0:0:0:0:
320,192,72812,1,0,0:0:0:0:
192,192,73125,1,0,0:0:0:0:
320,192,73281,1,0,0:0:0:0:
448,192,73437,1,0,0:0:0:0:
64,192,73593,1,0,0:0:0:0:
320,192,73750,1,0,0:0:0:0:
192,192,74218,1,0,0:0:0:0:
64,192,74531,1,0,0:0:0:0:
320,192,74843,1,0,0:0:0:0:
448,192,75156,1,0,0:0:0:0:
64,192,75312,128,0,75937:0:0:0:0:
448,192,75937,1,0,0:0:0:0:
320,192,76093,1,0,0:0:0:0:
64,192,76250,1,0,0:0:0:0:
192,192,76250,1,0,0:0:0:0:
448,192,76406,1,0,0:0:0:0:
64,192,76562,1,0,0:0:0:0:
192,192,76640,1,0,0:0:0:0:
448,192,76718,1,0,0:0:0:0:
320,192,76718,1,0,0:0:0:0:
320,192,77031,1,0,0:0:0:0:
64,192,77187,1,0,0:0:0:0:
192,192,77343,1,0,0:0:0:0:
448,192,77500,1,0,0:0:0:0:
320,192,77578,1,0,0:0:0:0:
64,192,77656,1,0,0:0:0:0:
320,192,77812,1,0,0:0:0:0:
448,192,77968,1,0,0:0:0:0:
192,192,78125,1,0,0:0:0:0:
320,192,78281,1,0,0:0:0:0:
64,192,78437,1,0,0:0:0:0:
448,192,78593,1,0,0:0:0:0:
320,192,78671,1,0,0:0:0:0:
192,192,78750,1,0,0:0:0:0:
64,192,78750,1,0,0:0:0:0:
448,192,78906,1,0,0:0:0:0:
192,192,79062,1,0,0:0:0:0:
64,192,79218,1,0,0:0:0:0:
448,192,79375,1,0,0:0:0:0:
320,192,79453,1,0,0:0:0:0:
192,192,79531,1,0,0:0:0:0:
64,192,79687,1,0,0:0:0:0:
192,192,79765,1,0,0:0:0:0:
320,192,79843,1,0,0:0:0:0:
448,192,80000,1,0,0:0:0:0:
64,192,80000,1,0,0:0:0:0:
192,192,80208,1,0,0:0:0:0:
320,192,80416,1,0,0:0:0:0:
64,192,80625,1,0,0:0:0:0:
448,192,80625,1,0,0:0:0:0:
192,192,80833,1,0,0:0:0:0:
320,192,81041,1,0,0:0:0:0:
64,192,81250,1,0,0:0:0:0:
320,192,81406,1,0,0:0:0:0:
192,192,81484,1,0,0:0:0:0:
448,192,81562,1,0,0:0:0:0:
64,192,81562,1,0,0:0:0:0:
192,192,81718,1,0,0:0:0:0:
320,192,81875,1,0,0:0:0:0:
64,192,82031,1,0,0:0:0:0:
448,192,82031,1,0,0:0:0:0:
192,192,82187,1,0,0:0:0:0:
64,192,82265,1,0,0:0:0:0:
320,192,82343,1,0,0:0:0:0:
448,192,82343,1,0,0:0:0:0:
192,192,82500,1,0,0:0:0:0:
192,192,82812,1,0,0:0:0:0:
320,192,82812,1,0,0:0:0:0:
448,192,82968,1,0,0:0:0:0:
64,192,83125,1,0,0:0:0:0:
448,192,83281,1,0,0:0:0:0:
320,192,83281,1,0,0:0:0:0:
64,192,83593,1,0,0:0:0:0:
448,192,83593,1,0,0:0:0:0:
192,192,83750,1,0,0:0:0:0:
320,192,83750,1,0,0:0:0:0:
64,192,83906,128,0,84062:0:0:0:0:
448,192,84218,128,0,84375:0:0:0:0:
64,192,84375,1,0,0:0:0:0:
320,192,84453,1,0,0:0:0:0:
192,192,84531,1,0,0:0:0:0:
448,192,84687,1,0,0:0:0:0:
192,192,84765,1,0,0:0:0:0:
320,192,84843,1,0,0:0:0:0:
64,192,85000,1,0,0:0:0:0:
448,192,85000,1,0,0:0:0:0:
64,192,85937,1,0,0:0:0:0:
448,192,85937,1,0,0:0:0:0:
320,192,86250,1,0,0:0:0:0:
192,192,86250,1,0,0:0:0:0:
448,192,86406,1,0,0:0:0:0:
192,192,86562,1,0,0:0:0:0:
64,192,86562,1,0,0:0:0:0:
448,192,86718,1,0,0:0:0:0:
320,192,86875,1,0,0:0:0:0:
192,192,87031,1,0,0:0:0:0:
448,192,87187,1,0,0:0:0:0:
64,192,87187,1,0,0:0:0:0:
192,192,87265,1,0,0:0:0:0:
320,192,87343,1,0,0:0:0:0:
64,192,87500,1,0,0:0:0:0:
192,192,87656,1,0,0:0:0:0:
448,192,87812,1,0,0:0:0:0:
320,192,87812,1,0,0:0:0:0:
192,192,87968,1,0,0:0:0:0:
448,192,88125,1,0,0:0:0:0:
320,192,88281,1,0,0:0:0:0:
64,192,88437,1,0,0:0:0:0:
192,192,88437,1,0,0:0:0:0:
320,192,88515,1,0,0:0:0:0:
64,192,88593,1,0,0:0:0:0:
448,192,88750,1,0,0:0:0:0:
192,192,88906,1,0,0:0:0:0:
64,192,89062,1,0,0:0:0:0:
448,192,89062,1,0,0:0:0:0:
192,192,89218,1,0,0:0:0:0:
320,192,89375,1,0,0:0:0:0:
64,192,89531,1,0,0:0:0:0:
448,192,89687,1,0,0:0:0:0:
192,192,89687,1,0,0:0:0:0:
320,192,89765,1,0,0:0:0:0:
64,192,89843,1,0,0:0:0:0:
320,192,90000,1,0,0:0:0:0:
448,192,90234,1,0,0:0:0:0:
192,192,90312,1,0,0:0:0:0:
64,192,90312,1,0,0:0:0:0:
320,192,90468,1,0,0:0:0:0:
64,192,90625,1,0,0:0:0:0:
448,192,90859,1,0,0:0:0:0:
320,192,90937,1,0,0:0:0:0:
192,192,90937,1,0,0:0:0:0:
64,192,91093,1,0,0:0:0:0:
448,192,91250,1,0,0:0:0:0:
320,192,91406,1,0,0:0:0:0:
64,192,91562,1,0,0:0:0:0:
192,192,91562,1,0,0:0:0:0:
448,192,91718,1,0,0:0:0:0:
64,192,91875,1,0,0:0:0:0:
192,192,92031,1,0,0:0:0:0:
448,192,92187,1,0,0:0:0:0:
320,192,92187,1,0,0:0:0:0:
64,192,92265,1,0,0:0:0:0:
448,192,92343,1,0,0:0:0:0:
192,192,92500,1,0,0:0:0:0:
320,192,92734,1,0,0:0:0:0:
448,192,92812,1,0,0:0:0:0:
64,192,92812,1,0,0:0:0:0:
192,192,92968,1,0,0:0:0:0:
448,192,93125,1,0,0:0:0:0:
192,192,93359,1,0,0:0:0:0:
320,192,93437,1,0,0:0:0:0:
448,192,93437,1,0,0:0:0:0:
64,192,93593,1,0,0:0:0:0:
320,192,93750,1,0,0:0:0:0:
192,192,93828,1,0,0:0:0:0:
320,192,93906,1,0,0:0:0:0:
448,192,94062,1,0,0:0:0:0:
64,192,94062,1,0,0:0:0:0:
192,192,94218,1,0,0:0:0:0:
320,192,94296,1,0,0:0:0:0:
192,192,94375,1,0,0:0:0:0:
448,192,94531,1,0,0:0:0:0:
320,192,94687,1,0,0:0:0:0:
64,192,94687,1,0,0:0:0:0:
192,192,94843,1,0,0:0:0:0:
448,192,95000,1,0,0:0:0:0:
320,192,95078,1,0,0:0:0:0:
64,192,95156,1,0,0:0:0:0:
192,192,95312,1,0,0:0:0:0:
320,192,95312,1,0,0:0:0:0:
64,192,95390,1,0,0:0:0:0:
448,192,95468,1,0,0:0:0:0:
192,192,95625,1,0,0:0:0:0:
320,192,95859,1,0,0:0:0:0:
64,192,95937,1,0,0:0:0:0:
192,192,95937,1,0,0:0:0:0:
320,192,96093,1,0,0:0:0:0:
448,192,96250,1,0,0:0:0:0:
64,192,96250,1,0,0:0:0:0:
448,192,96562,1,0,0:0:0:0:
320,192,96640,1,0,0:0:0:0:
64,192,96718,1,0,0:0:0:0:
192,192,96718,1,0,0:0:0:0:
320,192,97187,1,0,0:0:0:0:
64,192,97343,1,0,0:0:0:0:
448,192,97421,1,0,0:0:0:0:
192,192,97500,1,0,0:0:0:0:
64,192,97656,1,0,0:0:0:0:
320,192,97812,1,0,0:0:0:0:
448,192,97812,1,0,0:0:0:0:
192,192,97890,1,0,0:0:0:0:
320,192,97968,1,0,0:0:0:0:
64,192,98125,1,0,0:0:0:0:
192,192,98281,1,0,0:0:0:0:
448,192,98437,1,0,0:0:0:0:
64,192,98437,1,0,0:0:0:0:
320,192,98593,1,0,0:0:0:0:
448,192,98750,1,0,0:0:0:0:
192,192,98906,1,0,0:0:0:0:
320,192,98984,1,0,0:0:0:0:
192,192,99062,1,0,0:0:0:0:
64,192,99062,1,0,0:0:0:0:
448,192,99218,1,0,0:0:0:0:
192,192,99375,1,0,0:0:0:0:
64,192,99453,1,0,0:0:0:0:
320,192,99531,1,0,0:0:0:0:
64,192,99687,1,0,0:0:0:0:
448,192,99687,1,0,0:0:0:0:
192,192,99765,1,0,0:0:0:0:
320,192,99843,1,0,0:0:0:0:
64,192,100000,1,0,0:0:0:0:
448,192,100078,1,0,0:0:0:0:
320,192,100156,1,0,0:0:0:0:
192,192,100312,1,0,0:0:0:0:
64,192,100312,1,0,0:0:0:0:
448,192,100468,1,0,0:0:0:0:
64,192,100546,1,0,0:0:0:0:
320,192,100625,1,0,0:0:0:0:
192,192,100859,1,0,0:0:0:0:
64,192,100937,1,0,0:0:0:0:
448,192,100937,1,0,0:0:0:0:
192,192,101093,1,0,0:0:0:0:
448,192,101250,1,0,0:0:0:0:
320,192,101250,1,0,0:0:0:0:
64,192,101484,1,0,0:0:0:0:
320,192,101562,1,0,0:0:0:0:
192,192,101718,1,0,0:0:0:0:
64,192,101875,1,0,0:0:0:0:
448,192,101875,1,0,0:0:0:0:
192,192,102109,1,0,0:0:0:0:
320,192,102109,1,0,0:0:0:0:
64,192,102343,1,0,0:0:0:0:
448,192,102343,1,0,0:0:0:0:
192,192,102500,1,0,0:0:0:0:
320,192,102500,1,0,0:0:0:0:
448,192,102734,1,0,0:0:0:0:
192,192,102812,1,0,0:0:0:0:
64,192,102968,1,0,0:0:0:0:
320,192,103125,1,0,0:0:0:0:
448,192,103281,1,0,0:0:0:0:
64,192,103281,1,0,0:0:0:0:
320,192,103593,1,0,0:0:0:0:
448,192,103593,1,0,0:0:0:0:
192,192,103750,1,0,0:0:0:0:
64,192,103750,1,0,0:0:0:0:
448,192,103906,1,0,0:0:0:0:
320,192,104062,1,0,0:0:0:0:
192,192,104218,1,0,0:0:0:0:
448,192,104375,1,0,0:0:0:0:
64,192,104375,128,0,104687:0:0:0:0:
320,192,104687,128,0,105000:0:0:0:0:
192,192,105000,1,0,0:0:0:0:
64,192,105000,1,0,0:0:0:0:
64,192,105312,1,0,0:0:0:0:
448,192,105312,1,0,0:0:0:0:
320,192,105625,1,0,0:0:0:0:
448,192,105625,1,0,0:0:0:0:
192,192,105859,1,0,0:0:0:0:
64,192,105859,1,0,0:0:0:0:
320,192,106093,1,0,0:0:0:0:
448,192,106093,1,0,0:0:0:0:
192,192,106250,1,0,0:0:0:0:
64,192,106250,1,0,0:0:0:0:
320,192,106875,1,0,0:0:0:0:
448,192,107500,1,0,0:0:0:0:
64,192,107968,1,0,0:0:0:0:
192,192,108437,1,0,0:0:0:0:
448,192,108750,1,0,0:0:0:0:
320,192,108906,1,0,0:0:0:0:
192,192,109062,1,0,0:0:0:0:
64,192,109218,1,0,0:0:0:0:
448,192,109531,1,0,0:0:0:0:
192,192,109687,1,0,0:0:0:0:
320,192,109843,1,0,0:0:0:0:
64,192,110000,1,0,0:0:0:0:
448,192,110000,1,0,0:0:0:0:
64,192,110468,1,0,0:0:0:0:
448,192,110468,1,0,0:0:0:0:
192,192,110937,1,0,0:0:0:0:
