osu file format v14

[General]
AudioFilename: audio.mp3
AudioLeadIn: 0
PreviewTime: 57949
Countdown: 0
SampleSet: Soft
StackLeniency: 0.5
Mode: 0
LetterboxInBreaks: 0
WidescreenStoryboard: 1

[Editor]
Bookmarks: 29835,80577,83320,86063,88806,91549,92920,94292,94977,95663,96349,97035,98406,99777,100463,101149,101835,102863,102885,102906,102927,102949,102970,102992,103013,103035
DistanceSpacing: 1.2
BeatDivisor: 4
GridSize: 32
TimelineZoom: 2.2

[Metadata]
Title:Gin no Kaze
TitleUnicode:銀の風
Artist:wa. remixed celas
ArtistUnicode:wa. remixed celas
Creator:Luscent
Version:_todestrieb's Hyper
Source:
Tags:Silver Wind firika yokespai yokes bbj 0920 bbj0920 _todestrieb todestrieb
BeatmapID:2104247
BeatmapSetID:931715

[Difficulty]
HPDrainRate:5
CircleSize:4
OverallDifficulty:7
ApproachRate:8.3
SliderMultiplier:1.6
SliderTickRate:1

[Events]
//Background and Video events
0,0,"bg.jpg",0,0
//Break Periods
2,35863,40429
//Storyboard Layer 0 (Background)
//Storyboard Layer 1 (Fail)
//Storyboard Layer 2 (Pass)
//Storyboard Layer 3 (Foreground)
//Storyboard Layer 4 (Overlay)
//Storyboard Sound Samples

[TimingPoints]
1378,342.857142857143,4,2,0,15,1,0
2406,-100,4,2,0,64,0,0
2749,-100,4,2,1,64,0,0
28549,-100,4,2,1,78,0,0
28806,-100,4,2,1,64,0,0
29578,-100,4,2,1,74,0,0
29835,-100,4,2,1,64,0,0
29920,-100,4,2,1,87,0,0
41149,-133.333333333333,4,2,1,50,0,0
45949,-100,4,2,1,50,0,0
46635,-100,4,2,1,80,0,0
56749,-100,4,2,1,80,0,0
57949,-100,4,2,1,40,0,0
58635,342.857142857143,4,2,1,80,1,0
58635,-100,4,2,1,80,0,0
79206,-133.333333333333,4,2,1,80,0,0
80235,-83.3333333333333,4,2,1,80,0,0
80577,-83.3333333333333,4,2,1,80,0,1
94977,-83.3333333333333,4,2,1,80,0,1
95663,-83.3333333333333,4,2,1,80,0,1
102520,-83.3333333333333,4,2,1,80,0,0
102863,-74.0740740740741,4,2,1,80,0,1
102949,-74.0740740740741,4,2,0,5,0,1
103035,-100,4,2,0,80,0,0
103205,-100,4,2,1,80,0,0

[Colours]
Combo1 : 222,223,219
Combo2 : 50,211,235
Combo3 : 18,124,255
Combo4 : 157,220,240
Combo5 : 103,132,233

[HitObjects]
256,192,1378,12,0,2406,0:0:0:0:
438,322,2749,5,2,0:2:0:0:
438,322,3092,2,0,L|359:315,1,80,0|0,1:2|0:0,0:0:0:0:
273,306,3435,6,0,P|251:275|249:232,1,80,2|2,0:2|0:2,0:2:0:0:
313,181,3778,1,2,1:2:0:0:
313,181,3949,1,2,0:2:0:0:
391,214,4120,6,0,P|447:226|540:188,1,160,2|0,0:2|1:2,0:0:0:0:
450,47,4806,2,0,P|408:103|472:116,1,160,2|0,0:2|1:2,0:2:0:0:
312,52,5492,2,0,P|313:132|364:197,1,160,2|0,0:2|1:2,0:0:0:0:
267,333,6178,6,0,P|224:318|180:323,1,80,2|2,0:2|0:2,0:2:0:0:
128,375,6520,1,2,1:2:0:0:
128,375,6692,1,2,0:2:0:0:
43,361,6863,2,0,P|-3:301|1:212,1,160,2|0,0:2|1:2,0:0:0:0:
165,174,7549,6,0,L|173:90,1,80,2|2,0:2|0:2,0:0:0:0:
56,59,7892,2,0,L|63:138,1,80,2|2,1:2|0:2,0:0:0:0:
148,193,8235,2,0,P|193:166|300:179,1,160,2|0,0:2|1:2,0:2:0:0:
391,314,8920,5,2,0:2:0:0:
422,150,9263,1,2,1:2:0:0:
233,369,9606,5,2,0:2:0:0:
391,314,9949,1,2,1:2:0:0:
422,150,10292,1,2,0:2:0:0:
264,205,10635,1,2,1:2:0:0:
391,314,10978,6,0,P|471:276|477:202,1,160,2|0,0:2|1:2,0:2:0:0:
422,150,11492,2,0,L|242:117,1,160,2|0,0:2|0:2,0:2:0:0:
209,186,12006,1,2,1:2:0:0:
15,223,12349,6,0,L|138:213,2,120,2|2|2,1:2|1:2|1:2,0:0:0:0:
142,290,13035,5,2,0:2:0:0:
134,295,13120,2,0,P|125:255|141:216,1,80,2|0,0:2|0:2,0:2:0:0:
199,172,13378,2,0,B|260:163|260:163|234:154,1,80,2|2,0:2|0:2,0:0:0:0:
18,65,13720,6,0,L|150:75,1,120,6|0,0:2|0:0,0:2:0:0:
150,75,14063,1,0,1:2:0:0:
293,156,14235,1,0,0:2:0:0:
214,190,14406,2,0,P|207:146|226:101,1,80,2|2,0:2|0:2,0:0:0:0:
282,55,14749,2,0,L|369:70,1,80,2|2,1:2|0:2,0:2:0:0:
511,134,15092,6,0,L|481:294,1,160,2|0,0:2|1:2,0:2:0:0:
418,350,15606,1,0,0:2:0:0:
418,350,15778,2,0,P|364:281|371:206,1,160,2|0,0:2|1:2,0:2:0:0:
373,208,16463,6,0,P|311:245|223:229,1,160,2|0,0:2|1:2,0:2:0:0:
158,179,16978,1,0,0:2:0:0:
158,179,17149,2,0,P|165:140|154:101,1,80,2|2,0:2|0:2,0:0:0:0:
89,44,17492,2,0,L|10:57,1,80,2|2,1:2|0:2,0:2:0:0:
84,217,17835,2,0,L|241:189,1,160,2|0,0:2|1:2,0:0:0:0:
489,46,18520,6,0,P|449:43|413:57,1,80,2|2,0:2|0:2,0:0:0:0:
317,127,18863,2,0,L|329:38,1,80,2|2,1:2|0:2,0:0:0:0:
413,163,19206,2,0,P|358:222|270:220,1,160,2|0,0:2|1:2,0:2:0:0:
80,85,19892,2,0,L|62:179,1,80,2|0,0:2|0:2,0:2:0:0:
94,246,20235,2,0,P|139:261|191:255,1,80,2|0,1:2|0:2,0:0:0:0:
313,202,20578,6,0,L|331:296,1,80,2|0,0:2|0:2,0:2:0:0:
289,369,20920,2,0,L|329:282,1,80,2|0,1:2|0:2,0:0:0:0:
406,248,21263,2,0,L|322:294,1,80,2|0,0:2|0:2,0:2:0:0:
240,277,21606,1,2,1:2:0:0:
481,150,21949,6,0,P|453:81|354:73,1,160,2|0,0:2|1:2,0:2:0:0:
393,151,22463,2,0,L|227:161,1,160,2|0,0:2|0:2,0:2:0:0:
167,103,22978,1,2,1:2:0:0:
24,303,23320,6,0,P|71:301|103:281,1,80,2|0,0:2|0:2,0:2:0:0:
140,195,23663,2,0,P|118:236|119:274,1,80,2|0,1:2|0:2,0:0:0:0:
191,343,24006,6,0,L|284:336,1,80,2|0,0:2|0:2,0:2:0:0:
397,240,24349,5,2,1:2:0:0:
499,292,24520,1,2,0:2:0:0:
379,329,24692,6,0,L|369:194,1,120,4|0,0:2|0:0,0:0:0:0:
369,199,25035,1,0,1:2:0:0:
423,34,25206,1,0,0:2:0:0:
492,90,25378,2,0,P|457:116|416:121,1,80,2|2,0:2|0:2,0:2:0:0:
348,77,25720,2,0,L|247:107,1,80,2|2,1:2|0:2,0:2:0:0:
171,189,26063,6,0,L|202:27,1,160,2|0,0:2|1:2,0:0:0:0:
140,94,26578,1,0,0:2:0:0:
140,94,26749,2,0,P|80:99|5:38,1,160,2|0,0:2|1:2,0:0:0:0:
107,271,27435,5,2,0:2:0:0:
107,271,27520,2,0,L|196:285,1,80
246,338,27778,2,0,B|229:304|229:304|235:263,1,80,0|0,1:2|0:2,0:2:0:0:
249,172,28120,6,0,L|255:132,3,40,2|0|2|2,0:2|0:0|0:2|0:2,0:2:0:0:
202,230,28463,2,0,L|164:244,3,40,2|2|2|2,1:2|0:2|0:2|0:2,0:0:0:0:
275,241,28806,5,2,0:2:0:0:
275,241,28892,2,0,L|336:296,1,80
370,362,29149,2,0,B|368:323|368:323|387:286,1,80,0|0,1:2|0:2,0:0:0:0:
435,208,29492,6,0,L|456:170,3,40,2|0|2|2,0:2|0:2|0:2|0:2,0:0:0:0:
489,298,29835,2,0,L|511:335,3,40,2|2|2|2,1:2|0:2|0:2|0:2,0:0:0:0:
429,201,30178,6,0,L|244:222,1,160,2|0,0:2|1:2,0:0:0:0:
270,219,30863,2,0,P|273:179|258:143,1,80,2|0,0:2|0:2,0:0:0:0:
163,76,31206,2,0,L|175:163,1,80,2|0,1:2|0:2,0:0:0:0:
196,287,31549,6,0,P|162:306|121:304,1,80,2|0,0:2|0:2,0:0:0:0:
32,326,31892,2,0,P|9:294|7:253,1,80,2|0,1:2|0:2,0:0:0:0:
60,179,32235,2,0,L|153:191,1,80,2|0,0:2|0:2,0:0:0:0:
123,98,32578,2,0,L|43:108,1,80,2|0,1:2|0:2,0:0:0:0:
226,124,32920,5,6,0:2:0:0:
226,124,33006,2,0,L|236:44,1,80
152,19,33263,2,0,B|190:32|190:32|229:28,1,80,0|2,1:2|0:2,0:0:0:0:
319,54,33606,6,0,L|365:67,3,40,0|0|0|0,0:2|0:0|0:2|0:0,0:0:0:0:
430,87,33949,2,0,L|458:59,3,40,2|0|2|2,1:2|0:0|0:2|0:2,0:0:0:0:
509,4,34292,5,2,0:2:0:0:
509,4,34378,2,0,L|441:78,1,80,0|2,0:0|0:2,0:0:0:0:
485,151,34635,2,0,B|488:111|488:111|473:73,1,80,0|0,0:2|0:2,0:2:0:0:
347,192,34978,6,0,L|340:241,3,40,2|2|0|0,0:2|0:2|0:2|0:2,0:0:0:0:
293,292,35320,1,2,0:2:0:0:
282,283,35406,1,0,0:2:0:0:
274,272,35492,2,0,L|223:264,1,40,2|2,0:2|0:2,0:0:0:0:
152,254,35663,5,6,0:2:0:0:
454,261,41149,6,0,L|445:320,1,60.0000022888184,0|2,0:2|0:2,0:2:0:0:
377,351,41492,1,0,1:2:0:0:
377,351,41578,2,0,P|334:355|297:327,1,90.0000034332277,2|0,0:2|0:2,0:0:0:0:
303,254,42006,1,0,0:2:0:0:
386,187,42178,2,0,L|377:246,1,60.0000022888184,0|0,1:2|0:2,0:0:0:0:
215,23,42691,5,2,0:2:0:0:
145,53,42863,1,0,1:2:0:0:
145,53,42949,2,0,L|138:127,1,60.0000022888184,2|2,0:2|0:2,0:0:0:0:
133,183,43206,2,0,B|115:193|115:193|72:189,1,60.0000022888184,0|0,0:2|0:2,0:0:0:0:
5,91,43549,2,0,L|12:165,1,60.0000022888184,0|0,1:2|0:2,0:0:0:0:
238,250,44063,5,2,0:2:0:0:
184,304,44235,1,0,1:2:0:0:
184,304,44320,2,0,P|140:296|102:318,1,90.0000034332277,2|0,0:2|0:2,0:0:0:0:
57,379,44749,1,0,0:2:0:0:
3,274,44920,2,0,L|-3:334,1,60.0000022888184,0|0,1:2|0:2,0:0:0:0:
245,179,45435,5,2,0:2:0:0:
293,120,45606,1,0,1:2:0:0:
293,120,45692,2,0,L|363:112,1,60.0000022888184,2|2,0:2|0:2,0:0:0:0:
427,106,45949,6,0,L|408:212,1,80,0|2,0:2|0:2,0:0:0:0:
482,204,46206,2,0,L|501:310,1,80,2|0,0:2|0:0,0:0:0:0:
485,353,46463,1,2,0:2:0:0:
344,274,46635,6,0,P|304:268|266:285,1,80,6|0,0:2|0:2,0:2:0:0:
260,292,46892,1,0,0:0:0:0:
260,292,46978,1,2,1:2:0:0:
319,362,47149,2,0,L|187:340,1,120,0|0,0:2|0:0,0:0:0:0:
188,340,47492,1,2,0:2:0:0:
100,251,47663,2,0,L|119:366,1,80,2|2,1:2|0:2,0:0:0:0:
0,372,48006,6,0,L|13:293,1,80,2|2,0:2|0:2,0:2:0:0:
16,281,48263,1,0,0:0:0:0:
16,281,48349,1,2,1:2:0:0:
105,263,48520,2,0,L|128:144,1,120,0|0,0:2|0:0,0:0:0:0:
131,133,48863,1,2,0:2:0:0:
11,92,49035,2,0,P|44:70|88:71,1,80,2|2,1:2|0:2,0:0:0:0:
153,130,49378,6,0,L|235:122,1,80,2|2,0:2|0:2,0:2:0:0:
246,120,49635,1,0,0:0:0:0:
246,120,49720,1,2,1:2:0:0:
219,32,49892,2,0,L|355:72,1,120,0|0,0:2|0:0,0:0:0:0:
347,69,50235,1,2,0:2:0:0:
311,202,50406,2,0,L|395:122,1,80,2|2,1:2|0:2,0:0:0:0:
440,88,50749,5,2,0:2:0:0:
419,0,50920,1,2,0:2:0:0:
419,0,51006,1,0,0:0:0:0:
419,0,51092,2,0,P|464:0|504:26,1,80,2|0,1:2|0:0,0:0:0:0:
463,176,51435,6,0,L|347:187,1,80,2|2,0:2|0:2,0:0:0:0:
341,240,51692,2,0,L|225:229,1,80,2|0,0:2|0:0,0:0:0:0:
197,204,51949,1,2,0:2:0:0:
256,51,52120,5,6,1:2:0:0:
395,358,52463,1,2,0:2:0:0:
493,305,52635,2,0,L|467:188,1,120,0|0,0:2|0:0,0:0:0:0:
463,170,52978,1,2,0:2:0:0:
354,133,53149,2,0,L|371:212,1,80,2|2,0:2|0:2,0:0:0:0:
256,51,53492,5,4,1:2:0:0:
117,358,53835,1,2,0:2:0:0:
19,305,54007,2,0,L|45:188,1,120,2|0,0:2|0:0,0:0:0:0:
49,170,54350,1,2,0:2:0:0:
158,133,54521,2,0,L|141:212,1,80,2|2,0:2|0:2,0:0:0:0:
256,51,54863,5,4,1:2:0:0:
402,87,55035,2,0,P|395:131|369:155,1,80,2|0,0:2|0:2,0:0:0:0:
300,177,55292,2,0,P|261:175|231:149,1,80
256,77,55549,5,4,1:2:0:0:
110,113,55720,1,2,0:2:0:0:
163,13,55892,1,0,0:2:0:0:
479,51,56149,1,0,0:0:0:0:
479,51,56235,5,4,1:2:0:0:
436,146,56406,1,2,1:2:0:0:
393,241,56578,1,0,1:2:0:0:
250,179,56749,2,0,L|218:175,2,20,0|0|0,1:2|1:2|1:2,1:2:0:0:
261,191,56920,6,0,L|180:179,1,80,0|0,0:2|1:2,0:0:0:0:
147,110,57178,2,0,L|66:122,1,80,0|0,1:2|1:2,0:0:0:0:
2,157,57435,1,0,1:2:0:0:
2,157,57520,1,0,1:2:0:0:
2,157,57606,1,0,0:2:0:0:
19,72,57949,6,0,L|28:31,3,40,2|2|2|2,2:2|2:2|2:2|2:2,0:0:0:0:
17,80,58292,2,0,L|8:121,3,40,2|2|2|2,2:2|2:2|2:2|2:2,0:0:0:0:
79,139,58635,6,0,L|164:130,1,80,6|0,0:2|0:2,0:2:0:0:
174,118,58892,1,0,0:2:0:0:
189,105,58977,1,2,1:2:0:0:
320,140,59149,2,0,P|313:207|256:161,1,160,2|0,0:2|0:2,0:0:0:0:
308,122,59577,1,0,0:2:0:0:
308,122,59663,2,0,L|393:131,1,80,0|0,1:2|0:2,0:2:0:0:
493,59,60006,6,0,P|511:94|516:133,1,80,0|2,0:2|0:2,0:2:0:0:
509,152,60263,1,0,0:2:0:0:
502,170,60349,1,0,1:2:0:0:
393,250,60520,2,0,P|342:209|408:179,1,160,2|2,0:2|0:2,0:2:0:0:
413,255,60949,1,0,0:2:0:0:
413,255,61035,2,0,P|384:280|364:320,1,80,2|2,1:2|0:2,0:2:0:0:
248,370,61377,5,2,0:2:0:0:
149,323,61549,1,2,0:2:0:0:
135,215,61720,1,2,1:2:0:0:
234,262,61892,6,0,L|59:276,1,160,2|0,0:2|0:2,0:0:0:0:
0,336,62406,1,0,1:2:0:0:
52,256,62577,6,0,L|60:173,1,80,0|0,0:2|0:2,0:0:0:0:
137,118,62920,2,0,P|157:154|146:212,1,80,2|0,0:2|1:2,0:0:0:0:
248,234,63263,1,2,0:2:0:0:
248,234,63435,6,0,L|353:219,1,80,2|0,0:2|0:2,0:2:0:0:
415,263,63777,2,0,L|474:174,1,80,2|0,1:2|0:2,0:2:0:0:
446,47,64120,6,0,B|400:41|376:76|376:76|349:110|304:101,1,160,2|2,0:2|1:2,0:2:0:0:
222,6,64635,2,0,L|231:111,1,80,2|0,0:2|0:2,0:0:0:0:
165,198,64977,2,0,L|156:93,1,80,2|0,0:2|1:2,0:0:0:0:
78,65,65320,6,0,P|25:89|13:183,1,160,2|2,0:2|0:2,0:0:0:0:
114,261,65835,1,2,1:2:0:0:
238,238,66006,2,0,L|230:325,2,80,2|0|2,0:2|1:2|0:0,0:0:0:0:
354,277,66520,2,0,L|346:197,1,80,0|2,0:2|0:2,0:0:0:0:
409,348,66863,1,0,0:0:0:0:
409,348,67035,6,0,P|479:344|512:268,1,160,2|2,0:2|0:2,0:0:0:0:
442,207,67549,2,0,P|447:168|472:124,1,80,2|2,0:2|0:2,0:2:0:0:
395,73,67892,1,0,1:2:0:0:
395,73,68235,6,0,L|303:88,1,80,2|0,1:2|0:2,0:2:0:0:
117,73,68577,2,0,L|209:88,1,80,2|0,1:2|0:2,0:2:0:0:
256,192,68920,5,2,1:2:0:0:
241,217,69006,2,0,L|241:304,1,80,0|0,0:2|1:2,0:0:0:0:
271,297,69263,2,0,L|271:217,1,80,2|0,1:2|1:2,0:2:0:0:
110,247,69606,6,0,P|91:283|93:336,1,80,6|0,0:2|0:2,0:0:0:0:
98,338,69863,1,0,0:2:0:0:
107,354,69949,1,2,1:2:0:0:
253,345,70120,2,0,P|255:281|189:318,1,160,2|0,0:2|0:2,0:0:0:0:
244,366,70549,1,0,0:2:0:0:
244,366,70635,2,0,P|276:348|320:345,1,80,0|0,1:2|0:2,0:2:0:0:
419,381,70977,6,0,L|405:299,1,80,0|2,0:2|0:2,0:2:0:0:
402,285,71235,1,0,0:2:0:0:
399,268,71320,1,0,1:2:0:0:
310,176,71492,2,0,P|252:222|316:242,1,160,2|2,0:2|0:2,0:0:0:0:
332,179,71920,1,0,0:2:0:0:
332,179,72006,2,0,P|301:155|283:119,1,80,2|0,1:2|0:2,0:2:0:0:
185,22,72349,5,2,0:2:0:0:
107,98,72520,1,2,0:2:0:0:
0,81,72692,1,2,1:2:0:0:
78,5,72863,6,0,L|66:201,1,160,2|2,0:2|0:2,0:2:0:0:
17,248,73377,1,0,1:2:0:0:
90,184,73549,6,0,P|129:177|173:192,1,80,2|0,0:2|0:2,0:2:0:0:
237,261,73892,2,0,L|152:271,1,80,2|0,0:2|1:2,0:0:0:0:
186,368,74235,5,2,0:2:0:0:
186,368,74406,2,0,L|265:358,1,80,2|2,0:2|0:2,0:2:0:0:
334,290,74749,2,0,L|413:299,1,80,2|0,1:2|0:2,0:2:0:0:
512,193,75092,6,0,P|446:158|358:167,1,160,2|2,0:2|1:2,0:2:0:0:
233,230,75606,2,0,P|274:232|310:216,1,80,2|0,0:2|0:2,0:2:0:0:
370,77,75949,2,0,P|347:111|343:150,1,80,2|0,0:2|1:2,0:0:0:0:
403,258,76292,1,2,0:2:0:0:
403,258,76463,6,0,L|237:242,1,160,2|2,0:2|1:2,0:2:0:0:
104,309,76977,2,0,P|72:237|84:156,1,160,2|2,0:2|0:2,0:0:0:0:
207,96,77492,1,2,1:2:0:0:
207,96,77663,2,0,P|221:134|220:174,1,80,0|0,0:2|0:2,0:0:0:0:
126,62,78006,5,2,0:2:0:0:
235,57,78177,1,2,1:2:0:0:
344,52,78349,6,0,L|356:214,1,160,2|0,0:2|0:2,0:2:0:0:
355,211,78863,1,2,1:2:0:0:
500,374,79206,6,0,B|474:384|474:384|417:356|417:356|389:368,1,120.000004577637,2|2,1:2|1:2,0:2:0:0:
390,367,79892,2,0,L|397:323,3,30.0000011444092,2|0|2|0,1:2|0:2|1:2|0:2,0:2:0:0:
319,317,80235,2,0,L|311:371,3,47.9999985351563,2|0|2|0,1:2|0:2|1:2|0:2,0:2:0:0:
242,294,80577,6,0,P|198:279|168:240,1,95.9999970703126,6|0,1:2|0:2,0:2:0:0:
187,210,80835,2,0,P|154:267|85:300,1,143.999995605469,0|0,1:2|0:2,0:0:0:0:
4,165,81263,6,0,L|105:175,1,95.9999970703126,0|0,0:2|1:2,0:2:0:0:
133,109,81520,1,0,0:2:0:0:
133,109,81606,2,0,L|238:99,1,95.9999970703126,0|0,1:2|0:2,0:2:0:0:
371,130,81949,6,0,P|378:81|359:34,1,95.9999970703126,2|0,1:2|0:2,0:0:0:0:
327,35,82206,2,0,P|383:52|463:20,1,143.999995605469,0|0,1:2|0:2,0:0:0:0:
380,142,82635,6,0,P|333:151|285:134,1,95.9999970703126,2|0,0:2|1:2,0:0:0:0:
239,83,82892,1,0,0:2:0:0:
239,83,82977,2,0,L|228:201,1,95.9999970703126,0|0,1:2|0:2,0:2:0:0:
281,305,83320,6,0,P|322:288|352:245,1,95.9999970703126,2|0,1:2|0:2,0:2:0:0:
324,224,83577,2,0,P|376:268|451:271,1,143.999995605469,0|0,1:2|0:2,0:0:0:0:
512,155,84006,6,0,L|417:170,1,95.9999970703126,0|0,0:2|1:2,0:2:0:0:
354,133,84263,1,0,0:2:0:0:
354,133,84349,1,0,1:2:0:0:
295,24,84520,1,0,0:2:0:0:
172,4,84692,6,0,P|125:23|98:63,1,95.9999970703126,2|0,1:2|0:2,0:0:0:0:
37,97,84949,2,0,P|84:116|111:156,1,95.9999970703126,0|0,1:2|0:2,0:0:0:0:
120,187,85206,1,0,1:2:0:0:
17,205,85377,5,2,1:2:0:0:
17,205,85463,2,0,L|2:308,1,95.9999970703126,0|0,1:2|0:2,0:0:0:0:
52,356,85720,2,0,L|155:341,1,95.9999970703126,0|0,1:2|0:2,0:0:0:0:
208,226,86063,6,0,P|244:252|270:297,1,95.9999970703126,2|0,1:2|0:2,0:2:0:0:
250,325,86320,2,0,P|281:275|363:254,1,143.999995605469,0|0,1:2|0:2,0:0:0:0:
482,303,86749,6,0,L|493:207,1,95.9999970703126,0|0,0:2|1:2,0:2:0:0:
457,145,87006,1,0,0:2:0:0:
457,145,87092,2,0,P|401:149|354:127,1,95.9999970703126,0|0,1:2|0:2,0:2:0:0:
278,32,87435,6,0,P|243:73|230:115,1,95.9999970703126,2|0,1:2|0:2,0:2:0:0:
256,137,87692,2,0,P|209:91|129:87,1,143.999995605469,0|0,1:2|0:2,0:0:0:0:
0,153,88120,6,0,L|13:55,1,95.9999970703126,2|0,0:2|1:2,0:2:0:0:
88,29,88377,1,0,0:2:0:0:
88,29,88463,2,0,L|74:132,1,95.9999970703126,0|0,1:2|0:2,0:2:0:0:
108,256,88806,6,0,P|157:236|190:194,1,95.9999970703126,2|0,1:2|0:2,0:2:0:0:
164,176,89063,2,0,P|205:234|299:238,1,143.999995605469,0|0,1:2|0:2,0:0:0:0:
380,164,89492,6,0,L|387:270,1,95.9999970703126,0|0,0:2|1:2,0:2:0:0:
428,323,89749,1,0,0:2:0:0:
428,323,89835,1,0,1:2:0:0:
503,217,90006,1,0,0:2:0:0:
461,94,90177,6,0,P|418:64|375:59,1,95.9999970703126,2|0,1:2|0:2,0:0:0:0:
306,97,90435,2,0,L|198:90,1,95.9999970703126,0|0,1:2|0:2,0:0:0:0:
138,85,90692,2,0,L|133:36,2,47.9999985351563,0|0|2,1:2|0:2|1:2,0:0:0:0:
112,218,91035,1,0,1:2:0:0:
47,99,91206,2,0,L|38:3,1,95.9999970703126,0|0,1:2|0:2,0:0:0:0:
167,145,91549,6,0,P|141:187|90:215,1,95.9999970703126,6|0,1:2|0:2,0:2:0:0:
72,191,91806,2,0,P|122:217|138:311,1,143.999995605469,0|0,1:2|0:2,0:0:0:0:
24,362,92235,2,0,L|122:383,1,95.9999970703126,0|0,0:2|1:2,0:2:0:0:
188,359,92492,1,0,0:2:0:0:
188,359,92577,2,0,P|215:320|213:262,1,95.9999970703126,0|0,1:2|0:2,0:2:0:0:
185,141,92920,6,0,P|235:139|279:153,1,95.9999970703126,2|0,1:2|0:2,0:2:0:0:
282,188,93177,2,0,P|272:130|334:61,1,143.999995605469,0|0,1:2|0:2,0:0:0:0:
442,130,93606,2,0,L|453:32,1,95.9999970703126,2|0,0:2|1:2,0:2:0:0:
381,25,93863,1,0,0:2:0:0:
381,25,93949,2,0,L|370:120,1,95.9999970703126,0|0,1:2|0:2,0:2:0:0:
439,249,94292,6,0,P|405:219|354:209,1,95.9999970703126,2|0,1:2|0:2,0:2:0:0:
338,215,94549,1,0,1:2:0:0:
321,223,94635,2,0,P|274:213|238:182,1,95.9999970703126,0|0,0:0|1:2,0:0:0:0:
120,93,94977,6,0,L|216:85,1,95.9999970703126,2|0,1:2|0:2,0:2:0:0:
242,70,95235,1,0,1:2:0:0:
268,54,95320,2,0,L|364:62,1,95.9999970703126,0|0,0:0|1:2,0:0:0:0:
505,141,95663,6,0,P|458:150|422:181,1,95.9999970703126,2|0,1:2|0:2,0:2:0:0:
402,219,95920,1,0,1:2:0:0:
381,256,96006,2,0,P|345:286|298:296,1,95.9999970703126,0|0,0:2|1:2,0:0:0:0:
124,211,96349,5,2,1:2:0:0:
124,211,96435,2,0,L|137:105,1,95.9999970703126,0|0,1:2|0:2,0:0:0:0:
46,56,96692,2,0,L|57:151,1,95.9999970703126,0|0,1:2|1:2,0:2:0:0:
47,227,96949,1,0,0:2:0:0:
47,227,97035,6,0,P|70:268|114:288,1,95.9999970703126,6|0,1:2|0:2,0:2:0:0:
129,256,97292,2,0,P|98:308|113:387,1,143.999995605469,0|0,1:2|0:2,0:0:0:0:
270,344,97720,1,2,1:2:0:0:
283,236,97892,1,8,1:2:0:0:
283,236,97977,1,0,0:2:0:0:
283,236,98063,2,0,L|290:126,1,95.9999970703126,8|8,1:2|1:2,0:2:0:0:
400,14,98406,6,0,P|394:63|423:114,1,95.9999970703126,6|0,1:2|0:2,0:2:0:0:
449,105,98663,2,0,P|379:96|312:137,1,143.999995605469,0|0,1:2|0:2,0:0:0:0:
406,219,99092,5,2,1:2:0:0:
256,185,99263,1,8,1:2:0:0:
256,185,99349,1,0,0:2:0:0:
256,185,99435,2,0,L|143:176,1,95.9999970703126,8|8,1:2|1:2,0:2:0:0:
88,171,99692,1,0,0:2:0:0:
88,171,99777,6,0,L|75:55,1,95.9999970703126,6|0,1:2|0:2,0:2:0:0:
194,190,100120,2,0,L|181:306,1,95.9999970703126,0|0,1:2|0:2,0:2:0:0:
300,152,100463,2,0,L|287:36,1,95.9999970703126,4|0,1:2|0:2,0:2:0:0:
406,209,100806,2,0,L|393:325,1,95.9999970703126,0|0,1:2|0:2,0:2:0:0:
385,379,101063,1,0,0:2:0:0:
385,379,101149,6,0,L|329:384,5,47.9999985351563,4|0|0|0|0|0,1:2|1:2|1:2|1:2|1:2|1:2,0:0:0:0:
459,373,101663,6,0,L|482:370,4,23.9999992675781,0|0|0|0|0,1:2|1:2|1:2|1:2|1:2,1:2:0:0:
311,306,102006,2,0,L|287:303,4,23.9999992675781,0|0|0|0|0,1:2|1:2|1:2|1:2|1:2,1:2:0:0:
400,243,102349,1,0,1:2:0:0:
405,226,102435,1,0,0:0:0:0:
400,209,102520,1,0,1:2:0:0:
447,144,102863,6,0,B|363:168|363:168|376:149|376:149|480:120,1,215.999993408203,12|0,1:2|0:0,0:0:0:0:
