osu file format v14

[General]
AudioFilename: audio.mp3
AudioLeadIn: 0
PreviewTime: -1
Countdown: 0
SampleSet: Soft
StackLeniency: 0.7
Mode: 3
LetterboxInBreaks: 0
SpecialStyle: 0
WidescreenStoryboard: 0

[Editor]
DistanceSpacing: 0.8
BeatDivisor: 8
GridSize: 8
TimelineZoom: 3.599997

[Metadata]
Title:Crystal World ~Fracture~
TitleUnicode:Crystal World ~Fracture~
Artist:wa. remixed celas
ArtistUnicode:wa. remixed celas
Creator:Unit Vector
Version:Insane
Source:
Tags:
BeatmapID:1410833
BeatmapSetID:666619

[Difficulty]
HPDrainRate:7
CircleSize:7
OverallDifficulty:5
ApproachRate:5
SliderMultiplier:1.4
SliderTickRate:1

[Events]
//Background and Video events
0,0,"crystal.png",0,0
//Break Periods
//Storyboard Layer 0 (Background)
//Storyboard Layer 1 (Fail)
//Storyboard Layer 2 (Pass)
//Storyboard Layer 3 (Foreground)
//Storyboard Sound Samples

[TimingPoints]
-185,166.666666666667,4,2,0,0,1,0

[HitObjects]
475,192,3481,128,0,4815:0:0:0:0:
36,192,3481,128,0,4815:0:0:0:0:
182,192,4815,1,0,0:0:0:0:
402,192,4898,1,0,0:0:0:0:
256,192,4898,1,0,0:0:0:0:
329,192,4981,1,0,0:0:0:0:
109,192,4981,1,0,0:0:0:0:
256,192,5065,1,0,0:0:0:0:
36,192,5065,1,0,0:0:0:0:
182,192,5148,1,0,0:0:0:0:
475,192,5148,1,0,0:0:0:0:
402,192,5148,1,0,0:0:0:0:
109,192,5148,1,0,0:0:0:0:
329,192,5231,1,0,0:0:0:0:
36,192,5231,1,0,0:0:0:0:
256,192,5315,1,0,0:0:0:0:
402,192,5315,1,0,0:0:0:0:
109,192,5398,1,0,0:0:0:0:
329,192,5398,1,0,0:0:0:0:
36,192,5481,1,0,0:0:0:0:
475,192,5481,1,0,0:0:0:0:
182,192,5565,1,0,0:0:0:0:
402,192,5565,1,0,0:0:0:0:
329,192,5648,1,0,0:0:0:0:
109,192,5648,1,0,0:0:0:0:
475,192,5731,1,0,0:0:0:0:
256,192,5731,1,0,0:0:0:0:
402,192,5815,1,0,0:0:0:0:
329,192,5815,1,0,0:0:0:0:
182,192,5815,1,0,0:0:0:0:
36,192,5815,1,0,0:0:0:0:
109,192,5898,1,0,0:0:0:0:
256,192,5898,1,0,0:0:0:0:
475,192,5981,1,0,0:0:0:0:
182,192,5981,1,0,0:0:0:0:
402,192,6065,1,0,0:0:0:0:
329,192,6065,1,0,0:0:0:0:
36,192,6148,1,0,0:0:0:0:
256,192,6148,1,0,0:0:0:0:
109,192,6231,1,0,0:0:0:0:
475,192,6231,1,0,0:0:0:0:
182,192,6315,1,0,0:0:0:0:
402,192,6315,1,0,0:0:0:0:
329,192,6398,1,0,0:0:0:0:
36,192,6398,1,0,0:0:0:0:
109,192,6481,1,0,0:0:0:0:
256,192,6481,1,0,0:0:0:0:
475,192,6481,1,0,0:0:0:0:
402,192,6481,1,0,0:0:0:0:
182,192,6565,1,0,0:0:0:0:
36,192,6648,1,0,0:0:0:0:
329,192,6648,1,0,0:0:0:0:
256,192,6731,1,0,0:0:0:0:
475,192,6731,1,0,0:0:0:0:
402,192,6815,1,0,0:0:0:0:
109,192,6815,1,0,0:0:0:0:
329,192,6898,1,0,0:0:0:0:
36,192,6898,1,0,0:0:0:0:
182,192,6981,1,0,0:0:0:0:
475,192,6981,1,0,0:0:0:0:
402,192,7065,1,0,0:0:0:0:
109,192,7065,1,0,0:0:0:0:
256,192,7148,1,0,0:0:0:0:
36,192,7148,1,0,0:0:0:0:
475,192,7148,1,0,0:0:0:0:
329,192,7148,1,0,0:0:0:0:
182,192,7231,1,0,0:0:0:0:
402,192,7231,1,0,0:0:0:0:
475,192,7315,1,0,0:0:0:0:
109,192,7315,1,0,0:0:0:0:
402,192,7398,1,0,0:0:0:0:
36,192,7398,1,0,0:0:0:0:
256,192,7481,1,0,0:0:0:0:
475,192,7481,1,0,0:0:0:0:
329,192,7565,1,0,0:0:0:0:
182,192,7565,1,0,0:0:0:0:
109,192,7648,1,0,0:0:0:0:
402,192,7648,1,0,0:0:0:0:
256,192,7731,1,0,0:0:0:0:
36,192,7731,1,0,0:0:0:0:
182,192,7815,1,0,0:0:0:0:
329,192,7815,1,0,0:0:0:0:
402,192,7815,1,0,0:0:0:0:
475,192,7815,1,0,0:0:0:0:
109,192,7898,1,0,0:0:0:0:
256,192,7898,1,0,0:0:0:0:
36,192,7981,1,0,0:0:0:0:
329,192,7981,1,0,0:0:0:0:
475,192,8065,1,0,0:0:0:0:
182,192,8065,1,0,0:0:0:0:
402,192,8148,1,0,0:0:0:0:
109,192,8148,1,0,0:0:0:0:
256,192,8231,1,0,0:0:0:0:
36,192,8231,1,0,0:0:0:0:
182,192,8315,1,0,0:0:0:0:
329,192,8315,1,0,0:0:0:0:
475,192,8398,1,0,0:0:0:0:
109,192,8398,1,0,0:0:0:0:
36,192,8481,1,0,0:0:0:0:
256,192,8481,1,0,0:0:0:0:
402,192,8481,1,0,0:0:0:0:
182,192,8481,1,0,0:0:0:0:
329,192,8565,1,0,0:0:0:0:
109,192,8565,1,0,0:0:0:0:
475,192,8648,1,0,0:0:0:0:
256,192,8648,1,0,0:0:0:0:
402,192,8731,1,0,0:0:0:0:
36,192,8731,1,0,0:0:0:0:
182,192,8815,1,0,0:0:0:0:
329,192,8815,1,0,0:0:0:0:
109,192,8898,1,0,0:0:0:0:
256,192,8898,1,0,0:0:0:0:
475,192,8981,1,0,0:0:0:0:
36,192,8981,1,0,0:0:0:0:
402,192,9065,1,0,0:0:0:0:
182,192,9065,1,0,0:0:0:0:
109,192,9148,1,0,0:0:0:0:
256,192,9148,1,0,0:0:0:0:
329,192,9148,1,0,0:0:0:0:
475,192,9148,1,0,0:0:0:0:
36,192,9231,1,0,0:0:0:0:
402,192,9231,1,0,0:0:0:0:
182,192,9315,1,0,0:0:0:0:
475,192,9315,1,0,0:0:0:0:
329,192,9398,1,0,0:0:0:0:
109,192,9398,1,0,0:0:0:0:
182,192,9481,1,0,0:0:0:0:
402,192,9481,1,0,0:0:0:0:
256,192,9565,1,0,0:0:0:0:
475,192,9565,1,0,0:0:0:0:
36,192,9648,1,0,0:0:0:0:
329,192,9648,1,0,0:0:0:0:
109,192,9731,1,0,0:0:0:0:
402,192,9731,1,0,0:0:0:0:
182,192,9815,1,0,0:0:0:0:
256,192,9815,1,0,0:0:0:0:
475,192,9815,1,0,0:0:0:0:
36,192,9815,1,0,0:0:0:0:
329,192,9898,1,0,0:0:0:0:
402,192,9898,1,0,0:0:0:0:
109,192,9981,1,0,0:0:0:0:
475,192,9981,1,0,0:0:0:0:
256,192,10065,1,0,0:0:0:0:
36,192,10065,1,0,0:0:0:0:
182,192,10148,1,0,0:0:0:0:
402,192,10148,1,0,0:0:0:0:
329,192,10231,1,0,0:0:0:0:
109,192,10231,1,0,0:0:0:0:
475,192,10315,1,0,0:0:0:0:
256,192,10315,1,0,0:0:0:0:
36,192,10398,1,0,0:0:0:0:
402,192,10398,1,0,0:0:0:0:
109,192,10481,1,0,0:0:0:0:
182,192,10481,1,0,0:0:0:0:
329,192,10481,1,0,0:0:0:0:
475,192,10481,1,0,0:0:0:0:
256,192,10565,1,0,0:0:0:0:
402,192,10565,1,0,0:0:0:0:
36,192,10648,1,0,0:0:0:0:
329,192,10648,1,0,0:0:0:0:
109,192,10731,1,0,0:0:0:0:
402,192,10731,1,0,0:0:0:0:
182,192,10815,1,0,0:0:0:0:
475,192,10815,1,0,0:0:0:0:
36,192,10898,1,0,0:0:0:0:
256,192,10898,1,0,0:0:0:0:
402,192,10981,1,0,0:0:0:0:
109,192,10981,1,0,0:0:0:0:
329,192,11065,1,0,0:0:0:0:
182,192,11065,1,0,0:0:0:0:
475,192,11148,1,0,0:0:0:0:
256,192,11148,1,0,0:0:0:0:
109,192,11148,1,0,0:0:0:0:
36,192,11148,1,0,0:0:0:0:
402,192,11231,1,0,0:0:0:0:
182,192,11231,1,0,0:0:0:0:
329,192,11315,1,0,0:0:0:0:
109,192,11315,1,0,0:0:0:0:
36,192,11398,1,0,0:0:0:0:
402,192,11398,1,0,0:0:0:0:
256,192,11481,1,0,0:0:0:0:
475,192,11481,1,0,0:0:0:0:
329,192,11565,1,0,0:0:0:0:
182,192,11565,1,0,0:0:0:0:
109,192,11648,1,0,0:0:0:0:
402,192,11648,1,0,0:0:0:0:
256,192,11731,1,0,0:0:0:0:
36,192,11731,1,0,0:0:0:0:
182,192,11815,1,0,0:0:0:0:
475,192,11815,1,0,0:0:0:0:
402,192,11815,1,0,0:0:0:0:
329,192,11815,1,0,0:0:0:0:
109,192,11898,1,0,0:0:0:0:
256,192,11898,1,0,0:0:0:0:
36,192,11981,1,0,0:0:0:0:
329,192,11981,1,0,0:0:0:0:
182,192,12065,1,0,0:0:0:0:
402,192,12065,1,0,0:0:0:0:
475,192,12148,1,0,0:0:0:0:
256,192,12148,1,0,0:0:0:0:
109,192,12231,1,0,0:0:0:0:
329,192,12231,1,0,0:0:0:0:
36,192,12315,1,0,0:0:0:0:
256,192,12315,1,0,0:0:0:0:
402,192,12398,1,0,0:0:0:0:
182,192,12398,1,0,0:0:0:0:
475,192,12481,1,0,0:0:0:0:
329,192,12481,1,0,0:0:0:0:
109,192,12481,1,0,0:0:0:0:
36,192,12481,1,0,0:0:0:0:
256,192,12565,1,0,0:0:0:0:
402,192,12565,1,0,0:0:0:0:
182,192,12648,1,0,0:0:0:0:
475,192,12648,1,0,0:0:0:0:
329,192,12731,1,0,0:0:0:0:
109,192,12731,1,0,0:0:0:0:
36,192,12815,1,0,0:0:0:0:
402,192,12815,1,0,0:0:0:0:
256,192,12898,1,0,0:0:0:0:
109,192,12898,1,0,0:0:0:0:
475,192,12981,1,0,0:0:0:0:
182,192,12981,1,0,0:0:0:0:
329,192,13065,1,0,0:0:0:0:
36,192,13065,1,0,0:0:0:0:
109,192,13148,1,0,0:0:0:0:
256,192,13148,1,0,0:0:0:0:
402,192,13148,1,0,0:0:0:0:
182,192,13148,1,0,0:0:0:0:
475,192,13231,1,0,0:0:0:0:
36,192,13231,1,0,0:0:0:0:
329,192,13315,1,0,0:0:0:0:
109,192,13315,1,0,0:0:0:0:
402,192,13398,1,0,0:0:0:0:
182,192,13398,1,0,0:0:0:0:
256,192,13481,1,0,0:0:0:0:
36,192,13481,1,0,0:0:0:0:
475,192,13565,1,0,0:0:0:0:
182,192,13565,1,0,0:0:0:0:
402,192,13648,1,0,0:0:0:0:
109,192,13648,1,0,0:0:0:0:
329,192,13731,1,0,0:0:0:0:
36,192,13731,1,0,0:0:0:0:
475,192,13815,1,0,0:0:0:0:
402,192,13815,1,0,0:0:0:0:
256,192,13815,1,0,0:0:0:0:
182,192,13815,1,0,0:0:0:0:
36,192,13898,1,0,0:0:0:0:
329,192,13898,1,0,0:0:0:0:
109,192,13981,1,0,0:0:0:0:
402,192,13981,1,0,0:0:0:0:
182,192,14065,1,0,0:0:0:0:
475,192,14065,1,0,0:0:0:0:
329,192,14148,1,0,0:0:0:0:
36,192,14148,1,0,0:0:0:0:
109,192,14231,1,0,0:0:0:0:
402,192,14231,1,0,0:0:0:0:
256,192,14315,1,0,0:0:0:0:
36,192,14315,1,0,0:0:0:0:
475,192,14398,1,0,0:0:0:0:
182,192,14398,1,0,0:0:0:0:
402,192,14481,1,0,0:0:0:0:
329,192,14481,1,0,0:0:0:0:
109,192,14481,1,0,0:0:0:0:
36,192,14481,1,0,0:0:0:0:
256,192,14565,1,0,0:0:0:0:
475,192,14565,1,0,0:0:0:0:
329,192,14648,1,0,0:0:0:0:
182,192,14648,1,0,0:0:0:0:
109,192,14731,1,0,0:0:0:0:
402,192,14731,1,0,0:0:0:0:
329,192,14815,1,0,0:0:0:0:
36,192,14815,1,0,0:0:0:0:
182,192,14898,1,0,0:0:0:0:
475,192,14898,1,0,0:0:0:0:
402,192,14981,1,0,0:0:0:0:
109,192,14981,1,0,0:0:0:0:
256,192,15065,1,0,0:0:0:0:
36,192,15065,1,0,0:0:0:0:
182,192,15148,1,0,0:0:0:0:
402,192,15148,1,0,0:0:0:0:
475,192,15148,1,0,0:0:0:0:
329,192,15148,1,0,0:0:0:0:
256,192,15231,1,0,0:0:0:0:
109,192,15231,1,0,0:0:0:0:
36,192,15315,1,0,0:0:0:0:
402,192,15315,1,0,0:0:0:0:
475,192,15398,1,0,0:0:0:0:
329,192,15398,1,0,0:0:0:0:
36,192,15481,1,0,0:0:0:0:
109,192,15481,1,0,0:0:0:0:
182,192,15481,1,0,0:0:0:0:
256,192,15481,1,0,0:0:0:0:
402,192,15481,1,0,0:0:0:0:
475,192,15565,1,0,0:0:0:0:
329,192,15565,1,0,0:0:0:0:
402,192,15648,1,0,0:0:0:0:
182,192,15648,1,0,0:0:0:0:
109,192,15731,1,0,0:0:0:0:
256,192,15731,1,0,0:0:0:0:
36,192,15815,1,0,0:0:0:0:
475,192,15815,1,0,0:0:0:0:
402,192,15815,1,0,0:0:0:0:
182,192,15815,1,0,0:0:0:0:
329,192,15898,1,0,0:0:0:0:
109,192,15898,1,0,0:0:0:0:
402,192,15981,1,0,0:0:0:0:
256,192,15981,1,0,0:0:0:0:
475,192,16065,1,0,0:0:0:0:
36,192,16065,1,0,0:0:0:0:
329,192,16148,1,0,0:0:0:0:
182,192,16148,1,0,0:0:0:0:
256,192,16148,1,0,0:0:0:0:
109,192,16231,1,0,0:0:0:0:
402,192,16231,1,0,0:0:0:0:
475,192,16315,1,0,0:0:0:0:
36,192,16315,1,0,0:0:0:0:
329,192,16398,1,0,0:0:0:0:
182,192,16398,1,0,0:0:0:0:
109,192,16481,1,0,0:0:0:0:
256,192,16481,1,0,0:0:0:0:
402,192,16481,1,0,0:0:0:0:
475,192,16565,1,0,0:0:0:0:
36,192,16565,1,0,0:0:0:0:
182,192,16648,1,0,0:0:0:0:
329,192,16648,1,0,0:0:0:0:
402,192,16731,1,0,0:0:0:0:
256,192,16731,1,0,0:0:0:0:
109,192,16815,1,0,0:0:0:0:
475,192,16815,1,0,0:0:0:0:
36,192,16815,1,0,0:0:0:0:
182,192,16898,1,0,0:0:0:0:
329,192,16898,1,0,0:0:0:0:
402,192,16981,1,0,0:0:0:0:
256,192,16981,1,0,0:0:0:0:
475,192,17065,1,0,0:0:0:0:
109,192,17065,1,0,0:0:0:0:
329,192,17148,1,0,0:0:0:0:
36,192,17148,1,0,0:0:0:0:
182,192,17148,1,0,0:0:0:0:
402,192,17148,1,0,0:0:0:0:
256,192,17231,1,0,0:0:0:0:
475,192,17231,1,0,0:0:0:0:
109,192,17315,1,0,0:0:0:0:
329,192,17315,1,0,0:0:0:0:
402,192,17398,1,0,0:0:0:0:
182,192,17398,1,0,0:0:0:0:
329,192,17481,1,0,0:0:0:0:
256,192,17481,1,0,0:0:0:0:
36,192,17481,1,0,0:0:0:0:
475,192,17565,1,0,0:0:0:0:
109,192,17565,1,0,0:0:0:0:
402,192,17648,1,0,0:0:0:0:
182,192,17648,1,0,0:0:0:0:
329,192,17731,1,0,0:0:0:0:
36,192,17731,1,0,0:0:0:0:
109,192,17815,1,0,0:0:0:0:
256,192,17815,1,0,0:0:0:0:
475,192,17815,1,0,0:0:0:0:
402,192,17815,1,0,0:0:0:0:
329,192,17898,1,0,0:0:0:0:
182,192,17898,1,0,0:0:0:0:
36,192,17981,1,0,0:0:0:0:
256,192,17981,1,0,0:0:0:0:
402,192,18065,1,0,0:0:0:0:
109,192,18065,1,0,0:0:0:0:
182,192,18148,1,0,0:0:0:0:
329,192,18148,1,0,0:0:0:0:
475,192,18148,1,0,0:0:0:0:
256,192,18231,1,0,0:0:0:0:
36,192,18231,1,0,0:0:0:0:
109,192,18315,1,0,0:0:0:0:
402,192,18315,1,0,0:0:0:0:
182,192,18398,1,0,0:0:0:0:
475,192,18398,1,0,0:0:0:0:
329,192,18481,1,0,0:0:0:0:
36,192,18481,1,0,0:0:0:0:
256,192,18481,1,0,0:0:0:0:
402,192,18481,1,0,0:0:0:0:
109,192,18565,1,0,0:0:0:0:
182,192,18565,1,0,0:0:0:0:
475,192,18648,1,0,0:0:0:0:
256,192,18648,1,0,0:0:0:0:
36,192,18731,1,0,0:0:0:0:
329,192,18731,1,0,0:0:0:0:
402,192,18815,1,0,0:0:0:0:
182,192,18815,1,0,0:0:0:0:
109,192,18815,1,0,0:0:0:0:
256,192,18898,1,0,0:0:0:0:
475,192,18898,1,0,0:0:0:0:
329,192,18981,1,0,0:0:0:0:
36,192,18981,1,0,0:0:0:0:
109,192,19065,1,0,0:0:0:0:
402,192,19065,1,0,0:0:0:0:
182,192,19148,1,0,0:0:0:0:
256,192,19148,1,0,0:0:0:0:
329,192,19148,1,0,0:0:0:0:
475,192,19148,1,0,0:0:0:0:
36,192,19231,1,0,0:0:0:0:
402,192,19231,1,0,0:0:0:0:
109,192,19315,1,0,0:0:0:0:
329,192,19315,1,0,0:0:0:0:
182,192,19398,1,0,0:0:0:0:
475,192,19398,1,0,0:0:0:0:
256,192,19481,1,0,0:0:0:0:
402,192,19481,1,0,0:0:0:0:
36,192,19481,1,0,0:0:0:0:
109,192,19565,1,0,0:0:0:0:
329,192,19565,1,0,0:0:0:0:
182,192,19648,1,0,0:0:0:0:
475,192,19648,1,0,0:0:0:0:
402,192,19731,1,0,0:0:0:0:
256,192,19731,1,0,0:0:0:0:
329,192,19815,1,0,0:0:0:0:
36,192,19815,1,0,0:0:0:0:
182,192,19815,1,0,0:0:0:0:
109,192,19815,1,0,0:0:0:0:
475,192,19898,1,0,0:0:0:0:
256,192,19898,1,0,0:0:0:0:
402,192,19981,1,0,0:0:0:0:
182,192,19981,1,0,0:0:0:0:
329,192,20065,1,0,0:0:0:0:
36,192,20065,1,0,0:0:0:0:
109,192,20148,1,0,0:0:0:0:
256,192,20148,1,0,0:0:0:0:
475,192,20148,1,0,0:0:0:0:
182,192,20231,1,0,0:0:0:0:
402,192,20231,1,0,0:0:0:0:
329,192,20315,1,0,0:0:0:0:
36,192,20315,1,0,0:0:0:0:
256,192,20398,1,0,0:0:0:0:
109,192,20398,1,0,0:0:0:0:
182,192,20481,1,0,0:0:0:0:
329,192,20481,1,0,0:0:0:0:
402,192,20481,1,0,0:0:0:0:
475,192,20481,1,0,0:0:0:0:
256,192,20565,1,0,0:0:0:0:
36,192,20565,1,0,0:0:0:0:
109,192,20648,1,0,0:0:0:0:
402,192,20648,1,0,0:0:0:0:
475,192,20731,1,0,0:0:0:0:
182,192,20731,1,0,0:0:0:0:
402,192,20815,1,0,0:0:0:0:
329,192,20815,1,0,0:0:0:0:
256,192,20815,1,0,0:0:0:0:
109,192,20815,1,0,0:0:0:0:
36,192,20815,1,0,0:0:0:0:
475,192,20898,1,0,0:0:0:0:
182,192,20898,1,0,0:0:0:0:
402,192,20981,1,0,0:0:0:0:
109,192,20981,1,0,0:0:0:0:
256,192,20981,1,0,0:0:0:0:
329,192,21065,1,0,0:0:0:0:
36,192,21065,1,0,0:0:0:0:
182,192,21148,1,0,0:0:0:0:
256,192,21148,1,0,0:0:0:0:
475,192,21148,1,0,0:0:0:0:
109,192,21231,1,0,0:0:0:0:
402,192,21231,1,0,0:0:0:0:
329,192,21315,1,0,0:0:0:0:
36,192,21315,1,0,0:0:0:0:
475,192,21315,1,0,0:0:0:0:
256,192,21398,1,0,0:0:0:0:
182,192,21398,1,0,0:0:0:0:
402,192,21481,1,0,0:0:0:0:
109,192,21481,1,0,0:0:0:0:
475,192,21481,1,0,0:0:0:0:
329,192,21565,1,0,0:0:0:0:
36,192,21565,1,0,0:0:0:0:
182,192,21648,1,0,0:0:0:0:
402,192,21648,1,0,0:0:0:0:
109,192,21648,1,0,0:0:0:0:
256,192,21731,1,0,0:0:0:0:
475,192,21731,1,0,0:0:0:0:
329,192,21815,1,0,0:0:0:0:
182,192,21815,1,0,0:0:0:0:
36,192,21815,1,0,0:0:0:0:
109,192,21815,1,0,0:0:0:0:
402,192,21898,1,0,0:0:0:0:
256,192,21898,1,0,0:0:0:0:
475,192,21981,1,0,0:0:0:0:
329,192,21981,1,0,0:0:0:0:
109,192,21981,1,0,0:0:0:0:
36,192,22065,1,0,0:0:0:0:
182,192,22065,1,0,0:0:0:0:
109,192,22148,1,0,0:0:0:0:
402,192,22148,1,0,0:0:0:0:
256,192,22148,1,0,0:0:0:0:
475,192,22231,1,0,0:0:0:0:
329,192,22231,1,0,0:0:0:0:
402,192,22315,1,0,0:0:0:0:
182,192,22315,1,0,0:0:0:0:
36,192,22315,1,0,0:0:0:0:
109,192,22398,1,0,0:0:0:0:
256,192,22398,1,0,0:0:0:0:
475,192,22481,1,0,0:0:0:0:
329,192,22481,1,0,0:0:0:0:
36,192,22481,1,0,0:0:0:0:
109,192,22565,1,0,0:0:0:0:
402,192,22565,1,0,0:0:0:0:
182,192,22648,1,0,0:0:0:0:
475,192,22648,1,0,0:0:0:0:
256,192,22648,1,0,0:0:0:0:
329,192,22731,1,0,0:0:0:0:
109,192,22731,1,0,0:0:0:0:
402,192,22815,1,0,0:0:0:0:
256,192,22815,1,0,0:0:0:0:
182,192,22815,1,0,0:0:0:0:
475,192,22898,1,0,0:0:0:0:
329,192,22898,1,0,0:0:0:0:
109,192,22898,1,0,0:0:0:0:
256,192,22981,1,0,0:0:0:0:
402,192,22981,1,0,0:0:0:0:
36,192,22981,1,0,0:0:0:0:
109,192,23065,1,0,0:0:0:0:
182,192,23065,1,0,0:0:0:0:
475,192,23148,1,0,0:0:0:0:
329,192,23148,1,0,0:0:0:0:
36,192,23148,1,0,0:0:0:0:
256,192,23148,1,0,0:0:0:0:
402,192,23231,1,0,0:0:0:0:
182,192,23231,1,0,0:0:0:0:
109,192,23315,1,0,0:0:0:0:
475,192,23315,1,0,0:0:0:0:
36,192,23315,1,0,0:0:0:0:
256,192,23398,1,0,0:0:0:0:
329,192,23398,1,0,0:0:0:0:
402,192,23481,1,0,0:0:0:0:
182,192,23481,1,0,0:0:0:0:
475,192,23481,1,0,0:0:0:0:
36,192,23481,1,0,0:0:0:0:
109,192,23481,1,0,0:0:0:0:
329,192,23565,1,0,0:0:0:0:
256,192,23565,1,0,0:0:0:0:
36,192,23648,1,0,0:0:0:0:
182,192,23648,1,0,0:0:0:0:
402,192,23648,1,0,0:0:0:0:
475,192,23731,1,0,0:0:0:0:
109,192,23731,1,0,0:0:0:0:
402,192,23815,1,0,0:0:0:0:
329,192,23815,1,0,0:0:0:0:
36,192,23815,1,0,0:0:0:0:
256,192,23815,1,0,0:0:0:0:
475,192,23898,1,0,0:0:0:0:
182,192,23898,1,0,0:0:0:0:
109,192,23981,1,0,0:0:0:0:
256,192,23981,1,0,0:0:0:0:
402,192,23981,1,0,0:0:0:0:
329,192,24065,1,0,0:0:0:0:
36,192,24065,1,0,0:0:0:0:
182,192,24148,1,0,0:0:0:0:
475,192,24148,1,0,0:0:0:0:
256,192,24231,1,0,0:0:0:0:
109,192,24231,1,0,0:0:0:0:
402,192,24315,1,0,0:0:0:0:
182,192,24315,1,0,0:0:0:0:
475,192,24315,1,0,0:0:0:0:
36,192,24398,1,0,0:0:0:0:
329,192,24398,1,0,0:0:0:0:
109,192,24481,1,0,0:0:0:0:
182,192,24481,1,0,0:0:0:0:
256,192,24481,1,0,0:0:0:0:
402,192,24481,1,0,0:0:0:0:
329,192,24565,1,0,0:0:0:0:
475,192,24565,1,0,0:0:0:0:
402,192,24648,1,0,0:0:0:0:
182,192,24648,1,0,0:0:0:0:
36,192,24648,1,0,0:0:0:0:
36,192,24815,128,0,24940:0:0:0:0:
109,192,24815,128,0,25106:0:0:0:0:
182,192,24815,128,0,24940:0:0:0:0:
256,192,24815,128,0,24940:0:0:0:0:
329,192,24815,1,0,0:0:0:0:
402,192,24815,128,0,24940:0:0:0:0:
475,192,24815,128,0,25106:0:0:0:0:
402,192,24981,128,0,25106:0:0:0:0:
256,192,24981,128,0,25106:0:0:0:0:
182,192,24981,1,0,0:0:0:0:
329,192,24981,128,0,25273:0:0:0:0:
36,192,24981,128,0,25106:0:0:0:0:
475,192,25148,128,0,25273:0:0:0:0:
256,192,25148,128,0,25273:0:0:0:0:
182,192,25148,128,0,25273:0:0:0:0:
109,192,25148,128,0,25273:0:0:0:0:
36,192,25148,128,0,25273:0:0:0:0:
402,192,25148,1,0,0:0:0:0:
36,192,25315,128,0,25440:0:0:0:0:
182,192,25315,128,0,25440:0:0:0:0:
256,192,25315,128,0,25440:0:0:0:0:
475,192,25315,128,0,25440:0:0:0:0:
109,192,25315,1,0,0:0:0:0:
329,192,25315,128,0,25440:0:0:0:0:
402,192,25315,128,0,25606:0:0:0:0:
36,192,25481,128,0,25606:0:0:0:0:
109,192,25481,128,0,25606:0:0:0:0:
329,192,25481,128,0,25606:0:0:0:0:
475,192,25481,128,0,25606:0:0:0:0:
256,192,25481,1,0,0:0:0:0:
182,192,25481,128,0,25773:0:0:0:0:
36,192,25648,128,0,25773:0:0:0:0:
256,192,25648,128,0,25773:0:0:0:0:
475,192,25648,128,0,25773:0:0:0:0:
109,192,25648,128,0,25773:0:0:0:0:
402,192,25648,1,0,0:0:0:0:
329,192,25648,128,0,25940:0:0:0:0:
256,192,25815,128,0,25940:0:0:0:0:
475,192,25815,128,0,25940:0:0:0:0:
402,192,25815,128,0,25940:0:0:0:0:
36,192,25815,128,0,25940:0:0:0:0:
182,192,25815,1,0,0:0:0:0:
109,192,25815,128,0,26106:0:0:0:0:
36,192,25981,128,0,26106:0:0:0:0:
182,192,25981,128,0,26106:0:0:0:0:
402,192,25981,128,0,26106:0:0:0:0:
256,192,25981,128,0,26106:0:0:0:0:
475,192,25981,128,0,26106:0:0:0:0:
329,192,25981,1,0,0:0:0:0:
36,192,26148,128,0,26481:0:0:0:0:
109,192,26148,128,0,26231:0:0:0:0:
182,192,26148,128,0,26210:0:0:0:0:
329,192,26148,128,0,26231:0:0:0:0:
402,192,26148,128,0,26210:0:0:0:0:
475,192,26148,128,0,26190:0:0:0:0:
475,192,26315,128,0,26398:0:0:0:0:
329,192,26315,128,0,26377:0:0:0:0:
256,192,26315,128,0,26398:0:0:0:0:
109,192,26315,128,0,26377:0:0:0:0:
182,192,26315,128,0,26398:0:0:0:0:
475,192,26481,128,0,27481:0:0:0:0:
402,192,26481,128,0,26544:0:0:0:0:
329,192,26481,128,0,26523:0:0:0:0:
256,192,26481,128,0,26565:0:0:0:0:
109,192,26481,128,0,26544:0:0:0:0:
329,192,26648,128,0,26710:0:0:0:0:
256,192,26648,128,0,26731:0:0:0:0:
182,192,26648,128,0,26731:0:0:0:0:
109,192,26648,128,0,26710:0:0:0:0:
36,192,26648,128,0,26690:0:0:0:0:
402,192,26815,128,0,26856:0:0:0:0:
256,192,26815,128,0,26898:0:0:0:0:
182,192,26815,128,0,26877:0:0:0:0:
109,192,26815,128,0,26856:0:0:0:0:
329,192,26981,128,0,27023:0:0:0:0:
256,192,26981,128,0,27044:0:0:0:0:
182,192,26981,128,0,27044:0:0:0:0:
36,192,26981,128,0,27023:0:0:0:0:
402,192,27148,128,0,27231:0:0:0:0:
329,192,27148,128,0,27210:0:0:0:0:
256,192,27148,128,0,27190:0:0:0:0:
109,192,27148,128,0,27190:0:0:0:0:
36,192,27148,128,0,27231:0:0:0:0:
402,192,27315,128,0,27356:0:0:0:0:
256,192,27315,128,0,27398:0:0:0:0:
182,192,27315,128,0,27377:0:0:0:0:
109,192,27315,128,0,27356:0:0:0:0:
36,192,27315,128,0,27377:0:0:0:0:
109,192,27481,128,0,27815:0:0:0:0:
402,192,27481,128,0,27544:0:0:0:0:
329,192,27481,128,0,27523:0:0:0:0:
256,192,27481,128,0,27565:0:0:0:0:
36,192,27481,128,0,27544:0:0:0:0:
475,192,27648,128,0,27710:0:0:0:0:
256,192,27648,128,0,27731:0:0:0:0:
182,192,27648,128,0,27710:0:0:0:0:
36,192,27648,128,0,27710:0:0:0:0:
402,192,27815,128,0,28815:0:0:0:0:
475,192,27815,128,0,27877:0:0:0:0:
329,192,27815,128,0,27898:0:0:0:0:
256,192,27815,128,0,27877:0:0:0:0:
36,192,27815,128,0,27856:0:0:0:0:
329,192,27981,128,0,28044:0:0:0:0:
256,192,27981,128,0,28023:0:0:0:0:
182,192,27981,128,0,28023:0:0:0:0:
109,192,27981,128,0,28044:0:0:0:0:
329,192,28148,128,0,28210:0:0:0:0:
256,192,28148,128,0,28231:0:0:0:0:
182,192,28148,128,0,28231:0:0:0:0:
36,192,28148,128,0,28190:0:0:0:0:
109,192,28315,128,0,28377:0:0:0:0:
256,192,28315,128,0,28356:0:0:0:0:
329,192,28315,128,0,28377:0:0:0:0:
475,192,28315,128,0,28398:0:0:0:0:
329,192,28481,128,0,28565:0:0:0:0:
182,192,28481,128,0,28523:0:0:0:0:
36,192,28481,128,0,28565:0:0:0:0:
109,192,28481,128,0,28544:0:0:0:0:
182,192,28648,128,0,28690:0:0:0:0:
256,192,28648,128,0,28710:0:0:0:0:
329,192,28648,128,0,28731:0:0:0:0:
475,192,28648,128,0,28710:0:0:0:0:
182,192,28815,128,0,29148:0:0:0:0:
475,192,28815,128,0,28898:0:0:0:0:
329,192,28815,128,0,28877:0:0:0:0:
109,192,28815,128,0,28898:0:0:0:0:
36,192,28815,128,0,28877:0:0:0:0:
402,192,28981,128,0,29044:0:0:0:0:
329,192,28981,128,0,29044:0:0:0:0:
256,192,28981,128,0,29065:0:0:0:0:
109,192,28981,128,0,29044:0:0:0:0:
36,192,28981,128,0,29023:0:0:0:0:
475,192,29148,128,0,30148:0:0:0:0:
402,192,29148,128,0,29231:0:0:0:0:
256,192,29148,128,0,29190:0:0:0:0:
109,192,29148,128,0,29210:0:0:0:0:
36,192,29148,128,0,29231:0:0:0:0:
36,192,29315,128,0,29377:0:0:0:0:
182,192,29315,128,0,29398:0:0:0:0:
256,192,29315,128,0,29377:0:0:0:0:
329,192,29315,128,0,29356:0:0:0:0:
402,192,29315,128,0,29335:0:0:0:0:
402,192,29481,128,0,29544:0:0:0:0:
329,192,29481,128,0,29523:0:0:0:0:
182,192,29481,128,0,29523:0:0:0:0:
109,192,29481,128,0,29544:0:0:0:0:
36,192,29481,128,0,29565:0:0:0:0:
402,192,29648,128,0,29690:0:0:0:0:
256,192,29648,128,0,29710:0:0:0:0:
182,192,29648,128,0,29731:0:0:0:0:
109,192,29648,128,0,29710:0:0:0:0:
329,192,29648,128,0,29690:0:0:0:0:
329,192,29815,128,0,29856:0:0:0:0:
256,192,29815,128,0,29877:0:0:0:0:
109,192,29815,128,0,29898:0:0:0:0:
36,192,29815,128,0,29877:0:0:0:0:
402,192,29815,128,0,29856:0:0:0:0:
402,192,29981,128,0,30023:0:0:0:0:
329,192,29981,128,0,30044:0:0:0:0:
182,192,29981,128,0,30065:0:0:0:0:
109,192,29981,128,0,30044:0:0:0:0:
36,192,29981,128,0,30023:0:0:0:0:
182,192,30148,128,0,30481:0:0:0:0:
402,192,30148,128,0,30231:0:0:0:0:
329,192,30148,128,0,30210:0:0:0:0:
109,192,30148,128,0,30190:0:0:0:0:
36,192,30148,128,0,30210:0:0:0:0:
256,192,30315,128,0,30377:0:0:0:0:
329,192,30315,128,0,30356:0:0:0:0:
402,192,30315,128,0,30377:0:0:0:0:
475,192,30315,128,0,30398:0:0:0:0:
109,192,30315,128,0,30398:0:0:0:0:
329,192,30481,128,0,30815:0:0:0:0:
475,192,30481,128,0,30544:0:0:0:0:
256,192,30481,128,0,30544:0:0:0:0:
109,192,30481,128,0,30565:0:0:0:0:
36,192,30481,128,0,30523:0:0:0:0:
36,192,30544,1,0,0:0:0:0:
475,192,30648,128,0,30710:0:0:0:0:
402,192,30648,128,0,30690:0:0:0:0:
182,192,30648,128,0,30710:0:0:0:0:
109,192,30648,128,0,30690:0:0:0:0:
256,192,30648,128,0,30690:0:0:0:0:
256,192,30815,128,0,31148:0:0:0:0:
475,192,30815,128,0,30877:0:0:0:0:
182,192,30815,128,0,30898:0:0:0:0:
109,192,30815,128,0,30877:0:0:0:0:
36,192,30815,128,0,30856:0:0:0:0:
402,192,30981,128,0,31044:0:0:0:0:
329,192,30981,128,0,31023:0:0:0:0:
182,192,30981,128,0,31044:0:0:0:0:
109,192,30981,128,0,31023:0:0:0:0:
36,192,30981,128,0,31002:0:0:0:0:
182,192,31148,128,0,31481:0:0:0:0:
475,192,31148,128,0,31210:0:0:0:0:
402,192,31148,128,0,31231:0:0:0:0:
109,192,31148,128,0,31210:0:0:0:0:
36,192,31148,128,0,31231:0:0:0:0:
36,192,31315,128,0,31377:0:0:0:0:
109,192,31315,128,0,31398:0:0:0:0:
256,192,31315,128,0,31398:0:0:0:0:
329,192,31315,128,0,31377:0:0:0:0:
402,192,31315,128,0,31356:0:0:0:0:
402,192,31481,128,0,32648:0:0:0:0:
475,192,31481,128,0,31544:0:0:0:0:
256,192,31481,128,0,31565:0:0:0:0:
109,192,31481,128,0,31523:0:0:0:0:
36,192,31481,128,0,31544:0:0:0:0:
329,192,31648,128,0,31731:0:0:0:0:
256,192,31648,128,0,31710:0:0:0:0:
182,192,31648,128,0,31731:0:0:0:0:
109,192,31648,128,0,31710:0:0:0:0:
36,192,31648,128,0,31690:0:0:0:0:
475,192,31815,128,0,31877:0:0:0:0:
329,192,31815,128,0,31898:0:0:0:0:
182,192,31815,128,0,31877:0:0:0:0:
109,192,31815,128,0,31856:0:0:0:0:
256,192,31815,128,0,31856:0:0:0:0:
329,192,31981,128,0,32044:0:0:0:0:
256,192,31981,128,0,32065:0:0:0:0:
182,192,31981,128,0,32044:0:0:0:0:
36,192,31981,128,0,32023:0:0:0:0:
475,192,32148,128,0,32210:0:0:0:0:
256,192,32148,128,0,32190:0:0:0:0:
182,192,32148,128,0,32210:0:0:0:0:
109,192,32148,128,0,32231:0:0:0:0:
329,192,32315,128,0,32356:0:0:0:0:
256,192,32315,128,0,32377:0:0:0:0:
36,192,32315,128,0,32356:0:0:0:0:
109,192,32315,128,0,32377:0:0:0:0:
182,192,32315,128,0,32356:0:0:0:0:
475,192,32481,128,0,32565:0:0:0:0:
256,192,32481,128,0,32544:0:0:0:0:
182,192,32481,128,0,32523:0:0:0:0:
36,192,32481,128,0,32565:0:0:0:0:
109,192,32481,128,0,32523:0:0:0:0:
475,192,32648,128,0,32815:0:0:0:0:
329,192,32648,128,0,32710:0:0:0:0:
256,192,32648,128,0,32690:0:0:0:0:
182,192,32648,128,0,32731:0:0:0:0:
109,192,32648,128,0,32710:0:0:0:0:
402,192,32815,128,0,34148:0:0:0:0:
329,192,32815,128,0,32898:0:0:0:0:
182,192,32815,128,0,32877:0:0:0:0:
109,192,32815,128,0,32856:0:0:0:0:
36,192,32815,128,0,32877:0:0:0:0:
475,192,32981,128,0,33044:0:0:0:0:
256,192,32981,128,0,33023:0:0:0:0:
182,192,32981,128,0,33044:0:0:0:0:
109,192,32981,128,0,33065:0:0:0:0:
475,192,33148,128,0,33231:0:0:0:0:
329,192,33148,128,0,33210:0:0:0:0:
109,192,33148,128,0,33210:0:0:0:0:
36,192,33148,128,0,33190:0:0:0:0:
256,192,33148,128,0,33190:0:0:0:0:
475,192,33315,128,0,33377:0:0:0:0:
256,192,33315,128,0,33377:0:0:0:0:
182,192,33315,128,0,33356:0:0:0:0:
36,192,33315,128,0,33356:0:0:0:0:
329,192,33481,128,0,33544:0:0:0:0:
256,192,33481,128,0,33523:0:0:0:0:
182,192,33481,128,0,33565:0:0:0:0:
109,192,33481,128,0,33565:0:0:0:0:
475,192,33648,128,0,33710:0:0:0:0:
256,192,33648,128,0,33731:0:0:0:0:
182,192,33648,128,0,33710:0:0:0:0:
109,192,33648,128,0,33690:0:0:0:0:
36,192,33648,128,0,33710:0:0:0:0:
475,192,33815,128,0,33877:0:0:0:0:
329,192,33815,128,0,33877:0:0:0:0:
256,192,33815,128,0,33856:0:0:0:0:
109,192,33815,128,0,33877:0:0:0:0:
36,192,33815,128,0,33856:0:0:0:0:
475,192,33981,128,0,34023:0:0:0:0:
36,192,33981,128,0,34023:0:0:0:0:
109,192,33981,128,0,34044:0:0:0:0:
182,192,34065,1,0,0:0:0:0:
256,192,34065,1,0,0:0:0:0:
329,192,34065,1,0,0:0:0:0:
36,192,34148,128,0,35481:0:0:0:0:
109,192,34148,128,0,34210:0:0:0:0:
475,192,34148,128,0,34210:0:0:0:0:
475,192,34315,128,0,34356:0:0:0:0:
402,192,34315,128,0,34377:0:0:0:0:
329,192,34315,128,0,34398:0:0:0:0:
256,192,34315,128,0,34377:0:0:0:0:
109,192,34315,128,0,34356:0:0:0:0:
182,192,34481,128,0,34544:0:0:0:0:
256,192,34481,128,0,34523:0:0:0:0:
329,192,34481,128,0,34544:0:0:0:0:
475,192,34481,128,0,34544:0:0:0:0:
402,192,34648,128,0,34731:0:0:0:0:
329,192,34648,128,0,34710:0:0:0:0:
256,192,34648,128,0,34690:0:0:0:0:
182,192,34648,128,0,34710:0:0:0:0:
109,192,34648,128,0,34731:0:0:0:0:
475,192,34815,128,0,34856:0:0:0:0:
329,192,34815,128,0,34877:0:0:0:0:
256,192,34815,128,0,34856:0:0:0:0:
182,192,34815,128,0,34877:0:0:0:0:
109,192,34815,128,0,34856:0:0:0:0:
402,192,34981,128,0,35044:0:0:0:0:
329,192,34981,128,0,35065:0:0:0:0:
182,192,34981,128,0,35023:0:0:0:0:
109,192,34981,128,0,35044:0:0:0:0:
475,192,35148,128,0,35190:0:0:0:0:
402,192,35148,128,0,35210:0:0:0:0:
256,192,35148,128,0,35190:0:0:0:0:
182,192,35148,128,0,35210:0:0:0:0:
109,192,35148,128,0,35190:0:0:0:0:
402,192,35315,128,0,35356:0:0:0:0:
329,192,35315,128,0,35398:0:0:0:0:
256,192,35315,128,0,35377:0:0:0:0:
109,192,35315,128,0,35377:0:0:0:0:
329,192,35481,128,0,36148:0:0:0:0:
475,192,35481,128,0,35544:0:0:0:0:
402,192,35481,128,0,35523:0:0:0:0:
256,192,35481,128,0,35544:0:0:0:0:
182,192,35481,128,0,35565:0:0:0:0:
475,192,35648,128,0,35710:0:0:0:0:
182,192,35648,128,0,35710:0:0:0:0:
109,192,35648,128,0,35731:0:0:0:0:
36,192,35648,128,0,35710:0:0:0:0:
402,192,35815,128,0,35877:0:0:0:0:
256,192,35815,128,0,35877:0:0:0:0:
182,192,35815,128,0,35856:0:0:0:0:
109,192,35815,128,0,35856:0:0:0:0:
475,192,35981,128,0,36044:0:0:0:0:
402,192,35981,128,0,36023:0:0:0:0:
182,192,35981,128,0,36044:0:0:0:0:
109,192,35981,128,0,36023:0:0:0:0:
36,192,35981,128,0,36044:0:0:0:0:
182,192,36148,128,0,36481:0:0:0:0:
402,192,36148,128,0,36210:0:0:0:0:
256,192,36148,128,0,36190:0:0:0:0:
109,192,36148,128,0,36210:0:0:0:0:
36,192,36148,128,0,36190:0:0:0:0:
475,192,36315,128,0,36377:0:0:0:0:
402,192,36315,128,0,36356:0:0:0:0:
329,192,36315,128,0,36356:0:0:0:0:
109,192,36315,128,0,36377:0:0:0:0:
329,192,36481,128,0,36815:0:0:0:0:
402,192,36481,128,0,36544:0:0:0:0:
256,192,36481,128,0,36544:0:0:0:0:
109,192,36481,128,0,36523:0:0:0:0:
36,192,36481,128,0,36565:0:0:0:0:
475,192,36648,128,0,36731:0:0:0:0:
402,192,36648,128,0,36710:0:0:0:0:
256,192,36648,128,0,36710:0:0:0:0:
182,192,36648,128,0,36690:0:0:0:0:
36,192,36815,1,0,0:0:0:0:
109,192,36815,1,0,0:0:0:0:
182,192,36815,1,0,0:0:0:0:
475,192,36815,1,0,0:0:0:0:
256,192,36898,1,0,0:0:0:0:
402,192,36898,1,0,0:0:0:0:
182,192,36981,1,0,0:0:0:0:
109,192,36981,1,0,0:0:0:0:
329,192,36981,1,0,0:0:0:0:
36,192,36981,1,0,0:0:0:0:
475,192,37065,1,0,0:0:0:0:
402,192,37065,1,0,0:0:0:0:
256,192,37065,1,0,0:0:0:0:
329,192,37148,1,0,0:0:0:0:
182,192,37148,1,0,0:0:0:0:
109,192,37148,1,0,0:0:0:0:
36,192,37231,1,0,0:0:0:0:
475,192,37231,1,0,0:0:0:0:
402,192,37231,1,0,0:0:0:0:
329,192,37315,1,0,0:0:0:0:
256,192,37315,1,0,0:0:0:0:
182,192,37315,1,0,0:0:0:0:
109,192,37315,1,0,0:0:0:0:
475,192,37398,1,0,0:0:0:0:
402,192,37398,1,0,0:0:0:0:
36,192,37481,1,0,0:0:0:0:
109,192,37481,1,0,0:0:0:0:
329,192,37481,1,0,0:0:0:0:
256,192,37565,1,0,0:0:0:0:
182,192,37565,1,0,0:0:0:0:
475,192,37565,1,0,0:0:0:0:
402,192,37648,1,0,0:0:0:0:
329,192,37648,1,0,0:0:0:0:
109,192,37648,1,0,0:0:0:0:
36,192,37648,1,0,0:0:0:0:
182,192,37731,1,0,0:0:0:0:
256,192,37731,1,0,0:0:0:0:
475,192,37815,1,0,0:0:0:0:
402,192,37815,1,0,0:0:0:0:
329,192,37815,1,0,0:0:0:0:
36,192,37815,1,0,0:0:0:0:
182,192,37898,1,0,0:0:0:0:
109,192,37898,1,0,0:0:0:0:
256,192,37898,1,0,0:0:0:0:
475,192,37981,1,0,0:0:0:0:
402,192,37981,1,0,0:0:0:0:
36,192,37981,1,0,0:0:0:0:
329,192,38065,1,0,0:0:0:0:
256,192,38065,1,0,0:0:0:0:
182,192,38065,1,0,0:0:0:0:
109,192,38148,1,0,0:0:0:0:
402,192,38148,1,0,0:0:0:0:
36,192,38148,1,0,0:0:0:0:
475,192,38148,1,0,0:0:0:0:
329,192,38231,1,0,0:0:0:0:
256,192,38231,1,0,0:0:0:0:
182,192,38315,1,0,0:0:0:0:
109,192,38315,1,0,0:0:0:0:
36,192,38315,1,0,0:0:0:0:
402,192,38315,1,0,0:0:0:0:
475,192,38398,1,0,0:0:0:0:
329,192,38398,1,0,0:0:0:0:
256,192,38398,1,0,0:0:0:0:
402,192,38481,1,0,0:0:0:0:
182,192,38481,1,0,0:0:0:0:
109,192,38481,1,0,0:0:0:0:
36,192,38565,1,0,0:0:0:0:
256,192,38565,1,0,0:0:0:0:
329,192,38565,1,0,0:0:0:0:
109,192,38648,1,0,0:0:0:0:
182,192,38648,1,0,0:0:0:0:
402,192,38648,1,0,0:0:0:0:
475,192,38648,1,0,0:0:0:0:
329,192,38731,1,0,0:0:0:0:
36,192,38731,1,0,0:0:0:0:
109,192,38815,1,0,0:0:0:0:
182,192,38815,1,0,0:0:0:0:
256,192,38815,1,0,0:0:0:0:
402,192,38815,1,0,0:0:0:0:
475,192,38898,1,0,0:0:0:0:
36,192,38898,1,0,0:0:0:0:
109,192,38981,1,0,0:0:0:0:
256,192,38981,1,0,0:0:0:0:
329,192,38981,1,0,0:0:0:0:
475,192,39065,1,0,0:0:0:0:
402,192,39065,1,0,0:0:0:0:
182,192,39065,1,0,0:0:0:0:
36,192,39148,1,0,0:0:0:0:
109,192,39148,1,0,0:0:0:0:
256,192,39148,1,0,0:0:0:0:
329,192,39148,1,0,0:0:0:0:
182,192,39231,1,0,0:0:0:0:
475,192,39231,1,0,0:0:0:0:
402,192,39231,1,0,0:0:0:0:
329,192,39315,1,0,0:0:0:0:
256,192,39315,1,0,0:0:0:0:
36,192,39315,1,0,0:0:0:0:
109,192,39398,1,0,0:0:0:0:
182,192,39398,1,0,0:0:0:0:
402,192,39398,1,0,0:0:0:0:
475,192,39398,1,0,0:0:0:0:
329,192,39481,1,0,0:0:0:0:
256,192,39481,1,0,0:0:0:0:
36,192,39565,1,0,0:0:0:0:
109,192,39565,1,0,0:0:0:0:
182,192,39565,1,0,0:0:0:0:
475,192,39565,1,0,0:0:0:0:
402,192,39648,1,0,0:0:0:0:
329,192,39648,1,0,0:0:0:0:
256,192,39648,1,0,0:0:0:0:
109,192,39731,1,0,0:0:0:0:
182,192,39731,1,0,0:0:0:0:
475,192,39731,1,0,0:0:0:0:
402,192,39815,1,0,0:0:0:0:
329,192,39815,1,0,0:0:0:0:
36,192,39815,1,0,0:0:0:0:
109,192,39898,1,0,0:0:0:0:
256,192,39898,1,0,0:0:0:0:
182,192,39898,1,0,0:0:0:0:
475,192,39981,1,0,0:0:0:0:
402,192,39981,1,0,0:0:0:0:
329,192,39981,1,0,0:0:0:0:
36,192,39981,1,0,0:0:0:0:
182,192,40065,1,0,0:0:0:0:
256,192,40065,1,0,0:0:0:0:
36,192,40148,1,0,0:0:0:0:
109,192,40148,1,0,0:0:0:0:
475,192,40148,1,0,0:0:0:0:
402,192,40148,1,0,0:0:0:0:
329,192,40231,1,0,0:0:0:0:
256,192,40231,1,0,0:0:0:0:
182,192,40315,1,0,0:0:0:0:
109,192,40315,1,0,0:0:0:0:
475,192,40315,1,0,0:0:0:0:
402,192,40315,1,0,0:0:0:0:
36,192,40398,1,0,0:0:0:0:
256,192,40398,1,0,0:0:0:0:
329,192,40398,1,0,0:0:0:0:
109,192,40481,1,0,0:0:0:0:
182,192,40481,1,0,0:0:0:0:
475,192,40481,1,0,0:0:0:0:
402,192,40565,1,0,0:0:0:0:
329,192,40565,1,0,0:0:0:0:
256,192,40565,1,0,0:0:0:0:
36,192,40648,1,0,0:0:0:0:
109,192,40648,1,0,0:0:0:0:
182,192,40648,1,0,0:0:0:0:
475,192,40648,1,0,0:0:0:0:
402,192,40731,1,0,0:0:0:0:
329,192,40731,1,0,0:0:0:0:
256,192,40815,1,0,0:0:0:0:
182,192,40815,1,0,0:0:0:0:
109,192,40815,1,0,0:0:0:0:
475,192,40815,1,0,0:0:0:0:
36,192,40898,1,0,0:0:0:0:
402,192,40898,1,0,0:0:0:0:
329,192,40981,1,0,0:0:0:0:
256,192,40981,1,0,0:0:0:0:
182,192,40981,1,0,0:0:0:0:
475,192,40981,1,0,0:0:0:0:
36,192,41065,1,0,0:0:0:0:
109,192,41065,1,0,0:0:0:0:
402,192,41065,1,0,0:0:0:0:
256,192,41148,1,0,0:0:0:0:
329,192,41148,1,0,0:0:0:0:
475,192,41148,1,0,0:0:0:0:
109,192,41231,1,0,0:0:0:0:
182,192,41231,1,0,0:0:0:0:
36,192,41231,1,0,0:0:0:0:
475,192,41315,1,0,0:0:0:0:
402,192,41315,1,0,0:0:0:0:
329,192,41315,1,0,0:0:0:0:
256,192,41315,1,0,0:0:0:0:
109,192,41398,1,0,0:0:0:0:
182,192,41398,1,0,0:0:0:0:
36,192,41481,1,0,0:0:0:0:
256,192,41481,1,0,0:0:0:0:
329,192,41481,1,0,0:0:0:0:
402,192,41481,1,0,0:0:0:0:
475,192,41565,1,0,0:0:0:0:
182,192,41565,1,0,0:0:0:0:
109,192,41565,1,0,0:0:0:0:
402,192,41648,1,0,0:0:0:0:
329,192,41648,1,0,0:0:0:0:
36,192,41648,1,0,0:0:0:0:
182,192,41731,1,0,0:0:0:0:
256,192,41731,1,0,0:0:0:0:
475,192,41731,1,0,0:0:0:0:
402,192,41815,1,0,0:0:0:0:
329,192,41815,1,0,0:0:0:0:
109,192,41815,1,0,0:0:0:0:
36,192,41815,1,0,0:0:0:0:
182,192,41898,1,0,0:0:0:0:
475,192,41898,1,0,0:0:0:0:
329,192,41981,1,0,0:0:0:0:
256,192,41981,1,0,0:0:0:0:
402,192,41981,1,0,0:0:0:0:
36,192,41981,1,0,0:0:0:0:
109,192,42065,1,0,0:0:0:0:
182,192,42065,1,0,0:0:0:0:
475,192,42065,1,0,0:0:0:0:
402,192,42148,1,0,0:0:0:0:
329,192,42148,1,0,0:0:0:0:
36,192,42148,1,0,0:0:0:0:
256,192,42231,1,0,0:0:0:0:
475,192,42231,1,0,0:0:0:0:
182,192,42231,1,0,0:0:0:0:
109,192,42315,1,0,0:0:0:0:
402,192,42315,1,0,0:0:0:0:
329,192,42315,1,0,0:0:0:0:
36,192,42315,1,0,0:0:0:0:
256,192,42398,1,0,0:0:0:0:
475,192,42398,1,0,0:0:0:0:
329,192,42481,1,0,0:0:0:0:
182,192,42481,1,0,0:0:0:0:
109,192,42481,1,0,0:0:0:0:
36,192,42481,1,0,0:0:0:0:
475,192,42565,1,0,0:0:0:0:
402,192,42565,1,0,0:0:0:0:
329,192,42648,1,0,0:0:0:0:
256,192,42648,1,0,0:0:0:0:
182,192,42648,1,0,0:0:0:0:
36,192,42648,1,0,0:0:0:0:
475,192,42731,1,0,0:0:0:0:
402,192,42731,1,0,0:0:0:0:
109,192,42815,1,0,0:0:0:0:
182,192,42815,1,0,0:0:0:0:
329,192,42815,1,0,0:0:0:0:
256,192,42815,1,0,0:0:0:0:
475,192,42898,1,0,0:0:0:0:
36,192,42898,1,0,0:0:0:0:
402,192,42898,1,0,0:0:0:0:
329,192,42981,1,0,0:0:0:0:
256,192,42981,1,0,0:0:0:0:
182,192,42981,1,0,0:0:0:0:
36,192,43065,1,0,0:0:0:0:
109,192,43065,1,0,0:0:0:0:
402,192,43065,1,0,0:0:0:0:
182,192,43148,1,0,0:0:0:0:
256,192,43148,1,0,0:0:0:0:
475,192,43148,1,0,0:0:0:0:
402,192,43231,1,0,0:0:0:0:
329,192,43231,1,0,0:0:0:0:
109,192,43231,1,0,0:0:0:0:
36,192,43315,1,0,0:0:0:0:
182,192,43315,1,0,0:0:0:0:
256,192,43315,1,0,0:0:0:0:
475,192,43315,1,0,0:0:0:0:
402,192,43398,1,0,0:0:0:0:
329,192,43398,1,0,0:0:0:0:
109,192,43481,1,0,0:0:0:0:
182,192,43481,1,0,0:0:0:0:
256,192,43481,1,0,0:0:0:0:
475,192,43481,1,0,0:0:0:0:
402,192,43565,1,0,0:0:0:0:
329,192,43565,1,0,0:0:0:0:
36,192,43565,1,0,0:0:0:0:
109,192,43648,1,0,0:0:0:0:
182,192,43648,1,0,0:0:0:0:
475,192,43648,1,0,0:0:0:0:
329,192,43731,1,0,0:0:0:0:
256,192,43731,1,0,0:0:0:0:
36,192,43731,1,0,0:0:0:0:
109,192,43815,1,0,0:0:0:0:
182,192,43815,1,0,0:0:0:0:
475,192,43815,1,0,0:0:0:0:
402,192,43815,1,0,0:0:0:0:
329,192,43898,1,0,0:0:0:0:
256,192,43898,1,0,0:0:0:0:
36,192,43981,1,0,0:0:0:0:
109,192,43981,1,0,0:0:0:0:
475,192,43981,1,0,0:0:0:0:
182,192,43981,1,0,0:0:0:0:
402,192,44065,1,0,0:0:0:0:
329,192,44065,1,0,0:0:0:0:
256,192,44148,1,0,0:0:0:0:
182,192,44148,1,0,0:0:0:0:
109,192,44148,1,0,0:0:0:0:
475,192,44148,1,0,0:0:0:0:
329,192,44231,1,0,0:0:0:0:
36,192,44231,1,0,0:0:0:0:
402,192,44315,1,0,0:0:0:0:
256,192,44315,1,0,0:0:0:0:
182,192,44315,1,0,0:0:0:0:
475,192,44315,1,0,0:0:0:0:
329,192,44398,1,0,0:0:0:0:
109,192,44398,1,0,0:0:0:0:
36,192,44398,1,0,0:0:0:0:
182,192,44481,1,0,0:0:0:0:
256,192,44481,1,0,0:0:0:0:
475,192,44481,1,0,0:0:0:0:
402,192,44565,1,0,0:0:0:0:
329,192,44565,1,0,0:0:0:0:
109,192,44565,1,0,0:0:0:0:
36,192,44648,1,0,0:0:0:0:
182,192,44648,1,0,0:0:0:0:
475,192,44648,1,0,0:0:0:0:
256,192,44648,1,0,0:0:0:0:
402,192,44731,1,0,0:0:0:0:
109,192,44815,1,0,0:0:0:0:
182,192,44815,1,0,0:0:0:0:
256,192,44815,1,0,0:0:0:0:
475,192,44815,1,0,0:0:0:0:
402,192,44898,1,0,0:0:0:0:
329,192,44898,1,0,0:0:0:0:
36,192,44898,1,0,0:0:0:0:
182,192,44981,1,0,0:0:0:0:
256,192,44981,1,0,0:0:0:0:
475,192,44981,1,0,0:0:0:0:
329,192,45065,1,0,0:0:0:0:
109,192,45065,1,0,0:0:0:0:
36,192,45148,1,0,0:0:0:0:
182,192,45148,1,0,0:0:0:0:
256,192,45148,1,0,0:0:0:0:
475,192,45148,1,0,0:0:0:0:
402,192,45148,1,0,0:0:0:0:
329,192,45231,1,0,0:0:0:0:
182,192,45315,1,0,0:0:0:0:
256,192,45315,1,0,0:0:0:0:
475,192,45315,1,0,0:0:0:0:
402,192,45315,1,0,0:0:0:0:
109,192,45315,1,0,0:0:0:0:
36,192,45398,1,0,0:0:0:0:
329,192,45398,1,0,0:0:0:0:
182,192,45481,1,0,0:0:0:0:
256,192,45481,1,0,0:0:0:0:
402,192,45481,1,0,0:0:0:0:
475,192,45481,1,0,0:0:0:0:
36,192,45565,1,0,0:0:0:0:
109,192,45565,1,0,0:0:0:0:
329,192,45648,1,0,0:0:0:0:
402,192,45648,1,0,0:0:0:0:
475,192,45648,1,0,0:0:0:0:
256,192,45731,1,0,0:0:0:0:
109,192,45731,1,0,0:0:0:0:
182,192,45731,1,0,0:0:0:0:
36,192,45815,1,0,0:0:0:0:
329,192,45815,1,0,0:0:0:0:
475,192,45815,1,0,0:0:0:0:
402,192,45815,1,0,0:0:0:0:
182,192,45898,1,0,0:0:0:0:
256,192,45898,1,0,0:0:0:0:
402,192,45981,1,0,0:0:0:0:
329,192,45981,1,0,0:0:0:0:
109,192,45981,1,0,0:0:0:0:
36,192,45981,1,0,0:0:0:0:
256,192,46065,1,0,0:0:0:0:
475,192,46065,1,0,0:0:0:0:
182,192,46065,1,0,0:0:0:0:
402,192,46148,1,0,0:0:0:0:
109,192,46148,1,0,0:0:0:0:
36,192,46148,1,0,0:0:0:0:
182,192,46231,1,0,0:0:0:0:
256,192,46231,1,0,0:0:0:0:
329,192,46231,1,0,0:0:0:0:
475,192,46315,1,0,0:0:0:0:
402,192,46315,1,0,0:0:0:0:
109,192,46315,1,0,0:0:0:0:
36,192,46315,1,0,0:0:0:0:
329,192,46398,1,0,0:0:0:0:
256,192,46398,1,0,0:0:0:0:
182,192,46481,1,0,0:0:0:0:
109,192,46481,1,0,0:0:0:0:
36,192,46481,1,0,0:0:0:0:
402,192,46481,1,0,0:0:0:0:
475,192,46481,1,0,0:0:0:0:
329,192,46565,1,0,0:0:0:0:
256,192,46565,1,0,0:0:0:0:
475,192,46648,1,0,0:0:0:0:
402,192,46648,1,0,0:0:0:0:
109,192,46648,1,0,0:0:0:0:
36,192,46648,1,0,0:0:0:0:
182,192,46731,1,0,0:0:0:0:
256,192,46731,1,0,0:0:0:0:
475,192,46815,1,0,0:0:0:0:
402,192,46815,1,0,0:0:0:0:
329,192,46815,1,0,0:0:0:0:
109,192,46815,1,0,0:0:0:0:
36,192,46815,1,0,0:0:0:0:
329,192,46898,1,0,0:0:0:0:
402,192,46898,1,0,0:0:0:0:
475,192,46898,1,0,0:0:0:0:
109,192,46898,1,0,0:0:0:0:
36,192,46898,1,0,0:0:0:0:
36,192,46981,1,0,0:0:0:0:
109,192,46981,1,0,0:0:0:0:
329,192,46981,1,0,0:0:0:0:
402,192,46981,1,0,0:0:0:0:
475,192,46981,1,0,0:0:0:0:
475,192,47065,1,0,0:0:0:0:
402,192,47065,1,0,0:0:0:0:
329,192,47065,1,0,0:0:0:0:
109,192,47065,1,0,0:0:0:0:
36,192,47065,1,0,0:0:0:0:
475,192,47148,128,0,47315:0:0:0:0:
402,192,47148,128,0,47315:0:0:0:0:
329,192,47148,128,0,47315:0:0:0:0:
36,192,47148,128,0,47315:0:0:0:0:
109,192,47148,128,0,47315:0:0:0:0:
182,192,47315,128,0,47398:0:0:0:0:
256,192,47315,128,0,47398:0:0:0:0:
475,192,47481,128,0,47815:0:0:0:0:
109,192,47481,128,0,47815:0:0:0:0:
402,192,47481,128,0,48148:0:0:0:0:
329,192,47481,128,0,47648:0:0:0:0:
182,192,47481,128,0,47648:0:0:0:0:
256,192,47481,128,0,47565:0:0:0:0:
36,192,47481,128,0,47565:0:0:0:0:
256,192,47648,128,0,47815:0:0:0:0:
36,192,47648,128,0,47815:0:0:0:0:
329,192,47815,128,0,48148:0:0:0:0:
182,192,47815,128,0,48148:0:0:0:0:
36,192,47898,128,0,47981:0:0:0:0:
256,192,47981,128,0,48148:0:0:0:0:
109,192,47981,128,0,48065:0:0:0:0:
475,192,47981,128,0,48065:0:0:0:0:
109,192,48148,128,0,48481:0:0:0:0:
475,192,48148,128,0,48481:0:0:0:0:
36,192,48148,128,0,48315:0:0:0:0:
256,192,48231,128,0,48398:0:0:0:0:
402,192,48315,128,0,48481:0:0:0:0:
182,192,48315,128,0,48481:0:0:0:0:
329,192,48315,128,0,48398:0:0:0:0:
256,192,48481,128,0,48815:0:0:0:0:
36,192,48481,128,0,48815:0:0:0:0:
329,192,48481,128,0,48648:0:0:0:0:
402,192,48565,128,0,48731:0:0:0:0:
182,192,48648,128,0,48815:0:0:0:0:
475,192,48648,128,0,48815:0:0:0:0:
109,192,48648,128,0,48731:0:0:0:0:
402,192,48815,128,0,49148:0:0:0:0:
109,192,48815,128,0,49148:0:0:0:0:
329,192,48815,128,0,48981:0:0:0:0:
182,192,48898,128,0,49065:0:0:0:0:
256,192,48981,128,0,49148:0:0:0:0:
475,192,48981,128,0,49148:0:0:0:0:
36,192,48981,128,0,49065:0:0:0:0:
182,192,49148,128,0,49481:0:0:0:0:
329,192,49148,128,0,49481:0:0:0:0:
36,192,49148,128,0,49315:0:0:0:0:
402,192,49231,128,0,49398:0:0:0:0:
256,192,49231,128,0,49315:0:0:0:0:
475,192,49315,128,0,49481:0:0:0:0:
109,192,49315,128,0,49398:0:0:0:0:
36,192,49481,128,0,49815:0:0:0:0:
402,192,49481,128,0,49815:0:0:0:0:
109,192,49481,128,0,50148:0:0:0:0:
256,192,49481,128,0,49648:0:0:0:0:
475,192,49565,128,0,49731:0:0:0:0:
182,192,49648,128,0,49815:0:0:0:0:
329,192,49648,128,0,49731:0:0:0:0:
329,192,49815,128,0,50148:0:0:0:0:
475,192,49815,128,0,50148:0:0:0:0:
256,192,49815,128,0,49981:0:0:0:0:
36,192,49898,128,0,49981:0:0:0:0:
402,192,49981,128,0,50148:0:0:0:0:
182,192,49981,128,0,50065:0:0:0:0:
182,192,50148,128,0,50481:0:0:0:0:
36,192,50148,128,0,50481:0:0:0:0:
256,192,50148,128,0,51148:0:0:0:0:
402,192,50231,128,0,50398:0:0:0:0:
329,192,50315,128,0,50481:0:0:0:0:
475,192,50315,128,0,50398:0:0:0:0:
109,192,50315,128,0,50398:0:0:0:0:
475,192,50481,128,0,50815:0:0:0:0:
109,192,50481,128,0,50815:0:0:0:0:
402,192,50481,128,0,50648:0:0:0:0:
36,192,50565,128,0,50648:0:0:0:0:
182,192,50648,128,0,50815:0:0:0:0:
329,192,50648,128,0,50731:0:0:0:0:
329,192,50815,128,0,51148:0:0:0:0:
36,192,50815,128,0,51148:0:0:0:0:
402,192,50815,128,0,50981:0:0:0:0:
182,192,50898,128,0,51065:0:0:0:0:
109,192,50981,128,0,51148:0:0:0:0:
475,192,50981,128,0,51065:0:0:0:0:
475,192,51148,128,0,51481:0:0:0:0:
402,192,51148,128,0,51315:0:0:0:0:
182,192,51148,128,0,51481:0:0:0:0:
109,192,51231,128,0,51398:0:0:0:0:
256,192,51231,128,0,51315:0:0:0:0:
329,192,51315,128,0,51481:0:0:0:0:
36,192,51315,128,0,51481:0:0:0:0:
402,192,51481,128,0,51815:0:0:0:0:
256,192,51481,128,0,51815:0:0:0:0:
109,192,51481,128,0,51648:0:0:0:0:
329,192,51565,128,0,51731:0:0:0:0:
36,192,51648,128,0,51815:0:0:0:0:
182,192,51648,128,0,51731:0:0:0:0:
475,192,51648,128,0,51731:0:0:0:0:
109,192,51815,128,0,52148:0:0:0:0:
329,192,51815,128,0,52148:0:0:0:0:
182,192,51815,128,0,52481:0:0:0:0:
475,192,51815,128,0,51981:0:0:0:0:
256,192,51898,128,0,52065:0:0:0:0:
402,192,51981,128,0,52148:0:0:0:0:
36,192,51981,128,0,52065:0:0:0:0:
256,192,52148,128,0,52481:0:0:0:0:
475,192,52148,128,0,52481:0:0:0:0:
36,192,52148,128,0,52315:0:0:0:0:
402,192,52231,128,0,52398:0:0:0:0:
329,192,52315,128,0,52481:0:0:0:0:
109,192,52315,128,0,52398:0:0:0:0:
402,192,52481,128,0,52815:0:0:0:0:
36,192,52481,128,0,52815:0:0:0:0:
109,192,52481,128,0,52648:0:0:0:0:
256,192,52565,128,0,52731:0:0:0:0:
329,192,52648,128,0,52815:0:0:0:0:
182,192,52648,128,0,52815:0:0:0:0:
475,192,52648,128,0,52731:0:0:0:0:
109,192,52815,128,0,53148:0:0:0:0:
256,192,52815,128,0,52898:0:0:0:0:
475,192,52815,128,0,53148:0:0:0:0:
402,192,52898,128,0,53148:0:0:0:0:
329,192,52898,128,0,52981:0:0:0:0:
182,192,52898,128,0,53065:0:0:0:0:
256,192,52981,128,0,53148:0:0:0:0:
36,192,52981,128,0,53148:0:0:0:0:
329,192,53148,128,0,53481:0:0:0:0:
182,192,53148,128,0,53481:0:0:0:0:
402,192,53231,128,0,53398:0:0:0:0:
109,192,53231,128,0,53398:0:0:0:0:
256,192,53315,128,0,53481:0:0:0:0:
36,192,53315,128,0,53398:0:0:0:0:
475,192,53315,128,0,53398:0:0:0:0:
109,192,53481,128,0,53815:0:0:0:0:
475,192,53481,128,0,53815:0:0:0:0:
36,192,53481,128,0,53648:0:0:0:0:
402,192,53481,128,0,53565:0:0:0:0:
256,192,53565,128,0,53731:0:0:0:0:
402,192,53648,128,0,53815:0:0:0:0:
182,192,53648,128,0,53815:0:0:0:0:
329,192,53648,128,0,53731:0:0:0:0:
256,192,53815,128,0,54148:0:0:0:0:
36,192,53815,128,0,54148:0:0:0:0:
329,192,53815,128,0,53981:0:0:0:0:
109,192,53898,128,0,54065:0:0:0:0:
182,192,53981,128,0,54148:0:0:0:0:
475,192,53981,128,0,54148:0:0:0:0:
402,192,53981,128,0,54065:0:0:0:0:
402,192,54148,128,0,54481:0:0:0:0:
109,192,54148,128,0,54481:0:0:0:0:
329,192,54148,128,0,54315:0:0:0:0:
182,192,54231,128,0,54398:0:0:0:0:
256,192,54315,128,0,54481:0:0:0:0:
475,192,54315,128,0,54481:0:0:0:0:
36,192,54315,128,0,54398:0:0:0:0:
182,192,54481,128,0,54815:0:0:0:0:
329,192,54481,128,0,54815:0:0:0:0:
36,192,54481,128,0,54648:0:0:0:0:
402,192,54565,128,0,54731:0:0:0:0:
256,192,54565,128,0,54648:0:0:0:0:
475,192,54648,128,0,54815:0:0:0:0:
109,192,54648,128,0,54731:0:0:0:0:
36,192,54815,128,0,55148:0:0:0:0:
402,192,54815,128,0,55148:0:0:0:0:
109,192,54815,128,0,55481:0:0:0:0:
256,192,54815,128,0,54981:0:0:0:0:
475,192,54898,128,0,55065:0:0:0:0:
182,192,54981,128,0,55148:0:0:0:0:
329,192,54981,128,0,55065:0:0:0:0:
329,192,55148,128,0,55481:0:0:0:0:
475,192,55148,128,0,55481:0:0:0:0:
256,192,55148,128,0,55315:0:0:0:0:
36,192,55231,128,0,55315:0:0:0:0:
402,192,55315,128,0,55481:0:0:0:0:
182,192,55315,128,0,55398:0:0:0:0:
182,192,55481,128,0,55815:0:0:0:0:
36,192,55481,128,0,55815:0:0:0:0:
256,192,55481,128,0,56481:0:0:0:0:
475,192,55565,128,0,55731:0:0:0:0:
329,192,55648,128,0,55815:0:0:0:0:
402,192,55648,128,0,55731:0:0:0:0:
109,192,55648,128,0,55731:0:0:0:0:
475,192,55815,128,0,56148:0:0:0:0:
109,192,55815,128,0,56148:0:0:0:0:
402,192,55815,128,0,55981:0:0:0:0:
36,192,55898,128,0,55981:0:0:0:0:
182,192,55981,128,0,56148:0:0:0:0:
329,192,55981,128,0,56065:0:0:0:0:
329,192,56148,128,0,56481:0:0:0:0:
36,192,56148,128,0,56481:0:0:0:0:
402,192,56148,128,0,56315:0:0:0:0:
182,192,56231,128,0,56398:0:0:0:0:
109,192,56315,128,0,56481:0:0:0:0:
475,192,56315,128,0,56398:0:0:0:0:
182,192,56481,128,0,56815:0:0:0:0:
475,192,56481,128,0,56815:0:0:0:0:
402,192,56481,128,0,56648:0:0:0:0:
109,192,56565,128,0,56731:0:0:0:0:
329,192,56648,128,0,56815:0:0:0:0:
36,192,56648,128,0,56815:0:0:0:0:
256,192,56648,128,0,56731:0:0:0:0:
402,192,56815,128,0,57148:0:0:0:0:
109,192,56815,128,0,56981:0:0:0:0:
256,192,56815,128,0,57148:0:0:0:0:
329,192,56898,128,0,57065:0:0:0:0:
475,192,56898,128,0,56981:0:0:0:0:
36,192,56981,128,0,57148:0:0:0:0:
182,192,56981,128,0,57065:0:0:0:0:
109,192,57148,128,0,57481:0:0:0:0:
329,192,57148,128,0,57481:0:0:0:0:
182,192,57148,128,0,57815:0:0:0:0:
475,192,57148,128,0,57315:0:0:0:0:
36,192,57231,128,0,57315:0:0:0:0:
402,192,57315,128,0,57481:0:0:0:0:
256,192,57315,128,0,57398:0:0:0:0:
256,192,57481,128,0,57815:0:0:0:0:
475,192,57481,128,0,57815:0:0:0:0:
36,192,57481,128,0,57648:0:0:0:0:
402,192,57565,128,0,57731:0:0:0:0:
329,192,57648,128,0,57815:0:0:0:0:
109,192,57648,128,0,57731:0:0:0:0:
402,192,57815,128,0,58148:0:0:0:0:
36,192,57815,128,0,58148:0:0:0:0:
109,192,57815,128,0,57981:0:0:0:0:
256,192,57898,128,0,58065:0:0:0:0:
329,192,57981,128,0,58148:0:0:0:0:
182,192,57981,128,0,58148:0:0:0:0:
475,192,57981,128,0,58065:0:0:0:0:
109,192,58148,128,0,58481:0:0:0:0:
475,192,58148,128,0,58815:0:0:0:0:
256,192,58148,128,0,58231:0:0:0:0:
182,192,58231,128,0,58315:0:0:0:0:
329,192,58315,128,0,58398:0:0:0:0:
36,192,58315,1,0,0:0:0:0:
402,192,58398,128,0,58481:0:0:0:0:
256,192,58481,128,0,58815:0:0:0:0:
36,192,58481,128,0,59148:0:0:0:0:
182,192,58481,128,0,58565:0:0:0:0:
329,192,58481,1,0,0:0:0:0:
329,192,58565,128,0,58648:0:0:0:0:
109,192,58648,128,0,58731:0:0:0:0:
402,192,58648,1,0,0:0:0:0:
182,192,58731,128,0,58815:0:0:0:0:
402,192,58815,128,0,59148:0:0:0:0:
329,192,58815,128,0,59481:0:0:0:0:
109,192,58815,1,0,0:0:0:0:
109,192,58898,128,0,58981:0:0:0:0:
182,192,58981,128,0,59065:0:0:0:0:
475,192,58981,1,0,0:0:0:0:
475,192,59065,128,0,59148:0:0:0:0:
182,192,59148,128,0,59481:0:0:0:0:
256,192,59148,128,0,59815:0:0:0:0:
109,192,59148,128,0,59231:0:0:0:0:
402,192,59231,128,0,59315:0:0:0:0:
36,192,59315,128,0,59398:0:0:0:0:
475,192,59315,1,0,0:0:0:0:
109,192,59398,128,0,59481:0:0:0:0:
475,192,59481,128,0,59815:0:0:0:0:
402,192,59481,128,0,59565:0:0:0:0:
36,192,59481,1,0,0:0:0:0:
36,192,59565,128,0,59648:0:0:0:0:
182,192,59648,128,0,59731:0:0:0:0:
329,192,59648,1,0,0:0:0:0:
36,192,59815,128,0,60148:0:0:0:0:
402,192,59815,128,0,60481:0:0:0:0:
109,192,59815,128,0,59898:0:0:0:0:
329,192,59815,1,0,0:0:0:0:
182,192,59815,1,0,0:0:0:0:
182,192,59898,128,0,59981:0:0:0:0:
329,192,59981,128,0,60065:0:0:0:0:
475,192,59981,1,0,0:0:0:0:
256,192,60148,128,0,60481:0:0:0:0:
182,192,60148,128,0,60815:0:0:0:0:
475,192,60148,128,0,60231:0:0:0:0:
329,192,60148,1,0,0:0:0:0:
109,192,60148,1,0,0:0:0:0:
109,192,60231,128,0,60315:0:0:0:0:
329,192,60315,128,0,60398:0:0:0:0:
36,192,60315,1,0,0:0:0:0:
109,192,60481,128,0,60815:0:0:0:0:
36,192,60481,128,0,60565:0:0:0:0:
475,192,60481,1,0,0:0:0:0:
329,192,60481,1,0,0:0:0:0:
475,192,60565,128,0,60648:0:0:0:0:
402,192,60648,128,0,60731:0:0:0:0:
256,192,60648,1,0,0:0:0:0:
36,192,60731,128,0,60815:0:0:0:0:
329,192,60815,128,0,61148:0:0:0:0:
256,192,60815,128,0,61481:0:0:0:0:
475,192,60815,128,0,60898:0:0:0:0:
402,192,60815,1,0,0:0:0:0:
402,192,60898,128,0,60981:0:0:0:0:
109,192,60981,128,0,61065:0:0:0:0:
182,192,60981,1,0,0:0:0:0:
36,192,61065,128,0,61148:0:0:0:0:
182,192,61148,128,0,61481:0:0:0:0:
475,192,61148,128,0,61231:0:0:0:0:
402,192,61148,1,0,0:0:0:0:
109,192,61231,128,0,61315:0:0:0:0:
402,192,61315,128,0,61398:0:0:0:0:
36,192,61315,1,0,0:0:0:0:
475,192,61398,128,0,61481:0:0:0:0:
402,192,61481,128,0,61815:0:0:0:0:
109,192,61481,128,0,62148:0:0:0:0:
329,192,61481,1,0,0:0:0:0:
36,192,61481,1,0,0:0:0:0:
329,192,61565,128,0,61648:0:0:0:0:
182,192,61648,128,0,61731:0:0:0:0:
256,192,61648,1,0,0:0:0:0:
475,192,61731,128,0,61815:0:0:0:0:
36,192,61815,128,0,62148:0:0:0:0:
256,192,61815,128,0,61898:0:0:0:0:
182,192,61815,1,0,0:0:0:0:
329,192,61815,1,0,0:0:0:0:
329,192,61898,128,0,61981:0:0:0:0:
182,192,61981,128,0,62065:0:0:0:0:
475,192,61981,1,0,0:0:0:0:
256,192,62065,128,0,62148:0:0:0:0:
182,192,62148,128,0,62481:0:0:0:0:
402,192,62148,128,0,62815:0:0:0:0:
475,192,62148,128,0,62231:0:0:0:0:
329,192,62148,1,0,0:0:0:0:
109,192,62231,128,0,62315:0:0:0:0:
256,192,62315,128,0,62398:0:0:0:0:
36,192,62315,1,0,0:0:0:0:
329,192,62398,128,0,62481:0:0:0:0:
475,192,62481,128,0,62815:0:0:0:0:
256,192,62481,128,0,63148:0:0:0:0:
36,192,62481,128,0,62565:0:0:0:0:
109,192,62481,1,0,0:0:0:0:
109,192,62565,128,0,62648:0:0:0:0:
329,192,62648,128,0,62731:0:0:0:0:
182,192,62648,1,0,0:0:0:0:
182,192,62731,128,0,62815:0:0:0:0:
329,192,62815,128,0,63148:0:0:0:0:
109,192,62815,1,0,0:0:0:0:
36,192,62815,1,0,0:0:0:0:
109,192,62898,128,0,62981:0:0:0:0:
402,192,62981,128,0,63065:0:0:0:0:
182,192,62981,1,0,0:0:0:0:
475,192,63065,128,0,63148:0:0:0:0:
36,192,63148,128,0,63481:0:0:0:0:
109,192,63148,128,0,63815:0:0:0:0:
182,192,63148,128,0,63231:0:0:0:0:
402,192,63148,1,0,0:0:0:0:
402,192,63231,128,0,63315:0:0:0:0:
256,192,63315,128,0,63398:0:0:0:0:
329,192,63315,1,0,0:0:0:0:
475,192,63398,128,0,63481:0:0:0:0:
182,192,63481,128,0,63815:0:0:0:0:
329,192,63481,128,0,63565:0:0:0:0:
402,192,63481,1,0,0:0:0:0:
256,192,63481,1,0,0:0:0:0:
256,192,63565,128,0,63648:0:0:0:0:
475,192,63565,1,0,0:0:0:0:
475,192,63648,128,0,63731:0:0:0:0:
36,192,63648,1,0,0:0:0:0:
256,192,63731,128,0,63815:0:0:0:0:
329,192,63731,1,0,0:0:0:0:
402,192,63815,128,0,64148:0:0:0:0:
329,192,63815,128,0,64481:0:0:0:0:
36,192,63815,128,0,63898:0:0:0:0:
475,192,63815,1,0,0:0:0:0:
475,192,63898,128,0,63981:0:0:0:0:
182,192,63898,1,0,0:0:0:0:
182,192,63981,128,0,64065:0:0:0:0:
256,192,63981,1,0,0:0:0:0:
109,192,63981,1,0,0:0:0:0:
109,192,64065,128,0,64148:0:0:0:0:
36,192,64065,1,0,0:0:0:0:
256,192,64148,128,0,64481:0:0:0:0:
36,192,64148,128,0,64231:0:0:0:0:
475,192,64148,1,0,0:0:0:0:
182,192,64148,1,0,0:0:0:0:
475,192,64231,128,0,64315:0:0:0:0:
402,192,64231,1,0,0:0:0:0:
182,192,64315,128,0,64398:0:0:0:0:
109,192,64315,1,0,0:0:0:0:
36,192,64398,128,0,64481:0:0:0:0:
475,192,64398,1,0,0:0:0:0:
475,192,64481,128,0,64815:0:0:0:0:
109,192,64481,128,0,65148:0:0:0:0:
402,192,64481,128,0,64565:0:0:0:0:
182,192,64481,1,0,0:0:0:0:
182,192,64565,128,0,64648:0:0:0:0:
329,192,64565,1,0,0:0:0:0:
329,192,64648,128,0,64731:0:0:0:0:
36,192,64648,1,0,0:0:0:0:
256,192,64731,128,0,64815:0:0:0:0:
182,192,64731,1,0,0:0:0:0:
182,192,64815,128,0,65148:0:0:0:0:
36,192,64815,128,0,64898:0:0:0:0:
402,192,64815,1,0,0:0:0:0:
329,192,64815,1,0,0:0:0:0:
402,192,64898,128,0,64981:0:0:0:0:
329,192,64898,1,0,0:0:0:0:
475,192,64981,128,0,65065:0:0:0:0:
256,192,64981,1,0,0:0:0:0:
329,192,65065,128,0,65148:0:0:0:0:
36,192,65065,1,0,0:0:0:0:
402,192,65148,128,0,65481:0:0:0:0:
256,192,65148,128,0,65815:0:0:0:0:
36,192,65148,128,0,65231:0:0:0:0:
475,192,65148,1,0,0:0:0:0:
329,192,65231,128,0,65315:0:0:0:0:
475,192,65231,1,0,0:0:0:0:
182,192,65315,128,0,65398:0:0:0:0:
109,192,65315,1,0,0:0:0:0:
475,192,65398,128,0,65481:0:0:0:0:
329,192,65398,1,0,0:0:0:0:
109,192,65481,128,0,65815:0:0:0:0:
329,192,65481,128,0,65565:0:0:0:0:
182,192,65481,1,0,0:0:0:0:
36,192,65481,1,0,0:0:0:0:
36,192,65565,128,0,65648:0:0:0:0:
402,192,65565,1,0,0:0:0:0:
182,192,65648,128,0,65731:0:0:0:0:
475,192,65648,1,0,0:0:0:0:
402,192,65731,128,0,65815:0:0:0:0:
329,192,65731,1,0,0:0:0:0:
329,192,65815,128,0,66148:0:0:0:0:
475,192,65815,128,0,66481:0:0:0:0:
36,192,65815,128,0,65898:0:0:0:0:
182,192,65815,1,0,0:0:0:0:
182,192,65898,128,0,65981:0:0:0:0:
256,192,65898,1,0,0:0:0:0:
109,192,65981,128,0,66065:0:0:0:0:
402,192,65981,1,0,0:0:0:0:
256,192,66065,128,0,66148:0:0:0:0:
36,192,66065,1,0,0:0:0:0:
182,192,66148,128,0,66481:0:0:0:0:
36,192,66148,128,0,66231:0:0:0:0:
109,192,66148,1,0,0:0:0:0:
402,192,66148,1,0,0:0:0:0:
402,192,66231,128,0,66315:0:0:0:0:
256,192,66231,1,0,0:0:0:0:
109,192,66315,128,0,66398:0:0:0:0:
329,192,66315,1,0,0:0:0:0:
36,192,66398,128,0,66481:0:0:0:0:
402,192,66398,1,0,0:0:0:0:
402,192,66481,128,0,66815:0:0:0:0:
329,192,66481,128,0,67148:0:0:0:0:
109,192,66481,128,0,66565:0:0:0:0:
256,192,66481,1,0,0:0:0:0:
256,192,66565,128,0,66648:0:0:0:0:
182,192,66565,1,0,0:0:0:0:
475,192,66648,128,0,66731:0:0:0:0:
36,192,66648,1,0,0:0:0:0:
182,192,66731,128,0,66815:0:0:0:0:
256,192,66731,1,0,0:0:0:0:
256,192,66815,128,0,67148:0:0:0:0:
36,192,66815,128,0,66898:0:0:0:0:
109,192,66815,1,0,0:0:0:0:
475,192,66815,1,0,0:0:0:0:
475,192,66898,128,0,66981:0:0:0:0:
402,192,66898,1,0,0:0:0:0:
182,192,66981,128,0,67065:0:0:0:0:
109,192,66981,1,0,0:0:0:0:
402,192,67065,128,0,67148:0:0:0:0:
475,192,67065,1,0,0:0:0:0:
109,192,67148,128,0,67481:0:0:0:0:
36,192,67148,128,0,67815:0:0:0:0:
182,192,67148,1,0,0:0:0:0:
475,192,67148,1,0,0:0:0:0:
182,192,67231,128,0,67315:0:0:0:0:
256,192,67231,1,0,0:0:0:0:
329,192,67315,128,0,67398:0:0:0:0:
402,192,67315,1,0,0:0:0:0:
475,192,67398,128,0,67481:0:0:0:0:
256,192,67398,1,0,0:0:0:0:
402,192,67481,128,0,67815:0:0:0:0:
256,192,67481,128,0,67565:0:0:0:0:
329,192,67481,1,0,0:0:0:0:
182,192,67481,1,0,0:0:0:0:
182,192,67565,128,0,67648:0:0:0:0:
475,192,67565,1,0,0:0:0:0:
475,192,67648,128,0,67731:0:0:0:0:
109,192,67648,1,0,0:0:0:0:
329,192,67731,128,0,67815:0:0:0:0:
256,192,67731,1,0,0:0:0:0:
182,192,67815,128,0,68148:0:0:0:0:
109,192,67815,1,0,0:0:0:0:
475,192,67815,1,0,0:0:0:0:
256,192,67815,128,0,68148:0:0:0:0:
109,192,67898,128,0,67981:0:0:0:0:
475,192,67898,1,0,0:0:0:0:
402,192,67981,128,0,68065:0:0:0:0:
36,192,67981,1,0,0:0:0:0:
329,192,68065,128,0,68231:0:0:0:0:
109,192,68065,1,0,0:0:0:0:
475,192,68148,128,0,68481:0:0:0:0:
36,192,68148,128,0,68231:0:0:0:0:
109,192,68148,1,0,0:0:0:0:
402,192,68148,1,0,0:0:0:0:
109,192,68315,1,0,0:0:0:0:
402,192,68315,1,0,0:0:0:0:
329,192,68481,1,0,0:0:0:0:
182,192,68481,1,0,0:0:0:0:
36,192,68481,1,0,0:0:0:0:
402,192,68648,1,0,0:0:0:0:
256,192,68648,1,0,0:0:0:0:
36,192,68815,1,0,0:0:0:0:
475,192,68815,1,0,0:0:0:0:
256,192,68815,1,0,0:0:0:0:
402,192,68867,1,0,0:0:0:0:
182,192,68867,1,0,0:0:0:0:
109,192,68929,1,0,0:0:0:0:
329,192,68929,1,0,0:0:0:0:
36,192,68981,1,0,0:0:0:0:
475,192,68981,1,0,0:0:0:0:
402,192,68981,1,0,0:0:0:0:
256,192,69033,1,0,0:0:0:0:
109,192,69033,1,0,0:0:0:0:
329,192,69096,1,0,0:0:0:0:
182,192,69096,1,0,0:0:0:0:
36,192,69148,1,0,0:0:0:0:
475,192,69148,1,0,0:0:0:0:
402,192,69148,1,0,0:0:0:0:
109,192,69148,1,0,0:0:0:0:
256,192,69200,1,0,0:0:0:0:
182,192,69262,1,0,0:0:0:0:
402,192,69262,1,0,0:0:0:0:
475,192,69315,1,0,0:0:0:0:
109,192,69315,1,0,0:0:0:0:
329,192,69367,1,0,0:0:0:0:
36,192,69367,1,0,0:0:0:0:
182,192,69429,1,0,0:0:0:0:
402,192,69429,1,0,0:0:0:0:
256,192,69481,1,0,0:0:0:0:
36,192,69481,1,0,0:0:0:0:
109,192,69481,1,0,0:0:0:0:
475,192,69481,1,0,0:0:0:0:
329,192,69533,1,0,0:0:0:0:
402,192,69533,1,0,0:0:0:0:
182,192,69596,1,0,0:0:0:0:
475,192,69596,1,0,0:0:0:0:
402,192,69648,1,0,0:0:0:0:
109,192,69648,1,0,0:0:0:0:
36,192,69648,1,0,0:0:0:0:
256,192,69700,1,0,0:0:0:0:
329,192,69700,1,0,0:0:0:0:
182,192,69762,1,0,0:0:0:0:
475,192,69762,1,0,0:0:0:0:
402,192,69815,1,0,0:0:0:0:
109,192,69815,1,0,0:0:0:0:
256,192,69815,1,0,0:0:0:0:
329,192,69867,1,0,0:0:0:0:
36,192,69867,1,0,0:0:0:0:
182,192,69929,1,0,0:0:0:0:
475,192,69929,1,0,0:0:0:0:
402,192,69981,1,0,0:0:0:0:
256,192,69981,1,0,0:0:0:0:
109,192,69981,1,0,0:0:0:0:
36,192,70033,1,0,0:0:0:0:
329,192,70033,1,0,0:0:0:0:
182,192,70096,1,0,0:0:0:0:
475,192,70096,1,0,0:0:0:0:
402,192,70148,1,0,0:0:0:0:
256,192,70148,1,0,0:0:0:0:
109,192,70148,1,0,0:0:0:0:
36,192,70200,1,0,0:0:0:0:
329,192,70200,1,0,0:0:0:0:
182,192,70262,1,0,0:0:0:0:
475,192,70262,1,0,0:0:0:0:
402,192,70315,1,0,0:0:0:0:
109,192,70315,1,0,0:0:0:0:
36,192,70315,1,0,0:0:0:0:
256,192,70367,1,0,0:0:0:0:
475,192,70367,1,0,0:0:0:0:
329,192,70429,1,0,0:0:0:0:
182,192,70429,1,0,0:0:0:0:
36,192,70481,1,0,0:0:0:0:
256,192,70481,1,0,0:0:0:0:
475,192,70481,1,0,0:0:0:0:
402,192,70481,1,0,0:0:0:0:
109,192,70533,1,0,0:0:0:0:
329,192,70533,1,0,0:0:0:0:
182,192,70596,1,0,0:0:0:0:
402,192,70596,1,0,0:0:0:0:
475,192,70648,1,0,0:0:0:0:
109,192,70648,1,0,0:0:0:0:
36,192,70648,1,0,0:0:0:0:
256,192,70700,1,0,0:0:0:0:
329,192,70700,1,0,0:0:0:0:
402,192,70762,1,0,0:0:0:0:
182,192,70762,1,0,0:0:0:0:
475,192,70815,1,0,0:0:0:0:
109,192,70815,1,0,0:0:0:0:
36,192,70815,1,0,0:0:0:0:
329,192,70867,1,0,0:0:0:0:
182,192,70867,1,0,0:0:0:0:
402,192,70929,1,0,0:0:0:0:
256,192,70929,1,0,0:0:0:0:
109,192,70981,1,0,0:0:0:0:
475,192,70981,1,0,0:0:0:0:
182,192,71033,1,0,0:0:0:0:
329,192,71033,1,0,0:0:0:0:
36,192,71096,1,0,0:0:0:0:
402,192,71096,1,0,0:0:0:0:
256,192,71148,1,0,0:0:0:0:
109,192,71148,1,0,0:0:0:0:
475,192,71148,1,0,0:0:0:0:
329,192,71200,1,0,0:0:0:0:
36,192,71200,1,0,0:0:0:0:
182,192,71262,1,0,0:0:0:0:
402,192,71262,1,0,0:0:0:0:
475,192,71315,1,0,0:0:0:0:
36,192,71315,1,0,0:0:0:0:
109,192,71315,1,0,0:0:0:0:
329,192,71367,1,0,0:0:0:0:
256,192,71367,1,0,0:0:0:0:
182,192,71429,1,0,0:0:0:0:
475,192,71481,1,0,0:0:0:0:
402,192,71481,1,0,0:0:0:0:
109,192,71481,1,0,0:0:0:0:
36,192,71533,1,0,0:0:0:0:
256,192,71533,1,0,0:0:0:0:
182,192,71596,1,0,0:0:0:0:
329,192,71596,1,0,0:0:0:0:
402,192,71648,1,0,0:0:0:0:
109,192,71648,1,0,0:0:0:0:
36,192,71648,1,0,0:0:0:0:
256,192,71700,1,0,0:0:0:0:
475,192,71700,1,0,0:0:0:0:
402,192,71762,1,0,0:0:0:0:
182,192,71762,1,0,0:0:0:0:
329,192,71815,1,0,0:0:0:0:
256,192,71815,1,0,0:0:0:0:
36,192,71815,1,0,0:0:0:0:
475,192,71815,1,0,0:0:0:0:
109,192,71867,1,0,0:0:0:0:
402,192,71867,1,0,0:0:0:0:
182,192,71929,1,0,0:0:0:0:
329,192,71929,1,0,0:0:0:0:
475,192,71981,1,0,0:0:0:0:
256,192,71981,1,0,0:0:0:0:
36,192,71981,1,0,0:0:0:0:
109,192,72033,1,0,0:0:0:0:
402,192,72033,1,0,0:0:0:0:
182,192,72096,1,0,0:0:0:0:
475,192,72096,1,0,0:0:0:0:
329,192,72148,1,0,0:0:0:0:
36,192,72148,1,0,0:0:0:0:
109,192,72200,1,0,0:0:0:0:
402,192,72200,1,0,0:0:0:0:
256,192,72262,1,0,0:0:0:0:
475,192,72262,1,0,0:0:0:0:
36,192,72315,1,0,0:0:0:0:
182,192,72315,1,0,0:0:0:0:
329,192,72315,1,0,0:0:0:0:
402,192,72367,1,0,0:0:0:0:
109,192,72367,1,0,0:0:0:0:
475,192,72429,1,0,0:0:0:0:
256,192,72429,1,0,0:0:0:0:
109,192,72481,1,0,0:0:0:0:
329,192,72481,1,0,0:0:0:0:
36,192,72481,1,0,0:0:0:0:
402,192,72533,1,0,0:0:0:0:
182,192,72533,1,0,0:0:0:0:
256,192,72596,1,0,0:0:0:0:
329,192,72596,1,0,0:0:0:0:
475,192,72648,1,0,0:0:0:0:
109,192,72648,1,0,0:0:0:0:
402,192,72648,1,0,0:0:0:0:
36,192,72700,1,0,0:0:0:0:
182,192,72700,1,0,0:0:0:0:
329,192,72762,1,0,0:0:0:0:
109,192,72762,1,0,0:0:0:0:
475,192,72815,1,0,0:0:0:0:
402,192,72815,1,0,0:0:0:0:
256,192,72815,1,0,0:0:0:0:
36,192,72867,1,0,0:0:0:0:
329,192,72867,1,0,0:0:0:0:
182,192,72929,1,0,0:0:0:0:
475,192,72929,1,0,0:0:0:0:
402,192,72981,1,0,0:0:0:0:
109,192,72981,1,0,0:0:0:0:
36,192,72981,1,0,0:0:0:0:
256,192,73033,1,0,0:0:0:0:
329,192,73033,1,0,0:0:0:0:
182,192,73096,1,0,0:0:0:0:
402,192,73096,1,0,0:0:0:0:
475,192,73148,1,0,0:0:0:0:
109,192,73148,1,0,0:0:0:0:
36,192,73148,1,0,0:0:0:0:
256,192,73200,1,0,0:0:0:0:
402,192,73200,1,0,0:0:0:0:
182,192,73262,1,0,0:0:0:0:
329,192,73262,1,0,0:0:0:0:
109,192,73315,1,0,0:0:0:0:
475,192,73315,1,0,0:0:0:0:
36,192,73315,1,0,0:0:0:0:
256,192,73387,1,0,0:0:0:0:
402,192,73387,1,0,0:0:0:0:
109,192,73429,1,0,0:0:0:0:
475,192,73429,1,0,0:0:0:0:
329,192,73481,1,0,0:0:0:0:
182,192,73481,1,0,0:0:0:0:
36,192,73481,1,0,0:0:0:0:
475,192,73533,1,0,0:0:0:0:
256,192,73533,1,0,0:0:0:0:
402,192,73596,1,0,0:0:0:0:
109,192,73596,1,0,0:0:0:0:
36,192,73648,1,0,0:0:0:0:
475,192,73648,1,0,0:0:0:0:
182,192,73648,1,0,0:0:0:0:
329,192,73700,1,0,0:0:0:0:
256,192,73700,1,0,0:0:0:0:
109,192,73742,1,0,0:0:0:0:
402,192,73742,1,0,0:0:0:0:
475,192,73815,1,0,0:0:0:0:
256,192,73815,1,0,0:0:0:0:
182,192,73815,1,0,0:0:0:0:
36,192,73815,1,0,0:0:0:0:
402,192,73867,1,0,0:0:0:0:
109,192,73867,1,0,0:0:0:0:
329,192,73929,1,0,0:0:0:0:
182,192,73981,1,0,0:0:0:0:
256,192,73981,1,0,0:0:0:0:
475,192,73981,1,0,0:0:0:0:
36,192,74033,1,0,0:0:0:0:
402,192,74033,1,0,0:0:0:0:
109,192,74096,1,0,0:0:0:0:
329,192,74096,1,0,0:0:0:0:
182,192,74148,1,0,0:0:0:0:
475,192,74148,1,0,0:0:0:0:
36,192,74148,1,0,0:0:0:0:
256,192,74200,1,0,0:0:0:0:
402,192,74200,1,0,0:0:0:0:
109,192,74262,1,0,0:0:0:0:
329,192,74262,1,0,0:0:0:0:
475,192,74315,1,0,0:0:0:0:
402,192,74315,1,0,0:0:0:0:
36,192,74315,1,0,0:0:0:0:
182,192,74367,1,0,0:0:0:0:
256,192,74367,1,0,0:0:0:0:
329,192,74429,1,0,0:0:0:0:
109,192,74429,1,0,0:0:0:0:
256,192,74481,1,0,0:0:0:0:
475,192,74481,1,0,0:0:0:0:
36,192,74481,1,0,0:0:0:0:
182,192,74533,1,0,0:0:0:0:
402,192,74533,1,0,0:0:0:0:
329,192,74596,1,0,0:0:0:0:
109,192,74596,1,0,0:0:0:0:
402,192,74648,1,0,0:0:0:0:
475,192,74648,1,0,0:0:0:0:
36,192,74648,1,0,0:0:0:0:
109,192,74700,1,0,0:0:0:0:
256,192,74700,1,0,0:0:0:0:
182,192,74762,1,0,0:0:0:0:
329,192,74762,1,0,0:0:0:0:
402,192,74815,1,0,0:0:0:0:
109,192,74815,1,0,0:0:0:0:
36,192,74815,1,0,0:0:0:0:
475,192,74815,1,0,0:0:0:0:
256,192,74867,1,0,0:0:0:0:
402,192,74929,1,0,0:0:0:0:
182,192,74929,1,0,0:0:0:0:
109,192,74981,1,0,0:0:0:0:
475,192,74981,1,0,0:0:0:0:
36,192,75033,1,0,0:0:0:0:
329,192,75033,1,0,0:0:0:0:
402,192,75096,1,0,0:0:0:0:
182,192,75096,1,0,0:0:0:0:
109,192,75148,1,0,0:0:0:0:
475,192,75148,1,0,0:0:0:0:
256,192,75148,1,0,0:0:0:0:
36,192,75148,1,0,0:0:0:0:
402,192,75200,1,0,0:0:0:0:
329,192,75200,1,0,0:0:0:0:
475,192,75262,1,0,0:0:0:0:
182,192,75262,1,0,0:0:0:0:
36,192,75315,1,0,0:0:0:0:
109,192,75315,1,0,0:0:0:0:
402,192,75315,1,0,0:0:0:0:
329,192,75367,1,0,0:0:0:0:
256,192,75367,1,0,0:0:0:0:
475,192,75429,1,0,0:0:0:0:
182,192,75429,1,0,0:0:0:0:
256,192,75481,1,0,0:0:0:0:
109,192,75481,1,0,0:0:0:0:
402,192,75481,1,0,0:0:0:0:
36,192,75533,1,0,0:0:0:0:
329,192,75533,1,0,0:0:0:0:
475,192,75596,1,0,0:0:0:0:
182,192,75596,1,0,0:0:0:0:
109,192,75648,1,0,0:0:0:0:
256,192,75648,1,0,0:0:0:0:
402,192,75648,1,0,0:0:0:0:
329,192,75700,1,0,0:0:0:0:
36,192,75700,1,0,0:0:0:0:
475,192,75762,1,0,0:0:0:0:
182,192,75762,1,0,0:0:0:0:
109,192,75815,1,0,0:0:0:0:
256,192,75815,1,0,0:0:0:0:
402,192,75815,1,0,0:0:0:0:
329,192,75867,1,0,0:0:0:0:
36,192,75867,1,0,0:0:0:0:
475,192,75929,1,0,0:0:0:0:
182,192,75929,1,0,0:0:0:0:
36,192,75981,1,0,0:0:0:0:
109,192,75981,1,0,0:0:0:0:
402,192,75981,1,0,0:0:0:0:
475,192,76033,1,0,0:0:0:0:
256,192,76033,1,0,0:0:0:0:
182,192,76096,1,0,0:0:0:0:
329,192,76096,1,0,0:0:0:0:
475,192,76148,1,0,0:0:0:0:
402,192,76148,1,0,0:0:0:0:
36,192,76148,1,0,0:0:0:0:
256,192,76148,1,0,0:0:0:0:
329,192,76200,1,0,0:0:0:0:
109,192,76200,1,0,0:0:0:0:
402,192,76262,1,0,0:0:0:0:
182,192,76262,1,0,0:0:0:0:
36,192,76315,1,0,0:0:0:0:
109,192,76315,1,0,0:0:0:0:
475,192,76315,1,0,0:0:0:0:
329,192,76367,1,0,0:0:0:0:
256,192,76367,1,0,0:0:0:0:
182,192,76429,1,0,0:0:0:0:
402,192,76429,1,0,0:0:0:0:
36,192,76481,1,0,0:0:0:0:
109,192,76481,1,0,0:0:0:0:
475,192,76481,1,0,0:0:0:0:
182,192,76533,1,0,0:0:0:0:
329,192,76533,1,0,0:0:0:0:
256,192,76596,1,0,0:0:0:0:
402,192,76596,1,0,0:0:0:0:
475,192,76648,1,0,0:0:0:0:
109,192,76648,1,0,0:0:0:0:
329,192,76700,1,0,0:0:0:0:
182,192,76700,1,0,0:0:0:0:
402,192,76762,1,0,0:0:0:0:
36,192,76762,1,0,0:0:0:0:
475,192,76815,1,0,0:0:0:0:
109,192,76815,1,0,0:0:0:0:
256,192,76815,1,0,0:0:0:0:
36,192,76867,1,0,0:0:0:0:
329,192,76867,1,0,0:0:0:0:
402,192,76929,1,0,0:0:0:0:
182,192,76929,1,0,0:0:0:0:
109,192,76981,1,0,0:0:0:0:
36,192,76981,1,0,0:0:0:0:
475,192,76981,1,0,0:0:0:0:
256,192,77033,1,0,0:0:0:0:
329,192,77033,1,0,0:0:0:0:
182,192,77096,1,0,0:0:0:0:
109,192,77148,1,0,0:0:0:0:
402,192,77148,1,0,0:0:0:0:
475,192,77148,1,0,0:0:0:0:
256,192,77200,1,0,0:0:0:0:
36,192,77200,1,0,0:0:0:0:
329,192,77262,1,0,0:0:0:0:
182,192,77262,1,0,0:0:0:0:
36,192,77315,1,0,0:0:0:0:
109,192,77315,1,0,0:0:0:0:
402,192,77315,1,0,0:0:0:0:
475,192,77367,1,0,0:0:0:0:
256,192,77367,1,0,0:0:0:0:
182,192,77429,1,0,0:0:0:0:
402,192,77429,1,0,0:0:0:0:
36,192,77481,1,0,0:0:0:0:
475,192,77481,1,0,0:0:0:0:
329,192,77481,1,0,0:0:0:0:
256,192,77481,1,0,0:0:0:0:
402,192,77533,1,0,0:0:0:0:
109,192,77533,1,0,0:0:0:0:
329,192,77596,1,0,0:0:0:0:
182,192,77596,1,0,0:0:0:0:
36,192,77648,1,0,0:0:0:0:
256,192,77648,1,0,0:0:0:0:
475,192,77648,1,0,0:0:0:0:
402,192,77700,1,0,0:0:0:0:
109,192,77700,1,0,0:0:0:0:
475,192,77762,1,0,0:0:0:0:
182,192,77762,1,0,0:0:0:0:
36,192,77815,1,0,0:0:0:0:
329,192,77815,1,0,0:0:0:0:
402,192,77867,1,0,0:0:0:0:
109,192,77867,1,0,0:0:0:0:
475,192,77929,1,0,0:0:0:0:
256,192,77929,1,0,0:0:0:0:
329,192,77981,1,0,0:0:0:0:
182,192,77981,1,0,0:0:0:0:
36,192,77981,1,0,0:0:0:0:
109,192,78033,1,0,0:0:0:0:
402,192,78033,1,0,0:0:0:0:
256,192,78096,1,0,0:0:0:0:
475,192,78096,1,0,0:0:0:0:
36,192,78148,1,0,0:0:0:0:
329,192,78148,1,0,0:0:0:0:
109,192,78148,1,0,0:0:0:0:
182,192,78200,1,0,0:0:0:0:
402,192,78200,1,0,0:0:0:0:
329,192,78262,1,0,0:0:0:0:
256,192,78262,1,0,0:0:0:0:
402,192,78315,1,0,0:0:0:0:
109,192,78315,1,0,0:0:0:0:
475,192,78315,1,0,0:0:0:0:
182,192,78367,1,0,0:0:0:0:
36,192,78367,1,0,0:0:0:0:
109,192,78429,1,0,0:0:0:0:
329,192,78429,1,0,0:0:0:0:
256,192,78481,1,0,0:0:0:0:
402,192,78481,1,0,0:0:0:0:
475,192,78481,1,0,0:0:0:0:
329,192,78533,1,0,0:0:0:0:
36,192,78533,1,0,0:0:0:0:
475,192,78596,1,0,0:0:0:0:
182,192,78596,1,0,0:0:0:0:
36,192,78648,1,0,0:0:0:0:
109,192,78648,1,0,0:0:0:0:
402,192,78648,1,0,0:0:0:0:
329,192,78700,1,0,0:0:0:0:
256,192,78700,1,0,0:0:0:0:
402,192,78762,1,0,0:0:0:0:
182,192,78762,1,0,0:0:0:0:
36,192,78815,1,0,0:0:0:0:
109,192,78815,1,0,0:0:0:0:
475,192,78815,1,0,0:0:0:0:
402,192,78867,1,0,0:0:0:0:
256,192,78867,1,0,0:0:0:0:
329,192,78929,1,0,0:0:0:0:
182,192,78929,1,0,0:0:0:0:
36,192,78981,1,0,0:0:0:0:
475,192,78981,1,0,0:0:0:0:
109,192,78981,1,0,0:0:0:0:
402,192,79054,1,0,0:0:0:0:
256,192,79054,1,0,0:0:0:0:
475,192,79096,1,0,0:0:0:0:
109,192,79096,1,0,0:0:0:0:
36,192,79148,1,0,0:0:0:0:
182,192,79148,1,0,0:0:0:0:
329,192,79148,1,0,0:0:0:0:
256,192,79200,1,0,0:0:0:0:
475,192,79200,1,0,0:0:0:0:
109,192,79262,1,0,0:0:0:0:
402,192,79262,1,0,0:0:0:0:
182,192,79315,1,0,0:0:0:0:
475,192,79315,1,0,0:0:0:0:
36,192,79315,1,0,0:0:0:0:
256,192,79367,1,0,0:0:0:0:
329,192,79367,1,0,0:0:0:0:
402,192,79408,1,0,0:0:0:0:
109,192,79408,1,0,0:0:0:0:
475,192,79481,128,0,79648:0:0:0:0:
36,192,79481,1,0,0:0:0:0:
109,192,79523,1,0,0:0:0:0:
329,192,79565,128,0,79731:0:0:0:0:
182,192,79565,1,0,0:0:0:0:
256,192,79606,1,0,0:0:0:0:
402,192,79648,128,0,79731:0:0:0:0:
36,192,79648,1,0,0:0:0:0:
109,192,79690,1,0,0:0:0:0:
475,192,79731,128,0,79898:0:0:0:0:
182,192,79731,1,0,0:0:0:0:
256,192,79773,1,0,0:0:0:0:
329,192,79815,128,0,79981:0:0:0:0:
402,192,79815,128,0,79898:0:0:0:0:
36,192,79815,1,0,0:0:0:0:
109,192,79856,1,0,0:0:0:0:
182,192,79898,1,0,0:0:0:0:
256,192,79940,1,0,0:0:0:0:
475,192,79981,128,0,80148:0:0:0:0:
402,192,79981,128,0,80065:0:0:0:0:
36,192,79981,1,0,0:0:0:0:
109,192,80023,1,0,0:0:0:0:
329,192,80065,128,0,80231:0:0:0:0:
182,192,80065,1,0,0:0:0:0:
256,192,80106,1,0,0:0:0:0:
402,192,80148,128,0,80231:0:0:0:0:
36,192,80148,1,0,0:0:0:0:
109,192,80190,1,0,0:0:0:0:
475,192,80231,128,0,80398:0:0:0:0:
182,192,80231,1,0,0:0:0:0:
256,192,80273,1,0,0:0:0:0:
329,192,80315,128,0,80481:0:0:0:0:
402,192,80315,128,0,80398:0:0:0:0:
36,192,80315,1,0,0:0:0:0:
109,192,80356,1,0,0:0:0:0:
182,192,80398,1,0,0:0:0:0:
256,192,80440,1,0,0:0:0:0:
475,192,80481,128,0,80648:0:0:0:0:
402,192,80481,128,0,80565:0:0:0:0:
36,192,80481,1,0,0:0:0:0:
109,192,80523,1,0,0:0:0:0:
329,192,80565,128,0,80731:0:0:0:0:
182,192,80565,1,0,0:0:0:0:
256,192,80606,1,0,0:0:0:0:
402,192,80648,128,0,80731:0:0:0:0:
36,192,80648,1,0,0:0:0:0:
109,192,80690,1,0,0:0:0:0:
182,192,80731,1,0,0:0:0:0:
475,192,80731,128,0,80815:0:0:0:0:
256,192,80773,1,0,0:0:0:0:
36,192,80815,128,0,80981:0:0:0:0:
109,192,80815,128,0,80898:0:0:0:0:
402,192,80856,1,0,0:0:0:0:
182,192,80898,128,0,81065:0:0:0:0:
329,192,80898,1,0,0:0:0:0:
256,192,80940,1,0,0:0:0:0:
109,192,80981,128,0,81065:0:0:0:0:
475,192,80981,1,0,0:0:0:0:
402,192,81023,1,0,0:0:0:0:
36,192,81065,128,0,81231:0:0:0:0:
329,192,81065,1,0,0:0:0:0:
256,192,81106,1,0,0:0:0:0:
182,192,81148,128,0,81315:0:0:0:0:
109,192,81148,128,0,81231:0:0:0:0:
475,192,81148,1,0,0:0:0:0:
402,192,81190,1,0,0:0:0:0:
329,192,81231,1,0,0:0:0:0:
256,192,81273,1,0,0:0:0:0:
36,192,81315,128,0,81481:0:0:0:0:
109,192,81315,128,0,81398:0:0:0:0:
475,192,81315,1,0,0:0:0:0:
402,192,81356,1,0,0:0:0:0:
182,192,81398,128,0,81565:0:0:0:0:
329,192,81398,1,0,0:0:0:0:
256,192,81440,1,0,0:0:0:0:
109,192,81481,128,0,81565:0:0:0:0:
475,192,81481,1,0,0:0:0:0:
402,192,81523,1,0,0:0:0:0:
36,192,81565,128,0,81731:0:0:0:0:
329,192,81565,1,0,0:0:0:0:
256,192,81606,1,0,0:0:0:0:
182,192,81648,128,0,81815:0:0:0:0:
109,192,81648,128,0,81731:0:0:0:0:
475,192,81648,1,0,0:0:0:0:
402,192,81690,1,0,0:0:0:0:
329,192,81731,1,0,0:0:0:0:
256,192,81773,1,0,0:0:0:0:
36,192,81815,128,0,81981:0:0:0:0:
109,192,81815,128,0,81898:0:0:0:0:
475,192,81815,1,0,0:0:0:0:
402,192,81856,1,0,0:0:0:0:
182,192,81898,128,0,82065:0:0:0:0:
329,192,81898,1,0,0:0:0:0:
256,192,81940,1,0,0:0:0:0:
109,192,81981,128,0,82065:0:0:0:0:
475,192,81981,1,0,0:0:0:0:
402,192,82023,1,0,0:0:0:0:
36,192,82065,128,0,82148:0:0:0:0:
329,192,82065,1,0,0:0:0:0:
256,192,82106,1,0,0:0:0:0:
182,192,82148,1,0,0:0:0:0:
475,192,82148,1,0,0:0:0:0:
402,192,82200,1,0,0:0:0:0:
109,192,82200,1,0,0:0:0:0:
36,192,82262,1,0,0:0:0:0:
329,192,82262,1,0,0:0:0:0:
256,192,82315,1,0,0:0:0:0:
182,192,82315,1,0,0:0:0:0:
36,192,82367,1,0,0:0:0:0:
109,192,82367,1,0,0:0:0:0:
475,192,82367,1,0,0:0:0:0:
402,192,82429,1,0,0:0:0:0:
182,192,82429,1,0,0:0:0:0:
329,192,82481,1,0,0:0:0:0:
109,192,82481,1,0,0:0:0:0:
256,192,82533,1,0,0:0:0:0:
36,192,82533,1,0,0:0:0:0:
182,192,82596,1,0,0:0:0:0:
475,192,82596,1,0,0:0:0:0:
402,192,82648,1,0,0:0:0:0:
109,192,82648,1,0,0:0:0:0:
329,192,82700,1,0,0:0:0:0:
36,192,82700,1,0,0:0:0:0:
256,192,82762,1,0,0:0:0:0:
182,192,82762,1,0,0:0:0:0:
475,192,82815,1,0,0:0:0:0:
109,192,82815,1,0,0:0:0:0:
402,192,82867,1,0,0:0:0:0:
36,192,82867,1,0,0:0:0:0:
329,192,82929,1,0,0:0:0:0:
256,192,82981,1,0,0:0:0:0:
182,192,82981,1,0,0:0:0:0:
109,192,83033,1,0,0:0:0:0:
36,192,83033,1,0,0:0:0:0:
475,192,83096,1,0,0:0:0:0:
256,192,83096,1,0,0:0:0:0:
402,192,83148,1,0,0:0:0:0:
182,192,83148,1,0,0:0:0:0:
329,192,83200,1,0,0:0:0:0:
109,192,83200,1,0,0:0:0:0:
256,192,83262,1,0,0:0:0:0:
36,192,83262,1,0,0:0:0:0:
182,192,83315,1,0,0:0:0:0:
475,192,83315,1,0,0:0:0:0:
402,192,83367,1,0,0:0:0:0:
109,192,83367,1,0,0:0:0:0:
36,192,83429,1,0,0:0:0:0:
109,192,83481,1,0,0:0:0:0:
329,192,83481,1,0,0:0:0:0:
182,192,83533,1,0,0:0:0:0:
402,192,83544,1,0,0:0:0:0:
256,192,83596,1,0,0:0:0:0:
475,192,83596,1,0,0:0:0:0:
329,192,83648,1,0,0:0:0:0:
36,192,83648,1,0,0:0:0:0:
109,192,83700,1,0,0:0:0:0:
402,192,83700,1,0,0:0:0:0:
182,192,83762,1,0,0:0:0:0:
475,192,83762,1,0,0:0:0:0:
36,192,83815,1,0,0:0:0:0:
256,192,83815,1,0,0:0:0:0:
109,192,83867,1,0,0:0:0:0:
329,192,83867,1,0,0:0:0:0:
182,192,83929,1,0,0:0:0:0:
402,192,83929,1,0,0:0:0:0:
256,192,83981,1,0,0:0:0:0:
475,192,83981,1,0,0:0:0:0:
36,192,84033,1,0,0:0:0:0:
329,192,84033,1,0,0:0:0:0:
109,192,84096,1,0,0:0:0:0:
402,192,84096,1,0,0:0:0:0:
475,192,84148,1,0,0:0:0:0:
182,192,84148,1,0,0:0:0:0:
256,192,84200,1,0,0:0:0:0:
36,192,84200,1,0,0:0:0:0:
329,192,84262,1,0,0:0:0:0:
109,192,84262,1,0,0:0:0:0:
402,192,84315,1,0,0:0:0:0:
182,192,84315,1,0,0:0:0:0:
475,192,84367,1,0,0:0:0:0:
36,192,84367,1,0,0:0:0:0:
109,192,84429,1,0,0:0:0:0:
329,192,84429,1,0,0:0:0:0:
182,192,84481,1,0,0:0:0:0:
402,192,84481,1,0,0:0:0:0:
256,192,84533,1,0,0:0:0:0:
475,192,84533,1,0,0:0:0:0:
36,192,84596,1,0,0:0:0:0:
329,192,84596,1,0,0:0:0:0:
109,192,84648,1,0,0:0:0:0:
402,192,84648,1,0,0:0:0:0:
182,192,84700,1,0,0:0:0:0:
475,192,84700,1,0,0:0:0:0:
36,192,84762,1,0,0:0:0:0:
256,192,84762,1,0,0:0:0:0:
109,192,84815,1,0,0:0:0:0:
475,192,84815,128,0,84898:0:0:0:0:
182,192,84867,1,0,0:0:0:0:
402,192,84898,128,0,84981:0:0:0:0:
256,192,84929,1,0,0:0:0:0:
329,192,84981,128,0,85065:0:0:0:0:
475,192,84981,1,0,0:0:0:0:
36,192,84981,1,0,0:0:0:0:
109,192,85033,1,0,0:0:0:0:
256,192,85065,128,0,85148:0:0:0:0:
182,192,85096,1,0,0:0:0:0:
402,192,85148,128,0,85231:0:0:0:0:
329,192,85148,1,0,0:0:0:0:
36,192,85148,1,0,0:0:0:0:
109,192,85200,1,0,0:0:0:0:
329,192,85231,128,0,85315:0:0:0:0:
182,192,85262,1,0,0:0:0:0:
256,192,85315,128,0,85398:0:0:0:0:
36,192,85315,1,0,0:0:0:0:
475,192,85315,1,0,0:0:0:0:
109,192,85367,1,0,0:0:0:0:
182,192,85398,128,0,85481:0:0:0:0:
402,192,85429,1,0,0:0:0:0:
329,192,85481,128,0,85565:0:0:0:0:
475,192,85481,1,0,0:0:0:0:
36,192,85481,1,0,0:0:0:0:
109,192,85533,1,0,0:0:0:0:
256,192,85565,128,0,85648:0:0:0:0:
402,192,85596,1,0,0:0:0:0:
182,192,85648,128,0,85731:0:0:0:0:
36,192,85648,1,0,0:0:0:0:
475,192,85658,1,0,0:0:0:0:
329,192,85700,1,0,0:0:0:0:
109,192,85731,128,0,85815:0:0:0:0:
402,192,85762,1,0,0:0:0:0:
256,192,85815,128,0,85898:0:0:0:0:
475,192,85815,1,0,0:0:0:0:
36,192,85815,1,0,0:0:0:0:
329,192,85867,1,0,0:0:0:0:
182,192,85898,128,0,85981:0:0:0:0:
402,192,85929,1,0,0:0:0:0:
109,192,85981,128,0,86065:0:0:0:0:
475,192,85981,1,0,0:0:0:0:
256,192,85981,1,0,0:0:0:0:
329,192,86033,1,0,0:0:0:0:
36,192,86065,128,0,86148:0:0:0:0:
402,192,86096,1,0,0:0:0:0:
182,192,86148,128,0,86231:0:0:0:0:
475,192,86148,1,0,0:0:0:0:
402,192,86200,1,0,0:0:0:0:
256,192,86231,128,0,86315:0:0:0:0:
109,192,86262,1,0,0:0:0:0:
36,192,86315,1,0,0:0:0:0:
475,192,86315,1,0,0:0:0:0:
329,192,86315,128,0,86398:0:0:0:0:
182,192,86367,1,0,0:0:0:0:
402,192,86398,128,0,86481:0:0:0:0:
109,192,86429,1,0,0:0:0:0:
36,192,86481,128,0,86565:0:0:0:0:
475,192,86481,1,0,0:0:0:0:
402,192,86533,1,0,0:0:0:0:
109,192,86565,128,0,86648:0:0:0:0:
329,192,86596,1,0,0:0:0:0:
182,192,86648,128,0,86731:0:0:0:0:
256,192,86648,1,0,0:0:0:0:
475,192,86648,1,0,0:0:0:0:
402,192,86700,1,0,0:0:0:0:
256,192,86731,128,0,86815:0:0:0:0:
329,192,86762,1,0,0:0:0:0:
109,192,86815,128,0,86898:0:0:0:0:
182,192,86815,1,0,0:0:0:0:
475,192,86815,1,0,0:0:0:0:
402,192,86867,1,0,0:0:0:0:
182,192,86898,128,0,86981:0:0:0:0:
329,192,86929,1,0,0:0:0:0:
256,192,86981,128,0,87065:0:0:0:0:
109,192,86981,1,0,0:0:0:0:
475,192,86981,1,0,0:0:0:0:
402,192,87033,1,0,0:0:0:0:
329,192,87065,128,0,87148:0:0:0:0:
109,192,87096,1,0,0:0:0:0:
182,192,87148,128,0,87231:0:0:0:0:
36,192,87148,1,0,0:0:0:0:
475,192,87148,1,0,0:0:0:0:
402,192,87200,1,0,0:0:0:0:
256,192,87231,128,0,87315:0:0:0:0:
109,192,87262,1,0,0:0:0:0:
329,192,87315,128,0,87398:0:0:0:0:
36,192,87315,1,0,0:0:0:0:
475,192,87315,1,0,0:0:0:0:
182,192,87367,1,0,0:0:0:0:
402,192,87398,128,0,87481:0:0:0:0:
109,192,87429,1,0,0:0:0:0:
109,192,87481,128,0,87565:0:0:0:0:
36,192,87481,1,0,0:0:0:0:
256,192,87481,1,0,0:0:0:0:
475,192,87481,1,0,0:0:0:0:
256,192,87565,128,0,87648:0:0:0:0:
182,192,87648,128,0,87731:0:0:0:0:
402,192,87648,1,0,0:0:0:0:
329,192,87648,1,0,0:0:0:0:
109,192,87648,1,0,0:0:0:0:
36,192,87648,1,0,0:0:0:0:
402,192,87731,128,0,87815:0:0:0:0:
329,192,87815,128,0,87898:0:0:0:0:
109,192,87815,1,0,0:0:0:0:
182,192,87815,1,0,0:0:0:0:
256,192,87815,1,0,0:0:0:0:
475,192,87815,1,0,0:0:0:0:
36,192,87898,128,0,87981:0:0:0:0:
109,192,87981,128,0,88065:0:0:0:0:
182,192,87981,1,0,0:0:0:0:
256,192,87981,1,0,0:0:0:0:
402,192,87981,1,0,0:0:0:0:
475,192,87981,1,0,0:0:0:0:
475,192,88065,128,0,88148:0:0:0:0:
402,192,88148,128,0,88231:0:0:0:0:
109,192,88148,1,0,0:0:0:0:
256,192,88148,1,0,0:0:0:0:
329,192,88148,1,0,0:0:0:0:
36,192,88148,1,0,0:0:0:0:
256,192,88231,128,0,88315:0:0:0:0:
182,192,88315,128,0,88398:0:0:0:0:
402,192,88315,1,0,0:0:0:0:
475,192,88315,1,0,0:0:0:0:
109,192,88315,1,0,0:0:0:0:
36,192,88315,1,0,0:0:0:0:
329,192,88398,128,0,88481:0:0:0:0:
36,192,88481,128,0,88565:0:0:0:0:
475,192,88481,1,0,0:0:0:0:
256,192,88481,1,0,0:0:0:0:
182,192,88481,1,0,0:0:0:0:
109,192,88481,1,0,0:0:0:0:
475,192,88565,128,0,88648:0:0:0:0:
256,192,88648,128,0,88731:0:0:0:0:
402,192,88648,1,0,0:0:0:0:
329,192,88648,1,0,0:0:0:0:
182,192,88648,1,0,0:0:0:0:
36,192,88648,1,0,0:0:0:0:
109,192,88731,128,0,88815:0:0:0:0:
36,192,88815,1,0,0:0:0:0:
329,192,88815,1,0,0:0:0:0:
402,192,88815,1,0,0:0:0:0:
256,192,88815,1,0,0:0:0:0:
475,192,88981,1,0,0:0:0:0:
402,192,88981,1,0,0:0:0:0:
329,192,88981,1,0,0:0:0:0:
182,192,88981,1,0,0:0:0:0:
109,192,88981,1,0,0:0:0:0:
109,192,89065,1,0,0:0:0:0:
182,192,89065,1,0,0:0:0:0:
329,192,89065,1,0,0:0:0:0:
402,192,89065,1,0,0:0:0:0:
475,192,89065,1,0,0:0:0:0:
36,192,89148,1,0,0:0:0:0:
109,192,89148,1,0,0:0:0:0:
182,192,89148,1,0,0:0:0:0:
256,192,89148,1,0,0:0:0:0:
402,192,89148,1,0,0:0:0:0:
475,192,89315,1,0,0:0:0:0:
402,192,89315,1,0,0:0:0:0:
329,192,89315,1,0,0:0:0:0:
256,192,89315,1,0,0:0:0:0:
109,192,89315,1,0,0:0:0:0:
36,192,89481,1,0,0:0:0:0:
182,192,89481,1,0,0:0:0:0:
256,192,89481,1,0,0:0:0:0:
329,192,89481,1,0,0:0:0:0:
402,192,89481,1,0,0:0:0:0:
109,192,89648,1,0,0:0:0:0:
182,192,89648,1,0,0:0:0:0:
256,192,89648,1,0,0:0:0:0:
329,192,89648,1,0,0:0:0:0:
475,192,89648,1,0,0:0:0:0:
109,192,89731,1,0,0:0:0:0:
182,192,89731,1,0,0:0:0:0:
256,192,89731,1,0,0:0:0:0:
329,192,89731,1,0,0:0:0:0:
475,192,89731,1,0,0:0:0:0:
402,192,89815,1,0,0:0:0:0:
329,192,89815,1,0,0:0:0:0:
256,192,89815,1,0,0:0:0:0:
109,192,89815,1,0,0:0:0:0:
36,192,89815,1,0,0:0:0:0:
475,192,89815,1,0,0:0:0:0:
402,192,89867,1,0,0:0:0:0:
329,192,89929,1,0,0:0:0:0:
256,192,89981,1,0,0:0:0:0:
475,192,89981,1,0,0:0:0:0:
182,192,90033,1,0,0:0:0:0:
402,192,90033,1,0,0:0:0:0:
109,192,90096,1,0,0:0:0:0:
329,192,90096,1,0,0:0:0:0:
36,192,90137,1,0,0:0:0:0:
256,192,90148,1,0,0:0:0:0:
475,192,90148,1,0,0:0:0:0:
182,192,90200,1,0,0:0:0:0:
402,192,90200,1,0,0:0:0:0:
109,192,90262,1,0,0:0:0:0:
329,192,90262,1,0,0:0:0:0:
36,192,90315,1,0,0:0:0:0:
256,192,90315,1,0,0:0:0:0:
475,192,90315,1,0,0:0:0:0:
182,192,90367,1,0,0:0:0:0:
402,192,90367,1,0,0:0:0:0:
109,192,90429,1,0,0:0:0:0:
329,192,90429,1,0,0:0:0:0:
36,192,90481,1,0,0:0:0:0:
256,192,90481,1,0,0:0:0:0:
475,192,90481,1,0,0:0:0:0:
182,192,90533,1,0,0:0:0:0:
402,192,90533,1,0,0:0:0:0:
109,192,90596,1,0,0:0:0:0:
329,192,90596,1,0,0:0:0:0:
36,192,90648,1,0,0:0:0:0:
256,192,90648,1,0,0:0:0:0:
475,192,90648,1,0,0:0:0:0:
182,192,90700,1,0,0:0:0:0:
402,192,90700,1,0,0:0:0:0:
109,192,90762,1,0,0:0:0:0:
329,192,90762,1,0,0:0:0:0:
36,192,90815,1,0,0:0:0:0:
256,192,90815,1,0,0:0:0:0:
475,192,90815,1,0,0:0:0:0:
182,192,90867,1,0,0:0:0:0:
402,192,90867,1,0,0:0:0:0:
109,192,90929,1,0,0:0:0:0:
329,192,90929,1,0,0:0:0:0:
36,192,90981,1,0,0:0:0:0:
256,192,90981,1,0,0:0:0:0:
475,192,90981,1,0,0:0:0:0:
182,192,91033,1,0,0:0:0:0:
402,192,91033,1,0,0:0:0:0:
109,192,91096,1,0,0:0:0:0:
329,192,91096,1,0,0:0:0:0:
36,192,91148,1,0,0:0:0:0:
256,192,91148,1,0,0:0:0:0:
475,192,91148,1,0,0:0:0:0:
182,192,91200,1,0,0:0:0:0:
402,192,91200,1,0,0:0:0:0:
109,192,91262,1,0,0:0:0:0:
329,192,91262,1,0,0:0:0:0:
36,192,91315,1,0,0:0:0:0:
256,192,91315,1,0,0:0:0:0:
475,192,91315,1,0,0:0:0:0:
182,192,91367,1,0,0:0:0:0:
402,192,91367,1,0,0:0:0:0:
256,192,91481,128,0,92148:0:0:0:0:
36,192,91481,128,0,91565:0:0:0:0:
475,192,91481,128,0,91606:0:0:0:0:
329,192,91481,128,0,91585:0:0:0:0:
402,192,91565,128,0,91648:0:0:0:0:
109,192,91565,128,0,91648:0:0:0:0:
182,192,91565,128,0,91669:0:0:0:0:
36,192,91648,128,0,91752:0:0:0:0:
329,192,91648,128,0,91731:0:0:0:0:
109,192,91731,128,0,91815:0:0:0:0:
475,192,91731,128,0,91815:0:0:0:0:
402,192,91731,128,0,91835:0:0:0:0:
329,192,91815,128,0,91898:0:0:0:0:
182,192,91815,128,0,91898:0:0:0:0:
36,192,91815,128,0,91919:0:0:0:0:
109,192,91898,128,0,91981:0:0:0:0:
402,192,91898,128,0,91981:0:0:0:0:
475,192,91898,128,0,92002:0:0:0:0:
182,192,91981,128,0,92065:0:0:0:0:
329,192,91981,128,0,92085:0:0:0:0:
36,192,92065,128,0,92148:0:0:0:0:
475,192,92065,128,0,92169:0:0:0:0:
109,192,92148,128,0,92815:0:0:0:0:
402,192,92148,128,0,92231:0:0:0:0:
182,192,92148,128,0,92231:0:0:0:0:
329,192,92148,128,0,92252:0:0:0:0:
475,192,92231,128,0,92315:0:0:0:0:
256,192,92231,128,0,92315:0:0:0:0:
36,192,92231,128,0,92315:0:0:0:0:
182,192,92315,128,0,92398:0:0:0:0:
402,192,92315,128,0,92398:0:0:0:0:
329,192,92398,128,0,92481:0:0:0:0:
256,192,92398,128,0,92502:0:0:0:0:
475,192,92398,128,0,92502:0:0:0:0:
36,192,92398,128,0,92481:0:0:0:0:
182,192,92481,128,0,92565:0:0:0:0:
402,192,92481,128,0,92565:0:0:0:0:
329,192,92565,128,0,92648:0:0:0:0:
475,192,92565,128,0,92669:0:0:0:0:
36,192,92565,128,0,92669:0:0:0:0:
256,192,92648,128,0,92752:0:0:0:0:
182,192,92648,128,0,92731:0:0:0:0:
402,192,92648,128,0,92731:0:0:0:0:
329,192,92731,128,0,92815:0:0:0:0:
36,192,92731,128,0,92835:0:0:0:0:
402,192,92815,128,0,93481:0:0:0:0:
182,192,92815,128,0,92898:0:0:0:0:
475,192,92815,128,0,92898:0:0:0:0:
256,192,92815,128,0,92919:0:0:0:0:
329,192,92898,128,0,92981:0:0:0:0:
109,192,92898,128,0,92981:0:0:0:0:
36,192,92981,128,0,93065:0:0:0:0:
182,192,92981,128,0,93085:0:0:0:0:
475,192,92981,128,0,93065:0:0:0:0:
256,192,93065,128,0,93148:0:0:0:0:
329,192,93065,128,0,93169:0:0:0:0:
109,192,93065,128,0,93169:0:0:0:0:
36,192,93148,128,0,93231:0:0:0:0:
182,192,93148,128,0,93252:0:0:0:0:
475,192,93148,128,0,93231:0:0:0:0:
256,192,93231,128,0,93315:0:0:0:0:
109,192,93231,128,0,93315:0:0:0:0:
329,192,93231,128,0,93335:0:0:0:0:
182,192,93315,128,0,93419:0:0:0:0:
36,192,93398,128,0,93481:0:0:0:0:
475,192,93398,128,0,93502:0:0:0:0:
256,192,93398,128,0,93481:0:0:0:0:
329,192,93398,128,0,93502:0:0:0:0:
182,192,93481,128,0,94148:0:0:0:0:
109,192,93481,128,0,93565:0:0:0:0:
36,192,93565,128,0,93648:0:0:0:0:
256,192,93565,128,0,93648:0:0:0:0:
329,192,93565,128,0,93669:0:0:0:0:
475,192,93565,128,0,93648:0:0:0:0:
402,192,93648,128,0,93731:0:0:0:0:
475,192,93731,128,0,93815:0:0:0:0:
256,192,93731,128,0,93835:0:0:0:0:
109,192,93731,128,0,93815:0:0:0:0:
36,192,93815,128,0,93898:0:0:0:0:
329,192,93815,128,0,93898:0:0:0:0:
402,192,93815,128,0,93919:0:0:0:0:
475,192,93898,128,0,93981:0:0:0:0:
256,192,93898,128,0,93960:0:0:0:0:
109,192,93898,128,0,93981:0:0:0:0:
36,192,93981,128,0,94065:0:0:0:0:
402,192,93981,128,0,94065:0:0:0:0:
256,192,94065,128,0,94148:0:0:0:0:
329,192,94065,128,0,94169:0:0:0:0:
109,192,94065,128,0,94127:0:0:0:0:
475,192,94148,128,0,94815:0:0:0:0:
402,192,94148,128,0,94231:0:0:0:0:
36,192,94148,128,0,94231:0:0:0:0:
182,192,94231,128,0,94315:0:0:0:0:
256,192,94231,128,0,94335:0:0:0:0:
329,192,94231,128,0,94315:0:0:0:0:
109,192,94315,128,0,94398:0:0:0:0:
402,192,94315,128,0,94398:0:0:0:0:
36,192,94398,128,0,94481:0:0:0:0:
182,192,94398,128,0,94481:0:0:0:0:
329,192,94398,128,0,94502:0:0:0:0:
256,192,94481,128,0,94565:0:0:0:0:
109,192,94481,128,0,94565:0:0:0:0:
402,192,94565,128,0,94648:0:0:0:0:
329,192,94565,128,0,94669:0:0:0:0:
182,192,94565,128,0,94648:0:0:0:0:
36,192,94648,128,0,94752:0:0:0:0:
109,192,94648,128,0,94731:0:0:0:0:
256,192,94648,128,0,94731:0:0:0:0:
182,192,94731,128,0,94835:0:0:0:0:
329,192,94731,128,0,94794:0:0:0:0:
402,192,94731,128,0,94835:0:0:0:0:
109,192,94815,128,0,95481:0:0:0:0:
256,192,94815,128,0,94898:0:0:0:0:
36,192,94815,128,0,94919:0:0:0:0:
475,192,94898,128,0,94981:0:0:0:0:
329,192,94898,128,0,95002:0:0:0:0:
182,192,94898,128,0,94981:0:0:0:0:
256,192,94981,128,0,95065:0:0:0:0:
402,192,94981,128,0,95085:0:0:0:0:
36,192,94981,128,0,95065:0:0:0:0:
182,192,95065,128,0,95148:0:0:0:0:
475,192,95065,128,0,95148:0:0:0:0:
329,192,95148,128,0,95252:0:0:0:0:
256,192,95148,128,0,95231:0:0:0:0:
36,192,95148,128,0,95252:0:0:0:0:
475,192,95231,128,0,95315:0:0:0:0:
402,192,95231,128,0,95335:0:0:0:0:
182,192,95231,128,0,95315:0:0:0:0:
36,192,95315,128,0,95398:0:0:0:0:
329,192,95315,128,0,95398:0:0:0:0:
475,192,95398,128,0,95481:0:0:0:0:
402,192,95398,128,0,95502:0:0:0:0:
256,192,95398,128,0,95481:0:0:0:0:
182,192,95398,128,0,95502:0:0:0:0:
329,192,95481,128,0,96148:0:0:0:0:
36,192,95481,128,0,95565:0:0:0:0:
256,192,95565,128,0,95648:0:0:0:0:
182,192,95565,128,0,95669:0:0:0:0:
475,192,95565,128,0,95669:0:0:0:0:
402,192,95565,128,0,95648:0:0:0:0:
109,192,95648,128,0,95731:0:0:0:0:
36,192,95648,128,0,95752:0:0:0:0:
182,192,95731,128,0,95815:0:0:0:0:
402,192,95731,128,0,95815:0:0:0:0:
256,192,95815,128,0,95898:0:0:0:0:
475,192,95815,128,0,95919:0:0:0:0:
36,192,95815,128,0,95898:0:0:0:0:
109,192,95898,128,0,96002:0:0:0:0:
182,192,95898,128,0,95981:0:0:0:0:
402,192,95898,128,0,95981:0:0:0:0:
475,192,95981,128,0,96065:0:0:0:0:
256,192,95981,128,0,96085:0:0:0:0:
36,192,95981,128,0,96065:0:0:0:0:
109,192,96065,128,0,96169:0:0:0:0:
182,192,96065,128,0,96148:0:0:0:0:
402,192,96065,128,0,96169:0:0:0:0:
36,192,96148,128,0,96815:0:0:0:0:
256,192,96148,128,0,96231:0:0:0:0:
475,192,96148,128,0,96252:0:0:0:0:
329,192,96231,128,0,96315:0:0:0:0:
402,192,96231,128,0,96335:0:0:0:0:
182,192,96231,128,0,96335:0:0:0:0:
109,192,96315,128,0,96398:0:0:0:0:
256,192,96315,128,0,96419:0:0:0:0:
475,192,96315,128,0,96398:0:0:0:0:
329,192,96398,128,0,96481:0:0:0:0:
182,192,96398,128,0,96481:0:0:0:0:
402,192,96481,128,0,96565:0:0:0:0:
256,192,96481,128,0,96585:0:0:0:0:
475,192,96481,128,0,96585:0:0:0:0:
109,192,96565,128,0,96648:0:0:0:0:
329,192,96565,128,0,96648:0:0:0:0:
182,192,96565,128,0,96669:0:0:0:0:
256,192,96648,128,0,96731:0:0:0:0:
475,192,96648,128,0,96752:0:0:0:0:
329,192,96731,128,0,96815:0:0:0:0:
109,192,96731,128,0,96835:0:0:0:0:
182,192,96731,128,0,96815:0:0:0:0:
402,192,96815,128,0,97481:0:0:0:0:
256,192,96815,128,0,96898:0:0:0:0:
475,192,96815,128,0,96898:0:0:0:0:
329,192,96898,128,0,96981:0:0:0:0:
36,192,96898,128,0,96981:0:0:0:0:
182,192,96898,128,0,97002:0:0:0:0:
109,192,96981,128,0,97065:0:0:0:0:
256,192,96981,128,0,97085:0:0:0:0:
475,192,96981,128,0,97065:0:0:0:0:
182,192,97065,128,0,97169:0:0:0:0:
329,192,97065,128,0,97148:0:0:0:0:
36,192,97065,128,0,97148:0:0:0:0:
109,192,97148,128,0,97231:0:0:0:0:
475,192,97148,128,0,97252:0:0:0:0:
329,192,97231,128,0,97315:0:0:0:0:
256,192,97231,128,0,97335:0:0:0:0:
36,192,97231,128,0,97315:0:0:0:0:
182,192,97315,128,0,97398:0:0:0:0:
109,192,97315,128,0,97419:0:0:0:0:
475,192,97315,128,0,97398:0:0:0:0:
36,192,97398,128,0,97502:0:0:0:0:
256,192,97398,128,0,97502:0:0:0:0:
329,192,97398,128,0,97481:0:0:0:0:
182,192,97481,128,0,98148:0:0:0:0:
475,192,97481,128,0,97565:0:0:0:0:
109,192,97481,128,0,97565:0:0:0:0:
36,192,97565,128,0,97669:0:0:0:0:
329,192,97565,128,0,97648:0:0:0:0:
402,192,97565,128,0,97669:0:0:0:0:
256,192,97648,128,0,97752:0:0:0:0:
475,192,97648,128,0,97731:0:0:0:0:
109,192,97648,128,0,97731:0:0:0:0:
36,192,97731,128,0,97815:0:0:0:0:
402,192,97731,128,0,97815:0:0:0:0:
329,192,97731,128,0,97835:0:0:0:0:
256,192,97815,128,0,97898:0:0:0:0:
475,192,97815,128,0,97898:0:0:0:0:
109,192,97815,128,0,97898:0:0:0:0:
402,192,97898,128,0,97981:0:0:0:0:
36,192,97898,128,0,97981:0:0:0:0:
109,192,97981,128,0,98065:0:0:0:0:
256,192,97981,128,0,98065:0:0:0:0:
475,192,97981,128,0,98065:0:0:0:0:
329,192,97981,128,0,98085:0:0:0:0:
402,192,98148,128,0,98815:0:0:0:0:
475,192,98148,128,0,98252:0:0:0:0:
256,192,98148,128,0,98231:0:0:0:0:
36,192,98148,128,0,98231:0:0:0:0:
109,192,98231,128,0,98315:0:0:0:0:
329,192,98231,128,0,98335:0:0:0:0:
182,192,98231,128,0,98335:0:0:0:0:
256,192,98315,128,0,98398:0:0:0:0:
36,192,98315,128,0,98398:0:0:0:0:
475,192,98398,128,0,98481:0:0:0:0:
329,192,98398,128,0,98502:0:0:0:0:
182,192,98398,128,0,98481:0:0:0:0:
109,192,98481,128,0,98565:0:0:0:0:
256,192,98481,128,0,98565:0:0:0:0:
36,192,98481,128,0,98585:0:0:0:0:
182,192,98565,128,0,98648:0:0:0:0:
329,192,98565,128,0,98669:0:0:0:0:
475,192,98565,128,0,98648:0:0:0:0:
256,192,98648,128,0,98731:0:0:0:0:
109,192,98648,128,0,98752:0:0:0:0:
36,192,98731,128,0,98815:0:0:0:0:
329,192,98731,128,0,98815:0:0:0:0:
256,192,98815,128,0,99481:0:0:0:0:
182,192,98815,128,0,98898:0:0:0:0:
475,192,98815,128,0,98919:0:0:0:0:
402,192,98898,128,0,98981:0:0:0:0:
109,192,98898,128,0,98981:0:0:0:0:
36,192,98898,128,0,99002:0:0:0:0:
182,192,98981,128,0,99085:0:0:0:0:
329,192,98981,128,0,99065:0:0:0:0:
475,192,98981,128,0,99085:0:0:0:0:
402,192,99065,128,0,99148:0:0:0:0:
109,192,99065,128,0,99169:0:0:0:0:
36,192,99148,128,0,99231:0:0:0:0:
182,192,99148,128,0,99252:0:0:0:0:
329,192,99148,128,0,99231:0:0:0:0:
475,192,99148,128,0,99252:0:0:0:0:
109,192,99231,128,0,99315:0:0:0:0:
402,192,99231,128,0,99335:0:0:0:0:
475,192,99315,128,0,99398:0:0:0:0:
182,192,99315,128,0,99398:0:0:0:0:
36,192,99398,128,0,99481:0:0:0:0:
329,192,99398,128,0,99502:0:0:0:0:
402,192,99398,128,0,99481:0:0:0:0:
109,192,99481,128,0,100148:0:0:0:0:
182,192,99481,128,0,99585:0:0:0:0:
475,192,99481,128,0,99565:0:0:0:0:
256,192,99565,128,0,99669:0:0:0:0:
329,192,99565,128,0,99648:0:0:0:0:
402,192,99648,128,0,99731:0:0:0:0:
36,192,99648,128,0,99752:0:0:0:0:
475,192,99648,128,0,99710:0:0:0:0:
182,192,99648,128,0,99731:0:0:0:0:
329,192,99731,128,0,99835:0:0:0:0:
256,192,99731,128,0,99815:0:0:0:0:
402,192,99815,128,0,99898:0:0:0:0:
182,192,99815,128,0,99898:0:0:0:0:
475,192,99898,128,0,99981:0:0:0:0:
256,192,99898,128,0,99981:0:0:0:0:
36,192,99898,128,0,100002:0:0:0:0:
402,192,99981,128,0,100065:0:0:0:0:
329,192,99981,128,0,100085:0:0:0:0:
182,192,99981,128,0,100085:0:0:0:0:
475,192,100065,128,0,100169:0:0:0:0:
36,192,100065,128,0,100169:0:0:0:0:
256,192,100065,128,0,100169:0:0:0:0:
402,192,100148,128,0,100815:0:0:0:0:
329,192,100148,128,0,100231:0:0:0:0:
182,192,100148,128,0,100252:0:0:0:0:
109,192,100231,128,0,100315:0:0:0:0:
475,192,100231,128,0,100315:0:0:0:0:
256,192,100315,128,0,100398:0:0:0:0:
329,192,100315,128,0,100419:0:0:0:0:
36,192,100315,128,0,100398:0:0:0:0:
182,192,100315,128,0,100419:0:0:0:0:
109,192,100398,128,0,100481:0:0:0:0:
475,192,100398,128,0,100502:0:0:0:0:
256,192,100481,128,0,100565:0:0:0:0:
329,192,100481,128,0,100585:0:0:0:0:
36,192,100565,128,0,100648:0:0:0:0:
109,192,100565,128,0,100669:0:0:0:0:
475,192,100565,128,0,100669:0:0:0:0:
182,192,100648,128,0,100731:0:0:0:0:
256,192,100648,128,0,100752:0:0:0:0:
36,192,100731,128,0,100815:0:0:0:0:
329,192,100731,128,0,100815:0:0:0:0:
182,192,100815,128,0,101481:0:0:0:0:
475,192,100815,128,0,100898:0:0:0:0:
256,192,100815,128,0,100919:0:0:0:0:
109,192,100815,128,0,100898:0:0:0:0:
36,192,100898,128,0,100981:0:0:0:0:
329,192,100898,128,0,100981:0:0:0:0:
475,192,100981,128,0,101065:0:0:0:0:
402,192,100981,128,0,101085:0:0:0:0:
109,192,100981,128,0,101065:0:0:0:0:
256,192,101065,128,0,101148:0:0:0:0:
329,192,101065,128,0,101169:0:0:0:0:
36,192,101065,128,0,101169:0:0:0:0:
109,192,101148,128,0,101231:0:0:0:0:
475,192,101148,128,0,101231:0:0:0:0:
402,192,101231,128,0,101315:0:0:0:0:
256,192,101231,128,0,101335:0:0:0:0:
36,192,101315,128,0,101398:0:0:0:0:
109,192,101315,128,0,101419:0:0:0:0:
475,192,101315,128,0,101398:0:0:0:0:
329,192,101315,128,0,101398:0:0:0:0:
402,192,101398,128,0,101502:0:0:0:0:
256,192,101398,128,0,101502:0:0:0:0:
475,192,101481,128,0,102148:0:0:0:0:
329,192,101481,128,0,101565:0:0:0:0:
36,192,101481,128,0,101585:0:0:0:0:
109,192,101565,128,0,101648:0:0:0:0:
402,192,101565,128,0,101669:0:0:0:0:
182,192,101565,128,0,101669:0:0:0:0:
256,192,101648,128,0,101752:0:0:0:0:
329,192,101648,128,0,101731:0:0:0:0:
36,192,101648,128,0,101752:0:0:0:0:
109,192,101731,128,0,101815:0:0:0:0:
182,192,101731,128,0,101835:0:0:0:0:
402,192,101731,128,0,101835:0:0:0:0:
329,192,101815,128,0,101898:0:0:0:0:
256,192,101815,128,0,101919:0:0:0:0:
36,192,101815,128,0,101919:0:0:0:0:
109,192,101898,128,0,102002:0:0:0:0:
182,192,101898,128,0,101981:0:0:0:0:
402,192,101898,128,0,101981:0:0:0:0:
36,192,101981,128,0,102065:0:0:0:0:
329,192,101981,128,0,102085:0:0:0:0:
256,192,102065,128,0,102148:0:0:0:0:
402,192,102065,128,0,102148:0:0:0:0:
109,192,102065,128,0,102148:0:0:0:0:
182,192,102065,128,0,102148:0:0:0:0:
109,192,102231,1,0,0:0:0:0:
329,192,102231,1,0,0:0:0:0:
36,192,102231,1,0,0:0:0:0:
182,192,102273,1,0,0:0:0:0:
402,192,102273,1,0,0:0:0:0:
329,192,102315,1,0,0:0:0:0:
475,192,102315,1,0,0:0:0:0:
109,192,102342,1,0,0:0:0:0:
402,192,102356,1,0,0:0:0:0:
256,192,102356,1,0,0:0:0:0:
182,192,102398,1,0,0:0:0:0:
109,192,102440,1,0,0:0:0:0:
329,192,102440,1,0,0:0:0:0:
182,192,102481,1,0,0:0:0:0:
402,192,102481,1,0,0:0:0:0:
36,192,102481,1,0,0:0:0:0:
475,192,102481,1,0,0:0:0:0:
329,192,102523,1,0,0:0:0:0:
109,192,102565,1,0,0:0:0:0:
402,192,102565,1,0,0:0:0:0:
182,192,102606,1,0,0:0:0:0:
329,192,102648,1,0,0:0:0:0:
109,192,102648,1,0,0:0:0:0:
475,192,102648,1,0,0:0:0:0:
182,192,102690,1,0,0:0:0:0:
402,192,102690,1,0,0:0:0:0:
329,192,102731,1,0,0:0:0:0:
36,192,102731,1,0,0:0:0:0:
109,192,102773,1,0,0:0:0:0:
256,192,102773,1,0,0:0:0:0:
402,192,102815,1,0,0:0:0:0:
182,192,102815,1,0,0:0:0:0:
329,192,102856,1,0,0:0:0:0:
109,192,102856,1,0,0:0:0:0:
182,192,102898,1,0,0:0:0:0:
475,192,102898,1,0,0:0:0:0:
402,192,102940,1,0,0:0:0:0:
109,192,102981,1,0,0:0:0:0:
329,192,102981,1,0,0:0:0:0:
36,192,102981,1,0,0:0:0:0:
256,192,102981,1,0,0:0:0:0:
182,192,103023,1,0,0:0:0:0:
402,192,103065,1,0,0:0:0:0:
109,192,103065,1,0,0:0:0:0:
329,192,103106,1,0,0:0:0:0:
182,192,103148,1,0,0:0:0:0:
402,192,103148,1,0,0:0:0:0:
475,192,103148,1,0,0:0:0:0:
109,192,103190,1,0,0:0:0:0:
182,192,103231,1,0,0:0:0:0:
329,192,103231,1,0,0:0:0:0:
402,192,103273,1,0,0:0:0:0:
109,192,103273,1,0,0:0:0:0:
329,192,103315,1,0,0:0:0:0:
256,192,103315,1,0,0:0:0:0:
36,192,103315,1,0,0:0:0:0:
182,192,103356,1,0,0:0:0:0:
402,192,103398,1,0,0:0:0:0:
109,192,103398,1,0,0:0:0:0:
475,192,103398,1,0,0:0:0:0:
182,192,103440,1,0,0:0:0:0:
329,192,103440,1,0,0:0:0:0:
36,192,103481,1,0,0:0:0:0:
475,192,103481,1,0,0:0:0:0:
109,192,103523,1,0,0:0:0:0:
402,192,103523,1,0,0:0:0:0:
256,192,103523,1,0,0:0:0:0:
475,192,103565,1,0,0:0:0:0:
36,192,103606,1,0,0:0:0:0:
329,192,103606,1,0,0:0:0:0:
475,192,103648,1,0,0:0:0:0:
109,192,103648,1,0,0:0:0:0:
182,192,103648,1,0,0:0:0:0:
402,192,103690,1,0,0:0:0:0:
36,192,103731,1,0,0:0:0:0:
256,192,103731,1,0,0:0:0:0:
475,192,103773,1,0,0:0:0:0:
109,192,103773,1,0,0:0:0:0:
36,192,103815,1,0,0:0:0:0:
402,192,103815,1,0,0:0:0:0:
182,192,103815,1,0,0:0:0:0:
475,192,103856,1,0,0:0:0:0:
109,192,103898,1,0,0:0:0:0:
402,192,103898,1,0,0:0:0:0:
256,192,103898,1,0,0:0:0:0:
36,192,103940,1,0,0:0:0:0:
475,192,103981,1,0,0:0:0:0:
109,192,103981,1,0,0:0:0:0:
329,192,103981,1,0,0:0:0:0:
36,192,104023,1,0,0:0:0:0:
402,192,104065,1,0,0:0:0:0:
182,192,104065,1,0,0:0:0:0:
109,192,104106,1,0,0:0:0:0:
475,192,104106,1,0,0:0:0:0:
402,192,104148,1,0,0:0:0:0:
36,192,104148,1,0,0:0:0:0:
256,192,104148,1,0,0:0:0:0:
109,192,104190,1,0,0:0:0:0:
475,192,104231,1,0,0:0:0:0:
36,192,104231,1,0,0:0:0:0:
402,192,104273,1,0,0:0:0:0:
182,192,104273,1,0,0:0:0:0:
109,192,104315,1,0,0:0:0:0:
475,192,104315,1,0,0:0:0:0:
329,192,104315,1,0,0:0:0:0:
36,192,104356,1,0,0:0:0:0:
402,192,104398,1,0,0:0:0:0:
109,192,104398,1,0,0:0:0:0:
256,192,104398,1,0,0:0:0:0:
475,192,104440,1,0,0:0:0:0:
36,192,104440,1,0,0:0:0:0:
329,192,104481,1,0,0:0:0:0:
182,192,104481,1,0,0:0:0:0:
109,192,104523,1,0,0:0:0:0:
402,192,104523,1,0,0:0:0:0:
329,192,104565,1,0,0:0:0:0:
36,192,104606,1,0,0:0:0:0:
402,192,104606,1,0,0:0:0:0:
256,192,104606,1,0,0:0:0:0:
109,192,104648,1,0,0:0:0:0:
329,192,104690,1,0,0:0:0:0:
36,192,104690,1,0,0:0:0:0:
475,192,104690,1,0,0:0:0:0:
402,192,104731,1,0,0:0:0:0:
109,192,104731,1,0,0:0:0:0:
475,192,104815,128,0,104867:0:0:0:0:
256,192,104815,128,0,104867:0:0:0:0:
109,192,104815,128,0,104867:0:0:0:0:
402,192,104867,128,0,104929:0:0:0:0:
182,192,104867,128,0,104929:0:0:0:0:
36,192,104929,128,0,104981:0:0:0:0:
256,192,104929,128,0,104981:0:0:0:0:
329,192,104981,128,0,105033:0:0:0:0:
109,192,104981,128,0,105033:0:0:0:0:
475,192,104981,128,0,105033:0:0:0:0:
402,192,105033,128,0,105096:0:0:0:0:
182,192,105033,128,0,105096:0:0:0:0:
256,192,105096,128,0,105148:0:0:0:0:
475,192,105096,128,0,105148:0:0:0:0:
402,192,105148,128,0,105200:0:0:0:0:
329,192,105148,128,0,105200:0:0:0:0:
182,192,105148,128,0,105200:0:0:0:0:
109,192,105200,128,0,105262:0:0:0:0:
475,192,105200,128,0,105262:0:0:0:0:
36,192,105262,128,0,105315:0:0:0:0:
329,192,105262,128,0,105315:0:0:0:0:
182,192,105315,128,0,105367:0:0:0:0:
402,192,105315,128,0,105367:0:0:0:0:
256,192,105315,128,0,105367:0:0:0:0:
475,192,105367,128,0,105429:0:0:0:0:
109,192,105367,128,0,105429:0:0:0:0:
36,192,105429,128,0,105481:0:0:0:0:
329,192,105429,128,0,105481:0:0:0:0:
182,192,105481,128,0,105533:0:0:0:0:
256,192,105481,128,0,105533:0:0:0:0:
402,192,105481,128,0,105533:0:0:0:0:
109,192,105533,128,0,105596:0:0:0:0:
329,192,105533,128,0,105596:0:0:0:0:
475,192,105596,128,0,105648:0:0:0:0:
36,192,105596,128,0,105648:0:0:0:0:
182,192,105648,128,0,105700:0:0:0:0:
402,192,105648,128,0,105700:0:0:0:0:
256,192,105700,128,0,105762:0:0:0:0:
109,192,105700,128,0,105762:0:0:0:0:
36,192,105762,128,0,105815:0:0:0:0:
475,192,105762,128,0,105815:0:0:0:0:
329,192,105815,128,0,105867:0:0:0:0:
402,192,105815,128,0,105867:0:0:0:0:
182,192,105815,128,0,105867:0:0:0:0:
256,192,105867,128,0,105929:0:0:0:0:
475,192,105867,128,0,105929:0:0:0:0:
109,192,105929,128,0,105981:0:0:0:0:
329,192,105929,128,0,105981:0:0:0:0:
36,192,105981,128,0,106033:0:0:0:0:
182,192,105981,128,0,106033:0:0:0:0:
402,192,105981,128,0,106033:0:0:0:0:
475,192,106033,128,0,106096:0:0:0:0:
256,192,106033,128,0,106096:0:0:0:0:
109,192,106096,128,0,106148:0:0:0:0:
329,192,106096,128,0,106148:0:0:0:0:
402,192,106148,128,0,106200:0:0:0:0:
182,192,106148,128,0,106200:0:0:0:0:
36,192,106148,128,0,106200:0:0:0:0:
256,192,106200,128,0,106262:0:0:0:0:
329,192,106200,128,0,106262:0:0:0:0:
475,192,106262,128,0,106315:0:0:0:0:
109,192,106262,128,0,106315:0:0:0:0:
36,192,106315,128,0,106367:0:0:0:0:
402,192,106315,128,0,106367:0:0:0:0:
256,192,106315,128,0,106367:0:0:0:0:
182,192,106367,128,0,106429:0:0:0:0:
329,192,106367,128,0,106429:0:0:0:0:
256,192,106429,128,0,106481:0:0:0:0:
475,192,106429,128,0,106481:0:0:0:0:
109,192,106481,128,0,106533:0:0:0:0:
402,192,106481,128,0,106533:0:0:0:0:
36,192,106481,128,0,106533:0:0:0:0:
329,192,106533,128,0,106596:0:0:0:0:
182,192,106533,128,0,106596:0:0:0:0:
475,192,106596,128,0,106648:0:0:0:0:
256,192,106596,128,0,106648:0:0:0:0:
109,192,106648,128,0,106700:0:0:0:0:
402,192,106648,128,0,106700:0:0:0:0:
36,192,106648,128,0,106700:0:0:0:0:
329,192,106700,128,0,106762:0:0:0:0:
182,192,106700,128,0,106762:0:0:0:0:
475,192,106762,128,0,106815:0:0:0:0:
256,192,106762,128,0,106815:0:0:0:0:
109,192,106815,128,0,106867:0:0:0:0:
402,192,106815,128,0,106867:0:0:0:0:
36,192,106815,128,0,106867:0:0:0:0:
475,192,106867,128,0,106929:0:0:0:0:
182,192,106867,128,0,106929:0:0:0:0:
329,192,106929,128,0,106981:0:0:0:0:
36,192,106929,128,0,106981:0:0:0:0:
109,192,106981,128,0,107033:0:0:0:0:
402,192,106981,128,0,107033:0:0:0:0:
256,192,106981,128,0,107033:0:0:0:0:
475,192,107033,128,0,107096:0:0:0:0:
182,192,107033,128,0,107096:0:0:0:0:
329,192,107096,128,0,107148:0:0:0:0:
36,192,107096,128,0,107148:0:0:0:0:
109,192,107148,128,0,107200:0:0:0:0:
402,192,107148,128,0,107200:0:0:0:0:
475,192,107148,128,0,107200:0:0:0:0:
256,192,107200,128,0,107262:0:0:0:0:
182,192,107200,128,0,107262:0:0:0:0:
36,192,107262,128,0,107325:0:0:0:0:
329,192,107262,128,0,107315:0:0:0:0:
402,192,107315,128,0,107367:0:0:0:0:
109,192,107315,128,0,107367:0:0:0:0:
475,192,107315,128,0,107367:0:0:0:0:
182,192,107367,128,0,107429:0:0:0:0:
329,192,107367,128,0,107429:0:0:0:0:
36,192,107481,1,0,0:0:0:0:
256,192,107481,1,0,0:0:0:0:
475,192,107481,1,0,0:0:0:0:
109,192,107565,1,0,0:0:0:0:
402,192,107565,1,0,0:0:0:0:
329,192,107648,1,0,0:0:0:0:
182,192,107648,1,0,0:0:0:0:
36,192,107731,1,0,0:0:0:0:
256,192,107731,1,0,0:0:0:0:
329,192,107815,1,0,0:0:0:0:
475,192,107815,1,0,0:0:0:0:
182,192,107815,1,0,0:0:0:0:
109,192,107898,1,0,0:0:0:0:
402,192,107898,1,0,0:0:0:0:
256,192,107981,1,0,0:0:0:0:
36,192,107981,1,0,0:0:0:0:
475,192,108065,1,0,0:0:0:0:
182,192,108065,1,0,0:0:0:0:
109,192,108148,1,0,0:0:0:0:
402,192,108148,1,0,0:0:0:0:
256,192,108148,1,0,0:0:0:0:
36,192,108231,1,0,0:0:0:0:
329,192,108231,1,0,0:0:0:0:
475,192,108315,1,0,0:0:0:0:
109,192,108315,1,0,0:0:0:0:
182,192,108398,1,0,0:0:0:0:
402,192,108398,1,0,0:0:0:0:
109,192,108481,1,0,0:0:0:0:
36,192,108481,1,0,0:0:0:0:
475,192,108481,1,0,0:0:0:0:
402,192,108502,1,0,0:0:0:0:
329,192,108523,1,0,0:0:0:0:
256,192,108544,1,0,0:0:0:0:
182,192,108565,1,0,0:0:0:0:
109,192,108585,1,0,0:0:0:0:
36,192,108606,1,0,0:0:0:0:
475,192,108648,1,0,0:0:0:0:
402,192,108669,1,0,0:0:0:0:
329,192,108690,1,0,0:0:0:0:
256,192,108710,1,0,0:0:0:0:
182,192,108731,1,0,0:0:0:0:
109,192,108752,1,0,0:0:0:0:
36,192,108773,1,0,0:0:0:0:
475,192,108815,1,0,0:0:0:0:
402,192,108815,1,0,0:0:0:0:
329,192,108898,1,0,0:0:0:0:
182,192,108898,1,0,0:0:0:0:
256,192,108981,1,0,0:0:0:0:
475,192,108981,1,0,0:0:0:0:
329,192,109065,1,0,0:0:0:0:
109,192,109065,1,0,0:0:0:0:
402,192,109148,1,0,0:0:0:0:
256,192,109148,1,0,0:0:0:0:
182,192,109148,1,0,0:0:0:0:
36,192,109148,1,0,0:0:0:0:
109,192,109231,1,0,0:0:0:0:
475,192,109231,1,0,0:0:0:0:
402,192,109315,1,0,0:0:0:0:
182,192,109315,1,0,0:0:0:0:
329,192,109398,1,0,0:0:0:0:
256,192,109398,1,0,0:0:0:0:
109,192,109481,1,0,0:0:0:0:
402,192,109481,1,0,0:0:0:0:
475,192,109565,1,0,0:0:0:0:
182,192,109565,1,0,0:0:0:0:
36,192,109648,1,0,0:0:0:0:
256,192,109648,1,0,0:0:0:0:
182,192,109731,1,0,0:0:0:0:
402,192,109731,1,0,0:0:0:0:
475,192,109815,1,0,0:0:0:0:
329,192,109815,1,0,0:0:0:0:
109,192,109815,1,0,0:0:0:0:
36,192,109815,1,0,0:0:0:0:
402,192,109898,1,0,0:0:0:0:
182,192,109898,1,0,0:0:0:0:
329,192,109981,1,0,0:0:0:0:
256,192,109981,1,0,0:0:0:0:
109,192,110065,1,0,0:0:0:0:
475,192,110065,1,0,0:0:0:0:
475,192,110148,128,0,110287:0:0:0:0:
402,192,110148,128,0,110453:0:0:0:0:
329,192,110148,128,0,110620:0:0:0:0:
256,192,110148,128,0,110787:0:0:0:0:
182,192,110148,128,0,110953:0:0:0:0:
109,192,110148,128,0,111120:0:0:0:0:
36,192,110148,128,0,111287:0:0:0:0:
475,192,110315,128,0,111460:0:0:0:0:
402,192,110481,128,0,111460:0:0:0:0:
329,192,110648,128,0,111460:0:0:0:0:
256,192,110815,128,0,111460:0:0:0:0:
182,192,110981,128,0,111460:0:0:0:0:
109,192,111148,128,0,111460:0:0:0:0:
36,192,111315,128,0,111460:0:0:0:0:
36,192,111481,1,0,0:0:0:0:
109,192,111481,1,0,0:0:0:0:
182,192,111481,1,0,0:0:0:0:
256,192,111481,1,0,0:0:0:0:
329,192,111481,1,0,0:0:0:0:
402,192,111481,1,0,0:0:0:0:
475,192,111481,1,0,0:0:0:0:
256,192,111565,1,0,0:0:0:0:
182,192,111565,1,0,0:0:0:0:
109,192,111565,1,0,0:0:0:0:
36,192,111565,1,0,0:0:0:0:
36,192,111648,1,0,0:0:0:0:
109,192,111648,1,0,0:0:0:0:
182,192,111648,1,0,0:0:0:0:
256,192,111648,1,0,0:0:0:0:
256,192,111731,1,0,0:0:0:0:
182,192,111731,1,0,0:0:0:0:
109,192,111731,1,0,0:0:0:0:
36,192,111731,1,0,0:0:0:0:
36,192,111815,1,0,0:0:0:0:
109,192,111815,1,0,0:0:0:0:
182,192,111815,1,0,0:0:0:0:
256,192,111815,1,0,0:0:0:0:
329,192,111815,1,0,0:0:0:0:
402,192,111815,1,0,0:0:0:0:
475,192,111815,1,0,0:0:0:0:
329,192,111898,1,0,0:0:0:0:
402,192,111898,1,0,0:0:0:0:
475,192,111898,1,0,0:0:0:0:
475,192,111981,1,0,0:0:0:0:
402,192,111981,1,0,0:0:0:0:
329,192,111981,1,0,0:0:0:0:
256,192,111981,1,0,0:0:0:0:
182,192,111981,1,0,0:0:0:0:
109,192,111981,1,0,0:0:0:0:
36,192,111981,1,0,0:0:0:0:
256,192,112065,1,0,0:0:0:0:
182,192,112065,1,0,0:0:0:0:
109,192,112065,1,0,0:0:0:0:
36,192,112065,1,0,0:0:0:0:
36,192,112148,1,0,0:0:0:0:
109,192,112148,1,0,0:0:0:0:
182,192,112148,1,0,0:0:0:0:
256,192,112148,1,0,0:0:0:0:
329,192,112148,1,0,0:0:0:0:
402,192,112148,1,0,0:0:0:0:
475,192,112148,128,0,112481:0:0:0:0:
402,192,112231,1,0,0:0:0:0:
329,192,112231,1,0,0:0:0:0:
402,192,112315,1,0,0:0:0:0:
329,192,112315,1,0,0:0:0:0:
402,192,112398,1,0,0:0:0:0:
329,192,112398,1,0,0:0:0:0:
402,192,112481,1,0,0:0:0:0:
329,192,112481,1,0,0:0:0:0:
109,192,112481,1,0,0:0:0:0:
36,192,112481,1,0,0:0:0:0:
