osu file format v14

[General]
AudioFilename: Crystal World.mp3
AudioLeadIn: 0
PreviewTime: 65339
Countdown: 0
SampleSet: None
StackLeniency: 0.7
Mode: 3
LetterboxInBreaks: 0
SpecialStyle: 0
WidescreenStoryboard: 0

[Editor]
DistanceSpacing: 0.8
BeatDivisor: 4
GridSize: 8
TimelineZoom: 2.3

[Metadata]
Title:Crystal World ~Fracture~
TitleUnicode:水晶世界 ~Fracture~
Artist:wa. remixed celas
ArtistUnicode:wa. remixed celas
Creator:ExNeko
Version:Crystallized
Source:BMS
Tags:秋山 澪 Creation Records BOF 2010 THE BMS OF FIGHTERS HARD NRG Suishou Sekai
BeatmapID:1505967
BeatmapSetID:712414

[Difficulty]
HPDrainRate:9
CircleSize:4
OverallDifficulty:9
ApproachRate:5
SliderMultiplier:1.4
SliderTickRate:1

[Events]
//Background and Video events
0,0,"660826.jpg",0,0
//Break Periods
//Storyboard Layer 0 (Background)
//Storyboard Layer 1 (Fail)
//Storyboard Layer 2 (Pass)
//Storyboard Layer 3 (Foreground)
//Storyboard Sound Samples

[TimingPoints]
1340,333.333333333333,4,3,1,50,1,0
88006,-100,4,3,1,50,0,1
109339,-100,4,3,1,50,0,0

[HitObjects]
64,192,1340,5,4,0:0:0:0:
320,192,1340,1,0,0:0:0:0:
448,192,1340,1,2,0:0:0:0:
192,192,1506,1,0,0:0:0:0:
320,192,1589,1,0,0:0:0:0:
448,192,1673,1,0,0:0:0:0:
64,192,1673,1,8,0:0:0:0:
192,192,1756,1,0,0:0:0:0:
448,192,1839,1,0,0:0:0:0:
320,192,1923,1,0,0:0:0:0:
192,192,2006,1,0,0:0:0:0:
64,192,2006,1,0,0:0:0:0:
320,192,2173,1,0,0:0:0:0:
192,192,2256,1,0,0:0:0:0:
448,192,2339,1,8,0:0:0:0:
64,192,2339,1,0,0:0:0:0:
320,192,2423,1,0,0:0:0:0:
192,192,2506,1,0,0:0:0:0:
64,192,2589,1,0,0:0:0:0:
192,192,2673,1,0,0:0:0:0:
448,192,2673,1,0,0:0:0:0:
320,192,2839,1,0,0:0:0:0:
192,192,2923,1,0,0:0:0:0:
64,192,3006,1,0,0:0:0:0:
448,192,3006,1,8,0:0:0:0:
320,192,3089,1,0,0:0:0:0:
64,192,3173,1,0,0:0:0:0:
192,192,3256,1,0,0:0:0:0:
320,192,3339,1,0,0:0:0:0:
448,192,3339,1,0,0:0:0:0:
192,192,3506,1,0,0:0:0:0:
320,192,3589,1,0,0:0:0:0:
448,192,3673,1,0,0:0:0:0:
64,192,3673,1,8,0:0:0:0:
192,192,3756,1,0,0:0:0:0:
320,192,3839,1,0,0:0:0:0:
192,192,3923,1,0,0:0:0:0:
64,192,4006,1,0,0:0:0:0:
448,192,4006,1,0,0:0:0:0:
320,192,4173,1,0,0:0:0:0:
192,192,4256,1,0,0:0:0:0:
64,192,4339,1,0,0:0:0:0:
448,192,4339,1,8,0:0:0:0:
320,192,4423,1,0,0:0:0:0:
64,192,4506,1,0,0:0:0:0:
192,192,4589,1,0,0:0:0:0:
320,192,4673,1,0,0:0:0:0:
448,192,4673,1,0,0:0:0:0:
64,192,4839,1,0,0:0:0:0:
192,192,4923,1,0,0:0:0:0:
320,192,5006,1,8,0:0:0:0:
448,192,5006,1,0,0:0:0:0:
64,192,5089,1,0,0:0:0:0:
448,192,5173,1,0,0:0:0:0:
320,192,5256,1,0,0:0:0:0:
192,192,5339,1,0,0:0:0:0:
64,192,5339,1,0,0:0:0:0:
320,192,5506,1,0,0:0:0:0:
192,192,5589,1,0,0:0:0:0:
64,192,5673,1,8,0:0:0:0:
448,192,5673,1,0,0:0:0:0:
192,192,5756,1,0,0:0:0:0:
320,192,5839,1,0,0:0:0:0:
448,192,5923,1,0,0:0:0:0:
192,192,6006,1,0,0:0:0:0:
64,192,6006,1,0,0:0:0:0:
192,192,6173,1,0,0:0:0:0:
320,192,6256,1,0,0:0:0:0:
448,192,6339,1,0,0:0:0:0:
64,192,6339,1,8,0:0:0:0:
192,192,6423,1,0,0:0:0:0:
320,192,6506,1,0,0:0:0:0:
192,192,6589,1,0,0:0:0:0:
64,192,6673,1,0,0:0:0:0:
448,192,6673,1,0,0:0:0:0:
320,192,6839,1,0,0:0:0:0:
192,192,6923,1,0,0:0:0:0:
64,192,7006,1,8,0:0:0:0:
448,192,7006,1,0,0:0:0:0:
192,192,7089,1,0,0:0:0:0:
320,192,7173,1,0,0:0:0:0:
448,192,7256,1,0,0:0:0:0:
192,192,7339,1,0,0:0:0:0:
64,192,7339,1,0,0:0:0:0:
320,192,7506,1,0,0:0:0:0:
192,192,7589,1,0,0:0:0:0:
64,192,7673,1,8,0:0:0:0:
448,192,7673,1,0,0:0:0:0:
192,192,7756,1,0,0:0:0:0:
448,192,7839,1,0,0:0:0:0:
320,192,7923,1,0,0:0:0:0:
192,192,8006,1,0,0:0:0:0:
64,192,8006,1,0,0:0:0:0:
192,192,8173,1,0,0:0:0:0:
320,192,8256,1,0,0:0:0:0:
448,192,8339,1,0,0:0:0:0:
64,192,8339,1,8,0:0:0:0:
192,192,8423,1,0,0:0:0:0:
448,192,8506,1,0,0:0:0:0:
320,192,8589,1,0,0:0:0:0:
192,192,8673,1,0,0:0:0:0:
64,192,8673,1,0,0:0:0:0:
320,192,8839,1,0,0:0:0:0:
192,192,8923,1,0,0:0:0:0:
64,192,9006,1,8,0:0:0:0:
448,192,9006,1,0,0:0:0:0:
320,192,9089,1,0,0:0:0:0:
192,192,9173,1,0,0:0:0:0:
320,192,9256,1,0,0:0:0:0:
448,192,9339,1,0,0:0:0:0:
64,192,9339,1,0,0:0:0:0:
192,192,9506,1,0,0:0:0:0:
320,192,9589,1,0,0:0:0:0:
448,192,9673,1,0,0:0:0:0:
64,192,9673,1,8,0:0:0:0:
192,192,9756,1,0,0:0:0:0:
320,192,9839,1,0,0:0:0:0:
448,192,9923,1,0,0:0:0:0:
192,192,10006,1,0,0:0:0:0:
64,192,10006,1,0,0:0:0:0:
448,192,10173,1,0,0:0:0:0:
320,192,10256,1,0,0:0:0:0:
192,192,10339,1,8,0:0:0:0:
64,192,10339,1,0,0:0:0:0:
448,192,10423,1,0,0:0:0:0:
64,192,10506,1,0,0:0:0:0:
192,192,10589,1,0,0:0:0:0:
320,192,10673,1,0,0:0:0:0:
448,192,10673,1,0,0:0:0:0:
192,192,10839,1,0,0:0:0:0:
320,192,10923,1,0,0:0:0:0:
448,192,11006,1,8,0:0:0:0:
64,192,11006,1,0,0:0:0:0:
320,192,11089,1,0,0:0:0:0:
192,192,11173,1,0,0:0:0:0:
64,192,11256,1,0,0:0:0:0:
192,192,11339,1,0,0:0:0:0:
448,192,11339,1,0,0:0:0:0:
320,192,11506,1,0,0:0:0:0:
192,192,11589,1,0,0:0:0:0:
64,192,11673,1,0,0:0:0:0:
448,192,11673,1,8,0:0:0:0:
320,192,11756,1,0,0:0:0:0:
192,192,11839,1,0,0:0:0:0:
64,192,11839,1,2,0:0:0:0:
320,192,11923,1,0,0:0:0:0:
64,192,12006,1,2,0:0:0:0:
448,192,12006,1,0,0:0:0:0:
192,192,12006,1,4,0:0:0:0:
320,192,12173,1,0,0:0:0:0:
192,192,12256,1,0,0:0:0:0:
64,192,12339,1,0,0:0:0:0:
448,192,12339,1,8,0:0:0:0:
320,192,12423,1,0,0:0:0:0:
64,192,12506,1,0,0:0:0:0:
192,192,12589,1,0,0:0:0:0:
320,192,12673,1,0,0:0:0:0:
448,192,12673,1,0,0:0:0:0:
192,192,12839,1,0,0:0:0:0:
320,192,12923,1,0,0:0:0:0:
448,192,13006,1,0,0:0:0:0:
64,192,13006,1,8,0:0:0:0:
192,192,13089,1,0,0:0:0:0:
320,192,13173,1,0,0:0:0:0:
448,192,13256,1,0,0:0:0:0:
64,192,13339,1,0,0:0:0:0:
192,192,13339,1,0,0:0:0:0:
320,192,13506,1,0,0:0:0:0:
192,192,13589,1,0,0:0:0:0:
64,192,13673,1,0,0:0:0:0:
448,192,13673,1,8,0:0:0:0:
320,192,13756,1,0,0:0:0:0:
192,192,13839,1,0,0:0:0:0:
320,192,13923,1,0,0:0:0:0:
448,192,14006,1,0,0:0:0:0:
64,192,14006,1,0,0:0:0:0:
320,192,14173,1,0,0:0:0:0:
192,192,14256,1,0,0:0:0:0:
320,192,14339,1,8,0:0:0:0:
64,192,14339,1,0,0:0:0:0:
448,192,14423,1,0,0:0:0:0:
64,192,14506,1,0,0:0:0:0:
192,192,14589,1,0,0:0:0:0:
320,192,14673,1,0,0:0:0:0:
448,192,14673,1,0,0:0:0:0:
192,192,14839,1,0,0:0:0:0:
320,192,14923,1,0,0:0:0:0:
192,192,15006,1,0,0:0:0:0:
448,192,15006,1,8,0:0:0:0:
64,192,15089,1,0,0:0:0:0:
320,192,15173,1,0,0:0:0:0:
192,192,15256,1,0,0:0:0:0:
64,192,15339,1,0,0:0:0:0:
448,192,15339,1,0,0:0:0:0:
320,192,15506,1,0,0:0:0:0:
192,192,15589,1,0,0:0:0:0:
64,192,15673,1,8,0:0:0:0:
448,192,15673,1,0,0:0:0:0:
192,192,15756,1,0,0:0:0:0:
320,192,15839,1,0,0:0:0:0:
448,192,15923,1,0,0:0:0:0:
192,192,16006,1,0,0:0:0:0:
64,192,16006,1,0,0:0:0:0:
64,192,16173,1,0,0:0:0:0:
192,192,16256,1,0,0:0:0:0:
320,192,16339,1,8,0:0:0:0:
448,192,16339,1,0,0:0:0:0:
64,192,16423,1,0,0:0:0:0:
448,192,16506,1,0,0:0:0:0:
320,192,16589,1,0,0:0:0:0:
192,192,16673,1,0,0:0:0:0:
64,192,16673,1,0,0:0:0:0:
192,192,16839,1,0,0:0:0:0:
320,192,16923,1,0,0:0:0:0:
64,192,17006,1,8,0:0:0:0:
448,192,17006,1,0,0:0:0:0:
192,192,17089,1,0,0:0:0:0:
320,192,17173,1,0,0:0:0:0:
192,192,17256,1,0,0:0:0:0:
320,192,17339,1,0,0:0:0:0:
448,192,17339,1,4,0:0:0:0:
64,192,17339,1,2,0:0:0:0:
192,192,17506,1,0,0:0:0:0:
320,192,17589,1,0,0:0:0:0:
448,192,17673,1,8,0:0:0:0:
64,192,17673,1,0,0:0:0:0:
192,192,17756,1,0,0:0:0:0:
320,192,17839,1,0,0:0:0:0:
192,192,17923,1,0,0:0:0:0:
64,192,18006,1,0,0:0:0:0:
448,192,18006,1,0,0:0:0:0:
320,192,18173,1,0,0:0:0:0:
192,192,18256,1,0,0:0:0:0:
64,192,18339,1,0,0:0:0:0:
448,192,18339,1,8,0:0:0:0:
320,192,18423,1,0,0:0:0:0:
192,192,18506,1,0,0:0:0:0:
320,192,18589,1,0,0:0:0:0:
64,192,18673,1,0,0:0:0:0:
448,192,18673,1,0,0:0:0:0:
320,192,18839,1,0,0:0:0:0:
192,192,18923,1,0,0:0:0:0:
448,192,19006,1,0,0:0:0:0:
64,192,19006,1,8,0:0:0:0:
320,192,19089,1,0,0:0:0:0:
64,192,19173,1,0,0:0:0:0:
192,192,19256,1,0,0:0:0:0:
320,192,19339,1,0,0:0:0:0:
448,192,19339,1,0,0:0:0:0:
192,192,19506,1,0,0:0:0:0:
320,192,19589,1,0,0:0:0:0:
448,192,19673,1,0,0:0:0:0:
64,192,19673,1,8,0:0:0:0:
192,192,19756,1,0,0:0:0:0:
320,192,19839,1,0,0:0:0:0:
192,192,19923,1,0,0:0:0:0:
320,192,20006,1,4,0:0:0:0:
448,192,20006,1,0,0:0:0:0:
64,192,20006,1,2,0:0:0:0:
192,192,20173,1,0,0:0:0:0:
320,192,20256,1,0,0:0:0:0:
448,192,20339,1,8,0:0:0:0:
64,192,20339,1,0,0:0:0:0:
192,192,20423,1,0,0:0:0:0:
448,192,20506,1,0,0:0:0:0:
320,192,20589,1,0,0:0:0:0:
192,192,20673,1,0,0:0:0:0:
64,192,20673,1,0,0:0:0:0:
64,192,20839,1,0,0:0:0:0:
192,192,20923,1,0,0:0:0:0:
320,192,21006,1,8,0:0:0:0:
448,192,21006,1,0,0:0:0:0:
64,192,21089,1,0,0:0:0:0:
192,192,21173,1,0,0:0:0:0:
320,192,21256,1,0,0:0:0:0:
448,192,21339,1,0,0:0:0:0:
64,192,21339,1,2,0:0:0:0:
192,192,21339,1,0,0:0:0:0:
448,192,21506,1,0,0:0:0:0:
320,192,21673,1,0,0:0:0:0:
64,192,21673,1,2,0:0:0:0:
192,192,21673,1,0,0:0:0:0:
64,192,21839,1,0,0:0:0:0:
192,192,22006,1,0,0:0:0:0:
320,192,22006,1,2,0:0:0:0:
448,192,22006,1,0,0:0:0:0:
64,192,22173,1,0,0:0:0:0:
448,192,22256,1,0,0:0:0:0:
320,192,22256,1,2,0:0:0:0:
64,192,22339,1,0,0:0:0:0:
192,192,22339,1,2,0:0:0:0:
192,192,22506,1,0,0:0:0:0:
320,192,22506,1,2,0:0:0:0:
320,192,22673,1,0,0:0:0:70:c5.wav
448,192,22673,1,2,0:0:0:0:
64,192,22673,128,4,23673:0:0:0:0:
192,192,22839,1,0,0:0:0:70:f4.wav
448,192,22839,1,0,0:0:0:0:
320,192,23006,1,8,0:0:0:0:
192,192,23006,1,2,0:0:0:0:
448,192,23006,1,0,0:0:0:0:
320,192,23173,1,0,0:0:0:0:
448,192,23339,1,2,0:0:0:0:
192,192,23339,1,0,0:0:0:0:
320,192,23506,1,0,0:0:0:0:
448,192,23673,1,0,0:0:0:0:
320,192,23673,1,8,0:0:0:0:
192,192,23673,1,2,0:0:0:0:
192,192,23839,1,0,0:0:0:0:
320,192,24006,1,0,0:0:0:70:c5.wav
64,192,24006,1,2,0:0:0:0:
448,192,24006,128,0,25006:0:0:0:0:
192,192,24173,1,0,0:0:0:70:d#4.wav
320,192,24173,1,0,0:0:0:0:
192,192,24339,1,2,0:0:0:0:
64,192,24339,1,8,0:0:0:0:
320,192,24339,1,0,0:0:0:0:
64,192,24506,1,0,0:0:0:0:
192,192,24673,1,0,0:0:0:0:
320,192,24673,1,2,0:0:0:0:
64,192,24839,1,0,0:0:0:0:
320,192,25006,1,2,0:0:0:0:
192,192,25006,1,0,0:0:0:0:
64,192,25006,1,8,0:0:0:0:
192,192,25173,1,0,0:0:0:0:
320,192,25339,1,2,0:0:0:0:
448,192,25339,1,0,0:0:0:70:a#4.wav
64,192,25339,128,0,26339:0:0:0:0:
192,192,25506,1,0,0:0:0:0:
448,192,25673,1,8,0:0:0:0:
192,192,25673,1,2,0:0:0:0:
320,192,25673,1,0,0:0:0:0:
320,192,25839,1,0,0:0:0:0:
448,192,26006,1,2,0:0:0:0:
192,192,26006,1,0,0:0:0:0:
320,192,26173,1,0,0:0:0:0:
192,192,26339,1,2,0:0:0:0:
320,192,26339,1,0,0:0:0:0:
448,192,26339,1,8,0:0:0:0:
192,192,26506,1,0,0:0:0:0:
64,192,26673,1,0,0:0:0:0:
320,192,26673,1,2,0:0:0:0:
448,192,26673,1,0,0:0:0:70:g4.wav
192,192,26839,1,0,0:0:0:70:d#4low.wav
320,192,26839,1,0,0:0:0:0:
192,192,27006,1,2,0:0:0:0:
64,192,27006,1,8,0:0:0:0:
448,192,27006,1,0,0:0:0:70:g#4.wav
320,192,27173,1,0,0:0:0:70:d#4low.wav
448,192,27173,1,0,0:0:0:0:
64,192,27339,1,0,0:0:0:70:g4.wav
192,192,27339,1,2,0:0:0:0:
320,192,27339,1,0,0:0:0:0:
192,192,27506,1,0,0:0:0:0:
448,192,27506,1,0,0:0:0:70:c4low.wav
64,192,27673,1,0,0:0:0:70:d#4.wav
320,192,27673,1,8,0:0:0:0:
448,192,27673,1,2,0:0:0:0:
192,192,27839,1,0,0:0:0:70:c4low.wav
320,192,27839,1,0,0:0:0:0:
448,192,28006,1,2,0:0:0:0:
64,192,28006,1,0,0:0:0:70:f4.wav
192,192,28006,128,0,29006:0:0:0:0:
320,192,28173,1,0,0:0:0:70:a#3.wav
448,192,28173,1,0,0:0:0:0:
64,192,28339,1,2,0:0:0:0:
320,192,28339,1,8,0:0:0:0:
448,192,28339,1,0,0:0:0:0:
64,192,28506,1,0,0:0:0:0:
320,192,28673,1,2,0:0:0:0:
448,192,28673,1,0,0:0:0:0:
64,192,28839,1,0,0:0:0:0:
448,192,29006,1,0,0:0:0:0:
64,192,29006,1,2,0:0:0:0:
320,192,29006,1,8,0:0:0:0:
320,192,29173,1,0,0:0:0:70:f4.wav
192,192,29173,1,0,0:0:0:0:
192,192,29339,1,2,0:0:0:0:
448,192,29339,1,0,0:0:0:70:d#4.wav
64,192,29339,128,0,30339:0:0:0:0:
320,192,29506,1,0,0:0:0:0:
448,192,29506,1,0,0:0:0:70:a#3.wav
192,192,29673,1,2,0:0:0:0:
320,192,29673,1,8,0:0:0:0:
448,192,29673,1,0,0:0:0:0:
192,192,29839,1,0,0:0:0:0:
320,192,30006,1,2,0:0:0:0:
448,192,30006,1,0,0:0:0:0:
192,192,30173,1,0,0:0:0:0:
448,192,30339,1,8,0:0:0:0:
320,192,30339,1,0,0:0:0:0:
192,192,30339,1,2,0:0:0:0:
320,192,30506,1,0,0:0:0:70:g#3.wav
64,192,30506,1,0,0:0:0:0:
192,192,30589,1,0,0:0:0:70:g3.wav
320,192,30673,1,0,0:0:0:70:g#3.wav
448,192,30673,1,0,0:0:0:0:
64,192,30673,1,2,0:0:0:0:
320,192,30839,1,0,0:0:0:0:
192,192,30839,1,0,0:0:0:0:
64,192,31006,1,0,0:0:0:0:
192,192,31006,1,2,0:0:0:0:
448,192,31006,1,8,0:0:0:0:
64,192,31173,1,0,0:0:0:0:
320,192,31173,1,0,0:0:0:0:
448,192,31339,1,0,0:0:0:0:
320,192,31339,1,2,0:0:0:0:
192,192,31339,1,0,0:0:0:0:
448,192,31506,1,0,0:0:0:0:
64,192,31506,1,0,0:0:0:0:
64,192,31673,1,8,0:0:0:0:
192,192,31673,1,2,0:0:0:0:
320,192,31673,1,0,0:0:0:0:
192,192,31839,1,0,0:0:0:0:
448,192,31839,1,0,0:0:0:0:
64,192,32006,1,0,0:0:0:70:g3.wav
448,192,32006,1,2,0:0:0:0:
320,192,32006,1,0,0:0:0:0:
192,192,32173,1,0,0:0:0:0:
320,192,32173,1,0,0:0:0:0:
448,192,32339,1,8,0:0:0:0:
192,192,32339,1,2,0:0:0:0:
64,192,32339,1,0,0:0:0:0:
320,192,32506,1,0,0:0:0:0:
448,192,32506,1,0,0:0:0:0:
192,192,32673,1,2,0:0:0:0:
320,192,32673,1,0,0:0:0:70:d#4.wav
64,192,32673,128,0,32839:0:0:0:0:
448,192,32839,1,0,0:0:0:0:
448,192,33006,128,2,33173:0:0:0:0:
192,192,33006,1,8,0:0:0:0:
64,192,33006,1,0,0:0:0:70:a#4.wav
192,192,33173,1,0,0:0:0:0:
320,192,33173,1,2,0:0:0:0:
320,192,33339,1,0,0:0:0:70:c5.wav
448,192,33339,1,2,0:0:0:0:
64,192,33339,128,4,34339:0:0:0:0:
192,192,33506,1,0,0:0:0:70:f4.wav
448,192,33506,1,0,0:0:0:0:
320,192,33673,1,8,0:0:0:0:
192,192,33673,1,2,0:0:0:0:
448,192,33673,1,0,0:0:0:0:
320,192,33839,1,0,0:0:0:0:
448,192,34006,1,2,0:0:0:0:
192,192,34006,1,0,0:0:0:0:
320,192,34173,1,0,0:0:0:0:
448,192,34339,1,0,0:0:0:0:
320,192,34339,1,8,0:0:0:0:
192,192,34339,1,2,0:0:0:0:
192,192,34506,1,0,0:0:0:0:
320,192,34673,1,0,0:0:0:70:c5.wav
64,192,34673,1,2,0:0:0:0:
448,192,34673,128,0,35673:0:0:0:0:
192,192,34839,1,0,0:0:0:70:d#4.wav
64,192,34839,1,0,0:0:0:0:
192,192,35006,1,2,0:0:0:0:
64,192,35006,1,8,0:0:0:0:
320,192,35006,1,0,0:0:0:0:
320,192,35173,1,0,0:0:0:0:
192,192,35339,1,0,0:0:0:0:
64,192,35339,1,2,0:0:0:0:
320,192,35506,1,0,0:0:0:0:
320,192,35673,1,2,0:0:0:0:
192,192,35673,1,0,0:0:0:70:d#5.wav
64,192,35673,1,8,0:0:0:0:
192,192,35839,1,0,0:0:0:0:
320,192,36006,1,2,0:0:0:0:
448,192,36006,1,0,0:0:0:70:c5.wav
64,192,36006,128,0,37006:0:0:0:0:
192,192,36173,1,0,0:0:0:70:g4.wav
320,192,36173,1,0,0:0:0:0:
448,192,36339,1,8,0:0:0:0:
192,192,36339,1,2,0:0:0:0:
320,192,36339,1,0,0:0:0:0:
448,192,36506,1,0,0:0:0:0:
320,192,36673,1,2,0:0:0:0:
192,192,36673,1,0,0:0:0:0:
448,192,36839,1,0,0:0:0:0:
192,192,37006,1,0,0:0:0:70:g5.wav
320,192,37006,1,2,0:0:0:0:
448,192,37006,1,8,0:0:0:0:
192,192,37173,1,0,0:0:0:0:
64,192,37339,1,0,0:0:0:0:
320,192,37339,1,2,0:0:0:0:
448,192,37339,1,0,0:0:0:70:g#5.wav
192,192,37506,1,0,0:0:0:0:
320,192,37506,1,0,0:0:0:0:
192,192,37673,1,2,0:0:0:0:
64,192,37673,1,8,0:0:0:0:
448,192,37673,1,0,0:0:0:70:g5.wav
320,192,37839,1,0,0:0:0:70:c5low.wav
448,192,37839,1,0,0:0:0:0:
64,192,38006,1,0,0:0:0:70:d#5.wav
192,192,38006,1,2,0:0:0:0:
320,192,38006,1,0,0:0:0:0:
192,192,38173,1,0,0:0:0:0:
448,192,38173,1,0,0:0:0:70:a#4low.wav
64,192,38339,1,0,0:0:0:70:c5.wav
320,192,38339,1,8,0:0:0:0:
448,192,38339,1,2,0:0:0:0:
192,192,38506,1,0,0:0:0:70:a#4low.wav
320,192,38506,1,0,0:0:0:0:
192,192,38673,1,0,0:0:0:70:f5.wav
448,192,38673,1,2,0:0:0:0:
64,192,38673,128,0,39339:0:0:0:0:
320,192,38839,1,0,0:0:0:70:c5.wav
448,192,39006,1,8,0:0:0:0:
192,192,39006,1,0,0:0:0:0:
320,192,39006,1,2,0:0:0:0:
192,192,39173,1,0,0:0:0:0:
448,192,39339,1,0,0:0:0:0:
320,192,39339,1,2,0:0:0:0:
192,192,39506,1,0,0:0:0:0:
64,192,39673,1,8,0:0:0:0:
448,192,39673,1,0,0:0:0:70:g5.wav
320,192,39673,128,2,40006:0:0:0:0:
192,192,39839,1,0,0:0:0:0:
192,192,40006,1,0,0:0:0:70:g#5.wav
448,192,40006,128,0,41006:0:0:0:0:
64,192,40006,1,2,0:0:0:0:
320,192,40173,1,0,0:0:0:70:c5.wav
192,192,40339,1,2,0:0:0:0:
64,192,40339,1,8,0:0:0:0:
320,192,40339,1,0,0:0:0:0:
192,192,40506,1,0,0:0:0:0:
64,192,40673,1,2,0:0:0:0:
320,192,40673,1,0,0:0:0:0:
192,192,40839,1,0,0:0:0:70:c5.wav
64,192,41006,1,2,0:0:0:0:
320,192,41006,1,8,0:0:0:0:
192,192,41006,1,0,0:0:0:70:f5.wav
320,192,41173,1,0,0:0:0:0:
448,192,41173,1,0,0:0:0:70:g5.wav
192,192,41339,1,0,0:0:0:0:
64,192,41339,1,2,0:0:0:0:
448,192,41339,1,0,0:0:0:70:g#5.wav
320,192,41506,1,0,0:0:0:70:g5.wav
64,192,41506,1,0,0:0:0:0:
192,192,41673,1,8,0:0:0:0:
320,192,41673,1,0,0:0:0:0:
448,192,41673,1,2,0:0:0:0:
192,192,41839,1,0,0:0:0:0:
64,192,41839,1,0,0:0:0:0:
64,192,42006,1,0,0:0:0:0:
320,192,42006,1,2,0:0:0:0:
448,192,42006,1,0,0:0:0:0:
192,192,42173,1,0,0:0:0:70:a#5.wav
320,192,42173,1,0,0:0:0:0:
192,192,42339,1,2,0:0:0:0:
64,192,42339,1,8,0:0:0:0:
448,192,42339,1,0,0:0:0:70:g#5.wav
320,192,42506,1,0,0:0:0:70:g5.wav
448,192,42506,1,0,0:0:0:0:
64,192,42673,1,2,0:0:0:0:
192,192,42673,1,0,0:0:0:70:g#5.wav
320,192,42673,1,0,0:0:0:0:
192,192,42839,1,0,0:0:0:0:
64,192,42839,1,0,0:0:0:0:
448,192,42839,1,2,0:0:0:0:
320,192,43006,1,8,0:0:0:0:
448,192,43006,1,0,0:0:0:0:
64,192,43006,1,2,0:0:0:0:
448,192,43173,1,0,0:0:0:0:
192,192,43173,1,2,0:0:0:0:
320,192,43173,1,0,0:0:0:0:
192,192,43339,1,0,0:0:0:0:
64,192,43339,1,2,0:0:0:0:
320,192,43423,1,2,0:0:0:0:
448,192,43423,1,0,0:0:0:0:
192,192,43506,1,2,0:0:0:0:
64,192,43506,1,0,0:0:0:0:
448,192,43589,1,2,0:0:0:0:
320,192,43589,1,0,0:0:0:0:
192,192,43673,1,2,0:0:0:0:
64,192,43673,1,8,0:0:0:0:
320,192,43756,1,2,0:0:0:0:
448,192,43756,1,0,0:0:0:0:
64,192,43839,1,0,0:0:0:0:
192,192,43839,1,2,0:0:0:0:
320,192,43923,1,0,0:0:0:0:
448,192,43923,1,2,0:0:0:0:
192,192,44006,1,4,0:0:0:0:
64,192,44006,1,2,0:0:0:0:
320,192,44173,1,0,0:0:0:0:
448,192,44173,1,0,0:0:0:0:
320,192,44339,1,0,0:0:0:0:
64,192,44339,1,8,0:0:0:0:
192,192,44506,1,0,0:0:0:0:
448,192,44506,1,0,0:0:0:0:
192,192,44673,1,0,0:0:0:0:
64,192,44673,1,0,0:0:0:0:
448,192,44839,1,0,0:0:0:0:
320,192,44839,1,0,0:0:0:0:
320,192,45006,1,0,0:0:0:0:
64,192,45006,1,8,0:0:0:0:
192,192,45173,1,0,0:0:0:0:
448,192,45173,1,0,0:0:0:0:
192,192,45339,1,0,0:0:0:0:
320,192,45339,1,0,0:0:0:0:
448,192,45506,1,0,0:0:0:0:
64,192,45506,1,0,0:0:0:0:
320,192,45673,1,8,0:0:0:0:
448,192,45673,1,0,0:0:0:0:
192,192,45839,1,0,0:0:0:0:
64,192,45839,1,0,0:0:0:0:
192,192,46006,1,0,0:0:0:0:
320,192,46006,1,0,0:0:0:0:
64,192,46173,1,0,0:0:0:0:
448,192,46173,1,0,0:0:0:0:
320,192,46339,1,8,0:0:0:0:
448,192,46339,1,0,0:0:0:0:
192,192,46506,1,0,0:0:0:0:
64,192,46506,1,0,0:0:0:0:
320,192,46673,1,0,0:0:0:0:
192,192,46673,1,0,0:0:0:0:
64,192,46839,1,0,0:0:0:0:
448,192,46839,1,0,0:0:0:0:
320,192,47006,1,8,0:0:0:0:
448,192,47006,1,0,0:0:0:0:
192,192,47173,1,0,0:0:0:0:
64,192,47173,1,0,0:0:0:0:
448,192,47339,1,0,0:0:0:0:
192,192,47339,1,0,0:0:0:0:
64,192,47506,1,0,0:0:0:0:
320,192,47506,1,0,0:0:0:0:
448,192,47673,1,8,0:0:0:0:
320,192,47673,1,0,0:0:0:0:
64,192,47839,1,0,0:0:0:0:
192,192,47839,1,0,0:0:0:0:
320,192,48006,1,0,0:0:0:0:
192,192,48006,1,0,0:0:0:0:
448,192,48173,1,0,0:0:0:0:
64,192,48173,1,0,0:0:0:0:
320,192,48339,1,0,0:0:0:0:
448,192,48339,1,8,0:0:0:0:
64,192,48506,1,0,0:0:0:0:
192,192,48506,1,0,0:0:0:0:
64,192,48673,1,0,0:0:0:0:
320,192,48673,1,0,0:0:0:0:
448,192,48839,1,0,0:0:0:0:
192,192,48839,1,0,0:0:0:0:
448,192,49006,1,0,0:0:0:0:
320,192,49006,1,8,0:0:0:0:
192,192,49173,1,0,0:0:0:0:
64,192,49173,1,0,0:0:0:0:
64,192,49339,1,2,0:0:0:0:
448,192,49339,1,0,0:0:0:0:
320,192,49339,1,4,0:0:0:0:
192,192,49339,1,0,0:0:0:0:
320,192,49506,1,0,0:0:0:0:
448,192,49506,1,0,0:0:0:0:
64,192,49673,1,8,0:0:0:0:
192,192,49673,1,0,0:0:0:0:
192,192,49839,1,0,0:0:0:0:
448,192,49839,1,0,0:0:0:0:
320,192,50006,1,0,0:0:0:0:
64,192,50006,1,0,0:0:0:0:
192,192,50173,1,0,0:0:0:0:
320,192,50173,1,0,0:0:0:0:
64,192,50339,1,0,0:0:0:0:
448,192,50339,1,8,0:0:0:0:
64,192,50506,1,0,0:0:0:0:
192,192,50506,1,0,0:0:0:0:
320,192,50673,1,0,0:0:0:0:
448,192,50673,1,0,0:0:0:0:
320,192,50839,1,0,0:0:0:0:
64,192,50839,1,0,0:0:0:0:
192,192,51006,1,0,0:0:0:0:
448,192,51006,1,8,0:0:0:0:
192,192,51173,1,0,0:0:0:0:
320,192,51173,1,0,0:0:0:0:
64,192,51339,1,0,0:0:0:0:
448,192,51339,1,0,0:0:0:0:
192,192,51506,1,0,0:0:0:0:
64,192,51506,1,0,0:0:0:0:
448,192,51673,1,0,0:0:0:0:
320,192,51673,1,8,0:0:0:0:
64,192,51839,1,0,0:0:0:0:
320,192,51839,1,0,0:0:0:0:
192,192,52006,1,0,0:0:0:0:
64,192,52006,1,0,0:0:0:0:
320,192,52173,1,0,0:0:0:0:
448,192,52173,1,0,0:0:0:0:
64,192,52339,1,0,0:0:0:0:
448,192,52339,1,8,0:0:0:0:
192,192,52506,1,0,0:0:0:0:
320,192,52506,1,0,0:0:0:0:
192,192,52673,1,0,0:0:0:0:
64,192,52673,1,0,0:0:0:0:
320,192,52839,1,0,0:0:0:0:
448,192,52839,1,0,0:0:0:0:
192,192,53006,1,8,0:0:0:0:
448,192,53006,1,0,0:0:0:0:
64,192,53173,1,0,0:0:0:0:
320,192,53173,1,0,0:0:0:0:
192,192,53339,1,0,0:0:0:0:
64,192,53339,1,0,0:0:0:0:
320,192,53506,1,0,0:0:0:0:
448,192,53506,1,0,0:0:0:0:
320,192,53673,1,0,0:0:0:0:
64,192,53673,1,8,0:0:0:0:
448,192,53839,1,0,0:0:0:0:
192,192,53839,1,0,0:0:0:0:
192,192,54006,1,0,0:0:0:0:
64,192,54006,1,0,0:0:0:0:
320,192,54173,1,0,0:0:0:0:
448,192,54173,1,0,0:0:0:0:
448,192,54339,1,0,0:0:0:0:
192,192,54339,1,2,0:0:0:0:
64,192,54339,1,8,0:0:0:0:
448,192,54506,1,2,0:0:0:0:
192,192,54506,1,0,0:0:0:0:
64,192,54506,1,0,0:0:0:0:
192,192,54673,1,0,0:0:0:0:
64,192,54673,1,2,0:0:0:0:
448,192,54673,1,4,0:0:0:0:
320,192,54673,1,0,0:0:0:0:
320,192,54839,1,0,0:0:0:0:
64,192,54839,1,0,0:0:0:0:
192,192,55006,1,8,0:0:0:0:
320,192,55006,1,0,0:0:0:0:
448,192,55006,1,2,0:0:0:0:
448,192,55173,1,0,0:0:0:0:
64,192,55173,1,0,0:0:0:0:
320,192,55339,1,2,0:0:0:0:
64,192,55339,1,0,0:0:0:0:
192,192,55339,1,0,0:0:0:0:
192,192,55506,1,0,0:0:0:0:
448,192,55506,1,0,0:0:0:0:
64,192,55673,1,8,0:0:0:0:
320,192,55673,1,2,0:0:0:0:
448,192,55673,1,0,0:0:0:0:
320,192,55839,1,0,0:0:0:0:
192,192,55839,1,0,0:0:0:0:
192,192,56006,1,0,0:0:0:0:
64,192,56006,1,0,0:0:0:0:
448,192,56006,1,2,0:0:0:0:
320,192,56173,1,0,0:0:0:0:
64,192,56173,1,0,0:0:0:0:
192,192,56339,1,8,0:0:0:0:
320,192,56339,1,2,0:0:0:0:
448,192,56339,1,0,0:0:0:0:
448,192,56506,1,0,0:0:0:0:
64,192,56506,1,0,0:0:0:0:
320,192,56673,1,2,0:0:0:0:
192,192,56673,1,0,0:0:0:0:
64,192,56673,1,0,0:0:0:0:
192,192,56839,1,0,0:0:0:0:
448,192,56839,1,0,0:0:0:0:
64,192,57006,1,8,0:0:0:0:
320,192,57006,1,2,0:0:0:0:
448,192,57006,1,0,0:0:0:0:
320,192,57173,1,0,0:0:0:0:
192,192,57173,1,0,0:0:0:0:
192,192,57339,1,0,0:0:0:0:
64,192,57339,1,0,0:0:0:0:
448,192,57339,1,2,0:0:0:0:
320,192,57506,1,0,0:0:0:0:
64,192,57506,1,0,0:0:0:0:
192,192,57673,1,8,0:0:0:0:
320,192,57673,1,0,0:0:0:0:
448,192,57673,1,2,0:0:0:0:
448,192,57839,1,0,0:0:0:0:
64,192,57839,1,0,0:0:0:0:
320,192,58006,1,2,0:0:0:0:
64,192,58006,1,0,0:0:0:0:
192,192,58006,1,0,0:0:0:0:
192,192,58173,1,0,0:0:0:0:
448,192,58173,1,0,0:0:0:0:
64,192,58339,1,2,0:0:0:0:
320,192,58339,1,8,0:0:0:0:
448,192,58339,1,0,0:0:0:0:
192,192,58506,1,0,0:0:0:0:
64,192,58506,1,0,0:0:0:0:
192,192,58673,1,0,0:0:0:0:
320,192,58673,1,0,0:0:0:0:
448,192,58673,1,2,0:0:0:0:
320,192,58839,1,0,0:0:0:0:
64,192,58839,1,0,0:0:0:0:
192,192,59006,1,8,0:0:0:0:
64,192,59006,1,0,0:0:0:0:
448,192,59006,1,2,0:0:0:0:
320,192,59173,1,0,0:0:0:0:
192,192,59173,1,0,0:0:0:0:
64,192,59339,1,2,0:0:0:0:
320,192,59339,1,0,0:0:0:0:
448,192,59339,1,0,0:0:0:0:
448,192,59506,1,0,0:0:0:0:
192,192,59506,1,0,0:0:0:0:
320,192,59673,1,8,0:0:0:0:
192,192,59673,1,0,0:0:0:0:
64,192,59673,1,2,0:0:0:0:
320,192,59839,1,0,0:0:0:0:
448,192,59839,1,0,0:0:0:0:
64,192,60006,1,2,0:0:0:0:
192,192,60006,1,0,0:0:0:0:
320,192,60089,1,0,0:0:0:0:
448,192,60173,1,0,0:0:0:0:
64,192,60173,1,0,0:0:0:0:
192,192,60256,1,0,0:0:0:0:
320,192,60339,1,8,0:0:0:0:
448,192,60339,1,2,0:0:0:0:
192,192,60423,1,0,0:0:0:0:
64,192,60506,1,0,0:0:0:0:
448,192,60506,1,0,0:0:0:0:
320,192,60589,1,0,0:0:0:0:
192,192,60673,1,0,0:0:0:0:
64,192,60673,1,2,0:0:0:0:
320,192,60756,1,0,0:0:0:0:
64,192,60839,1,0,0:0:0:0:
448,192,60839,1,0,0:0:0:0:
192,192,60923,1,0,0:0:0:0:
448,192,61006,1,8,0:0:0:0:
320,192,61006,1,2,0:0:0:0:
192,192,61089,1,0,0:0:0:0:
448,192,61173,1,0,0:0:0:0:
64,192,61173,1,0,0:0:0:0:
320,192,61256,1,0,0:0:0:0:
64,192,61339,1,0,0:0:0:0:
192,192,61339,1,2,0:0:0:0:
448,192,61423,1,0,0:0:0:0:
320,192,61506,1,0,0:0:0:0:
64,192,61506,1,0,0:0:0:0:
192,192,61589,1,0,0:0:0:0:
448,192,61673,1,2,0:0:0:0:
320,192,61673,1,8,0:0:0:0:
64,192,61756,1,0,0:0:0:0:
192,192,61839,1,0,0:0:0:0:
448,192,61839,1,0,0:0:0:0:
320,192,61923,1,0,0:0:0:0:
64,192,62006,1,2,0:0:0:0:
192,192,62006,1,0,0:0:0:0:
448,192,62089,1,0,0:0:0:0:
64,192,62173,1,0,0:0:0:0:
320,192,62173,1,0,0:0:0:0:
192,192,62256,1,0,0:0:0:0:
448,192,62339,1,8,0:0:0:0:
320,192,62339,1,2,0:0:0:0:
64,192,62423,1,0,0:0:0:0:
192,192,62506,1,0,0:0:0:0:
448,192,62506,1,0,0:0:0:0:
320,192,62589,1,0,0:0:0:0:
64,192,62673,1,2,0:0:0:0:
192,192,62673,1,0,0:0:0:0:
320,192,62756,1,0,0:0:0:0:
448,192,62839,1,0,0:0:0:0:
64,192,62839,1,0,0:0:0:0:
192,192,62923,1,0,0:0:0:0:
448,192,63006,1,8,0:0:0:0:
320,192,63006,1,2,0:0:0:0:
192,192,63089,1,0,0:0:0:0:
448,192,63173,1,0,0:0:0:0:
64,192,63173,1,0,0:0:0:0:
320,192,63256,1,0,0:0:0:0:
192,192,63339,1,2,0:0:0:0:
64,192,63339,1,0,0:0:0:0:
448,192,63423,1,0,0:0:0:0:
64,192,63506,1,0,0:0:0:0:
320,192,63506,1,0,0:0:0:0:
192,192,63589,1,0,0:0:0:0:
320,192,63673,1,8,0:0:0:0:
448,192,63673,1,2,0:0:0:0:
64,192,63756,1,0,0:0:0:0:
448,192,63839,1,0,0:0:0:0:
192,192,63839,1,2,0:0:0:0:
320,192,63923,1,0,0:0:0:0:
448,192,64006,1,4,0:0:0:0:
192,192,64006,1,2,0:0:0:0:
64,192,64006,1,0,0:0:0:0:
320,192,64089,1,0,0:0:0:0:
192,192,64173,1,0,0:0:0:0:
64,192,64173,1,0,0:0:0:0:
320,192,64256,1,0,0:0:0:0:
192,192,64339,1,4,0:0:0:0:
448,192,64339,1,0,0:0:0:0:
64,192,64339,1,0,0:0:0:0:
320,192,64423,1,0,0:0:0:0:
64,192,64506,1,0,0:0:0:0:
448,192,64506,1,0,0:0:0:0:
192,192,64589,1,0,0:0:0:0:
320,192,64673,1,4,0:0:0:0:
64,192,64673,1,0,0:0:0:70:g4.wav
448,192,64673,1,0,0:0:0:0:
192,192,64756,1,0,0:0:0:0:
448,192,64839,1,0,0:0:0:70:g3low.wav
320,192,64839,1,0,0:0:0:0:
192,192,64923,1,0,0:0:0:0:
320,192,65006,1,4,0:0:0:0:
448,192,65006,1,0,0:0:0:0:
64,192,65006,1,0,0:0:0:70:a#4.wav
192,192,65089,1,0,0:0:0:0:
448,192,65173,1,0,0:0:0:70:a#3low.wav
64,192,65173,1,0,0:0:0:0:
320,192,65256,1,0,0:0:0:0:
192,192,65339,1,4,0:0:0:0:
64,192,65339,1,2,0:0:0:0:
448,192,65339,1,0,0:0:0:70:c5.wav
192,192,65506,1,0,0:0:0:0:
320,192,65506,1,0,0:0:0:70:f4.wav
64,192,65673,1,0,0:0:0:70:c5low.wav
320,192,65673,1,2,0:0:0:0:
448,192,65673,1,8,0:0:0:0:
192,192,65839,1,0,0:0:0:70:f4low.wav
448,192,65839,1,0,0:0:0:0:
192,192,66006,1,0,0:0:0:0:
64,192,66006,1,2,0:0:0:0:
320,192,66006,1,0,0:0:0:0:
320,192,66173,1,0,0:0:0:0:
448,192,66173,1,0,0:0:0:70:f4low.wav
192,192,66256,1,0,0:0:0:0:
64,192,66339,1,8,0:0:0:0:
320,192,66339,1,2,0:0:0:0:
448,192,66339,1,0,0:0:0:0:
64,192,66506,1,0,0:0:0:0:
192,192,66506,1,0,0:0:0:0:
320,192,66589,1,0,0:0:0:0:
192,192,66673,1,0,0:0:0:0:
64,192,66673,1,2,0:0:0:0:
448,192,66673,1,0,0:0:0:70:c5.wav
320,192,66839,1,0,0:0:0:0:
64,192,66839,1,0,0:0:0:70:d#4.wav
192,192,67006,1,8,0:0:0:0:
320,192,67006,1,2,0:0:0:0:
448,192,67006,1,0,0:0:0:70:c5low.wav
192,192,67173,1,0,0:0:0:0:
64,192,67173,1,0,0:0:0:70:d#4low.wav
64,192,67339,1,0,0:0:0:0:
320,192,67339,1,2,0:0:0:0:
448,192,67339,1,0,0:0:0:0:
192,192,67423,1,0,0:0:0:0:
320,192,67506,1,0,0:0:0:0:
448,192,67506,1,0,0:0:0:70:d#4low.wav
448,192,67673,1,0,0:0:0:0:
64,192,67673,1,8,0:0:0:0:
192,192,67673,1,2,0:0:0:0:
320,192,67839,1,0,0:0:0:0:
64,192,67839,1,0,0:0:0:0:
192,192,67923,1,0,0:0:0:0:
64,192,68006,1,0,0:0:0:70:a#4.wav
320,192,68006,1,0,0:0:0:0:
448,192,68006,1,2,0:0:0:0:
320,192,68173,1,0,0:0:0:0:
64,192,68173,1,0,0:0:0:0:
448,192,68339,1,0,0:0:0:70:a#4low.wav
192,192,68339,1,8,0:0:0:0:
320,192,68339,1,2,0:0:0:0:
64,192,68506,1,0,0:0:0:0:
192,192,68506,1,0,0:0:0:70:a#3low.wav
64,192,68673,1,2,0:0:0:0:
320,192,68673,1,0,0:0:0:0:
448,192,68673,1,0,0:0:0:0:
192,192,68798,1,0,0:0:0:70:g5.wav
448,192,68839,1,0,0:0:0:70:g#5.wav
64,192,68839,1,0,0:0:0:0:
320,192,68923,1,0,0:0:0:0:
64,192,69006,1,0,0:0:0:70:g5.wav
192,192,69006,1,8,0:0:0:0:
448,192,69006,1,2,0:0:0:0:
320,192,69173,1,0,0:0:0:70:a#4.wav
64,192,69173,1,0,0:0:0:0:
192,192,69256,1,0,0:0:0:0:
64,192,69339,1,2,0:0:0:0:
320,192,69339,1,0,0:0:0:0:
448,192,69339,1,0,0:0:0:70:g#4.wav
448,192,69506,1,0,0:0:0:0:
192,192,69506,1,0,0:0:0:70:a#3low.wav
192,192,69673,1,2,0:0:0:0:
64,192,69673,1,8,0:0:0:0:
448,192,69673,1,0,0:0:0:70:g#4low.wav
320,192,69839,1,0,0:0:0:0:
64,192,69839,1,0,0:0:0:0:
192,192,69923,1,0,0:0:0:0:
64,192,70006,1,0,0:0:0:70:g4.wav
320,192,70006,1,0,0:0:0:0:
448,192,70006,1,2,0:0:0:0:
192,192,70089,1,0,0:0:0:0:
320,192,70173,1,0,0:0:0:0:
448,192,70173,1,0,0:0:0:0:
448,192,70339,1,0,0:0:0:70:g4low.wav
192,192,70339,1,2,0:0:0:0:
64,192,70339,1,8,0:0:0:0:
320,192,70423,1,0,0:0:0:0:
64,192,70506,1,0,0:0:0:0:
448,192,70506,1,0,0:0:0:0:
192,192,70589,1,0,0:0:0:0:
64,192,70673,1,2,0:0:0:0:
320,192,70673,1,0,0:0:0:0:
448,192,70673,1,0,0:0:0:70:g#4.wav
448,192,70839,1,0,0:0:0:0:
192,192,70839,1,0,0:0:0:70:c4.wav
320,192,71006,1,0,0:0:0:70:g#4low.wav
192,192,71006,1,2,0:0:0:0:
64,192,71006,1,8,0:0:0:0:
448,192,71173,1,0,0:0:0:0:
64,192,71173,1,0,0:0:0:70:c4low.wav
320,192,71339,1,0,0:0:0:0:
448,192,71339,1,2,0:0:0:0:
192,192,71339,1,0,0:0:0:0:
192,192,71506,1,0,0:0:0:0:
64,192,71506,1,0,0:0:0:70:c4low.wav
320,192,71589,1,0,0:0:0:0:
448,192,71673,1,8,0:0:0:0:
192,192,71673,1,2,0:0:0:0:
64,192,71673,1,0,0:0:0:0:
320,192,71839,1,0,0:0:0:0:
448,192,71839,1,0,0:0:0:0:
192,192,71923,1,0,0:0:0:0:
320,192,72006,1,0,0:0:0:0:
448,192,72006,1,2,0:0:0:0:
64,192,72006,1,0,0:0:0:70:g4.wav
192,192,72173,1,0,0:0:0:70:c4.wav
448,192,72173,1,0,0:0:0:0:
320,192,72339,1,8,0:0:0:0:
192,192,72339,1,2,0:0:0:0:
64,192,72339,1,0,0:0:0:70:g4low.wav
320,192,72506,1,0,0:0:0:0:
448,192,72506,1,0,0:0:0:70:c4low.wav
448,192,72673,1,0,0:0:0:0:
192,192,72673,1,2,0:0:0:0:
64,192,72673,1,0,0:0:0:0:
320,192,72756,1,0,0:0:0:0:
192,192,72839,1,0,0:0:0:0:
64,192,72839,1,0,0:0:0:0:
64,192,73006,1,0,0:0:0:0:
448,192,73006,1,8,0:0:0:0:
320,192,73006,1,2,0:0:0:0:
192,192,73173,1,0,0:0:0:0:
448,192,73173,1,0,0:0:0:0:
320,192,73256,1,0,0:0:0:0:
64,192,73339,1,2,0:0:0:0:
192,192,73339,1,0,0:0:0:0:
448,192,73339,1,0,0:0:0:70:f4.wav
192,192,73506,1,0,0:0:0:0:
448,192,73506,1,0,0:0:0:0:
64,192,73673,1,0,0:0:0:70:f4low.wav
320,192,73673,1,8,0:0:0:0:
448,192,73673,1,2,0:0:0:0:
320,192,73839,1,0,0:0:0:0:
192,192,73839,1,0,0:0:0:0:
192,192,74006,1,2,0:0:0:0:
448,192,74006,1,0,0:0:0:70:g4.wav
64,192,74006,1,0,0:0:0:0:
320,192,74089,1,0,0:0:0:0:
64,192,74173,1,0,0:0:0:70:d#4low.wav
448,192,74173,1,0,0:0:0:0:
192,192,74256,1,0,0:0:0:0:
64,192,74339,1,0,0:0:0:0:
320,192,74339,1,8,0:0:0:0:
448,192,74339,1,2,0:0:0:0:
448,192,74506,1,0,0:0:0:0:
192,192,74506,1,0,0:0:0:0:
320,192,74589,1,0,0:0:0:0:
64,192,74673,1,0,0:0:0:0:
192,192,74673,1,2,0:0:0:0:
448,192,74673,1,0,0:0:0:70:d#4.wav
320,192,74839,1,0,0:0:0:0:
64,192,74839,1,0,0:0:0:0:
192,192,74923,1,0,0:0:0:0:
320,192,75006,1,8,0:0:0:0:
64,192,75006,1,0,0:0:0:70:d#4low.wav
448,192,75006,1,2,0:0:0:0:
448,192,75173,1,0,0:0:0:0:
192,192,75173,1,0,0:0:0:0:
320,192,75256,1,0,0:0:0:0:
192,192,75339,1,2,0:0:0:0:
64,192,75339,128,0,75506:0:0:0:70:g4.wav
448,192,75339,1,0,0:0:0:70:a#3.wav
320,192,75506,1,0,0:0:0:70:g3low.wav
448,192,75673,128,0,75839:0:0:0:70:a#4.wav
192,192,75673,1,10,0:0:0:0:
64,192,75673,1,4,0:0:0:0:
320,192,75839,1,2,0:0:0:0:
192,192,75839,1,0,0:0:0:70:a#3low.wav
320,192,76006,1,0,0:0:0:70:c5.wav
448,192,76006,1,2,0:0:0:0:
64,192,76006,1,4,0:0:0:0:
192,192,76006,1,0,0:0:0:0:
64,192,76173,1,0,0:0:0:70:f4.wav
448,192,76173,1,0,0:0:0:0:
320,192,76256,1,0,0:0:0:0:
64,192,76339,1,0,0:0:0:70:c5low.wav
448,192,76339,1,2,0:0:0:0:
192,192,76339,1,8,0:0:0:0:
320,192,76506,1,0,0:0:0:0:
192,192,76506,1,0,0:0:0:70:f4low.wav
64,192,76673,1,2,0:0:0:0:
448,192,76673,1,0,0:0:0:0:
320,192,76673,1,0,0:0:0:0:
192,192,76839,1,0,0:0:0:70:f4low.wav
448,192,76839,1,0,0:0:0:0:
320,192,76923,1,0,0:0:0:0:
448,192,77006,1,8,0:0:0:0:
192,192,77006,1,0,0:0:0:0:
64,192,77006,1,2,0:0:0:0:
64,192,77173,1,0,0:0:0:0:
320,192,77173,1,0,0:0:0:0:
192,192,77256,1,0,0:0:0:0:
320,192,77339,1,0,0:0:0:0:
64,192,77339,1,2,0:0:0:0:
448,192,77339,1,0,0:0:0:70:c5.wav
448,192,77506,1,0,0:0:0:70:d#4.wav
192,192,77506,1,0,0:0:0:0:
192,192,77673,1,8,0:0:0:0:
320,192,77673,1,2,0:0:0:0:
448,192,77673,1,0,0:0:0:70:c5low.wav
192,192,77839,1,0,0:0:0:0:
64,192,77839,1,0,0:0:0:70:d#4low.wav
64,192,78006,1,0,0:0:0:0:
320,192,78006,1,2,0:0:0:0:
448,192,78006,1,0,0:0:0:0:
192,192,78089,1,0,0:0:0:0:
320,192,78173,1,0,0:0:0:0:
448,192,78173,1,0,0:0:0:70:d#4low.wav
448,192,78339,1,0,0:0:0:0:
64,192,78339,1,8,0:0:0:0:
192,192,78339,1,2,0:0:0:0:
320,192,78506,1,0,0:0:0:0:
64,192,78506,1,0,0:0:0:0:
192,192,78589,1,0,0:0:0:0:
64,192,78673,1,0,0:0:0:70:a#4.wav
320,192,78673,1,0,0:0:0:0:
448,192,78673,1,2,0:0:0:0:
192,192,78756,1,0,0:0:0:0:
320,192,78839,1,0,0:0:0:0:
448,192,78839,1,0,0:0:0:0:
448,192,79006,1,0,0:0:0:70:a#4low.wav
192,192,79006,1,8,0:0:0:0:
64,192,79006,1,2,0:0:0:0:
320,192,79173,1,0,0:0:0:0:
192,192,79173,1,0,0:0:0:70:a#3low.wav
64,192,79339,1,2,0:0:0:0:
320,192,79339,1,0,0:0:0:0:
448,192,79339,1,0,0:0:0:0:
192,192,79423,1,0,0:0:0:0:
64,192,79506,1,0,0:0:0:70:f5.wav
448,192,79506,1,0,0:0:0:0:
320,192,79589,1,0,0:0:0:0:
64,192,79673,1,2,0:0:0:0:
192,192,79673,1,8,0:0:0:0:
448,192,79673,1,0,0:0:0:70:g5.wav
320,192,79839,1,0,0:0:0:70:g#5.wav
64,192,79839,1,0,0:0:0:0:
192,192,79923,1,0,0:0:0:0:
64,192,80006,1,2,0:0:0:0:
320,192,80006,1,0,0:0:0:0:
448,192,80006,1,0,0:0:0:70:g5.wav
448,192,80173,1,0,0:0:0:0:
192,192,80173,1,0,0:0:0:0:
320,192,80256,1,0,0:0:0:0:
192,192,80339,1,2,0:0:0:0:
64,192,80339,1,8,0:0:0:0:
448,192,80339,1,0,0:0:0:0:
320,192,80506,1,0,0:0:0:0:
64,192,80506,1,0,0:0:0:0:
192,192,80589,1,0,0:0:0:0:
64,192,80673,1,0,0:0:0:70:d#5.wav
320,192,80673,1,0,0:0:0:0:
448,192,80673,1,2,0:0:0:0:
192,192,80756,1,0,0:0:0:0:
320,192,80839,1,0,0:0:0:0:
448,192,80839,1,0,0:0:0:0:
448,192,81006,1,0,0:0:0:70:d#5low.wav
192,192,81006,1,2,0:0:0:0:
64,192,81006,1,8,0:0:0:0:
320,192,81089,1,0,0:0:0:0:
192,192,81173,1,2,0:0:0:0:
64,192,81173,1,0,0:0:0:0:
320,192,81256,1,0,0:0:0:0:
64,192,81339,1,2,0:0:0:0:
448,192,81339,1,0,0:0:0:70:a#4.wav
192,192,81339,1,0,0:0:0:0:
192,192,81506,1,0,0:0:0:70:c5.wav
448,192,81506,1,0,0:0:0:0:
320,192,81673,1,8,0:0:0:0:
192,192,81673,1,2,0:0:0:0:
64,192,81673,1,0,0:0:0:70:a#4low.wav
320,192,81839,1,0,0:0:0:0:
448,192,81839,1,0,0:0:0:70:c5low.wav
64,192,82006,1,2,0:0:0:0:
192,192,82006,1,0,0:0:0:0:
448,192,82006,1,0,0:0:0:0:
320,192,82089,1,0,0:0:0:0:
192,192,82173,1,0,0:0:0:70:c5low.wav
64,192,82173,1,0,0:0:0:0:
320,192,82256,1,0,0:0:0:0:
192,192,82339,1,2,0:0:0:0:
448,192,82339,1,8,0:0:0:0:
64,192,82339,1,0,0:0:0:0:
320,192,82506,1,0,0:0:0:0:
448,192,82506,1,0,0:0:0:0:
192,192,82589,1,0,0:0:0:0:
320,192,82673,1,0,0:0:0:70:g#4.wav
448,192,82673,1,0,0:0:0:0:
64,192,82673,1,2,0:0:0:0:
64,192,82839,1,0,0:0:0:0:
192,192,82839,1,0,0:0:0:70:c5.wav
320,192,83006,1,8,0:0:0:0:
192,192,83006,1,2,0:0:0:0:
448,192,83006,1,0,0:0:0:70:g#4low.wav
64,192,83173,1,0,0:0:0:0:
320,192,83173,1,0,0:0:0:70:c5low.wav
448,192,83339,1,0,0:0:0:0:
192,192,83339,1,2,0:0:0:0:
64,192,83339,1,0,0:0:0:0:
320,192,83423,1,0,0:0:0:0:
64,192,83506,1,0,0:0:0:70:c5low.wav
192,192,83506,1,0,0:0:0:0:
320,192,83673,1,2,0:0:0:0:
192,192,83673,1,0,0:0:0:0:
448,192,83673,1,8,0:0:0:0:
64,192,83839,1,0,0:0:0:0:
448,192,83839,1,0,0:0:0:0:
192,192,83923,1,2,0:0:0:0:
320,192,84006,1,0,0:0:0:0:
64,192,84006,1,2,0:0:0:0:
448,192,84006,1,0,0:0:0:70:a#4.wav
320,192,84173,1,2,0:0:0:0:
192,192,84173,1,0,0:0:0:0:
448,192,84173,1,0,0:0:0:0:
192,192,84339,1,8,0:0:0:0:
64,192,84339,1,2,0:0:0:0:
320,192,84339,1,0,0:0:0:70:g#4.wav
448,192,84506,1,2,0:0:0:0:
64,192,84506,1,0,0:0:0:70:g4.wav
192,192,84506,1,0,0:0:0:0:
64,192,84673,1,0,0:0:0:0:
320,192,84673,1,2,0:0:0:0:
448,192,84673,1,0,0:0:0:0:
192,192,84839,1,2,0:0:0:0:
448,192,84839,1,0,0:0:0:70:a#4.wav
320,192,84839,1,0,0:0:0:0:
320,192,85006,1,2,0:0:0:0:
192,192,85006,1,8,0:0:0:0:
64,192,85006,1,0,0:0:0:0:
192,192,85173,1,2,0:0:0:0:
448,192,85173,1,0,0:0:0:0:
64,192,85173,1,0,0:0:0:0:
64,192,85339,1,2,0:0:0:0:
320,192,85339,1,4,0:0:0:0:
448,192,85339,1,0,0:0:0:70:d#5.wav
192,192,85423,1,2,0:0:0:0:
320,192,85506,1,2,0:0:0:0:
192,192,85589,1,0,0:0:0:0:
448,192,85589,1,2,0:0:0:0:
64,192,85589,1,4,0:0:0:0:
320,192,85673,1,2,0:0:0:0:
192,192,85756,1,2,0:0:0:0:
64,192,85839,1,2,0:0:0:0:
320,192,85839,1,0,0:0:0:0:
448,192,85839,1,4,0:0:0:0:
192,192,85923,1,2,0:0:0:0:
64,192,86006,1,2,0:0:0:0:
448,192,86006,1,0,0:0:0:70:a#5.wav
320,192,86089,1,4,0:0:0:0:
192,192,86089,1,2,0:0:0:0:
64,192,86173,1,2,0:0:0:0:
448,192,86173,1,4,0:0:0:0:
320,192,86256,1,2,0:0:0:0:
64,192,86339,1,4,0:0:0:0:
192,192,86339,1,2,0:0:0:0:
448,192,86423,1,0,0:0:0:0:
320,192,86423,1,2,0:0:0:0:
64,192,86506,1,4,0:0:0:0:
192,192,86506,1,2,0:0:0:0:
448,192,86548,1,2,0:0:0:0:
320,192,86589,1,2,0:0:0:0:
192,192,86631,1,2,0:0:0:0:
448,192,86673,1,4,0:0:0:0:
64,192,86673,1,2,0:0:0:0:
320,192,86756,1,0,0:0:0:0:
192,192,86839,1,0,0:0:0:0:
64,192,86839,1,0,0:0:0:0:
320,192,86923,1,0,0:0:0:0:
64,192,87006,1,0,0:0:0:0:
448,192,87006,1,0,0:0:0:0:
192,192,87089,1,0,0:0:0:0:
320,192,87173,1,0,0:0:0:0:
448,192,87173,1,0,0:0:0:0:
192,192,87256,1,0,0:0:0:0:
448,192,87339,1,0,0:0:0:70:b2.wav
64,192,87339,1,0,0:0:0:0:
320,192,87423,1,0,0:0:0:0:
192,192,87506,1,0,0:0:0:0:
64,192,87506,1,0,0:0:0:0:
320,192,87589,1,0,0:0:0:70:f#3.wav
64,192,87673,1,0,0:0:0:0:
448,192,87673,1,0,0:0:0:0:
192,192,87756,1,0,0:0:0:0:
320,192,87839,1,0,0:0:0:0:
448,192,87839,1,0,0:0:0:70:d4.wav
192,192,87923,1,0,0:0:0:0:
320,192,88006,1,4,0:0:0:0:
64,192,88006,1,2,0:0:0:0:
448,192,88006,1,0,0:0:0:70:f#4.wav
192,192,88089,1,0,0:0:0:0:
64,192,88173,1,0,0:0:0:0:
448,192,88256,1,0,0:0:0:0:
320,192,88256,1,0,0:0:0:70:c#5.wav
192,192,88339,1,8,0:0:0:0:
64,192,88339,1,2,0:0:0:0:
320,192,88423,1,0,0:0:0:0:
192,192,88506,1,0,0:0:0:70:b4.wav
448,192,88506,1,0,0:0:0:0:
64,192,88589,1,0,0:0:0:0:
448,192,88673,1,2,0:0:0:0:
320,192,88673,1,0,0:0:0:0:
192,192,88756,1,0,0:0:0:70:c#4.wav
64,192,88756,1,0,0:0:0:0:
320,192,88839,1,0,0:0:0:0:
448,192,88923,1,0,0:0:0:0:
192,192,89006,1,8,0:0:0:0:
320,192,89006,1,0,0:0:0:70:c#5.wav
64,192,89006,1,2,0:0:0:0:
448,192,89089,1,0,0:0:0:0:
192,192,89173,1,0,0:0:0:70:d5.wav
64,192,89173,1,0,0:0:0:0:
320,192,89256,1,0,0:0:0:0:
448,192,89339,1,2,0:0:0:0:
64,192,89339,1,0,0:0:0:70:e5.wav
192,192,89423,1,0,0:0:0:0:
320,192,89506,1,0,0:0:0:0:
192,192,89589,1,0,0:0:0:0:
448,192,89673,1,2,0:0:0:0:
320,192,89673,1,8,0:0:0:0:
64,192,89673,1,0,0:0:0:0:
192,192,89756,1,0,0:0:0:0:
448,192,89839,1,0,0:0:0:0:
320,192,89923,1,0,0:0:0:0:
192,192,90006,1,2,0:0:0:0:
64,192,90006,1,0,0:0:0:70:f#5.wav
448,192,90089,1,0,0:0:0:0:
320,192,90173,1,0,0:0:0:0:
192,192,90256,1,0,0:0:0:70:e5.wav
64,192,90256,1,0,0:0:0:0:
320,192,90339,1,8,0:0:0:0:
448,192,90339,1,2,0:0:0:0:
64,192,90423,1,0,0:0:0:0:
320,192,90506,1,0,0:0:0:0:
192,192,90506,1,0,0:0:0:70:d5.wav
448,192,90589,1,0,0:0:0:0:
192,192,90673,1,0,0:0:0:70:c#5.wav
64,192,90673,1,2,0:0:0:0:
320,192,90756,1,0,0:0:0:0:
448,192,90839,1,0,0:0:0:0:
192,192,90923,1,0,0:0:0:70:d5.wav
64,192,90923,1,0,0:0:0:0:
320,192,91006,1,8,0:0:0:0:
448,192,91006,1,2,0:0:0:0:
192,192,91089,1,0,0:0:0:0:
64,192,91173,1,0,0:0:0:0:
448,192,91173,1,0,0:0:0:70:a5.wav
320,192,91256,1,0,0:0:0:0:
192,192,91339,1,2,0:0:0:0:
64,192,91339,1,0,0:0:0:0:
448,192,91423,1,0,0:0:0:0:
320,192,91506,1,0,0:0:0:0:
192,192,91589,1,0,0:0:0:0:
64,192,91673,1,2,0:0:0:0:
320,192,91673,1,0,0:0:0:0:
448,192,91673,1,8,0:0:0:0:
192,192,91756,1,0,0:0:0:0:
64,192,91839,1,0,0:0:0:0:
448,192,91839,1,0,0:0:0:70:b5.wav
320,192,91923,1,0,0:0:0:0:
192,192,92006,1,2,0:0:0:0:
64,192,92006,1,0,0:0:0:70:f#5.wav
448,192,92089,1,0,0:0:0:0:
320,192,92173,1,0,0:0:0:0:
192,192,92256,1,0,0:0:0:0:
64,192,92339,1,2,0:0:0:0:
448,192,92339,1,8,0:0:0:0:
320,192,92339,1,0,0:0:0:0:
192,192,92423,1,0,0:0:0:0:
320,192,92506,1,0,0:0:0:70:d5.wav
448,192,92506,1,0,0:0:0:0:
192,192,92589,1,0,0:0:0:0:
64,192,92589,1,0,0:0:0:70:f#5.wav
320,192,92673,1,2,0:0:0:0:
448,192,92673,1,0,0:0:0:70:d6.wav
64,192,92756,1,0,0:0:0:0:
192,192,92839,1,0,0:0:0:0:
320,192,92923,1,0,0:0:0:70:c#6.wav
448,192,92923,1,0,0:0:0:0:
192,192,93006,1,2,0:0:0:0:
64,192,93006,1,8,0:0:0:0:
320,192,93089,1,0,0:0:0:0:
448,192,93173,1,0,0:0:0:0:
64,192,93173,1,0,0:0:0:70:e5.wav
192,192,93256,1,0,0:0:0:0:
320,192,93339,1,2,0:0:0:0:
448,192,93339,1,0,0:0:0:70:d5.wav
64,192,93423,1,0,0:0:0:0:
192,192,93506,1,0,0:0:0:0:
320,192,93589,1,0,0:0:0:70:c#5.wav
448,192,93589,1,0,0:0:0:0:
192,192,93673,1,8,0:0:0:0:
64,192,93673,1,2,0:0:0:0:
448,192,93756,1,0,0:0:0:0:
320,192,93839,1,0,0:0:0:0:
64,192,93839,1,0,0:0:0:70:a5.wav
192,192,93923,1,0,0:0:0:0:
320,192,94006,1,2,0:0:0:0:
448,192,94006,1,0,0:0:0:0:
64,192,94089,1,0,0:0:0:0:
192,192,94173,1,0,0:0:0:0:
320,192,94256,1,0,0:0:0:0:
192,192,94339,1,0,0:0:0:70:e5.wav
64,192,94339,1,10,0:0:0:0:
320,192,94423,1,0,0:0:0:0:
448,192,94423,1,0,0:0:0:70:d5.wav
192,192,94506,1,0,0:0:0:0:
64,192,94506,1,0,0:0:0:70:c#5.wav
320,192,94589,1,0,0:0:0:0:
448,192,94589,1,0,0:0:0:70:d5.wav
64,192,94673,1,0,0:0:0:70:a4.wav
192,192,94673,1,2,0:0:0:0:
448,192,94756,1,0,0:0:0:0:
320,192,94839,1,0,0:0:0:0:
192,192,94923,1,0,0:0:0:0:
64,192,95006,1,2,0:0:0:0:
320,192,95006,1,0,0:0:0:0:
448,192,95006,1,8,0:0:0:0:
192,192,95089,1,0,0:0:0:0:
448,192,95173,1,0,0:0:0:0:
320,192,95256,1,0,0:0:0:0:
192,192,95339,1,0,0:0:0:70:e4.wav
64,192,95339,1,2,0:0:0:0:
320,192,95423,1,0,0:0:0:0:
448,192,95423,1,0,0:0:0:70:f#4.wav
192,192,95506,1,0,0:0:0:0:
64,192,95506,1,0,0:0:0:70:a4.wav
320,192,95589,1,0,0:0:0:0:
448,192,95589,1,0,0:0:0:70:d5.wav
192,192,95673,1,8,0:0:0:0:
64,192,95673,1,2,0:0:0:0:
320,192,95756,1,0,0:0:0:0:
448,192,95839,1,0,0:0:0:0:
192,192,95839,1,0,0:0:0:70:c#5.wav
64,192,95923,1,0,0:0:0:0:
320,192,96006,1,2,0:0:0:0:
448,192,96006,1,0,0:0:0:70:f#4.wav
192,192,96089,1,0,0:0:0:0:
64,192,96173,1,0,0:0:0:0:
320,192,96256,1,0,0:0:0:0:
448,192,96339,1,2,0:0:0:0:
192,192,96339,1,8,0:0:0:0:
64,192,96339,1,0,0:0:0:0:
320,192,96423,1,0,0:0:0:0:
64,192,96506,1,0,0:0:0:0:
192,192,96589,1,0,0:0:0:0:
320,192,96673,1,0,0:0:0:0:
448,192,96673,1,2,0:0:0:0:
64,192,96756,1,0,0:0:0:0:
192,192,96839,1,0,0:0:0:0:
320,192,96923,1,0,0:0:0:0:
64,192,97006,1,0,0:0:0:0:
192,192,97006,1,8,0:0:0:0:
448,192,97006,1,2,0:0:0:0:
320,192,97089,1,0,0:0:0:0:
64,192,97173,1,0,0:0:0:0:
192,192,97256,1,0,0:0:0:0:
320,192,97339,1,0,0:0:0:0:
448,192,97339,1,2,0:0:0:0:
64,192,97423,1,0,0:0:0:0:
192,192,97506,1,0,0:0:0:0:
320,192,97589,1,0,0:0:0:0:
448,192,97673,1,0,0:0:0:0:
192,192,97673,1,2,0:0:0:0:
64,192,97673,1,8,0:0:0:0:
320,192,97756,1,0,0:0:0:0:
192,192,97839,1,0,0:0:0:0:
64,192,97923,1,0,0:0:0:0:
320,192,98006,1,2,0:0:0:0:
448,192,98006,1,0,0:0:0:70:b2.wav
192,192,98089,1,0,0:0:0:0:
64,192,98089,1,0,0:0:0:70:c#3.wav
320,192,98173,1,0,0:0:0:70:d3.wav
448,192,98173,1,0,0:0:0:0:
192,192,98256,1,0,0:0:0:70:a3.wav
64,192,98256,1,0,0:0:0:0:
320,192,98339,1,10,0:0:0:0:
448,192,98339,1,0,0:0:0:70:b3.wav
192,192,98423,1,0,0:0:0:0:
64,192,98423,1,0,0:0:0:70:c#4.wav
320,192,98506,1,0,0:0:0:70:d4.wav
448,192,98506,1,2,0:0:0:0:
192,192,98589,1,0,0:0:0:0:
64,192,98589,1,0,0:0:0:70:a4.wav
320,192,98673,1,0,0:0:0:70:f#4.wav
448,192,98673,1,6,0:0:0:0:
192,192,98756,1,0,0:0:0:0:
64,192,98839,1,0,0:0:0:0:
448,192,98923,1,0,0:0:0:0:
320,192,98923,1,0,0:0:0:70:c#5.wav
192,192,99006,1,8,0:0:0:0:
64,192,99006,1,2,0:0:0:0:
448,192,99089,1,0,0:0:0:0:
320,192,99173,1,0,0:0:0:70:b4.wav
64,192,99173,1,0,0:0:0:0:
192,192,99256,1,0,0:0:0:0:
448,192,99339,1,2,0:0:0:0:
320,192,99339,1,0,0:0:0:0:
192,192,99423,1,0,0:0:0:0:
64,192,99423,1,0,0:0:0:70:c#4.wav
448,192,99506,1,0,0:0:0:0:
320,192,99589,1,0,0:0:0:0:
192,192,99673,1,8,0:0:0:0:
64,192,99673,1,2,0:0:0:0:
448,192,99673,1,0,0:0:0:70:c#5.wav
320,192,99756,1,0,0:0:0:0:
192,192,99839,1,0,0:0:0:0:
64,192,99839,1,0,0:0:0:70:d5.wav
320,192,99923,1,0,0:0:0:0:
64,192,100006,1,2,0:0:0:0:
448,192,100006,1,0,0:0:0:70:e5.wav
192,192,100089,1,0,0:0:0:0:
320,192,100173,1,0,0:0:0:0:
192,192,100256,1,0,0:0:0:0:
64,192,100339,1,2,0:0:0:0:
320,192,100339,1,8,0:0:0:0:
448,192,100339,1,0,0:0:0:0:
192,192,100423,1,0,0:0:0:0:
448,192,100506,1,0,0:0:0:0:
320,192,100589,1,0,0:0:0:0:
64,192,100673,1,2,0:0:0:0:
192,192,100673,1,0,0:0:0:70:f#5.wav
448,192,100756,1,0,0:0:0:0:
320,192,100839,1,0,0:0:0:0:
192,192,100923,1,0,0:0:0:0:
64,192,100923,1,0,0:0:0:70:e5.wav
320,192,101006,1,2,0:0:0:0:
448,192,101006,1,8,0:0:0:0:
64,192,101089,1,0,0:0:0:0:
192,192,101173,1,0,0:0:0:0:
320,192,101173,1,0,0:0:0:70:d5.wav
448,192,101256,1,0,0:0:0:0:
192,192,101339,1,0,0:0:0:70:c#5.wav
64,192,101339,1,2,0:0:0:0:
320,192,101423,1,0,0:0:0:0:
448,192,101506,1,0,0:0:0:0:
192,192,101589,1,0,0:0:0:0:
64,192,101589,1,0,0:0:0:70:d5.wav
320,192,101673,1,8,0:0:0:0:
448,192,101673,1,2,0:0:0:0:
192,192,101756,1,0,0:0:0:0:
64,192,101839,1,0,0:0:0:0:
448,192,101839,1,0,0:0:0:70:a5.wav
320,192,101923,1,0,0:0:0:0:
192,192,102006,1,2,0:0:0:0:
64,192,102006,1,0,0:0:0:0:
448,192,102089,1,0,0:0:0:0:
320,192,102173,1,0,0:0:0:0:
192,192,102256,1,0,0:0:0:0:
64,192,102339,1,0,0:0:0:0:
320,192,102339,1,2,0:0:0:0:
448,192,102339,1,8,0:0:0:0:
192,192,102423,1,0,0:0:0:0:
64,192,102506,1,0,0:0:0:0:
448,192,102506,1,0,0:0:0:70:b5.wav
320,192,102589,1,0,0:0:0:0:
192,192,102673,1,2,0:0:0:0:
64,192,102673,1,0,0:0:0:70:f#5.wav
448,192,102756,1,0,0:0:0:0:
320,192,102839,1,0,0:0:0:0:
192,192,102923,1,0,0:0:0:0:
64,192,103006,1,0,0:0:0:0:
448,192,103006,1,8,0:0:0:0:
320,192,103006,1,2,0:0:0:0:
192,192,103089,1,0,0:0:0:0:
320,192,103173,1,0,0:0:0:70:d5.wav
448,192,103173,1,0,0:0:0:0:
192,192,103256,1,0,0:0:0:0:
64,192,103256,1,0,0:0:0:70:f#5.wav
320,192,103339,1,2,0:0:0:0:
448,192,103339,1,0,0:0:0:70:d6.wav
64,192,103423,1,0,0:0:0:0:
192,192,103506,1,0,0:0:0:0:
320,192,103589,1,0,0:0:0:70:c#6.wav
448,192,103589,1,0,0:0:0:0:
192,192,103673,1,2,0:0:0:0:
64,192,103673,1,8,0:0:0:0:
320,192,103756,1,0,0:0:0:0:
448,192,103839,1,0,0:0:0:0:
64,192,103839,1,0,0:0:0:70:e5.wav
192,192,103923,1,0,0:0:0:0:
320,192,104006,1,2,0:0:0:0:
448,192,104006,1,0,0:0:0:70:d5.wav
64,192,104089,1,0,0:0:0:0:
192,192,104173,1,0,0:0:0:0:
320,192,104256,1,0,0:0:0:70:c#5.wav
448,192,104256,1,0,0:0:0:0:
192,192,104339,1,8,0:0:0:0:
64,192,104339,1,2,0:0:0:0:
448,192,104423,1,0,0:0:0:0:
320,192,104506,1,0,0:0:0:0:
64,192,104506,1,0,0:0:0:70:a5.wav
192,192,104589,1,0,0:0:0:0:
320,192,104673,1,2,0:0:0:0:
448,192,104673,1,0,0:0:0:0:
64,192,104756,1,0,0:0:0:0:
192,192,104839,1,0,0:0:0:0:
320,192,104923,1,0,0:0:0:0:
192,192,105006,1,0,0:0:0:70:c#6.wav
64,192,105006,1,10,0:0:0:0:
320,192,105089,1,0,0:0:0:0:
448,192,105089,1,0,0:0:0:70:d6.wav
192,192,105173,1,0,0:0:0:70:c#6.wav
64,192,105173,1,0,0:0:0:0:
320,192,105256,1,0,0:0:0:70:a5.wav
448,192,105256,1,0,0:0:0:0:
64,192,105339,1,0,0:0:0:70:f#5.wav
192,192,105339,1,2,0:0:0:0:
448,192,105423,1,0,0:0:0:0:
320,192,105506,1,0,0:0:0:0:
192,192,105589,1,0,0:0:0:0:
64,192,105673,1,2,0:0:0:0:
320,192,105673,1,0,0:0:0:0:
448,192,105673,1,8,0:0:0:0:
192,192,105756,1,0,0:0:0:0:
448,192,105839,1,0,0:0:0:0:
320,192,105923,1,0,0:0:0:0:
192,192,106006,1,2,0:0:0:0:
64,192,106006,1,0,0:0:0:70:c#5.wav
448,192,106089,1,0,0:0:0:0:
320,192,106173,1,0,0:0:0:0:
192,192,106256,1,0,0:0:0:70:d5.wav
64,192,106256,1,0,0:0:0:0:
320,192,106339,1,2,0:0:0:0:
448,192,106339,1,8,0:0:0:0:
192,192,106423,1,0,0:0:0:0:
448,192,106506,1,0,0:0:0:70:a5.wav
64,192,106506,1,0,0:0:0:0:
320,192,106589,1,0,0:0:0:0:
192,192,106673,1,2,0:0:0:0:
64,192,106673,1,0,0:0:0:70:c#6.wav
448,192,106756,1,0,0:0:0:0:
320,192,106839,1,0,0:0:0:0:
192,192,106923,1,0,0:0:0:0:
448,192,107006,1,0,0:0:0:0:
320,192,107006,1,8,0:0:0:0:
64,192,107006,1,2,0:0:0:0:
192,192,107089,1,0,0:0:0:0:
64,192,107173,1,0,0:0:0:0:
320,192,107256,1,0,0:0:0:0:
192,192,107339,1,0,0:0:0:0:
448,192,107339,1,2,0:0:0:0:
64,192,107423,1,0,0:0:0:0:
192,192,107506,1,0,0:0:0:0:
320,192,107589,1,0,0:0:0:0:
64,192,107673,1,2,0:0:0:0:
192,192,107673,1,8,0:0:0:0:
448,192,107673,1,0,0:0:0:0:
320,192,107756,1,0,0:0:0:0:
192,192,107839,1,0,0:0:0:0:
64,192,107923,1,0,0:0:0:0:
448,192,108006,1,0,0:0:0:70:b5.wav
320,192,108006,1,2,0:0:0:0:
192,192,108089,1,0,0:0:0:0:
448,192,108173,1,2,0:0:0:0:
64,192,108173,1,0,0:0:0:0:
320,192,108256,1,0,0:0:0:0:
64,192,108339,1,2,0:0:0:0:
192,192,108339,1,8,0:0:0:0:
320,192,108423,1,0,0:0:0:0:
64,192,108506,1,2,0:0:0:0:
448,192,108506,1,0,0:0:0:0:
192,192,108589,1,0,0:0:0:0:
320,192,108673,1,0,0:0:0:0:
448,192,108673,1,2,0:0:0:0:
192,192,108756,1,2,0:0:0:0:
64,192,108756,1,0,0:0:0:0:
320,192,108839,1,2,0:0:0:0:
448,192,108839,1,0,0:0:0:0:
64,192,108923,1,2,0:0:0:0:
192,192,108923,1,0,0:0:0:0:
320,192,109006,1,2,0:0:0:0:
448,192,109006,1,8,0:0:0:0:
192,192,109089,1,2,0:0:0:0:
64,192,109089,1,0,0:0:0:0:
320,192,109173,1,2,0:0:0:0:
448,192,109173,1,0,0:0:0:0:
192,192,109256,1,0,0:0:0:0:
64,192,109256,1,2,0:0:0:0:
320,192,109339,1,4,0:0:0:0:
448,192,109339,1,2,0:0:0:0:
