osu file format v14

[General]
AudioFilename: Crystal World.mp3
AudioLeadIn: 0
PreviewTime: 65339
Countdown: 0
SampleSet: None
StackLeniency: 0.7
Mode: 3
LetterboxInBreaks: 0
SpecialStyle: 0
WidescreenStoryboard: 0

[Editor]
DistanceSpacing: 0.8
BeatDivisor: 4
GridSize: 8
TimelineZoom: 1.7

[Metadata]
Title:Crystal World ~Fracture~
TitleUnicode:水晶世界 ~Fracture~
Artist:wa. remixed celas
ArtistUnicode:wa. remixed celas
Creator:ExNeko
Version:Beginner
Source:BMS
Tags:秋山 澪 Creation Records BOF 2010 THE BMS OF FIGHTERS HARD NRG Suishou Sekai
BeatmapID:1511788
BeatmapSetID:712414

[Difficulty]
HPDrainRate:7
CircleSize:4
OverallDifficulty:7
ApproachRate:5
SliderMultiplier:1.4
SliderTickRate:1

[Events]
//Background and Video events
0,0,"660826.jpg",0,0
//Break Periods
//Storyboard Layer 0 (Background)
//Storyboard Layer 1 (Fail)
//Storyboard Layer 2 (Pass)
//Storyboard Layer 3 (Foreground)
//Storyboard Sound Samples
Sample,22673,0,"c5.wav",70
Sample,22839,0,"f4.wav",70
Sample,24006,0,"c5.wav",70
Sample,24173,0,"d#4.wav",70
Sample,25339,0,"a#4.wav",70
Sample,26673,0,"g4.wav",70
Sample,26839,0,"d#4low.wav",70
Sample,27006,0,"g#4.wav",70
Sample,27173,0,"d#4low.wav",70
Sample,27339,0,"g4.wav",70
Sample,27506,0,"c4low.wav",70
Sample,27673,0,"d#4.wav",70
Sample,27839,0,"c4low.wav",70
Sample,28006,0,"f4.wav",70
Sample,28173,0,"a#3.wav",70
Sample,29173,0,"f4.wav",70
Sample,29339,0,"d#4.wav",70
Sample,29506,0,"a#3.wav",70
Sample,30506,0,"g#3.wav",70
Sample,30589,0,"g3.wav",70
Sample,30673,0,"g#3.wav",70
Sample,32006,0,"g3.wav",70
Sample,32673,0,"d#4.wav",70
Sample,33006,0,"a#4.wav",70
Sample,33339,0,"c5.wav",70
Sample,33506,0,"f4.wav",70
Sample,34673,0,"c5.wav",70
Sample,34839,0,"d#4.wav",70
Sample,35673,0,"d#5.wav",70
Sample,36006,0,"c5.wav",70
Sample,36173,0,"g4.wav",70
Sample,37006,0,"g5.wav",70
Sample,37339,0,"g#5.wav",70
Sample,37673,0,"g5.wav",70
Sample,37839,0,"c5low.wav",70
Sample,38006,0,"d#5.wav",70
Sample,38173,0,"a#4low.wav",70
Sample,38339,0,"c5.wav",70
Sample,38506,0,"a#4low.wav",70
Sample,38673,0,"f5.wav",70
Sample,38839,0,"c5.wav",70
Sample,39673,0,"g5.wav",70
Sample,40006,0,"g#5.wav",70
Sample,40173,0,"c5.wav",70
Sample,40839,0,"c5.wav",70
Sample,41006,0,"f5.wav",70
Sample,41173,0,"g5.wav",70
Sample,41339,0,"g#5.wav",70
Sample,41506,0,"g5.wav",70
Sample,42173,0,"a#5.wav",70
Sample,42339,0,"g#5.wav",70
Sample,42506,0,"g5.wav",70
Sample,42673,0,"g#5.wav",70
Sample,64673,0,"g4.wav",70
Sample,64839,0,"g3low.wav",70
Sample,65006,0,"a#4.wav",70
Sample,65173,0,"a#3low.wav",70
Sample,65339,0,"c5.wav",70
Sample,65506,0,"f4.wav",70
Sample,65673,0,"c5low.wav",70
Sample,65839,0,"f4low.wav",70
Sample,66173,0,"f4low.wav",70
Sample,66673,0,"c5.wav",70
Sample,66839,0,"d#4.wav",70
Sample,67006,0,"c5low.wav",70
Sample,67173,0,"d#4low.wav",70
Sample,67506,0,"d#4low.wav",70
Sample,68006,0,"a#4.wav",70
Sample,68339,0,"a#4low.wav",70
Sample,68506,0,"a#3low.wav",70
Sample,68798,0,"g5.wav",70
Sample,68839,0,"g#5.wav",70
Sample,69006,0,"g5.wav",70
Sample,69173,0,"a#4.wav",70
Sample,69339,0,"g#4.wav",70
Sample,69506,0,"a#3low.wav",70
Sample,69673,0,"g#4low.wav",70
Sample,70006,0,"g4.wav",70
Sample,70339,0,"g4low.wav",70
Sample,70673,0,"g#4.wav",70
Sample,70839,0,"c4.wav",70
Sample,71006,0,"g#4low.wav",70
Sample,71173,0,"c4low.wav",70
Sample,71506,0,"c4low.wav",70
Sample,72006,0,"g4.wav",70
Sample,72173,0,"c4.wav",70
Sample,72339,0,"g4low.wav",70
Sample,72506,0,"c4low.wav",70
Sample,73339,0,"f4.wav",70
Sample,73673,0,"f4low.wav",70
Sample,74006,0,"g4.wav",70
Sample,74173,0,"d#4low.wav",70
Sample,74673,0,"d#4.wav",70
Sample,75006,0,"d#4low.wav",70
Sample,75339,0,"g4.wav",70
Sample,75339,0,"a#3.wav",70
Sample,75506,0,"g3low.wav",70
Sample,75673,0,"a#4.wav",70
Sample,75839,0,"a#3low.wav",70
Sample,76006,0,"c5.wav",70
Sample,76173,0,"f4.wav",70
Sample,76339,0,"c5low.wav",70
Sample,76506,0,"f4low.wav",70
Sample,76839,0,"f4low.wav",70
Sample,77339,0,"c5.wav",70
Sample,77506,0,"d#4.wav",70
Sample,77673,0,"c5low.wav",70
Sample,77839,0,"d#4low.wav",70
Sample,78173,0,"d#4low.wav",70
Sample,78673,0,"a#4.wav",70
Sample,79006,0,"a#4low.wav",70
Sample,79173,0,"a#3low.wav",70
Sample,79506,0,"f5.wav",70
Sample,79673,0,"g5.wav",70
Sample,79839,0,"g#5.wav",70
Sample,80006,0,"g5.wav",70
Sample,80673,0,"d#5.wav",70
Sample,81006,0,"d#5low.wav",70
Sample,81339,0,"a#4.wav",70
Sample,81506,0,"c5.wav",70
Sample,81673,0,"a#4low.wav",70
Sample,81839,0,"c5low.wav",70
Sample,82173,0,"c5low.wav",70
Sample,82673,0,"g#4.wav",70
Sample,82839,0,"c5.wav",70
Sample,83006,0,"g#4low.wav",70
Sample,83173,0,"c5low.wav",70
Sample,83506,0,"c5low.wav",70
Sample,84006,0,"a#4.wav",70
Sample,84339,0,"g#4.wav",70
Sample,84506,0,"g4.wav",70
Sample,84839,0,"a#4.wav",70
Sample,85339,0,"d#5.wav",70
Sample,86006,0,"a#5.wav",70
Sample,87339,0,"b2.wav",70
Sample,87589,0,"f#3.wav",70
Sample,87839,0,"d4.wav",70
Sample,88006,0,"f#4.wav",70
Sample,88256,0,"c#5.wav",70
Sample,88506,0,"b4.wav",70
Sample,88756,0,"c#4.wav",70
Sample,89006,0,"c#5.wav",70
Sample,89173,0,"d5.wav",70
Sample,89339,0,"e5.wav",70
Sample,90006,0,"f#5.wav",70
Sample,90256,0,"e5.wav",70
Sample,90506,0,"d5.wav",70
Sample,90673,0,"c#5.wav",70
Sample,90923,0,"d5.wav",70
Sample,91173,0,"a5.wav",70
Sample,91839,0,"b5.wav",70
Sample,92006,0,"f#5.wav",70
Sample,92506,0,"d5.wav",70
Sample,92589,0,"f#5.wav",70
Sample,92673,0,"d6.wav",70
Sample,92923,0,"c#6.wav",70
Sample,93173,0,"e5.wav",70
Sample,93339,0,"d5.wav",70
Sample,93589,0,"c#5.wav",70
Sample,93839,0,"a5.wav",70
Sample,94339,0,"e5.wav",70
Sample,94423,0,"d5.wav",70
Sample,94506,0,"c#5.wav",70
Sample,94589,0,"d5.wav",70
Sample,94673,0,"a4.wav",70
Sample,95339,0,"e4.wav",70
Sample,95423,0,"f#4.wav",70
Sample,95506,0,"a4.wav",70
Sample,95589,0,"d5.wav",70
Sample,95839,0,"c#5.wav",70
Sample,96006,0,"f#4.wav",70
Sample,98006,0,"b2.wav",70
Sample,98089,0,"c#3.wav",70
Sample,98173,0,"d3.wav",70
Sample,98256,0,"a3.wav",70
Sample,98339,0,"b3.wav",70
Sample,98423,0,"c#4.wav",70
Sample,98506,0,"d4.wav",70
Sample,98589,0,"a4.wav",70
Sample,98673,0,"f#4.wav",70
Sample,98923,0,"c#5.wav",70
Sample,99173,0,"b4.wav",70
Sample,99423,0,"c#4.wav",70
Sample,99673,0,"c#5.wav",70
Sample,99839,0,"d5.wav",70
Sample,100006,0,"e5.wav",70
Sample,100673,0,"f#5.wav",70
Sample,100923,0,"e5.wav",70
Sample,101173,0,"d5.wav",70
Sample,101339,0,"c#5.wav",70
Sample,101589,0,"d5.wav",70
Sample,101839,0,"a5.wav",70
Sample,102506,0,"b5.wav",70
Sample,102673,0,"f#5.wav",70
Sample,103173,0,"d5.wav",70
Sample,103256,0,"f#5.wav",70
Sample,103339,0,"d6.wav",70
Sample,103589,0,"c#6.wav",70
Sample,103839,0,"e5.wav",70
Sample,104006,0,"d5.wav",70
Sample,104256,0,"c#5.wav",70
Sample,104506,0,"a5.wav",70
Sample,105006,0,"c#6.wav",70
Sample,105089,0,"d6.wav",70
Sample,105173,0,"c#6.wav",70
Sample,105256,0,"a5.wav",70
Sample,105339,0,"f#5.wav",70
Sample,106006,0,"c#5.wav",70
Sample,106256,0,"d5.wav",70
Sample,106506,0,"a5.wav",70
Sample,106673,0,"c#6.wav",70
Sample,108006,0,"b5.wav",70

[TimingPoints]
1340,333.333333333333,4,3,1,50,1,0
88006,-100,4,3,1,50,0,1
109339,-100,4,3,1,50,0,0

[HitObjects]
64,192,1340,5,2,0:0:0:0:
192,192,1340,1,4,0:0:0:0:
448,192,1673,1,8,0:0:0:0:
448,192,2339,1,8,0:0:0:0:
320,192,3006,1,8,0:0:0:0:
320,192,3673,1,8,0:0:0:0:
192,192,4339,1,8,0:0:0:0:
192,192,5006,1,8,0:0:0:0:
64,192,5673,1,8,0:0:0:0:
64,192,6339,1,8,0:0:0:0:
320,192,7006,1,8,0:0:0:0:
320,192,7673,1,8,0:0:0:0:
192,192,8339,1,8,0:0:0:0:
192,192,9006,1,8,0:0:0:0:
448,192,9673,1,8,0:0:0:0:
448,192,10339,1,8,0:0:0:0:
64,192,11006,1,8,0:0:0:0:
64,192,11673,1,8,0:0:0:0:
192,192,11839,1,2,0:0:0:0:
448,192,12006,1,4,0:0:0:0:
320,192,12006,1,2,0:0:0:0:
192,192,12339,1,8,0:0:0:0:
192,192,13006,1,8,0:0:0:0:
448,192,13673,1,8,0:0:0:0:
448,192,14339,1,8,0:0:0:0:
64,192,15006,1,8,0:0:0:0:
64,192,15673,1,8,0:0:0:0:
320,192,16339,1,8,0:0:0:0:
320,192,17006,1,8,0:0:0:0:
64,192,17339,1,2,0:0:0:0:
192,192,17339,1,4,0:0:0:0:
448,192,17673,1,8,0:0:0:0:
448,192,18339,1,8,0:0:0:0:
192,192,19006,1,8,0:0:0:0:
192,192,19673,1,8,0:0:0:0:
64,192,20006,1,2,0:0:0:0:
448,192,20006,1,4,0:0:0:0:
320,192,20339,1,8,0:0:0:0:
320,192,21006,1,8,0:0:0:0:
192,192,21339,1,2,0:0:0:0:
448,192,21673,1,2,0:0:0:0:
320,192,22006,1,2,0:0:0:0:
192,192,22339,1,2,0:0:0:0:
448,192,22673,1,4,0:0:0:0:
64,192,22673,128,2,23673:0:0:0:0:
320,192,23006,1,10,0:0:0:0:
192,192,23339,1,2,0:0:0:0:
448,192,23673,1,10,0:0:0:0:
320,192,24006,128,2,25006:0:0:0:0:
64,192,24339,1,10,0:0:0:0:
192,192,24673,1,2,0:0:0:0:
448,192,25006,1,10,0:0:0:0:
192,192,25339,128,2,26339:0:0:0:0:
448,192,25673,1,10,0:0:0:0:
320,192,26006,1,2,0:0:0:0:
64,192,26339,1,10,0:0:0:0:
448,192,26673,1,2,0:0:0:0:
192,192,27006,1,10,0:0:0:0:
320,192,27339,1,2,0:0:0:0:
64,192,27673,1,10,0:0:0:0:
448,192,28006,128,2,29006:0:0:0:0:
192,192,28339,1,10,0:0:0:0:
320,192,28673,1,2,0:0:0:0:
192,192,29006,1,10,0:0:0:0:
64,192,29339,128,2,30339:0:0:0:0:
448,192,29673,1,10,0:0:0:0:
320,192,30006,1,2,0:0:0:0:
192,192,30339,1,10,0:0:0:0:
448,192,30673,1,2,0:0:0:0:
192,192,31006,1,10,0:0:0:0:
64,192,31339,1,2,0:0:0:0:
320,192,31673,1,10,0:0:0:0:
448,192,32006,1,2,0:0:0:0:
192,192,32339,1,10,0:0:0:0:
320,192,32673,1,2,0:0:0:0:
64,192,33006,1,10,0:0:0:0:
192,192,33173,1,2,0:0:0:0:
448,192,33339,1,2,0:0:0:0:
320,192,33339,128,4,34339:0:0:0:0:
64,192,33673,1,10,0:0:0:0:
192,192,34006,1,2,0:0:0:0:
448,192,34339,1,10,0:0:0:0:
64,192,34673,128,2,35673:0:0:0:0:
320,192,35006,1,10,0:0:0:0:
192,192,35339,1,2,0:0:0:0:
448,192,35673,1,10,0:0:0:0:
192,192,36006,128,2,37006:0:0:0:0:
448,192,36339,1,10,0:0:0:0:
320,192,36673,1,2,0:0:0:0:
64,192,37006,1,10,0:0:0:0:
448,192,37339,1,2,0:0:0:0:
320,192,37673,1,10,0:0:0:0:
192,192,38006,1,2,0:0:0:0:
64,192,38339,1,10,0:0:0:0:
320,192,38673,128,2,39339:0:0:0:0:
192,192,39006,1,10,0:0:0:0:
64,192,39339,1,2,0:0:0:0:
448,192,39673,128,10,40006:0:0:0:0:
192,192,40006,128,2,41006:0:0:0:0:
320,192,40339,1,10,0:0:0:0:
448,192,40673,1,2,0:0:0:0:
64,192,41006,1,10,0:0:0:0:
320,192,41339,1,2,0:0:0:0:
192,192,41673,1,10,0:0:0:0:
448,192,42006,1,2,0:0:0:0:
320,192,42339,1,10,0:0:0:0:
64,192,42673,1,2,0:0:0:0:
192,192,42839,1,2,0:0:0:0:
320,192,43006,1,10,0:0:0:0:
448,192,43173,1,2,0:0:0:0:
64,192,43339,128,2,43673:0:0:0:0:
448,192,43673,128,10,44006:0:0:0:0:
64,192,44006,1,2,0:0:0:0:
192,192,44006,1,4,0:0:0:0:
320,192,44339,1,8,0:0:0:0:
320,192,45006,1,8,0:0:0:0:
448,192,45673,1,8,0:0:0:0:
448,192,46339,1,8,0:0:0:0:
192,192,47006,1,8,0:0:0:0:
192,192,47673,1,8,0:0:0:0:
64,192,48339,1,8,0:0:0:0:
64,192,49006,1,8,0:0:0:0:
192,192,49339,1,2,0:0:0:0:
448,192,49339,1,4,0:0:0:0:
320,192,49673,1,8,0:0:0:0:
320,192,50339,1,8,0:0:0:0:
192,192,51006,1,8,0:0:0:0:
192,192,51673,1,8,0:0:0:0:
448,192,52339,1,8,0:0:0:0:
448,192,53006,1,8,0:0:0:0:
64,192,53673,1,8,0:0:0:0:
64,192,54339,1,10,0:0:0:0:
192,192,54506,1,2,0:0:0:0:
448,192,54673,1,4,0:0:0:0:
320,192,54673,1,2,0:0:0:0:
64,192,55006,1,10,0:0:0:0:
192,192,55339,1,2,0:0:0:0:
320,192,55673,1,10,0:0:0:0:
64,192,56006,1,2,0:0:0:0:
448,192,56339,1,10,0:0:0:0:
192,192,56673,1,2,0:0:0:0:
320,192,57006,1,10,0:0:0:0:
64,192,57339,1,2,0:0:0:0:
192,192,57673,1,10,0:0:0:0:
448,192,58006,1,2,0:0:0:0:
320,192,58339,1,10,0:0:0:0:
192,192,58673,1,2,0:0:0:0:
64,192,59006,1,10,0:0:0:0:
320,192,59339,1,2,0:0:0:0:
192,192,59673,1,10,0:0:0:0:
448,192,60006,128,2,60339:0:0:0:0:
320,192,60339,128,10,60673:0:0:0:0:
192,192,60673,128,2,61006:0:0:0:0:
64,192,61006,128,10,61339:0:0:0:0:
320,192,61339,128,2,61673:0:0:0:0:
448,192,61673,128,10,62006:0:0:0:0:
64,192,62006,128,2,62339:0:0:0:0:
192,192,62339,128,10,62673:0:0:0:0:
320,192,62673,128,2,63006:0:0:0:0:
448,192,63006,128,10,63339:0:0:0:0:
192,192,63339,128,2,63673:0:0:0:0:
64,192,63673,128,10,64006:0:0:0:0:
448,192,64006,1,4,0:0:0:0:
192,192,64006,1,2,0:0:0:0:
320,192,64339,1,4,0:0:0:0:
64,192,64673,1,4,0:0:0:0:
192,192,65006,1,4,0:0:0:0:
448,192,65339,1,4,0:0:0:0:
320,192,65339,1,2,0:0:0:0:
64,192,65506,1,0,0:0:0:0:
192,192,65673,1,10,0:0:0:0:
320,192,65839,1,0,0:0:0:0:
448,192,66006,1,2,0:0:0:0:
192,192,66339,1,10,0:0:0:0:
448,192,66673,1,2,0:0:0:0:
320,192,66839,1,0,0:0:0:0:
192,192,67006,1,10,0:0:0:0:
64,192,67173,1,0,0:0:0:0:
320,192,67339,1,2,0:0:0:0:
192,192,67673,1,10,0:0:0:0:
320,192,68006,1,2,0:0:0:0:
320,192,68339,1,10,0:0:0:0:
64,192,68673,1,2,0:0:0:0:
192,192,68839,1,0,0:0:0:0:
320,192,69006,1,10,0:0:0:0:
448,192,69173,1,0,0:0:0:0:
64,192,69339,1,2,0:0:0:0:
64,192,69673,1,10,0:0:0:0:
320,192,70006,1,2,0:0:0:0:
320,192,70339,1,10,0:0:0:0:
64,192,70673,1,2,0:0:0:0:
192,192,70839,1,0,0:0:0:0:
448,192,71006,1,10,0:0:0:0:
320,192,71173,1,0,0:0:0:0:
64,192,71339,1,2,0:0:0:0:
192,192,71673,1,10,0:0:0:0:
320,192,72006,1,2,0:0:0:0:
192,192,72173,1,0,0:0:0:0:
64,192,72339,1,10,0:0:0:0:
448,192,72506,1,0,0:0:0:0:
320,192,72673,1,2,0:0:0:0:
64,192,73006,1,10,0:0:0:0:
192,192,73339,1,2,0:0:0:0:
192,192,73673,1,10,0:0:0:0:
448,192,74006,1,2,0:0:0:0:
320,192,74339,1,10,0:0:0:0:
64,192,74673,1,2,0:0:0:0:
64,192,75006,1,10,0:0:0:0:
320,192,75339,1,2,0:0:0:0:
192,192,75673,1,12,0:0:0:0:
448,192,75673,1,2,0:0:0:0:
64,192,75839,1,2,0:0:0:0:
320,192,76006,1,2,0:0:0:0:
448,192,76006,1,4,0:0:0:0:
192,192,76173,1,0,0:0:0:0:
64,192,76339,1,10,0:0:0:0:
320,192,76506,1,0,0:0:0:0:
448,192,76673,1,2,0:0:0:0:
192,192,77006,1,10,0:0:0:0:
448,192,77339,1,2,0:0:0:0:
320,192,77506,1,0,0:0:0:0:
64,192,77673,1,10,0:0:0:0:
192,192,77839,1,0,0:0:0:0:
320,192,78006,1,2,0:0:0:0:
448,192,78339,1,10,0:0:0:0:
192,192,78673,1,2,0:0:0:0:
192,192,79006,1,10,0:0:0:0:
448,192,79339,1,2,0:0:0:0:
320,192,79506,1,0,0:0:0:0:
192,192,79673,1,10,0:0:0:0:
64,192,79839,1,0,0:0:0:0:
320,192,80006,1,2,0:0:0:0:
192,192,80339,1,10,0:0:0:0:
64,192,80673,1,2,0:0:0:0:
448,192,81006,1,10,0:0:0:0:
320,192,81173,1,2,0:0:0:0:
64,192,81339,1,2,0:0:0:0:
192,192,81506,1,0,0:0:0:0:
448,192,81673,1,10,0:0:0:0:
320,192,81839,1,0,0:0:0:0:
192,192,82006,1,2,0:0:0:0:
448,192,82339,1,10,0:0:0:0:
64,192,82673,1,2,0:0:0:0:
192,192,82839,1,0,0:0:0:0:
320,192,83006,1,10,0:0:0:0:
448,192,83173,1,0,0:0:0:0:
64,192,83339,1,2,0:0:0:0:
192,192,83673,1,10,0:0:0:0:
448,192,84006,1,2,0:0:0:0:
320,192,84173,1,2,0:0:0:0:
192,192,84339,1,10,0:0:0:0:
64,192,84506,1,2,0:0:0:0:
448,192,84673,1,2,0:0:0:0:
320,192,84839,1,2,0:0:0:0:
192,192,85006,1,10,0:0:0:0:
64,192,85173,1,2,0:0:0:0:
448,192,85339,1,6,0:0:0:0:
64,192,85589,1,6,0:0:0:0:
448,192,85839,1,6,0:0:0:0:
64,192,86089,128,6,86673:0:0:0:0:
448,192,86339,128,6,86673:0:0:0:0:
192,192,86673,1,6,0:0:0:0:
64,192,88006,1,2,0:0:0:0:
320,192,88006,1,4,0:0:0:0:
192,192,88256,1,0,0:0:0:0:
448,192,88339,1,10,0:0:0:0:
320,192,88506,1,0,0:0:0:0:
64,192,88673,1,2,0:0:0:0:
448,192,88756,1,0,0:0:0:0:
192,192,89006,1,10,0:0:0:0:
320,192,89173,1,0,0:0:0:0:
64,192,89339,1,2,0:0:0:0:
448,192,89673,1,10,0:0:0:0:
192,192,90006,1,2,0:0:0:0:
320,192,90256,1,0,0:0:0:0:
64,192,90339,1,10,0:0:0:0:
448,192,90506,1,0,0:0:0:0:
192,192,90673,1,2,0:0:0:0:
64,192,90923,1,0,0:0:0:0:
320,192,91006,1,10,0:0:0:0:
448,192,91173,1,0,0:0:0:0:
192,192,91339,1,2,0:0:0:0:
64,192,91673,1,10,0:0:0:0:
320,192,91839,1,0,0:0:0:0:
448,192,92006,1,2,0:0:0:0:
192,192,92339,1,10,0:0:0:0:
448,192,92506,1,0,0:0:0:0:
320,192,92673,1,2,0:0:0:0:
64,192,92923,1,0,0:0:0:0:
448,192,93006,1,10,0:0:0:0:
320,192,93173,1,0,0:0:0:0:
192,192,93339,1,2,0:0:0:0:
64,192,93589,1,0,0:0:0:0:
448,192,93673,1,10,0:0:0:0:
320,192,93839,1,0,0:0:0:0:
192,192,94006,1,2,0:0:0:0:
64,192,94339,128,10,94673:0:0:0:0:
320,192,94673,1,2,0:0:0:0:
192,192,95006,1,10,0:0:0:0:
448,192,95339,128,2,95673:0:0:0:0:
64,192,95673,1,10,0:0:0:0:
192,192,95839,1,0,0:0:0:0:
320,192,96006,1,2,0:0:0:0:
448,192,96339,1,10,0:0:0:0:
64,192,96673,1,2,0:0:0:0:
192,192,97006,1,10,0:0:0:0:
320,192,97339,1,2,0:0:0:0:
448,192,97673,1,10,0:0:0:0:
64,192,98006,128,2,98339:0:0:0:0:
448,192,98339,128,10,98673:0:0:0:0:
192,192,98673,1,4,0:0:0:0:
64,192,98673,1,2,0:0:0:0:
448,192,98923,1,0,0:0:0:0:
64,192,99006,1,10,0:0:0:0:
320,192,99173,1,0,0:0:0:0:
448,192,99339,1,2,0:0:0:0:
192,192,99423,1,0,0:0:0:0:
64,192,99673,1,10,0:0:0:0:
320,192,99839,1,0,0:0:0:0:
448,192,100006,1,2,0:0:0:0:
192,192,100339,1,10,0:0:0:0:
320,192,100673,1,2,0:0:0:0:
448,192,100923,1,0,0:0:0:0:
192,192,101006,1,10,0:0:0:0:
320,192,101173,1,0,0:0:0:0:
64,192,101339,1,2,0:0:0:0:
448,192,101589,1,0,0:0:0:0:
192,192,101673,1,10,0:0:0:0:
320,192,101839,1,0,0:0:0:0:
64,192,102006,1,2,0:0:0:0:
192,192,102339,1,10,0:0:0:0:
448,192,102506,1,0,0:0:0:0:
64,192,102673,1,2,0:0:0:0:
192,192,103006,1,10,0:0:0:0:
448,192,103173,1,0,0:0:0:0:
320,192,103339,1,2,0:0:0:0:
64,192,103589,1,0,0:0:0:0:
448,192,103673,1,10,0:0:0:0:
192,192,103839,1,0,0:0:0:0:
320,192,104006,1,2,0:0:0:0:
64,192,104256,1,0,0:0:0:0:
448,192,104339,1,10,0:0:0:0:
192,192,104506,1,0,0:0:0:0:
320,192,104673,1,2,0:0:0:0:
448,192,105006,128,10,105339:0:0:0:0:
192,192,105339,1,2,0:0:0:0:
320,192,105673,1,10,0:0:0:0:
64,192,106006,1,2,0:0:0:0:
448,192,106256,1,0,0:0:0:0:
192,192,106339,1,10,0:0:0:0:
320,192,106506,1,0,0:0:0:0:
64,192,106673,1,2,0:0:0:0:
448,192,107006,1,10,0:0:0:0:
320,192,107339,1,2,0:0:0:0:
192,192,107673,1,10,0:0:0:0:
64,192,108006,1,2,0:0:0:0:
192,192,108173,1,2,0:0:0:0:
320,192,108339,1,10,0:0:0:0:
448,192,108506,1,2,0:0:0:0:
64,192,108673,128,2,109006:0:0:0:0:
448,192,109006,128,10,109339:0:0:0:0:
64,192,109339,1,2,0:0:0:0:
192,192,109339,1,4,0:0:0:0:
