osu file format v14

[General]
AudioFilename: audio.mp3
AudioLeadIn: 0
PreviewTime: 28286
Countdown: 0
SampleSet: Soft
StackLeniency: 0.7
Mode: 3
LetterboxInBreaks: 0
SpecialStyle: 0
WidescreenStoryboard: 1

[Editor]
DistanceSpacing: 1
BeatDivisor: 4
GridSize: 16
TimelineZoom: 2.3

[Metadata]
Title:wanderlust
TitleUnicode:wanderlust
Artist:wa.
ArtistUnicode:wa.
Creator:PORTTAYER
Version:Roamer
Source:
Tags:JXRC-0011 アルファベットプロジェクト Alphabet Project disc 1 wxyz vol.1 jaxalate records instrumental electronic Hard house hard progressive trance electro ambient tech minijack jacks streams
BeatmapID:3635425
BeatmapSetID:1775352

[Difficulty]
HPDrainRate:8
CircleSize:4
OverallDifficulty:8
ApproachRate:5
SliderMultiplier:1.4
SliderTickRate:1

[Events]
//Background and Video events
0,0,"IMG_5916(20200623-174043).JPG",0,0
//Break Periods
2,119325,128977
//Storyboard Layer 0 (Background)
//Storyboard Layer 1 (Fail)
//Storyboard Layer 2 (Pass)
//Storyboard Layer 3 (Foreground)
//Storyboard Layer 4 (Overlay)
//Storyboard Sound Samples

[TimingPoints]
704,394.736842105263,4,2,1,40,1,0
67019,-100,4,2,1,40,0,1
92282,-100,4,2,1,40,0,0
142809,-100,4,2,1,40,0,1
166493,-100,4,2,1,40,0,0
168072,-100,4,2,1,40,0,1
191756,-100,4,2,1,40,0,0

[HitObjects]
320,192,3796,5,0,0:0:0:100:
192,192,3828,1,0,0:0:0:100:
448,192,3861,1,0,0:0:0:0:
64,192,3861,1,0,0:0:0:0:
448,192,4256,1,0,0:0:0:100:
64,192,4256,1,0,0:0:0:0:
192,192,4453,1,0,0:0:0:100:
64,192,4651,1,0,0:0:0:100:
320,192,4651,1,0,0:0:0:0:
64,192,5440,1,0,0:0:0:66:
448,192,5440,1,0,0:0:0:66:
320,192,5465,1,0,0:0:0:100:
448,192,5835,1,0,0:0:0:0:
192,192,5835,1,0,0:0:0:0:
320,192,6032,1,0,0:0:0:0:
192,192,6230,1,0,0:0:0:100:
64,192,6230,1,0,0:0:0:0:
448,192,6625,1,0,0:0:0:100:
192,192,7019,1,0,0:0:0:66:
320,192,7019,1,0,0:0:0:66:
64,192,7044,1,0,0:0:0:100:
192,192,7414,1,0,0:0:0:100:
448,192,7414,1,0,0:0:0:0:
320,192,7611,1,0,0:0:0:100:
64,192,7809,1,0,0:0:0:100:
448,192,7809,1,0,0:0:0:0:
192,192,8598,1,0,0:0:0:100:
64,192,8598,1,0,0:0:0:0:
64,192,8993,1,0,0:0:0:66:
320,192,8993,1,0,0:0:0:66:
192,192,9388,1,0,0:0:0:66:
448,192,9388,1,0,0:0:0:66:
320,192,9782,1,0,0:0:0:0:
448,192,10128,1,0,0:0:0:100:
192,192,10144,1,0,0:0:0:0:
64,192,10177,1,0,0:0:0:0:
320,192,10572,1,0,0:0:0:100:
448,192,10572,1,0,0:0:0:0:
192,192,10769,1,0,0:0:0:0:
448,192,10967,1,0,0:0:0:100:
64,192,10967,1,0,0:0:0:0:
192,192,11756,1,0,0:0:0:66:
448,192,11756,1,0,0:0:0:66:
320,192,11781,1,0,0:0:0:100:
64,192,12151,1,0,0:0:0:100:
192,192,12151,1,0,0:0:0:0:
448,192,12348,1,0,0:0:0:100:
192,192,12546,1,0,0:0:0:100:
320,192,12546,1,0,0:0:0:0:
64,192,12940,1,0,0:0:0:0:
192,192,13335,1,0,0:0:0:66:
448,192,13335,1,0,0:0:0:66:
320,192,13730,1,0,0:0:0:100:
64,192,13730,1,0,0:0:0:100:
320,192,14125,1,0,0:0:0:0:
448,192,14125,1,0,0:0:0:0:
64,192,15703,1,0,0:0:0:44:
192,192,15703,1,0,0:0:0:44:
64,192,16427,1,0,0:0:0:0:
320,192,16460,1,0,0:0:0:0:
448,192,16493,1,0,0:0:0:66:
192,192,16888,1,0,0:0:0:100:
64,192,16888,1,0,0:0:0:0:
320,192,17085,1,0,0:0:0:100:
448,192,17282,1,0,0:0:0:100:
64,192,17282,1,0,0:0:0:0:
64,192,18072,1,0,0:0:0:66:
192,192,18072,1,0,0:0:0:66:
448,192,18097,1,0,0:0:0:100:
320,192,18467,1,0,0:0:0:100:
448,192,18467,1,0,0:0:0:0:
192,192,18664,1,0,0:0:0:100:
64,192,18861,1,0,0:0:0:100:
448,192,18861,1,0,0:0:0:0:
320,192,19256,1,0,0:0:0:100:
64,192,19651,1,0,0:0:0:100:
448,192,19651,1,0,0:0:0:0:
192,192,19676,1,0,0:0:0:100:
448,192,20046,1,0,0:0:0:66:
320,192,20046,1,0,0:0:0:66:
64,192,20243,1,0,0:0:0:0:
192,192,20440,1,0,0:0:0:66:
320,192,20440,1,0,0:0:0:66:
64,192,21230,1,0,0:0:0:66:
448,192,21230,1,0,0:0:0:66:
192,192,21625,1,0,0:0:0:66:
320,192,21625,1,0,0:0:0:66:
64,192,22019,1,0,0:0:0:66:
448,192,22019,1,0,0:0:0:66:
320,192,22414,1,0,0:0:0:100:
192,192,22809,1,0,0:0:0:66:
64,192,22809,1,0,0:0:0:66:
320,192,23203,1,0,0:0:0:100:
64,192,23203,1,0,0:0:0:0:
448,192,23401,1,0,0:0:0:100:
192,192,23598,1,0,0:0:0:100:
320,192,23598,1,0,0:0:0:0:
64,192,24388,1,0,0:0:0:66:
448,192,24412,1,0,0:0:0:100:
64,192,24782,1,0,0:0:0:100:
192,192,24782,1,0,0:0:0:0:
320,192,25177,1,0,0:0:0:100:
448,192,25177,1,0,0:0:0:0:
320,192,25917,1,0,0:0:0:0:
64,192,25967,1,0,0:0:0:0:
192,192,25991,1,0,0:0:0:0:
448,192,26016,1,0,0:0:0:0:
448,192,27546,1,0,0:0:0:66:
64,192,27546,1,0,0:0:0:100:
64,192,28335,1,0,0:0:0:100:
192,192,28532,1,0,0:0:0:0:
448,192,28730,1,0,0:0:0:0:
320,192,28927,1,0,0:0:0:0:
64,192,29125,1,0,0:0:0:66:
192,192,29125,1,0,0:0:0:0:
448,192,29322,1,0,0:0:0:0:
64,192,29519,1,0,0:0:0:0:
192,192,29717,1,0,0:0:0:0:
320,192,29717,1,0,0:0:0:0:
64,192,30309,1,0,0:0:0:0:
448,192,30309,1,0,0:0:0:0:
320,192,30703,1,0,0:0:0:0:
448,192,30703,1,0,0:0:0:66:
64,192,30901,1,0,0:0:0:0:
192,192,31098,1,0,0:0:0:100:
320,192,31296,1,0,0:0:0:0:
64,192,31493,1,0,0:0:0:0:
448,192,31493,1,0,0:0:0:66:
320,192,31888,1,0,0:0:0:66:
192,192,31888,1,0,0:0:0:0:
192,192,32282,1,0,0:0:0:0:
64,192,32282,1,0,0:0:0:66:
448,192,32480,1,0,0:0:0:0:
320,192,32677,1,0,0:0:0:100:
192,192,32875,1,0,0:0:0:0:
448,192,32875,1,0,0:0:0:0:
64,192,33072,1,0,0:0:0:0:
320,192,33269,1,0,0:0:0:0:
192,192,33467,1,0,0:0:0:0:
320,192,33664,1,0,0:0:0:0:
64,192,33861,1,0,0:0:0:0:
448,192,34059,1,0,0:0:0:100:
64,192,34256,1,0,0:0:0:0:
320,192,34453,1,0,0:0:0:0:
192,192,34453,1,0,0:0:0:66:
448,192,34651,1,0,0:0:0:0:
64,192,34848,1,0,0:0:0:66:
320,192,34848,1,0,0:0:0:0:
448,192,35046,1,0,0:0:0:0:
320,192,35046,1,0,0:0:0:0:
192,192,35243,1,0,0:0:0:0:
64,192,35243,1,0,0:0:0:66:
64,192,35440,1,0,0:0:0:0:
448,192,35440,1,0,0:0:0:66:
320,192,35638,1,0,0:0:0:0:
192,192,35835,1,0,0:0:0:0:
64,192,36032,1,0,0:0:0:0:
448,192,36230,1,0,0:0:0:0:
320,192,36427,1,0,0:0:0:0:
64,192,36625,1,0,0:0:0:66:
448,192,36625,1,0,0:0:0:66:
192,192,36822,1,0,0:0:0:0:
448,192,37019,1,0,0:0:0:0:
320,192,37019,1,0,0:0:0:0:
64,192,37217,1,0,0:0:0:0:
192,192,37414,1,0,0:0:0:0:
64,192,37611,1,0,0:0:0:0:
448,192,37611,1,0,0:0:0:0:
320,192,37809,1,0,0:0:0:0:
192,192,38006,1,0,0:0:0:0:
64,192,38203,1,0,0:0:0:0:
448,192,38203,1,0,0:0:0:0:
320,192,38401,1,0,0:0:0:0:
448,192,38598,1,0,0:0:0:0:
64,192,38598,1,0,0:0:0:0:
192,192,38796,1,0,0:0:0:0:
320,192,38993,1,0,0:0:0:0:
448,192,39190,1,0,0:0:0:0:
64,192,39388,1,0,0:0:0:0:
320,192,39585,1,0,0:0:0:0:
64,192,39782,1,0,0:0:0:0:
320,192,39980,1,0,0:0:0:0:
448,192,40177,1,0,0:0:0:66:
192,192,40177,1,0,0:0:0:0:
64,192,40375,1,0,0:0:0:0:
448,192,40572,1,0,0:0:0:0:
320,192,40769,1,0,0:0:0:0:
192,192,40769,1,0,0:0:0:0:
64,192,40967,1,0,0:0:0:0:
192,192,41164,1,0,0:0:0:0:
64,192,41361,1,0,0:0:0:66:
448,192,41361,1,0,0:0:0:0:
320,192,41559,1,0,0:0:0:100:
448,192,41756,1,0,0:0:0:44:
192,192,41756,1,0,0:0:0:44:
64,192,41756,1,0,0:0:0:44:
64,192,41953,128,0,42151:0:0:0:100:
320,192,41953,1,0,0:0:0:0:
192,192,42151,1,0,0:0:0:0:
64,192,42348,128,0,42546:0:0:0:66:
448,192,42348,1,0,0:0:0:0:
64,192,42743,128,0,42940:0:0:0:100:
448,192,42940,1,0,0:0:0:100:
320,192,42940,1,0,0:0:0:0:
64,192,43138,128,0,43335:0:0:0:100:
192,192,43335,1,0,0:0:0:100:
320,192,43335,1,0,0:0:0:0:
448,192,43532,128,0,43730:0:0:0:100:
64,192,43532,1,0,0:0:0:0:
320,192,43730,1,0,0:0:0:0:
448,192,43927,128,0,44125:0:0:0:100:
192,192,43927,1,0,0:0:0:0:
320,192,44125,1,0,0:0:0:0:
64,192,44125,1,0,0:0:0:0:
448,192,44322,128,0,44519:0:0:0:100:
64,192,44519,1,0,0:0:0:0:
192,192,44519,1,0,0:0:0:0:
448,192,44717,128,0,44914:0:0:0:100:
320,192,44914,1,0,0:0:0:0:
192,192,44914,1,0,0:0:0:0:
64,192,45111,128,0,45309:0:0:0:100:
320,192,45309,1,0,0:0:0:0:
448,192,45309,1,0,0:0:0:0:
64,192,45506,128,0,45703:0:0:0:66:
192,192,45506,1,0,0:0:0:0:
448,192,45703,1,0,0:0:0:0:
64,192,45901,128,0,46098:0:0:0:100:
320,192,45901,1,0,0:0:0:0:
192,192,46098,1,0,0:0:0:0:
64,192,46296,128,0,46493:0:0:0:100:
448,192,46296,1,0,0:0:0:0:
192,192,46493,1,0,0:0:0:0:
448,192,46690,128,0,46888:0:0:0:100:
320,192,46690,1,0,0:0:0:0:
64,192,46888,1,0,0:0:0:0:
448,192,47085,128,0,47282:0:0:0:66:
192,192,47085,1,0,0:0:0:0:
320,192,47282,1,0,0:0:0:0:
64,192,47480,1,0,0:0:0:0:
448,192,47480,128,0,47677:0:0:0:66:
192,192,47677,1,0,0:0:0:0:
320,192,47677,1,0,0:0:0:0:
448,192,47875,128,0,48072:0:0:0:66:
320,192,47875,1,0,0:0:0:0:
64,192,48072,1,0,0:0:0:0:
192,192,48072,1,0,0:0:0:0:
192,192,48269,128,0,48467:0:0:0:100:
448,192,48269,1,0,0:0:0:0:
64,192,48467,1,0,0:0:0:0:
192,192,48664,128,0,48861:0:0:0:100:
320,192,48664,1,0,0:0:0:0:
448,192,48861,1,0,0:0:0:0:
64,192,48861,1,0,0:0:0:0:
192,192,49059,128,0,49256:0:0:0:100:
320,192,49256,1,0,0:0:0:0:
448,192,49256,1,0,0:0:0:66:
192,192,49453,128,0,49651:0:0:0:100:
64,192,49651,1,0,0:0:0:0:
448,192,49651,1,0,0:0:0:0:
320,192,49848,128,0,50046:0:0:0:100:
192,192,49848,1,0,0:0:0:0:
448,192,50046,1,0,0:0:0:0:
320,192,50243,128,0,50440:0:0:0:66:
192,192,50243,1,0,0:0:0:0:
64,192,50440,1,0,0:0:0:0:
448,192,50440,1,0,0:0:0:0:
320,192,50638,128,0,50835:0:0:0:100:
64,192,50835,1,0,0:0:0:0:
192,192,50835,1,0,0:0:0:66:
448,192,51032,128,0,51230:0:0:0:100:
320,192,51230,1,0,0:0:0:66:
192,192,51230,1,0,0:0:0:0:
320,192,51427,1,0,0:0:0:0:
192,192,51427,1,0,0:0:0:0:
448,192,51625,1,0,0:0:0:0:
64,192,51625,1,0,0:0:0:0:
448,192,51822,1,0,0:0:0:0:
64,192,51822,1,0,0:0:0:0:
448,192,52019,1,0,0:0:0:0:
192,192,52019,1,0,0:0:0:0:
448,192,52217,1,0,0:0:0:0:
192,192,52217,1,0,0:0:0:0:
64,192,52414,1,0,0:0:0:0:
192,192,52414,1,0,0:0:0:0:
64,192,52611,1,0,0:0:0:0:
192,192,52611,1,0,0:0:0:0:
320,192,52809,1,0,0:0:0:66:
448,192,52809,1,0,0:0:0:66:
192,192,52907,1,0,0:0:0:66:
64,192,52907,1,0,0:0:0:66:
320,192,53006,1,0,0:0:0:66:
448,192,53006,1,0,0:0:0:66:
192,192,53105,1,0,0:0:0:66:
64,192,53105,1,0,0:0:0:66:
320,192,53203,1,0,0:0:0:66:
448,192,53203,1,0,0:0:0:66:
192,192,53302,1,0,0:0:0:66:
64,192,53302,1,0,0:0:0:66:
320,192,53401,1,0,0:0:0:66:
448,192,53401,1,0,0:0:0:66:
192,192,53500,1,0,0:0:0:66:
64,192,53500,1,0,0:0:0:66:
320,192,53598,1,0,0:0:0:66:
448,192,53598,1,0,0:0:0:66:
192,192,53697,1,0,0:0:0:66:
64,192,53697,1,0,0:0:0:66:
320,192,53796,5,0,0:0:0:66:
448,192,53796,1,0,0:0:0:66:
192,192,53894,1,0,0:0:0:66:
64,192,53894,1,0,0:0:0:66:
320,192,53993,1,0,0:0:0:66:
448,192,53993,1,0,0:0:0:66:
192,192,54092,1,0,0:0:0:66:
64,192,54092,1,0,0:0:0:66:
320,192,54190,1,0,0:0:0:66:
448,192,54190,1,0,0:0:0:66:
192,192,54289,1,0,0:0:0:66:
64,192,54289,1,0,0:0:0:66:
320,192,54388,1,0,0:0:0:0:
64,192,54388,1,0,0:0:0:0:
448,192,54388,1,0,0:0:0:0:
192,192,54486,1,0,0:0:0:100:
320,192,54585,1,0,0:0:0:0:
64,192,54684,1,0,0:0:0:0:
192,192,54782,1,0,0:0:0:66:
448,192,54782,1,0,0:0:0:66:
320,192,54881,1,0,0:0:0:100:
448,192,54980,1,0,0:0:0:100:
64,192,55078,1,0,0:0:0:100:
192,192,55177,1,0,0:0:0:66:
320,192,55177,1,0,0:0:0:66:
64,192,55276,1,0,0:0:0:100:
448,192,55375,1,0,0:0:0:100:
320,192,55572,1,0,0:0:0:66:
192,192,55572,1,0,0:0:0:66:
448,192,55671,1,0,0:0:0:100:
64,192,55769,1,0,0:0:0:100:
320,192,55868,1,0,0:0:0:100:
448,192,55967,1,0,0:0:0:66:
64,192,55967,1,0,0:0:0:66:
320,192,56065,1,0,0:0:0:100:
192,192,56164,1,0,0:0:0:100:
448,192,56263,1,0,0:0:0:100:
64,192,56361,1,0,0:0:0:66:
192,192,56361,1,0,0:0:0:66:
320,192,56460,1,0,0:0:0:100:
448,192,56559,1,0,0:0:0:100:
64,192,56657,1,0,0:0:0:100:
448,192,56756,1,0,0:0:0:66:
192,192,56756,1,0,0:0:0:66:
64,192,56855,1,0,0:0:0:100:
320,192,56953,1,0,0:0:0:100:
448,192,57151,1,0,0:0:0:66:
64,192,57151,1,0,0:0:0:66:
192,192,57250,1,0,0:0:0:0:
448,192,57447,1,0,0:0:0:100:
320,192,57546,1,0,0:0:0:66:
64,192,57546,1,0,0:0:0:66:
192,192,57644,1,0,0:0:0:100:
448,192,57743,1,0,0:0:0:100:
64,192,57842,1,0,0:0:0:100:
448,192,57940,1,0,0:0:0:66:
320,192,57940,1,0,0:0:0:66:
192,192,58039,1,0,0:0:0:100:
64,192,58138,1,0,0:0:0:100:
448,192,58236,1,0,0:0:0:100:
192,192,58335,1,0,0:0:0:66:
320,192,58335,1,0,0:0:0:66:
448,192,58434,1,0,0:0:0:100:
192,192,58532,1,0,0:0:0:100:
320,192,58730,1,0,0:0:0:66:
448,192,58730,1,0,0:0:0:100:
64,192,58828,1,0,0:0:0:0:
192,192,58927,1,0,0:0:0:0:
320,192,59026,1,0,0:0:0:100:
192,192,59125,1,0,0:0:0:66:
64,192,59125,1,0,0:0:0:66:
320,192,59223,1,0,0:0:0:100:
448,192,59322,1,0,0:0:0:0:
64,192,59421,1,0,0:0:0:100:
192,192,59519,1,0,0:0:0:66:
448,192,59519,1,0,0:0:0:66:
320,192,59618,1,0,0:0:0:0:
192,192,59717,1,0,0:0:0:0:
448,192,59815,1,0,0:0:0:100:
64,192,59914,1,0,0:0:0:0:
320,192,59914,1,0,0:0:0:66:
192,192,60013,1,0,0:0:0:0:
320,192,60111,1,0,0:0:0:0:
192,192,60210,1,0,0:0:0:100:
64,192,60309,1,0,0:0:0:66:
448,192,60309,1,0,0:0:0:66:
320,192,60407,1,0,0:0:0:100:
64,192,60605,1,0,0:0:0:100:
320,192,60703,1,0,0:0:0:66:
448,192,60703,1,0,0:0:0:66:
192,192,60802,1,0,0:0:0:100:
64,192,60901,1,0,0:0:0:0:
448,192,61000,1,0,0:0:0:100:
320,192,61098,1,0,0:0:0:66:
64,192,61098,1,0,0:0:0:66:
192,192,61197,1,0,0:0:0:100:
320,192,61296,1,0,0:0:0:100:
64,192,61394,1,0,0:0:0:0:
448,192,61493,1,0,0:0:0:0:
192,192,61493,1,0,0:0:0:66:
320,192,61592,1,0,0:0:0:0:
64,192,61690,1,0,0:0:0:0:
192,192,61888,1,0,0:0:0:0:
320,192,61888,1,0,0:0:0:0:
448,192,61986,1,0,0:0:0:0:
64,192,62085,1,0,0:0:0:0:
192,192,62184,1,0,0:0:0:0:
320,192,62282,1,0,0:0:0:0:
448,192,62282,1,0,0:0:0:66:
64,192,62381,1,0,0:0:0:0:
448,192,62480,1,0,0:0:0:0:
64,192,62578,1,0,0:0:0:100:
320,192,62677,1,0,0:0:0:0:
192,192,62677,1,0,0:0:0:66:
448,192,62776,1,0,0:0:0:0:
64,192,62875,1,0,0:0:0:0:
192,192,62973,1,0,0:0:0:0:
448,192,63072,1,0,0:0:0:0:
64,192,63072,1,0,0:0:0:66:
320,192,63171,1,0,0:0:0:100:
192,192,63269,1,0,0:0:0:100:
64,192,63467,1,0,0:0:0:66:
448,192,63467,1,0,0:0:0:66:
320,192,63565,1,0,0:0:0:100:
448,192,63763,1,0,0:0:0:0:
64,192,63861,1,0,0:0:0:66:
320,192,63861,1,0,0:0:0:66:
448,192,63960,1,0,0:0:0:0:
192,192,64059,1,0,0:0:0:0:
320,192,64157,1,0,0:0:0:0:
448,192,64256,1,0,0:0:0:66:
64,192,64256,1,0,0:0:0:66:
192,192,64355,1,0,0:0:0:0:
448,192,64453,1,0,0:0:0:0:
64,192,64552,1,0,0:0:0:0:
192,192,64651,1,0,0:0:0:0:
320,192,64651,1,0,0:0:0:0:
448,192,64750,1,0,0:0:0:0:
64,192,64848,1,0,0:0:0:0:
320,192,64947,1,0,0:0:0:0:
64,192,65046,1,0,0:0:0:0:
448,192,65046,1,0,0:0:0:0:
192,192,65144,1,0,0:0:0:100:
320,192,65243,1,0,0:0:0:100:
192,192,65342,1,0,0:0:0:100:
320,192,65440,1,0,0:0:0:44:
448,192,65440,1,0,0:0:0:44:
64,192,65440,1,0,0:0:0:44:
64,192,65638,128,0,67019:0:0:0:66:
448,192,65638,1,0,0:0:0:66:
448,192,66032,1,0,0:0:0:100:
448,192,66427,1,0,0:0:0:100:
320,192,66477,1,0,0:0:0:0:
192,192,66526,1,0,0:0:0:0:
448,192,66822,1,0,0:0:0:100:
448,192,67019,1,0,0:0:0:0:
320,192,67019,1,0,0:0:0:0:
192,192,67019,128,0,67217:0:0:0:0:
64,192,67118,1,0,0:0:0:0:
320,192,67217,128,0,67414:0:0:0:0:
64,192,67315,1,0,0:0:0:0:
192,192,67414,1,0,0:0:0:0:
448,192,67414,128,0,67710:0:0:0:0:
320,192,67513,1,0,0:0:0:0:
64,192,67611,1,0,0:0:0:0:
192,192,67710,1,0,0:0:0:0:
320,192,67809,1,0,0:0:0:0:
64,192,67809,128,0,68105:0:0:0:0:
192,192,67907,1,0,0:0:0:0:
448,192,68006,1,0,0:0:0:0:
320,192,68105,1,0,0:0:0:0:
192,192,68203,1,0,0:0:0:0:
448,192,68203,128,0,68500:0:0:0:0:
64,192,68302,1,0,0:0:0:0:
320,192,68401,1,0,0:0:0:0:
192,192,68500,1,0,0:0:0:0:
320,192,68598,1,0,0:0:0:0:
64,192,68598,128,0,68796:0:0:0:0:
192,192,68697,1,0,0:0:0:0:
448,192,68796,1,0,0:0:0:0:
320,192,68894,1,0,0:0:0:0:
192,192,68993,1,0,0:0:0:0:
448,192,68993,128,0,69190:0:0:0:0:
320,192,69092,1,0,0:0:0:0:
64,192,69190,1,0,0:0:0:0:
192,192,69289,1,0,0:0:0:0:
320,192,69388,1,0,0:0:0:0:
64,192,69388,128,0,69486:0:0:0:0:
448,192,69486,1,0,0:0:0:0:
192,192,69585,1,0,0:0:0:0:
320,192,69684,1,0,0:0:0:0:
192,192,69782,1,0,0:0:0:0:
448,192,69782,128,0,69881:0:0:0:0:
320,192,69881,1,0,0:0:0:0:
64,192,69980,1,0,0:0:0:0:
192,192,70078,1,0,0:0:0:0:
320,192,70177,128,0,70375:0:0:0:0:
64,192,70177,1,0,0:0:0:66:
448,192,70276,1,0,0:0:0:0:
192,192,70375,128,0,70572:0:0:0:0:
448,192,70473,1,0,0:0:0:0:
320,192,70572,1,0,0:0:0:0:
64,192,70572,128,0,70868:0:0:0:0:
192,192,70671,1,0,0:0:0:0:
448,192,70769,1,0,0:0:0:0:
192,192,70868,1,0,0:0:0:0:
448,192,70967,1,0,0:0:0:0:
320,192,70967,128,0,71263:0:0:0:0:
64,192,71065,1,0,0:0:0:0:
192,192,71164,1,0,0:0:0:0:
448,192,71263,1,0,0:0:0:0:
64,192,71361,1,0,0:0:0:0:
192,192,71361,128,0,71657:0:0:0:0:
448,192,71460,1,0,0:0:0:0:
320,192,71559,1,0,0:0:0:0:
448,192,71657,1,0,0:0:0:0:
64,192,71756,1,0,0:0:0:0:
320,192,71756,128,0,71953:0:0:0:0:
192,192,71855,1,0,0:0:0:0:
448,192,71953,1,0,0:0:0:0:
64,192,72052,1,0,0:0:0:0:
448,192,72151,1,0,0:0:0:0:
192,192,72151,128,0,72348:0:0:0:0:
320,192,72250,1,0,0:0:0:0:
64,192,72348,1,0,0:0:0:0:
448,192,72447,1,0,0:0:0:0:
64,192,72546,1,0,0:0:0:0:
320,192,72546,128,0,72842:0:0:0:0:
448,192,72644,1,0,0:0:0:0:
192,192,72743,1,0,0:0:0:0:
64,192,72842,1,0,0:0:0:0:
192,192,72940,128,0,73138:0:0:0:0:
64,192,73039,1,0,0:0:0:0:
448,192,73138,1,0,0:0:0:0:
320,192,73236,1,0,0:0:0:0:
64,192,73335,1,0,0:0:0:0:
448,192,73335,128,0,73532:0:0:0:0:
192,192,73434,1,0,0:0:0:0:
64,192,73532,128,0,73730:0:0:0:0:
448,192,73631,1,0,0:0:0:0:
192,192,73730,1,0,0:0:0:0:
320,192,73730,128,0,74026:0:0:0:0:
64,192,73828,1,0,0:0:0:0:
448,192,73927,1,0,0:0:0:0:
192,192,74026,1,0,0:0:0:0:
64,192,74125,1,0,0:0:0:0:
448,192,74125,128,0,74421:0:0:0:0:
320,192,74223,1,0,0:0:0:0:
192,192,74322,1,0,0:0:0:0:
320,192,74421,1,0,0:0:0:0:
192,192,74519,1,0,0:0:0:0:
64,192,74519,128,0,74815:0:0:0:0:
448,192,74618,1,0,0:0:0:0:
320,192,74717,1,0,0:0:0:0:
192,192,74815,1,0,0:0:0:0:
320,192,74914,1,0,0:0:0:0:
448,192,74914,128,0,75111:0:0:0:0:
192,192,75013,1,0,0:0:0:0:
64,192,75111,1,0,0:0:0:0:
320,192,75210,1,0,0:0:0:0:
192,192,75309,1,0,0:0:0:0:
64,192,75309,128,0,75506:0:0:0:0:
320,192,75407,1,0,0:0:0:0:
448,192,75506,1,0,0:0:0:0:
320,192,75605,1,0,0:0:0:0:
192,192,75703,1,0,0:0:0:0:
448,192,75703,128,0,75802:0:0:0:0:
64,192,75802,1,0,0:0:0:0:
320,192,75901,1,0,0:0:0:0:
192,192,76000,1,0,0:0:0:0:
320,192,76098,1,0,0:0:0:0:
64,192,76098,128,0,76197:0:0:0:0:
192,192,76197,1,0,0:0:0:0:
448,192,76296,1,0,0:0:0:0:
320,192,76394,1,0,0:0:0:0:
448,192,76493,128,0,76888:0:0:0:0:
64,192,76493,1,0,0:0:0:0:
320,192,76592,1,0,0:0:0:0:
192,192,76690,1,0,0:0:0:0:
64,192,76789,1,0,0:0:0:0:
192,192,76888,128,0,77282:0:0:0:0:
320,192,76888,1,0,0:0:0:0:
64,192,76986,1,0,0:0:0:0:
448,192,77085,1,0,0:0:0:0:
320,192,77184,1,0,0:0:0:0:
448,192,77282,128,0,77677:0:0:0:0:
64,192,77282,1,0,0:0:0:0:
320,192,77381,1,0,0:0:0:0:
192,192,77480,1,0,0:0:0:0:
64,192,77578,1,0,0:0:0:0:
192,192,77677,128,0,78072:0:0:0:0:
320,192,77677,1,0,0:0:0:0:
64,192,77776,1,0,0:0:0:0:
320,192,77875,1,0,0:0:0:0:
448,192,77973,1,0,0:0:0:0:
320,192,78072,128,0,78467:0:0:0:0:
64,192,78072,1,0,0:0:0:0:
448,192,78171,1,0,0:0:0:0:
64,192,78269,1,0,0:0:0:0:
192,192,78368,1,0,0:0:0:0:
64,192,78467,128,0,78861:0:0:0:0:
448,192,78467,1,0,0:0:0:0:
192,192,78565,1,0,0:0:0:0:
320,192,78664,1,0,0:0:0:0:
448,192,78763,1,0,0:0:0:0:
320,192,78861,128,0,79256:0:0:0:0:
192,192,78861,1,0,0:0:0:0:
448,192,78960,1,0,0:0:0:0:
64,192,79059,1,0,0:0:0:0:
192,192,79157,1,0,0:0:0:0:
64,192,79256,128,0,79651:0:0:0:0:
448,192,79256,1,0,0:0:0:0:
192,192,79355,1,0,0:0:0:0:
320,192,79453,1,0,0:0:0:0:
448,192,79453,1,0,0:0:0:0:
448,192,79651,128,0,79848:0:0:0:0:
320,192,79651,1,0,0:0:0:0:
192,192,79651,1,0,0:0:0:0:
64,192,79750,1,0,0:0:0:0:
192,192,79848,128,0,80046:0:0:0:0:
64,192,79947,1,0,0:0:0:0:
448,192,80046,1,0,0:0:0:66:
320,192,80046,128,0,80440:0:0:0:0:
192,192,80144,1,0,0:0:0:0:
448,192,80243,1,0,0:0:0:0:
64,192,80342,1,0,0:0:0:0:
192,192,80440,1,0,0:0:0:0:
448,192,80440,128,0,80835:0:0:0:0:
64,192,80539,1,0,0:0:0:0:
320,192,80638,1,0,0:0:0:0:
192,192,80736,1,0,0:0:0:0:
320,192,80835,1,0,0:0:0:0:
64,192,80835,128,0,81230:0:0:0:0:
192,192,80934,1,0,0:0:0:0:
448,192,81032,1,0,0:0:0:0:
192,192,81131,1,0,0:0:0:0:
448,192,81230,1,0,0:0:0:0:
320,192,81230,128,0,81526:0:0:0:0:
64,192,81328,1,0,0:0:0:0:
448,192,81427,1,0,0:0:0:0:
64,192,81526,1,0,0:0:0:0:
448,192,81625,1,0,0:0:0:0:
192,192,81625,128,0,81921:0:0:0:0:
64,192,81723,1,0,0:0:0:0:
320,192,81822,1,0,0:0:0:0:
64,192,81921,1,0,0:0:0:0:
320,192,82019,1,0,0:0:0:0:
448,192,82019,128,0,82217:0:0:0:0:
192,192,82118,1,0,0:0:0:0:
64,192,82217,1,0,0:0:0:0:
192,192,82315,1,0,0:0:0:0:
320,192,82414,1,0,0:0:0:0:
64,192,82414,128,0,82611:0:0:0:0:
448,192,82513,1,0,0:0:0:0:
192,192,82611,1,0,0:0:0:0:
320,192,82710,1,0,0:0:0:0:
192,192,82809,128,0,83006:0:0:0:0:
448,192,82809,1,0,0:0:0:0:
64,192,82907,1,0,0:0:0:0:
320,192,83006,128,0,83203:0:0:0:0:
448,192,83105,1,0,0:0:0:0:
192,192,83203,1,0,0:0:0:0:
64,192,83203,128,0,83598:0:0:0:0:
448,192,83302,1,0,0:0:0:0:
192,192,83401,1,0,0:0:0:0:
320,192,83500,1,0,0:0:0:0:
448,192,83598,1,0,0:0:0:0:
192,192,83598,128,0,83993:0:0:0:0:
64,192,83697,1,0,0:0:0:0:
320,192,83796,1,0,0:0:0:0:
448,192,83894,1,0,0:0:0:0:
64,192,83993,1,0,0:0:0:0:
320,192,83993,128,0,84388:0:0:0:0:
448,192,84092,1,0,0:0:0:0:
64,192,84190,1,0,0:0:0:0:
192,192,84289,1,0,0:0:0:0:
448,192,84388,1,0,0:0:0:0:
64,192,84388,128,0,84684:0:0:0:0:
192,192,84486,1,0,0:0:0:0:
448,192,84585,1,0,0:0:0:0:
320,192,84684,1,0,0:0:0:0:
192,192,84782,1,0,0:0:0:0:
448,192,84782,128,0,85078:0:0:0:0:
320,192,84881,1,0,0:0:0:0:
192,192,84980,1,0,0:0:0:0:
64,192,85078,1,0,0:0:0:0:
320,192,85177,1,0,0:0:0:0:
192,192,85177,128,0,85473:0:0:0:0:
64,192,85276,1,0,0:0:0:0:
448,192,85375,1,0,0:0:0:0:
64,192,85473,1,0,0:0:0:0:
448,192,85572,1,0,0:0:0:0:
320,192,85572,128,0,85769:0:0:0:0:
64,192,85671,1,0,0:0:0:0:
448,192,85769,1,0,0:0:0:0:
192,192,85868,1,0,0:0:0:0:
64,192,85967,128,0,86559:0:0:0:66:
448,192,85967,1,0,0:0:0:0:
192,192,86065,1,0,0:0:0:0:
320,192,86164,1,0,0:0:0:0:
192,192,86263,1,0,0:0:0:0:
320,192,86361,1,0,0:0:0:0:
448,192,86361,1,0,0:0:0:0:
192,192,86460,1,0,0:0:0:0:
320,192,86559,128,0,86756:0:0:0:0:
448,192,86657,1,0,0:0:0:0:
192,192,86756,1,0,0:0:0:0:
64,192,86756,1,0,0:0:0:0:
448,192,86855,1,0,0:0:0:0:
64,192,86953,128,0,87151:0:0:0:0:
192,192,87052,1,0,0:0:0:0:
320,192,87151,128,0,87348:0:0:0:0:
448,192,87151,1,0,0:0:0:0:
64,192,87250,1,0,0:0:0:0:
192,192,87348,128,0,87546:0:0:0:0:
320,192,87447,1,0,0:0:0:0:
448,192,87546,128,0,88138:0:0:0:0:
64,192,87546,1,0,0:0:0:0:
320,192,87644,1,0,0:0:0:0:
192,192,87743,1,0,0:0:0:0:
320,192,87842,1,0,0:0:0:0:
64,192,87940,1,0,0:0:0:0:
192,192,87940,1,0,0:0:0:0:
320,192,88039,1,0,0:0:0:0:
64,192,88138,128,0,88730:0:0:0:0:
192,192,88236,1,0,0:0:0:0:
448,192,88335,1,0,0:0:0:0:
320,192,88335,1,0,0:0:0:0:
192,192,88434,1,0,0:0:0:0:
448,192,88532,1,0,0:0:0:0:
192,192,88631,1,0,0:0:0:0:
320,192,88730,128,0,89125:0:0:0:0:
448,192,88730,1,0,0:0:0:0:
64,192,88828,1,0,0:0:0:0:
192,192,88927,1,0,0:0:0:0:
448,192,89026,1,0,0:0:0:0:
64,192,89125,128,0,89914:0:0:0:0:
192,192,89125,1,0,0:0:0:0:
448,192,89223,1,0,0:0:0:0:
320,192,89322,1,0,0:0:0:0:
192,192,89421,1,0,0:0:0:0:
448,192,89519,1,0,0:0:0:0:
320,192,89519,1,0,0:0:0:0:
192,192,89618,1,0,0:0:0:0:
448,192,89717,1,0,0:0:0:0:
320,192,89815,1,0,0:0:0:0:
192,192,89914,1,0,0:0:0:0:
448,192,89914,128,0,92085:0:0:0:66:
320,192,90013,1,0,0:0:0:0:
192,192,90111,1,0,0:0:0:0:
64,192,90210,1,0,0:0:0:0:
192,192,90309,1,0,0:0:0:0:
320,192,90309,1,0,0:0:0:0:
64,192,90407,1,0,0:0:0:0:
320,192,90506,1,0,0:0:0:0:
192,192,90605,1,0,0:0:0:0:
64,192,90703,1,0,0:0:0:0:
320,192,90703,1,0,0:0:0:0:
192,192,90901,1,0,0:0:0:0:
64,192,90901,1,0,0:0:0:0:
64,192,91098,1,0,0:0:0:66:
320,192,91098,1,0,0:0:0:66:
192,192,91296,1,0,0:0:0:66:
64,192,91296,1,0,0:0:0:0:
320,192,91493,1,0,0:0:0:0:
192,192,91493,1,0,0:0:0:0:
64,192,91690,1,0,0:0:0:0:
320,192,91690,1,0,0:0:0:66:
320,192,91888,1,0,0:0:0:66:
192,192,91888,1,0,0:0:0:0:
192,192,92085,1,0,0:0:0:66:
64,192,92085,1,0,0:0:0:66:
320,192,92184,1,0,0:0:0:66:
448,192,92184,1,0,0:0:0:66:
192,192,92282,1,0,0:0:0:0:
64,192,92282,1,0,0:0:0:44:
448,192,92282,1,0,0:0:0:44:
320,192,92480,1,0,0:0:0:0:
64,192,92677,1,0,0:0:0:0:
448,192,92875,1,0,0:0:0:0:
192,192,93072,1,0,0:0:0:0:
320,192,93072,1,0,0:0:0:0:
64,192,93269,1,0,0:0:0:0:
448,192,93467,1,0,0:0:0:0:
192,192,93664,1,0,0:0:0:0:
320,192,93861,1,0,0:0:0:0:
448,192,93861,1,0,0:0:0:0:
64,192,94059,1,0,0:0:0:0:
448,192,94256,1,0,0:0:0:0:
192,192,94453,1,0,0:0:0:0:
64,192,94651,1,0,0:0:0:0:
320,192,94651,1,0,0:0:0:0:
448,192,94848,1,0,0:0:0:0:
64,192,95046,1,0,0:0:0:0:
320,192,95243,1,0,0:0:0:0:
192,192,95440,1,0,0:0:0:0:
448,192,95440,1,0,0:0:0:0:
64,192,95638,1,0,0:0:0:0:
320,192,95835,1,0,0:0:0:0:
192,192,96032,1,0,0:0:0:0:
448,192,96230,1,0,0:0:0:0:
64,192,96230,1,0,0:0:0:0:
320,192,96427,1,0,0:0:0:0:
192,192,96625,1,0,0:0:0:0:
448,192,96822,1,0,0:0:0:0:
64,192,97019,1,0,0:0:0:0:
192,192,97019,1,0,0:0:0:0:
320,192,97217,1,0,0:0:0:0:
64,192,97414,1,0,0:0:0:0:
448,192,97611,1,0,0:0:0:0:
320,192,97809,1,0,0:0:0:0:
192,192,97809,1,0,0:0:0:0:
64,192,98006,1,0,0:0:0:0:
448,192,98203,1,0,0:0:0:0:
64,192,98401,1,0,0:0:0:0:
192,192,98598,1,0,0:0:0:0:
448,192,98598,1,0,0:0:0:0:
320,192,98796,1,0,0:0:0:0:
64,192,98993,1,0,0:0:0:0:
448,192,99190,1,0,0:0:0:0:
192,192,99388,1,0,0:0:0:0:
64,192,99388,1,0,0:0:0:0:
320,192,99585,1,0,0:0:0:0:
448,192,99782,1,0,0:0:0:0:
192,192,99980,1,0,0:0:0:0:
64,192,100177,1,0,0:0:0:0:
448,192,100177,1,0,0:0:0:0:
192,192,100375,1,0,0:0:0:0:
320,192,100572,1,0,0:0:0:0:
64,192,100769,1,0,0:0:0:0:
320,192,100967,1,0,0:0:0:0:
192,192,100967,1,0,0:0:0:0:
448,192,101164,1,0,0:0:0:0:
192,192,101361,1,0,0:0:0:0:
64,192,101559,1,0,0:0:0:0:
320,192,101756,1,0,0:0:0:0:
448,192,101756,1,0,0:0:0:0:
192,192,101953,1,0,0:0:0:0:
448,192,102151,1,0,0:0:0:0:
64,192,102348,1,0,0:0:0:0:
192,192,102546,1,0,0:0:0:0:
448,192,102546,1,0,0:0:0:0:
320,192,102743,1,0,0:0:0:0:
192,192,102940,1,0,0:0:0:0:
448,192,103138,1,0,0:0:0:0:
192,192,103335,1,0,0:0:0:0:
64,192,103335,1,0,0:0:0:0:
320,192,103532,1,0,0:0:0:0:
64,192,103730,1,0,0:0:0:0:
448,192,103927,1,0,0:0:0:0:
192,192,104125,1,0,0:0:0:0:
320,192,104125,1,0,0:0:0:0:
64,192,104322,1,0,0:0:0:0:
448,192,104519,1,0,0:0:0:0:
320,192,104717,1,0,0:0:0:0:
448,192,104914,128,0,105703:0:0:0:0:
192,192,104914,1,0,0:0:0:0:
64,192,104914,128,0,105802:0:0:0:0:
448,192,105802,128,0,106493:0:0:0:0:
192,192,105802,128,0,106592:0:0:0:0:
64,192,106592,128,0,107282:0:0:0:0:
448,192,106592,128,0,107381:0:0:0:0:
320,192,107381,128,0,108171:0:0:0:0:
64,192,107381,128,0,108072:0:0:0:0:
64,192,108171,128,0,108960:0:0:0:0:
192,192,108171,128,0,108861:0:0:0:0:
320,192,108960,128,0,109651:0:0:0:0:
192,192,108960,128,0,109750:0:0:0:0:
320,192,109750,128,0,110539:0:0:0:0:
448,192,109750,128,0,110440:0:0:0:0:
64,192,110539,128,0,111230:0:0:0:0:
448,192,110539,128,0,111328:0:0:0:0:
64,192,111328,128,0,112414:0:0:0:0:
320,192,111328,128,0,112513:0:0:0:0:
448,192,112513,128,0,113598:0:0:0:0:
64,192,112513,128,0,113697:0:0:0:0:
192,192,113697,128,0,114486:0:0:0:0:
448,192,113697,128,0,114388:0:0:0:0:
448,192,114486,128,0,115276:0:0:0:0:
64,192,114486,128,0,115177:0:0:0:0:
192,192,115276,128,0,115967:0:0:0:0:
64,192,115276,128,0,116065:0:0:0:0:
320,192,116065,128,0,116756:0:0:0:0:
192,192,116065,128,0,116855:0:0:0:0:
448,192,116855,128,0,117447:0:0:0:0:
320,192,116855,128,0,118335:0:0:0:0:
192,192,117546,128,0,118730:0:0:0:0:
448,192,117546,128,0,117940:0:0:0:0:
64,192,117546,128,0,119125:0:0:0:0:
448,192,119125,1,0,0:0:0:0:
64,192,130177,5,0,0:0:0:66:
448,192,130177,1,0,0:0:0:66:
192,192,130276,1,0,0:0:0:100:
320,192,130375,1,0,0:0:0:100:
192,192,130473,1,0,0:0:0:100:
320,192,130572,1,0,0:0:0:100:
192,192,130671,1,0,0:0:0:100:
320,192,130769,1,0,0:0:0:100:
192,192,130868,1,0,0:0:0:100:
320,192,130967,1,0,0:0:0:100:
192,192,131065,1,0,0:0:0:100:
320,192,131164,1,0,0:0:0:100:
192,192,131263,1,0,0:0:0:100:
320,192,131361,1,0,0:0:0:100:
192,192,131460,1,0,0:0:0:100:
320,192,131559,1,0,0:0:0:100:
192,192,131657,1,0,0:0:0:100:
448,192,131756,1,0,0:0:0:100:
64,192,131855,1,0,0:0:0:100:
448,192,131953,1,0,0:0:0:100:
64,192,132052,1,0,0:0:0:100:
448,192,132151,1,0,0:0:0:100:
64,192,132250,1,0,0:0:0:100:
448,192,132348,1,0,0:0:0:100:
64,192,132447,1,0,0:0:0:100:
448,192,132546,1,0,0:0:0:100:
64,192,132644,1,0,0:0:0:100:
448,192,132743,1,0,0:0:0:100:
64,192,132842,1,0,0:0:0:100:
448,192,132940,1,0,0:0:0:100:
64,192,133039,1,0,0:0:0:100:
448,192,133138,1,0,0:0:0:100:
64,192,133236,1,0,0:0:0:100:
448,192,133335,1,0,0:0:0:100:
192,192,133434,1,0,0:0:0:100:
320,192,133532,1,0,0:0:0:100:
64,192,133631,1,0,0:0:0:100:
448,192,133730,1,0,0:0:0:100:
192,192,133828,1,0,0:0:0:100:
320,192,133927,1,0,0:0:0:100:
64,192,134026,1,0,0:0:0:100:
448,192,134125,1,0,0:0:0:100:
192,192,134223,1,0,0:0:0:100:
320,192,134322,1,0,0:0:0:100:
64,192,134421,1,0,0:0:0:100:
448,192,134519,1,0,0:0:0:100:
192,192,134618,1,0,0:0:0:100:
320,192,134717,1,0,0:0:0:100:
64,192,134815,1,0,0:0:0:100:
320,192,134914,1,0,0:0:0:100:
192,192,135013,1,0,0:0:0:100:
448,192,135111,1,0,0:0:0:100:
64,192,135210,1,0,0:0:0:100:
320,192,135309,1,0,0:0:0:100:
192,192,135407,1,0,0:0:0:100:
448,192,135506,1,0,0:0:0:100:
64,192,135605,1,0,0:0:0:100:
320,192,135703,1,0,0:0:0:100:
192,192,135802,1,0,0:0:0:100:
448,192,135901,1,0,0:0:0:100:
64,192,136000,1,0,0:0:0:100:
320,192,136098,1,0,0:0:0:100:
192,192,136197,1,0,0:0:0:100:
448,192,136296,1,0,0:0:0:100:
64,192,136394,1,0,0:0:0:100:
320,192,136493,1,0,0:0:0:66:
448,192,136493,1,0,0:0:0:66:
192,192,136592,1,0,0:0:0:100:
320,192,136690,1,0,0:0:0:100:
192,192,136789,1,0,0:0:0:100:
64,192,136888,1,0,0:0:0:66:
448,192,136888,1,0,0:0:0:66:
320,192,136986,1,0,0:0:0:100:
192,192,137085,1,0,0:0:0:100:
320,192,137184,1,0,0:0:0:100:
192,192,137282,1,0,0:0:0:66:
64,192,137282,1,0,0:0:0:66:
320,192,137381,1,0,0:0:0:100:
192,192,137480,1,0,0:0:0:100:
320,192,137578,1,0,0:0:0:100:
64,192,137677,1,0,0:0:0:66:
448,192,137677,1,0,0:0:0:66:
192,192,137776,1,0,0:0:0:100:
320,192,137875,1,0,0:0:0:100:
192,192,137973,1,0,0:0:0:100:
448,192,138072,1,0,0:0:0:66:
64,192,138072,1,0,0:0:0:66:
320,192,138171,1,0,0:0:0:100:
192,192,138269,1,0,0:0:0:100:
64,192,138368,1,0,0:0:0:100:
192,192,138467,1,0,0:0:0:66:
320,192,138467,1,0,0:0:0:66:
448,192,138565,1,0,0:0:0:100:
320,192,138664,1,0,0:0:0:100:
192,192,138763,1,0,0:0:0:100:
64,192,138861,1,0,0:0:0:66:
448,192,138861,1,0,0:0:0:66:
192,192,138960,1,0,0:0:0:100:
320,192,139059,1,0,0:0:0:100:
448,192,139157,1,0,0:0:0:100:
320,192,139256,1,0,0:0:0:66:
192,192,139256,1,0,0:0:0:66:
64,192,139355,1,0,0:0:0:100:
192,192,139453,1,0,0:0:0:100:
320,192,139552,1,0,0:0:0:100:
64,192,139651,1,0,0:0:0:66:
448,192,139651,1,0,0:0:0:66:
320,192,139700,1,0,0:0:0:100:
192,192,139750,1,0,0:0:0:100:
64,192,139799,1,0,0:0:0:100:
448,192,139848,1,0,0:0:0:100:
320,192,139898,1,0,0:0:0:100:
192,192,139947,1,0,0:0:0:100:
64,192,139996,1,0,0:0:0:100:
448,192,140046,1,0,0:0:0:100:
320,192,140095,1,0,0:0:0:100:
192,192,140144,1,0,0:0:0:100:
64,192,140194,1,0,0:0:0:100:
448,192,140243,1,0,0:0:0:100:
320,192,140292,1,0,0:0:0:100:
192,192,140342,1,0,0:0:0:100:
64,192,140391,1,0,0:0:0:100:
320,192,140440,1,0,0:0:0:100:
448,192,140490,1,0,0:0:0:100:
64,192,140539,1,0,0:0:0:100:
192,192,140588,1,0,0:0:0:100:
320,192,140638,1,0,0:0:0:100:
448,192,140687,1,0,0:0:0:100:
64,192,140736,1,0,0:0:0:100:
192,192,140786,1,0,0:0:0:100:
320,192,140835,1,0,0:0:0:100:
448,192,140884,1,0,0:0:0:100:
64,192,140934,1,0,0:0:0:100:
192,192,140983,1,0,0:0:0:100:
320,192,141032,1,0,0:0:0:100:
448,192,141082,1,0,0:0:0:100:
64,192,141131,1,0,0:0:0:100:
192,192,141180,1,0,0:0:0:100:
320,192,141230,1,0,0:0:0:66:
448,192,141230,1,0,0:0:0:66:
192,192,141328,1,0,0:0:0:100:
64,192,141328,1,0,0:0:0:66:
448,192,141427,1,0,0:0:0:66:
320,192,141427,1,0,0:0:0:100:
64,192,141526,1,0,0:0:0:66:
192,192,141526,1,0,0:0:0:100:
320,192,141625,1,0,0:0:0:66:
448,192,141625,1,0,0:0:0:66:
192,192,141723,1,0,0:0:0:100:
64,192,141723,1,0,0:0:0:66:
448,192,141822,1,0,0:0:0:66:
320,192,141822,1,0,0:0:0:100:
64,192,141921,1,0,0:0:0:66:
192,192,141921,1,0,0:0:0:66:
320,192,142019,1,0,0:0:0:66:
448,192,142019,1,0,0:0:0:66:
192,192,142118,1,0,0:0:0:100:
64,192,142118,1,0,0:0:0:66:
448,192,142217,1,0,0:0:0:66:
320,192,142217,1,0,0:0:0:100:
192,192,142315,1,0,0:0:0:100:
64,192,142315,1,0,0:0:0:66:
64,192,142414,1,0,0:0:0:44:
448,192,142414,1,0,0:0:0:44:
320,192,142414,1,0,0:0:0:44:
64,192,142809,1,0,0:0:0:66:
448,192,142809,1,0,0:0:0:66:
192,192,142809,1,0,0:0:0:0:
320,192,142907,1,0,0:0:0:0:
448,192,143006,1,0,0:0:0:100:
64,192,143105,1,0,0:0:0:0:
320,192,143154,1,0,0:0:0:0:
192,192,143203,1,0,0:0:0:66:
448,192,143203,1,0,0:0:0:66:
192,192,143302,1,0,0:0:0:100:
64,192,143401,1,0,0:0:0:100:
448,192,143500,1,0,0:0:0:0:
320,192,143598,1,0,0:0:0:66:
64,192,143598,1,0,0:0:0:66:
448,192,143648,1,0,0:0:0:100:
192,192,143697,1,0,0:0:0:100:
64,192,143746,1,0,0:0:0:100:
320,192,143796,1,0,0:0:0:100:
320,192,143894,1,0,0:0:0:100:
448,192,143993,1,0,0:0:0:66:
192,192,143993,1,0,0:0:0:66:
64,192,144092,1,0,0:0:0:0:
192,192,144190,1,0,0:0:0:0:
192,192,144289,1,0,0:0:0:0:
320,192,144388,1,0,0:0:0:66:
448,192,144388,1,0,0:0:0:0:
64,192,144486,1,0,0:0:0:0:
320,192,144585,1,0,0:0:0:0:
320,192,144684,1,0,0:0:0:0:
64,192,144782,1,0,0:0:0:66:
448,192,144782,1,0,0:0:0:66:
192,192,144881,1,0,0:0:0:0:
192,192,144980,1,0,0:0:0:0:
192,192,145078,1,0,0:0:0:0:
320,192,145177,1,0,0:0:0:0:
64,192,145177,1,0,0:0:0:66:
448,192,145276,1,0,0:0:0:0:
64,192,145375,1,0,0:0:0:100:
320,192,145473,1,0,0:0:0:100:
192,192,145523,1,0,0:0:0:100:
64,192,145572,1,0,0:0:0:66:
448,192,145572,1,0,0:0:0:66:
320,192,145671,1,0,0:0:0:0:
320,192,145769,1,0,0:0:0:0:
64,192,145868,1,0,0:0:0:0:
448,192,145967,1,0,0:0:0:66:
192,192,145967,1,0,0:0:0:0:
320,192,146065,1,0,0:0:0:0:
64,192,146164,1,0,0:0:0:100:
320,192,146263,1,0,0:0:0:0:
192,192,146312,1,0,0:0:0:0:
64,192,146361,1,0,0:0:0:0:
448,192,146361,1,0,0:0:0:66:
448,192,146460,1,0,0:0:0:100:
192,192,146559,1,0,0:0:0:100:
320,192,146657,1,0,0:0:0:0:
64,192,146756,1,0,0:0:0:66:
448,192,146756,1,0,0:0:0:66:
192,192,146805,1,0,0:0:0:100:
320,192,146855,1,0,0:0:0:100:
448,192,146904,1,0,0:0:0:100:
64,192,146953,1,0,0:0:0:100:
64,192,147052,1,0,0:0:0:100:
192,192,147151,1,0,0:0:0:66:
320,192,147151,1,0,0:0:0:66:
64,192,147250,1,0,0:0:0:0:
448,192,147348,1,0,0:0:0:0:
448,192,147447,1,0,0:0:0:0:
320,192,147546,1,0,0:0:0:0:
192,192,147546,1,0,0:0:0:0:
448,192,147644,1,0,0:0:0:0:
64,192,147743,1,0,0:0:0:100:
64,192,147842,1,0,0:0:0:100:
192,192,147940,1,0,0:0:0:0:
448,192,147940,1,0,0:0:0:66:
320,192,148039,1,0,0:0:0:0:
448,192,148138,1,0,0:0:0:0:
448,192,148236,1,0,0:0:0:0:
64,192,148335,1,0,0:0:0:0:
192,192,148335,1,0,0:0:0:0:
320,192,148434,1,0,0:0:0:0:
448,192,148532,1,0,0:0:0:100:
64,192,148631,1,0,0:0:0:100:
320,192,148680,1,0,0:0:0:100:
448,192,148730,1,0,0:0:0:66:
192,192,148730,1,0,0:0:0:66:
64,192,148828,1,0,0:0:0:0:
64,192,148927,1,0,0:0:0:0:
448,192,149026,1,0,0:0:0:0:
320,192,149125,1,0,0:0:0:66:
192,192,149125,1,0,0:0:0:66:
448,192,149223,1,0,0:0:0:100:
64,192,149322,1,0,0:0:0:100:
192,192,149421,1,0,0:0:0:100:
448,192,149470,1,0,0:0:0:0:
320,192,149519,1,0,0:0:0:66:
64,192,149519,1,0,0:0:0:66:
320,192,149618,1,0,0:0:0:100:
448,192,149717,1,0,0:0:0:100:
64,192,149815,1,0,0:0:0:0:
192,192,149914,1,0,0:0:0:66:
448,192,149914,1,0,0:0:0:66:
64,192,149963,1,0,0:0:0:100:
320,192,150013,1,0,0:0:0:100:
448,192,150062,1,0,0:0:0:100:
192,192,150111,1,0,0:0:0:100:
192,192,150210,1,0,0:0:0:100:
64,192,150309,1,0,0:0:0:66:
320,192,150309,1,0,0:0:0:66:
448,192,150407,1,0,0:0:0:0:
320,192,150506,1,0,0:0:0:0:
320,192,150605,1,0,0:0:0:0:
64,192,150703,1,0,0:0:0:0:
192,192,150703,1,0,0:0:0:66:
448,192,150802,1,0,0:0:0:0:
192,192,150901,1,0,0:0:0:0:
192,192,151000,1,0,0:0:0:0:
448,192,151098,1,0,0:0:0:66:
64,192,151098,1,0,0:0:0:66:
320,192,151197,1,0,0:0:0:0:
320,192,151296,1,0,0:0:0:0:
320,192,151394,1,0,0:0:0:0:
192,192,151493,1,0,0:0:0:0:
448,192,151493,1,0,0:0:0:66:
64,192,151592,1,0,0:0:0:0:
320,192,151690,1,0,0:0:0:100:
192,192,151789,1,0,0:0:0:100:
448,192,151838,1,0,0:0:0:0:
320,192,151888,1,0,0:0:0:66:
64,192,151888,1,0,0:0:0:66:
448,192,151986,1,0,0:0:0:0:
64,192,152036,1,0,0:0:0:0:
192,192,152085,1,0,0:0:0:0:
320,192,152184,1,0,0:0:0:0:
64,192,152282,1,0,0:0:0:66:
192,192,152282,1,0,0:0:0:66:
320,192,152381,1,0,0:0:0:100:
448,192,152480,1,0,0:0:0:100:
320,192,152578,1,0,0:0:0:100:
192,192,152628,1,0,0:0:0:0:
448,192,152677,1,0,0:0:0:0:
64,192,152677,1,0,0:0:0:66:
64,192,152776,1,0,0:0:0:100:
320,192,152875,1,0,0:0:0:100:
192,192,152973,1,0,0:0:0:0:
448,192,153072,1,0,0:0:0:66:
64,192,153072,1,0,0:0:0:66:
320,192,153121,1,0,0:0:0:100:
192,192,153171,1,0,0:0:0:100:
64,192,153220,1,0,0:0:0:100:
448,192,153269,1,0,0:0:0:100:
448,192,153368,1,0,0:0:0:100:
320,192,153467,1,0,0:0:0:66:
192,192,153467,1,0,0:0:0:66:
448,192,153565,1,0,0:0:0:0:
64,192,153664,1,0,0:0:0:100:
64,192,153763,1,0,0:0:0:0:
192,192,153861,1,0,0:0:0:0:
320,192,153861,1,0,0:0:0:0:
64,192,153960,1,0,0:0:0:0:
448,192,154059,1,0,0:0:0:100:
448,192,154157,1,0,0:0:0:100:
320,192,154256,1,0,0:0:0:66:
192,192,154256,1,0,0:0:0:66:
448,192,154355,1,0,0:0:0:100:
64,192,154453,1,0,0:0:0:100:
64,192,154552,1,0,0:0:0:100:
448,192,154651,1,0,0:0:0:66:
320,192,154651,1,0,0:0:0:66:
64,192,154750,1,0,0:0:0:0:
192,192,154848,1,0,0:0:0:0:
448,192,154947,1,0,0:0:0:100:
192,192,154996,1,0,0:0:0:100:
320,192,155046,1,0,0:0:0:66:
64,192,155046,1,0,0:0:0:66:
448,192,155144,1,0,0:0:0:0:
448,192,155243,1,0,0:0:0:0:
64,192,155243,1,0,0:0:0:0:
192,192,155342,1,0,0:0:0:0:
448,192,155440,1,0,0:0:0:0:
64,192,155440,1,0,0:0:0:0:
320,192,155440,1,0,0:0:0:66:
192,192,155539,1,0,0:0:0:100:
320,192,155638,1,0,0:0:0:100:
64,192,155736,1,0,0:0:0:0:
448,192,155786,1,0,0:0:0:0:
320,192,155835,1,0,0:0:0:66:
192,192,155835,1,0,0:0:0:66:
192,192,155934,1,0,0:0:0:100:
64,192,156032,1,0,0:0:0:100:
320,192,156131,1,0,0:0:0:0:
448,192,156230,1,0,0:0:0:66:
64,192,156230,1,0,0:0:0:0:
192,192,156279,1,0,0:0:0:100:
320,192,156328,1,0,0:0:0:0:
64,192,156378,1,0,0:0:0:0:
448,192,156427,1,0,0:0:0:0:
448,192,156526,1,0,0:0:0:0:
192,192,156625,1,0,0:0:0:66:
320,192,156625,1,0,0:0:0:0:
64,192,156723,1,0,0:0:0:0:
192,192,156822,1,0,0:0:0:100:
192,192,156921,1,0,0:0:0:0:
320,192,157019,1,0,0:0:0:66:
448,192,157019,1,0,0:0:0:66:
64,192,157118,1,0,0:0:0:0:
448,192,157217,1,0,0:0:0:0:
448,192,157315,1,0,0:0:0:0:
320,192,157414,1,0,0:0:0:0:
64,192,157414,1,0,0:0:0:66:
192,192,157513,1,0,0:0:0:100:
192,192,157611,1,0,0:0:0:100:
192,192,157710,1,0,0:0:0:100:
320,192,157809,1,0,0:0:0:66:
448,192,157809,1,0,0:0:0:66:
64,192,157907,1,0,0:0:0:0:
192,192,158006,1,0,0:0:0:100:
320,192,158105,1,0,0:0:0:0:
448,192,158154,1,0,0:0:0:0:
64,192,158203,1,0,0:0:0:0:
192,192,158203,1,0,0:0:0:66:
320,192,158302,1,0,0:0:0:0:
448,192,158401,1,0,0:0:0:100:
448,192,158500,1,0,0:0:0:100:
192,192,158598,1,0,0:0:0:66:
320,192,158598,1,0,0:0:0:66:
64,192,158697,1,0,0:0:0:100:
448,192,158796,1,0,0:0:0:100:
320,192,158894,1,0,0:0:0:0:
192,192,158944,1,0,0:0:0:0:
64,192,158993,1,0,0:0:0:66:
448,192,158993,1,0,0:0:0:66:
64,192,159092,1,0,0:0:0:100:
192,192,159190,1,0,0:0:0:100:
448,192,159289,1,0,0:0:0:0:
320,192,159388,1,0,0:0:0:66:
64,192,159388,1,0,0:0:0:66:
448,192,159437,1,0,0:0:0:100:
192,192,159486,1,0,0:0:0:100:
64,192,159536,1,0,0:0:0:100:
320,192,159585,1,0,0:0:0:0:
320,192,159684,1,0,0:0:0:0:
64,192,159782,1,0,0:0:0:66:
192,192,159782,1,0,0:0:0:66:
448,192,159881,1,0,0:0:0:0:
64,192,159980,1,0,0:0:0:0:
64,192,160078,1,0,0:0:0:0:
192,192,160177,1,0,0:0:0:0:
448,192,160177,1,0,0:0:0:66:
64,192,160276,1,0,0:0:0:0:
320,192,160375,1,0,0:0:0:100:
320,192,160473,1,0,0:0:0:100:
64,192,160572,1,0,0:0:0:66:
448,192,160572,1,0,0:0:0:66:
320,192,160671,1,0,0:0:0:100:
64,192,160769,1,0,0:0:0:100:
64,192,160868,1,0,0:0:0:100:
320,192,160967,1,0,0:0:0:66:
448,192,160967,1,0,0:0:0:66:
192,192,161065,1,0,0:0:0:0:
448,192,161164,1,0,0:0:0:100:
64,192,161263,1,0,0:0:0:100:
192,192,161312,1,0,0:0:0:100:
320,192,161361,1,0,0:0:0:66:
448,192,161361,1,0,0:0:0:66:
64,192,161460,1,0,0:0:0:0:
320,192,161559,1,0,0:0:0:100:
320,192,161657,1,0,0:0:0:100:
448,192,161756,1,0,0:0:0:66:
192,192,161756,1,0,0:0:0:66:
64,192,161855,1,0,0:0:0:100:
320,192,161953,1,0,0:0:0:0:
64,192,162052,1,0,0:0:0:0:
192,192,162102,1,0,0:0:0:0:
448,192,162151,1,0,0:0:0:66:
320,192,162151,1,0,0:0:0:66:
448,192,162250,1,0,0:0:0:100:
64,192,162348,1,0,0:0:0:100:
320,192,162447,1,0,0:0:0:0:
192,192,162546,1,0,0:0:0:66:
448,192,162546,1,0,0:0:0:0:
64,192,162595,1,0,0:0:0:100:
320,192,162644,1,0,0:0:0:0:
448,192,162694,1,0,0:0:0:0:
192,192,162743,1,0,0:0:0:0:
192,192,162842,1,0,0:0:0:0:
448,192,162940,1,0,0:0:0:66:
320,192,162940,1,0,0:0:0:66:
64,192,163039,1,0,0:0:0:0:
448,192,163138,1,0,0:0:0:0:
448,192,163236,1,0,0:0:0:0:
320,192,163335,1,0,0:0:0:0:
192,192,163335,1,0,0:0:0:66:
64,192,163434,1,0,0:0:0:0:
192,192,163532,1,0,0:0:0:100:
192,192,163631,1,0,0:0:0:100:
64,192,163730,1,0,0:0:0:66:
320,192,163730,1,0,0:0:0:66:
448,192,163828,1,0,0:0:0:100:
448,192,163927,1,0,0:0:0:100:
448,192,164026,1,0,0:0:0:100:
192,192,164125,1,0,0:0:0:66:
64,192,164125,1,0,0:0:0:66:
320,192,164223,1,0,0:0:0:0:
64,192,164322,1,0,0:0:0:0:
320,192,164421,1,0,0:0:0:100:
448,192,164470,1,0,0:0:0:0:
192,192,164519,1,0,0:0:0:66:
64,192,164519,1,0,0:0:0:66:
320,192,164618,1,0,0:0:0:0:
192,192,164667,1,0,0:0:0:0:
448,192,164717,1,0,0:0:0:100:
64,192,164815,1,0,0:0:0:0:
320,192,164914,1,0,0:0:0:0:
192,192,164914,1,0,0:0:0:66:
448,192,165013,1,0,0:0:0:0:
64,192,165111,1,0,0:0:0:100:
192,192,165210,1,0,0:0:0:0:
448,192,165259,1,0,0:0:0:0:
320,192,165309,1,0,0:0:0:66:
64,192,165309,1,0,0:0:0:66:
320,192,165407,1,0,0:0:0:0:
192,192,165506,1,0,0:0:0:100:
448,192,165605,1,0,0:0:0:0:
320,192,165703,1,0,0:0:0:66:
64,192,165703,1,0,0:0:0:66:
192,192,165753,1,0,0:0:0:100:
448,192,165802,1,0,0:0:0:100:
320,192,165852,1,0,0:0:0:100:
64,192,165901,1,0,0:0:0:0:
64,192,166000,1,0,0:0:0:0:
192,192,166098,1,0,0:0:0:66:
448,192,166098,1,0,0:0:0:0:
64,192,166197,1,0,0:0:0:0:
320,192,166296,1,0,0:0:0:0:
320,192,166394,1,0,0:0:0:0:
448,192,166493,1,0,0:0:0:44:
64,192,166493,1,0,0:0:0:0:
320,192,166592,1,0,0:0:0:0:
448,192,166690,1,0,0:0:0:0:
192,192,166690,128,0,167578:0:0:0:0:
64,192,166789,1,0,0:0:0:0:
320,192,166986,1,0,0:0:0:0:
448,192,167085,1,0,0:0:0:0:
64,192,167184,1,0,0:0:0:0:
320,192,167282,1,0,0:0:0:0:
64,192,167480,1,0,0:0:0:0:
448,192,167578,1,0,0:0:0:0:
320,192,167628,1,0,0:0:0:0:
448,192,167677,1,0,0:0:0:0:
64,192,167677,1,0,0:0:0:0:
192,192,167677,1,0,0:0:0:0:
192,192,167875,1,0,0:0:0:100:
192,192,167973,1,0,0:0:0:100:
320,192,168072,128,0,168171:0:0:0:0:
64,192,168072,128,0,168171:0:0:0:0:
448,192,168072,128,0,168171:0:0:0:0:
192,192,168171,1,0,0:0:0:0:
64,192,168269,1,0,0:0:0:100:
448,192,168368,1,0,0:0:0:0:
192,192,168417,1,0,0:0:0:0:
320,192,168467,1,0,0:0:0:66:
64,192,168467,1,0,0:0:0:66:
320,192,168565,1,0,0:0:0:100:
448,192,168664,1,0,0:0:0:100:
64,192,168763,1,0,0:0:0:0:
192,192,168861,1,0,0:0:0:66:
448,192,168861,1,0,0:0:0:66:
64,192,168911,1,0,0:0:0:100:
320,192,168960,1,0,0:0:0:100:
448,192,169009,1,0,0:0:0:100:
192,192,169059,1,0,0:0:0:100:
192,192,169157,1,0,0:0:0:100:
64,192,169256,1,0,0:0:0:66:
320,192,169256,1,0,0:0:0:66:
448,192,169355,1,0,0:0:0:0:
320,192,169453,1,0,0:0:0:0:
320,192,169552,1,0,0:0:0:0:
192,192,169651,1,0,0:0:0:66:
64,192,169651,1,0,0:0:0:0:
448,192,169750,1,0,0:0:0:0:
192,192,169848,1,0,0:0:0:0:
192,192,169947,1,0,0:0:0:0:
448,192,170046,1,0,0:0:0:66:
64,192,170046,1,0,0:0:0:66:
320,192,170144,1,0,0:0:0:0:
320,192,170243,1,0,0:0:0:0:
320,192,170342,1,0,0:0:0:0:
192,192,170440,1,0,0:0:0:0:
448,192,170440,1,0,0:0:0:66:
64,192,170539,1,0,0:0:0:0:
448,192,170638,1,0,0:0:0:100:
192,192,170736,1,0,0:0:0:100:
320,192,170786,1,0,0:0:0:100:
448,192,170835,1,0,0:0:0:66:
64,192,170835,1,0,0:0:0:66:
192,192,170934,1,0,0:0:0:0:
192,192,171032,1,0,0:0:0:0:
448,192,171131,1,0,0:0:0:0:
64,192,171230,128,0,171328:0:0:0:0:
320,192,171230,128,0,171328:0:0:0:0:
192,192,171328,1,0,0:0:0:0:
448,192,171427,1,0,0:0:0:100:
192,192,171526,1,0,0:0:0:0:
320,192,171575,1,0,0:0:0:0:
448,192,171625,1,0,0:0:0:0:
64,192,171625,1,0,0:0:0:66:
64,192,171723,1,0,0:0:0:100:
320,192,171822,128,0,171921:0:0:0:0:
448,192,171822,128,0,171921:0:0:0:0:
192,192,171921,1,0,0:0:0:0:
448,192,172019,1,0,0:0:0:66:
64,192,172019,1,0,0:0:0:66:
320,192,172069,1,0,0:0:0:100:
192,192,172118,1,0,0:0:0:100:
64,192,172167,1,0,0:0:0:100:
448,192,172217,1,0,0:0:0:100:
448,192,172315,1,0,0:0:0:100:
320,192,172414,1,0,0:0:0:66:
192,192,172414,1,0,0:0:0:66:
448,192,172513,1,0,0:0:0:0:
64,192,172611,1,0,0:0:0:0:
64,192,172710,1,0,0:0:0:0:
192,192,172809,1,0,0:0:0:0:
320,192,172809,1,0,0:0:0:0:
64,192,172907,1,0,0:0:0:0:
448,192,173006,1,0,0:0:0:100:
448,192,173105,1,0,0:0:0:100:
320,192,173203,1,0,0:0:0:0:
64,192,173203,1,0,0:0:0:66:
192,192,173302,1,0,0:0:0:0:
64,192,173401,1,0,0:0:0:0:
64,192,173500,1,0,0:0:0:0:
320,192,173598,128,0,173697:0:0:0:0:
448,192,173598,128,0,173697:0:0:0:0:
192,192,173697,1,0,0:0:0:0:
64,192,173796,1,0,0:0:0:100:
448,192,173894,1,0,0:0:0:100:
192,192,173944,1,0,0:0:0:100:
64,192,173993,1,0,0:0:0:66:
320,192,173993,1,0,0:0:0:66:
448,192,174092,1,0,0:0:0:0:
448,192,174190,1,0,0:0:0:0:
64,192,174289,1,0,0:0:0:0:
192,192,174388,128,0,174486:0:0:0:0:
320,192,174388,128,0,174486:0:0:0:0:
64,192,174486,1,0,0:0:0:100:
448,192,174585,1,0,0:0:0:100:
320,192,174684,1,0,0:0:0:100:
64,192,174733,1,0,0:0:0:0:
192,192,174782,1,0,0:0:0:66:
448,192,174782,1,0,0:0:0:66:
192,192,174881,1,0,0:0:0:100:
64,192,174980,1,0,0:0:0:100:
448,192,175078,1,0,0:0:0:0:
320,192,175177,1,0,0:0:0:66:
64,192,175177,1,0,0:0:0:66:
448,192,175227,1,0,0:0:0:100:
192,192,175276,1,0,0:0:0:100:
64,192,175325,1,0,0:0:0:100:
320,192,175375,1,0,0:0:0:100:
320,192,175473,1,0,0:0:0:100:
448,192,175572,1,0,0:0:0:66:
192,192,175572,1,0,0:0:0:66:
64,192,175671,1,0,0:0:0:0:
192,192,175769,1,0,0:0:0:0:
192,192,175868,1,0,0:0:0:0:
448,192,175967,1,0,0:0:0:0:
320,192,175967,1,0,0:0:0:66:
64,192,176065,1,0,0:0:0:0:
320,192,176164,1,0,0:0:0:0:
320,192,176263,1,0,0:0:0:0:
64,192,176361,1,0,0:0:0:66:
448,192,176361,1,0,0:0:0:66:
192,192,176460,1,0,0:0:0:0:
192,192,176559,1,0,0:0:0:0:
192,192,176657,1,0,0:0:0:0:
64,192,176756,128,0,176855:0:0:0:0:
320,192,176756,128,0,176855:0:0:0:0:
448,192,176855,1,0,0:0:0:0:
192,192,176953,1,0,0:0:0:100:
320,192,177052,1,0,0:0:0:100:
64,192,177102,1,0,0:0:0:0:
192,192,177151,1,0,0:0:0:0:
448,192,177151,1,0,0:0:0:0:
64,192,177250,1,0,0:0:0:0:
320,192,177299,1,0,0:0:0:0:
448,192,177348,1,0,0:0:0:0:
192,192,177447,1,0,0:0:0:0:
320,192,177546,128,0,177644:0:0:0:0:
448,192,177546,128,0,177644:0:0:0:0:
192,192,177644,1,0,0:0:0:100:
64,192,177743,1,0,0:0:0:100:
192,192,177842,1,0,0:0:0:100:
320,192,177891,1,0,0:0:0:0:
64,192,177940,1,0,0:0:0:0:
448,192,177940,1,0,0:0:0:66:
448,192,178039,1,0,0:0:0:100:
192,192,178138,1,0,0:0:0:100:
320,192,178236,1,0,0:0:0:0:
64,192,178335,1,0,0:0:0:66:
448,192,178335,1,0,0:0:0:66:
192,192,178384,1,0,0:0:0:100:
320,192,178434,1,0,0:0:0:100:
448,192,178483,1,0,0:0:0:100:
64,192,178532,1,0,0:0:0:100:
64,192,178631,1,0,0:0:0:100:
192,192,178730,1,0,0:0:0:66:
320,192,178730,1,0,0:0:0:66:
64,192,178828,1,0,0:0:0:0:
448,192,178927,1,0,0:0:0:100:
448,192,179026,1,0,0:0:0:0:
320,192,179125,1,0,0:0:0:0:
192,192,179125,1,0,0:0:0:0:
448,192,179223,1,0,0:0:0:0:
64,192,179322,1,0,0:0:0:100:
64,192,179421,1,0,0:0:0:100:
192,192,179519,1,0,0:0:0:66:
320,192,179519,1,0,0:0:0:66:
64,192,179618,1,0,0:0:0:100:
448,192,179717,1,0,0:0:0:100:
448,192,179815,1,0,0:0:0:100:
64,192,179914,128,0,180013:0:0:0:0:
192,192,179914,128,0,180013:0:0:0:0:
448,192,180013,1,0,0:0:0:0:
320,192,180111,1,0,0:0:0:0:
64,192,180210,1,0,0:0:0:100:
320,192,180259,1,0,0:0:0:100:
192,192,180309,1,0,0:0:0:66:
448,192,180309,1,0,0:0:0:66:
64,192,180407,1,0,0:0:0:0:
64,192,180506,1,0,0:0:0:0:
448,192,180506,1,0,0:0:0:0:
320,192,180605,1,0,0:0:0:0:
192,192,180703,128,0,183861:0:0:0:0:
64,192,180703,128,0,180802:0:0:0:0:
448,192,180703,128,0,180802:0:0:0:0:
320,192,180802,1,0,0:0:0:0:
64,192,180901,1,0,0:0:0:0:
320,192,181000,1,0,0:0:0:0:
448,192,181098,1,0,0:0:0:0:
64,192,181098,1,0,0:0:0:0:
320,192,181197,1,0,0:0:0:0:
448,192,181296,1,0,0:0:0:0:
320,192,181493,1,0,0:0:0:0:
448,192,181493,1,0,0:0:0:0:
64,192,181592,1,0,0:0:0:0:
448,192,181690,1,0,0:0:0:0:
320,192,181789,1,0,0:0:0:0:
448,192,181888,1,0,0:0:0:0:
64,192,181888,1,0,0:0:0:0:
320,192,182085,1,0,0:0:0:0:
64,192,182184,1,0,0:0:0:0:
320,192,182282,1,0,0:0:0:0:
448,192,182282,1,0,0:0:0:0:
448,192,182480,1,0,0:0:0:0:
320,192,182578,1,0,0:0:0:0:
64,192,182677,1,0,0:0:0:0:
448,192,182677,1,0,0:0:0:0:
320,192,182776,1,0,0:0:0:0:
64,192,182875,1,0,0:0:0:0:
448,192,182973,1,0,0:0:0:0:
320,192,183072,1,0,0:0:0:0:
64,192,183072,1,0,0:0:0:0:
448,192,183269,1,0,0:0:0:0:
320,192,183368,1,0,0:0:0:0:
64,192,183467,1,0,0:0:0:0:
448,192,183467,1,0,0:0:0:0:
320,192,183565,1,0,0:0:0:0:
64,192,183664,1,0,0:0:0:0:
448,192,183763,1,0,0:0:0:0:
64,192,183861,128,0,185046:0:0:0:0:
320,192,183861,1,0,0:0:0:0:
448,192,183960,1,0,0:0:0:0:
192,192,184059,1,0,0:0:0:0:
320,192,184157,1,0,0:0:0:0:
192,192,184256,1,0,0:0:0:0:
448,192,184256,1,0,0:0:0:0:
320,192,184453,1,0,0:0:0:0:
448,192,184552,1,0,0:0:0:0:
320,192,184651,1,0,0:0:0:0:
192,192,184651,1,0,0:0:0:0:
448,192,184750,1,0,0:0:0:0:
192,192,184848,1,0,0:0:0:0:
448,192,184947,1,0,0:0:0:0:
192,192,185046,1,0,0:0:0:0:
320,192,185046,128,0,187019:0:0:0:0:
64,192,185243,1,0,0:0:0:0:
192,192,185342,1,0,0:0:0:0:
64,192,185440,1,0,0:0:0:0:
448,192,185440,1,0,0:0:0:0:
192,192,185539,1,0,0:0:0:0:
448,192,185638,1,0,0:0:0:0:
64,192,185736,1,0,0:0:0:0:
192,192,185835,1,0,0:0:0:0:
448,192,185835,1,0,0:0:0:0:
64,192,186032,1,0,0:0:0:0:
448,192,186131,1,0,0:0:0:0:
64,192,186230,1,0,0:0:0:0:
192,192,186230,1,0,0:0:0:0:
448,192,186328,1,0,0:0:0:0:
192,192,186427,1,0,0:0:0:0:
64,192,186526,1,0,0:0:0:0:
448,192,186625,1,0,0:0:0:0:
192,192,186625,1,0,0:0:0:0:
64,192,186723,1,0,0:0:0:0:
448,192,186822,1,0,0:0:0:0:
192,192,186921,1,0,0:0:0:0:
64,192,187019,1,0,0:0:0:0:
448,192,187019,128,0,188598:0:0:0:0:
320,192,187217,1,0,0:0:0:0:
192,192,187315,1,0,0:0:0:0:
320,192,187414,1,0,0:0:0:0:
64,192,187414,1,0,0:0:0:0:
192,192,187611,1,0,0:0:0:0:
320,192,187710,1,0,0:0:0:0:
192,192,187809,1,0,0:0:0:0:
64,192,187809,1,0,0:0:0:0:
320,192,188006,1,0,0:0:0:0:
192,192,188105,1,0,0:0:0:0:
320,192,188203,1,0,0:0:0:0:
64,192,188203,1,0,0:0:0:0:
192,192,188401,1,0,0:0:0:0:
320,192,188500,1,0,0:0:0:0:
192,192,188598,1,0,0:0:0:0:
64,192,188598,1,0,0:0:0:0:
320,192,188697,1,0,0:0:0:0:
192,192,188796,1,0,0:0:0:0:
320,192,188894,1,0,0:0:0:0:
448,192,188993,1,0,0:0:0:0:
64,192,188993,1,0,0:0:0:0:
192,192,189092,1,0,0:0:0:0:
320,192,189190,1,0,0:0:0:0:
192,192,189289,1,0,0:0:0:0:
448,192,189388,1,0,0:0:0:0:
320,192,189388,1,0,0:0:0:0:
64,192,189486,1,0,0:0:0:0:
192,192,189585,1,0,0:0:0:0:
320,192,189684,1,0,0:0:0:0:
448,192,189782,1,0,0:0:0:0:
64,192,189782,1,0,0:0:0:0:
192,192,189881,1,0,0:0:0:0:
320,192,189980,1,0,0:0:0:0:
64,192,190078,1,0,0:0:0:0:
448,192,190177,1,0,0:0:0:0:
320,192,190177,1,0,0:0:0:0:
192,192,190276,1,0,0:0:0:0:
64,192,190276,1,0,0:0:0:0:
320,192,190375,1,0,0:0:0:0:
448,192,190375,1,0,0:0:0:0:
192,192,190473,1,0,0:0:0:0:
64,192,190473,1,0,0:0:0:0:
448,192,190572,1,0,0:0:0:0:
320,192,190572,1,0,0:0:0:0:
192,192,190671,1,0,0:0:0:0:
64,192,190671,1,0,0:0:0:0:
320,192,190769,1,0,0:0:0:0:
448,192,190769,1,0,0:0:0:0:
192,192,190868,1,0,0:0:0:0:
448,192,190967,1,0,0:0:0:0:
64,192,190967,1,0,0:0:0:0:
320,192,191065,1,0,0:0:0:0:
192,192,191065,1,0,0:0:0:0:
64,192,191164,1,0,0:0:0:0:
448,192,191164,1,0,0:0:0:0:
192,192,191263,1,0,0:0:0:0:
320,192,191263,1,0,0:0:0:0:
64,192,191361,1,0,0:0:0:0:
448,192,191361,1,0,0:0:0:0:
320,192,191460,1,0,0:0:0:0:
192,192,191460,1,0,0:0:0:0:
448,192,191559,1,0,0:0:0:0:
64,192,191559,1,0,0:0:0:0:
192,192,191657,1,0,0:0:0:0:
320,192,191657,1,0,0:0:0:0:
64,192,191756,1,0,0:0:0:0:
448,192,191756,1,0,0:0:0:0:
320,192,191756,1,0,0:0:0:0:
64,192,193335,1,0,0:0:0:0:
192,192,193335,1,0,0:0:0:0:
448,192,193335,1,0,0:0:0:0:
320,192,193532,1,0,0:0:0:0:
64,192,193730,1,0,0:0:0:0:
320,192,193927,1,0,0:0:0:0:
448,192,194125,1,0,0:0:0:0:
64,192,194125,1,0,0:0:0:0:
192,192,194322,1,0,0:0:0:0:
448,192,194519,1,0,0:0:0:0:
192,192,194717,1,0,0:0:0:0:
64,192,194914,1,0,0:0:0:0:
320,192,195111,1,0,0:0:0:0:
64,192,195309,1,0,0:0:0:0:
320,192,195506,1,0,0:0:0:0:
448,192,195703,1,0,0:0:0:0:
192,192,195901,1,0,0:0:0:0:
448,192,196098,1,0,0:0:0:0:
192,192,196296,1,0,0:0:0:0:
64,192,196493,1,0,0:0:0:0:
448,192,196493,1,0,0:0:0:0:
320,192,196690,1,0,0:0:0:0:
192,192,196888,1,0,0:0:0:0:
320,192,197085,1,0,0:0:0:0:
448,192,197085,1,0,0:0:0:0:
64,192,197282,1,0,0:0:0:0:
192,192,197480,1,0,0:0:0:0:
320,192,197677,1,0,0:0:0:0:
64,192,197875,1,0,0:0:0:0:
448,192,198072,1,0,0:0:0:0:
320,192,198269,1,0,0:0:0:0:
192,192,198467,1,0,0:0:0:0:
448,192,198664,1,0,0:0:0:0:
64,192,198861,1,0,0:0:0:0:
320,192,198861,1,0,0:0:0:0:
192,192,199059,1,0,0:0:0:0:
320,192,199256,1,0,0:0:0:0:
64,192,199453,1,0,0:0:0:0:
320,192,199651,1,0,0:0:0:0:
192,192,199651,1,0,0:0:0:0:
448,192,199848,1,0,0:0:0:0:
192,192,200046,1,0,0:0:0:0:
448,192,200243,1,0,0:0:0:0:
64,192,200440,1,0,0:0:0:0:
320,192,200638,1,0,0:0:0:0:
64,192,200835,1,0,0:0:0:0:
320,192,201032,1,0,0:0:0:0:
192,192,201230,1,0,0:0:0:0:
448,192,201427,1,0,0:0:0:0:
192,192,201625,1,0,0:0:0:0:
448,192,201822,1,0,0:0:0:0:
64,192,202019,1,0,0:0:0:0:
192,192,202019,1,0,0:0:0:0:
320,192,202217,1,0,0:0:0:0:
64,192,202414,1,0,0:0:0:0:
320,192,202611,1,0,0:0:0:0:
448,192,202809,1,0,0:0:0:0:
64,192,202809,1,0,0:0:0:0:
192,192,203006,1,0,0:0:0:0:
320,192,203203,1,0,0:0:0:0:
64,192,203401,1,0,0:0:0:0:
448,192,203598,1,0,0:0:0:0:
320,192,203796,1,0,0:0:0:0:
192,192,203993,1,0,0:0:0:0:
448,192,204190,1,0,0:0:0:0:
64,192,204388,1,0,0:0:0:0:
192,192,204585,1,0,0:0:0:0:
320,192,204782,1,0,0:0:0:0:
64,192,204980,1,0,0:0:0:0:
448,192,205177,1,0,0:0:0:0:
192,192,205177,1,0,0:0:0:0:
320,192,205375,1,0,0:0:0:0:
192,192,205572,1,0,0:0:0:0:
448,192,205769,1,0,0:0:0:0:
320,192,205967,1,0,0:0:0:0:
192,192,205967,1,0,0:0:0:0:
64,192,206164,1,0,0:0:0:0:
320,192,206361,1,0,0:0:0:0:
64,192,206559,1,0,0:0:0:0:
448,192,206756,1,0,0:0:0:0:
192,192,206953,1,0,0:0:0:0:
448,192,207151,1,0,0:0:0:0:
192,192,207348,1,0,0:0:0:0:
320,192,207546,1,0,0:0:0:0:
64,192,207743,1,0,0:0:0:0:
320,192,207940,1,0,0:0:0:0:
64,192,208138,1,0,0:0:0:0:
448,192,208335,1,0,0:0:0:0:
192,192,208532,1,0,0:0:0:0:
448,192,208730,1,0,0:0:0:0:
192,192,208927,1,0,0:0:0:0:
64,192,209125,1,0,0:0:0:0:
448,192,209125,1,0,0:0:0:0:
320,192,209322,1,0,0:0:0:0:
192,192,209519,1,0,0:0:0:0:
448,192,209717,1,0,0:0:0:0:
64,192,209914,1,0,0:0:0:0:
192,192,210111,1,0,0:0:0:0:
448,192,210309,1,0,0:0:0:0:
320,192,210309,1,0,0:0:0:0:
64,192,210506,1,0,0:0:0:0:
448,192,210703,1,0,0:0:0:0:
320,192,210901,1,0,0:0:0:0:
192,192,211098,1,0,0:0:0:0:
448,192,211296,1,0,0:0:0:0:
64,192,211493,1,0,0:0:0:0:
320,192,211493,1,0,0:0:0:0:
192,192,211690,1,0,0:0:0:0:
448,192,211888,1,0,0:0:0:0:
192,192,212085,1,0,0:0:0:0:
64,192,212282,1,0,0:0:0:0:
448,192,212282,1,0,0:0:0:0:
320,192,212480,1,0,0:0:0:0:
64,192,212677,1,0,0:0:0:0:
320,192,212875,1,0,0:0:0:0:
192,192,213072,1,0,0:0:0:0:
448,192,213269,1,0,0:0:0:0:
192,192,213467,1,0,0:0:0:0:
448,192,213664,1,0,0:0:0:0:
64,192,213861,1,0,0:0:0:0:
320,192,214059,1,0,0:0:0:0:
64,192,214256,1,0,0:0:0:0:
320,192,214453,1,0,0:0:0:0:
192,192,214651,1,0,0:0:0:0:
448,192,214848,1,0,0:0:0:0:
192,192,215046,1,0,0:0:0:0:
448,192,215243,1,0,0:0:0:0:
64,192,215440,1,0,0:0:0:0:
192,192,215638,1,0,0:0:0:0:
320,192,215835,1,0,0:0:0:0:
64,192,216032,1,0,0:0:0:0:
448,192,216230,1,0,0:0:0:0:
320,192,216427,1,0,0:0:0:0:
192,192,216625,1,0,0:0:0:0:
448,192,216822,1,0,0:0:0:0:
64,192,217019,1,0,0:0:0:0:
192,192,217217,1,0,0:0:0:0:
320,192,217414,1,0,0:0:0:0:
64,192,217611,1,0,0:0:0:0:
448,192,217809,1,0,0:0:0:0:
320,192,218006,1,0,0:0:0:0:
192,192,218203,1,0,0:0:0:0:
448,192,218401,1,0,0:0:0:0:
320,192,218524,1,0,0:0:0:0:
192,192,218574,1,0,0:0:0:0:
64,192,218598,1,0,0:0:0:0:
448,192,218598,1,0,0:0:0:0:
