osu file format v14

[General]
AudioFilename: audio.mp3
AudioLeadIn: 0
PreviewTime: 70363
Countdown: 0
SampleSet: Soft
StackLeniency: 0.7
Mode: 3
LetterboxInBreaks: 0
SpecialStyle: 0
WidescreenStoryboard: 0

[Editor]
DistanceSpacing: 0.8
BeatDivisor: 4
GridSize: 4
TimelineZoom: 1.8

[Metadata]
Title:Cerenkov Radiation
TitleUnicode:Cerenkov Radiation
Artist:wa.
ArtistUnicode:wa.
Creator:Wonki
Version:asd
Source:
Tags:
BeatmapID:1857163
BeatmapSetID:888521

[Difficulty]
HPDrainRate:8
CircleSize:7
OverallDifficulty:8
ApproachRate:5
SliderMultiplier:1.4
SliderTickRate:1

[Events]
//Background and Video events
0,0,"zpvTcum.jpg",0,0
//Break Periods
//Storyboard Layer 0 (Background)
//Storyboard Layer 1 (Fail)
//Storyboard Layer 2 (Pass)
//Storyboard Layer 3 (Foreground)
//Storyboard Sound Samples

[TimingPoints]
21353,252.631578947368,4,2,1,50,1,0

[HitObjects]
36,192,21353,5,0,0:0:0:0:
256,192,21353,1,0,0:0:0:0:
109,192,21353,1,0,0:0:0:0:
475,192,21353,1,0,0:0:0:0:
256,192,21774,1,0,0:0:0:0:
475,192,21774,1,0,0:0:0:0:
402,192,21774,1,0,0:0:0:0:
182,192,22153,1,0,0:0:0:0:
329,192,22153,1,0,0:0:0:0:
329,192,22531,1,0,0:0:0:0:
182,192,22531,1,0,0:0:0:0:
182,192,22910,1,0,0:0:0:0:
329,192,22910,1,0,0:0:0:0:
329,192,23163,1,0,0:0:0:0:
182,192,23163,1,0,0:0:0:0:
182,192,23416,1,0,0:0:0:0:
329,192,23416,1,0,0:0:0:0:
329,192,23795,1,0,0:0:0:0:
182,192,23795,1,0,0:0:0:0:
329,192,24174,1,0,0:0:0:0:
182,192,24174,1,0,0:0:0:0:
329,192,24553,1,0,0:0:0:0:
182,192,24553,1,0,0:0:0:0:
475,192,24931,1,0,0:0:0:0:
182,192,24931,1,0,0:0:0:0:
329,192,24931,1,0,0:0:0:0:
109,192,25184,1,0,0:0:0:0:
256,192,25184,1,0,0:0:0:0:
402,192,25184,1,0,0:0:0:0:
36,192,25437,1,0,0:0:0:0:
182,192,25437,1,0,0:0:0:0:
329,192,25437,1,0,0:0:0:0:
36,192,25816,1,0,0:0:0:0:
182,192,25816,1,0,0:0:0:0:
329,192,25816,1,0,0:0:0:0:
475,192,26153,1,0,0:0:0:0:
402,192,26153,1,0,0:0:0:0:
36,192,26153,1,0,0:0:0:0:
329,192,26574,1,0,0:0:0:0:
182,192,26574,1,0,0:0:0:0:
182,192,26953,1,0,0:0:0:0:
329,192,26953,1,0,0:0:0:0:
329,192,27205,1,0,0:0:0:0:
182,192,27205,1,0,0:0:0:0:
182,192,27458,1,0,0:0:0:0:
329,192,27458,1,0,0:0:0:0:
329,192,27837,1,0,0:0:0:0:
182,192,27837,1,0,0:0:0:0:
329,192,28216,1,0,0:0:0:0:
182,192,28216,1,0,0:0:0:0:
329,192,28595,1,0,0:0:0:0:
182,192,28595,1,0,0:0:0:0:
475,192,28974,1,0,0:0:0:0:
329,192,28974,1,0,0:0:0:0:
182,192,28974,1,0,0:0:0:0:
402,192,29226,1,0,0:0:0:0:
109,192,29226,1,0,0:0:0:0:
256,192,29226,1,0,0:0:0:0:
36,192,29437,1,0,0:0:0:0:
109,192,29437,1,0,0:0:0:0:
329,192,29437,1,0,0:0:0:0:
475,192,29437,1,0,0:0:0:0:
329,192,29563,1,0,0:0:0:0:
475,192,29563,1,0,0:0:0:0:
109,192,29689,1,0,0:0:0:0:
256,192,29689,1,0,0:0:0:0:
329,192,29816,1,0,0:0:0:0:
475,192,29816,1,0,0:0:0:0:
182,192,29942,1,0,0:0:0:0:
36,192,29942,1,0,0:0:0:0:
329,192,30068,1,0,0:0:0:0:
475,192,30068,1,0,0:0:0:0:
36,192,30195,128,0,30321:0:0:0:0:
109,192,30195,128,0,30321:0:0:0:0:
256,192,30321,1,0,0:0:0:0:
402,192,30321,1,0,0:0:0:0:
182,192,30447,1,0,0:0:0:0:
329,192,30447,1,0,0:0:0:0:
475,192,30447,1,0,0:0:0:0:
182,192,30574,1,0,0:0:0:0:
329,192,30574,1,0,0:0:0:0:
475,192,30574,1,0,0:0:0:0:
109,192,30700,1,0,0:0:0:0:
36,192,30700,1,0,0:0:0:0:
256,192,30826,1,0,0:0:0:0:
402,192,30826,1,0,0:0:0:0:
109,192,30953,1,0,0:0:0:0:
36,192,30953,1,0,0:0:0:0:
256,192,31079,1,0,0:0:0:0:
402,192,31079,1,0,0:0:0:0:
36,192,31205,1,0,0:0:0:0:
182,192,31205,1,0,0:0:0:0:
329,192,31268,1,0,0:0:0:0:
402,192,31331,1,0,0:0:0:0:
475,192,31331,1,0,0:0:0:0:
109,192,31458,1,0,0:0:0:0:
256,192,31458,1,0,0:0:0:0:
475,192,31458,1,0,0:0:0:0:
402,192,31458,1,0,0:0:0:0:
402,192,31584,1,0,0:0:0:0:
475,192,31584,1,0,0:0:0:0:
182,192,31710,1,0,0:0:0:0:
36,192,31710,1,0,0:0:0:0:
329,192,31837,1,0,0:0:0:0:
475,192,31837,1,0,0:0:0:0:
182,192,31963,1,0,0:0:0:0:
36,192,31963,1,0,0:0:0:0:
329,192,32089,1,0,0:0:0:0:
475,192,32089,1,0,0:0:0:0:
329,192,32216,1,0,0:0:0:0:
475,192,32216,1,0,0:0:0:0:
182,192,32342,1,0,0:0:0:0:
109,192,32342,1,0,0:0:0:0:
402,192,32468,1,0,0:0:0:0:
475,192,32468,1,0,0:0:0:0:
402,192,32595,1,0,0:0:0:0:
475,192,32595,1,0,0:0:0:0:
256,192,32721,1,0,0:0:0:0:
109,192,32721,1,0,0:0:0:0:
402,192,32847,1,0,0:0:0:0:
475,192,32847,1,0,0:0:0:0:
36,192,32974,1,0,0:0:0:0:
182,192,32974,1,0,0:0:0:0:
329,192,32974,1,0,0:0:0:0:
402,192,33100,1,0,0:0:0:0:
475,192,33100,1,0,0:0:0:0:
256,192,33226,1,0,0:0:0:0:
109,192,33226,1,0,0:0:0:0:
182,192,33226,1,0,0:0:0:0:
329,192,33352,1,0,0:0:0:0:
402,192,33352,1,0,0:0:0:0:
475,192,33479,1,0,0:0:0:0:
36,192,33479,1,0,0:0:0:0:
109,192,33479,1,0,0:0:0:0:
256,192,33479,1,0,0:0:0:0:
109,192,33605,1,0,0:0:0:0:
256,192,33605,1,0,0:0:0:0:
402,192,33731,1,0,0:0:0:0:
475,192,33731,1,0,0:0:0:0:
182,192,33858,1,0,0:0:0:0:
36,192,33858,1,0,0:0:0:0:
402,192,33984,1,0,0:0:0:0:
475,192,33984,1,0,0:0:0:0:
182,192,34110,1,0,0:0:0:0:
36,192,34110,1,0,0:0:0:0:
36,192,34237,1,0,0:0:0:0:
329,192,34237,1,0,0:0:0:0:
475,192,34237,1,0,0:0:0:0:
402,192,34237,1,0,0:0:0:0:
109,192,34489,1,0,0:0:0:0:
256,192,34489,1,0,0:0:0:0:
256,192,34616,1,0,0:0:0:0:
109,192,34616,1,0,0:0:0:0:
402,192,34742,1,0,0:0:0:0:
475,192,34742,1,0,0:0:0:0:
182,192,34868,1,0,0:0:0:0:
36,192,34868,1,0,0:0:0:0:
329,192,34931,1,0,0:0:0:0:
256,192,34995,1,0,0:0:0:0:
402,192,34995,1,0,0:0:0:0:
109,192,35121,1,0,0:0:0:0:
36,192,35121,1,0,0:0:0:0:
256,192,35247,1,0,0:0:0:0:
402,192,35247,1,0,0:0:0:0:
182,192,35310,1,0,0:0:0:0:
109,192,35374,1,0,0:0:0:0:
36,192,35374,1,0,0:0:0:0:
256,192,35500,1,0,0:0:0:0:
329,192,35500,1,0,0:0:0:0:
475,192,35500,1,0,0:0:0:0:
329,192,35626,1,0,0:0:0:0:
475,192,35626,1,0,0:0:0:0:
182,192,35752,1,0,0:0:0:0:
109,192,35752,1,0,0:0:0:0:
329,192,35879,1,0,0:0:0:0:
475,192,35879,1,0,0:0:0:0:
109,192,36005,1,0,0:0:0:0:
36,192,36005,1,0,0:0:0:0:
329,192,36131,1,0,0:0:0:0:
475,192,36131,1,0,0:0:0:0:
329,192,36258,1,0,0:0:0:0:
475,192,36258,1,0,0:0:0:0:
256,192,36384,1,0,0:0:0:0:
182,192,36384,1,0,0:0:0:0:
402,192,36384,1,0,0:0:0:0:
329,192,36510,1,0,0:0:0:0:
109,192,36510,1,0,0:0:0:0:
182,192,36637,1,0,0:0:0:0:
256,192,36637,1,0,0:0:0:0:
36,192,36637,1,0,0:0:0:0:
475,192,36637,1,0,0:0:0:0:
36,192,36763,1,0,0:0:0:0:
182,192,36763,1,0,0:0:0:0:
256,192,36763,1,0,0:0:0:0:
475,192,36763,1,0,0:0:0:0:
329,192,36889,1,0,0:0:0:0:
402,192,36889,1,0,0:0:0:0:
256,192,37016,1,0,0:0:0:0:
475,192,37016,1,0,0:0:0:0:
36,192,37016,1,0,0:0:0:0:
109,192,37016,1,0,0:0:0:0:
402,192,37079,1,0,0:0:0:0:
182,192,37142,1,0,0:0:0:0:
329,192,37142,1,0,0:0:0:0:
256,192,37268,1,0,0:0:0:0:
402,192,37268,1,0,0:0:0:0:
475,192,37268,1,0,0:0:0:0:
109,192,37268,1,0,0:0:0:0:
182,192,37395,1,0,0:0:0:0:
36,192,37395,1,0,0:0:0:0:
256,192,37437,1,0,0:0:0:0:
109,192,37489,1,0,0:0:0:0:
329,192,37489,1,0,0:0:0:0:
402,192,37489,1,0,0:0:0:0:
475,192,37489,1,0,0:0:0:0:
256,192,38152,1,0,0:0:0:0:
182,192,38279,1,0,0:0:0:0:
109,192,38279,1,0,0:0:0:0:
36,192,38279,1,0,0:0:0:0:
329,192,38279,1,0,0:0:0:0:
402,192,38279,1,0,0:0:0:0:
475,192,38279,1,0,0:0:0:0:
182,192,38531,1,0,0:0:0:0:
329,192,38531,1,0,0:0:0:0:
256,192,38531,1,0,0:0:0:0:
475,192,38531,1,0,0:0:0:0:
402,192,38531,1,0,0:0:0:0:
182,192,38658,1,0,0:0:0:0:
256,192,38658,1,0,0:0:0:0:
402,192,38658,1,0,0:0:0:0:
475,192,38658,1,0,0:0:0:0:
109,192,38784,1,0,0:0:0:0:
36,192,38784,1,0,0:0:0:0:
329,192,38784,1,0,0:0:0:0:
402,192,38784,1,0,0:0:0:0:
256,192,38910,1,0,0:0:0:0:
109,192,38910,1,0,0:0:0:0:
182,192,38910,1,0,0:0:0:0:
475,192,38910,1,0,0:0:0:0:
36,192,38910,1,0,0:0:0:0:
182,192,39037,1,0,0:0:0:0:
256,192,39037,1,0,0:0:0:0:
329,192,39037,1,0,0:0:0:0:
402,192,39037,1,0,0:0:0:0:
402,192,39163,1,0,0:0:0:0:
109,192,39163,1,0,0:0:0:0:
36,192,39163,1,0,0:0:0:0:
329,192,39163,1,0,0:0:0:0:
109,192,39289,1,0,0:0:0:0:
36,192,39289,1,0,0:0:0:0:
256,192,39289,1,0,0:0:0:0:
475,192,39289,1,0,0:0:0:0:
402,192,39289,1,0,0:0:0:0:
182,192,39352,1,0,0:0:0:0:
329,192,39352,1,0,0:0:0:0:
109,192,39416,1,0,0:0:0:0:
475,192,39416,1,0,0:0:0:0:
256,192,39416,1,0,0:0:0:0:
402,192,39416,1,0,0:0:0:0:
182,192,39479,1,0,0:0:0:0:
329,192,39479,1,0,0:0:0:0:
475,192,39542,1,0,0:0:0:0:
36,192,39542,1,0,0:0:0:0:
256,192,39542,1,0,0:0:0:0:
402,192,39542,1,0,0:0:0:0:
36,192,39668,1,0,0:0:0:0:
109,192,39668,1,0,0:0:0:0:
182,192,39668,1,0,0:0:0:0:
329,192,39668,1,0,0:0:0:0:
402,192,39668,1,0,0:0:0:0:
36,192,39795,1,0,0:0:0:0:
475,192,39795,1,0,0:0:0:0:
109,192,39795,1,0,0:0:0:0:
256,192,39795,1,0,0:0:0:0:
329,192,39858,1,0,0:0:0:0:
402,192,39858,1,0,0:0:0:0:
182,192,39921,1,0,0:0:0:0:
109,192,39921,1,0,0:0:0:0:
329,192,39984,1,0,0:0:0:0:
402,192,39984,1,0,0:0:0:0:
109,192,40047,1,0,0:0:0:0:
256,192,40047,1,0,0:0:0:0:
36,192,40047,1,0,0:0:0:0:
182,192,40131,1,0,0:0:0:0:
402,192,40131,1,0,0:0:0:0:
475,192,40131,1,0,0:0:0:0:
329,192,40216,1,0,0:0:0:0:
109,192,40216,1,0,0:0:0:0:
36,192,40216,1,0,0:0:0:0:
182,192,40300,1,0,0:0:0:0:
256,192,40300,1,0,0:0:0:0:
402,192,40300,1,0,0:0:0:0:
475,192,40300,1,0,0:0:0:0:
36,192,40426,1,0,0:0:0:0:
109,192,40426,1,0,0:0:0:0:
182,192,40426,1,0,0:0:0:0:
329,192,40426,1,0,0:0:0:0:
475,192,40426,1,0,0:0:0:0:
256,192,40489,1,0,0:0:0:0:
402,192,40489,1,0,0:0:0:0:
329,192,40552,1,0,0:0:0:0:
475,192,40552,1,0,0:0:0:0:
109,192,40552,1,0,0:0:0:0:
36,192,40552,1,0,0:0:0:0:
182,192,40616,1,0,0:0:0:0:
256,192,40616,1,0,0:0:0:0:
402,192,40679,1,0,0:0:0:0:
36,192,40679,1,0,0:0:0:0:
109,192,40679,1,0,0:0:0:0:
475,192,40679,1,0,0:0:0:0:
109,192,40805,1,0,0:0:0:0:
182,192,40805,1,0,0:0:0:0:
329,192,40805,1,0,0:0:0:0:
402,192,40805,1,0,0:0:0:0:
475,192,40805,1,0,0:0:0:0:
36,192,40931,1,0,0:0:0:0:
256,192,40931,1,0,0:0:0:0:
182,192,40931,1,0,0:0:0:0:
329,192,40931,1,0,0:0:0:0:
109,192,41058,1,0,0:0:0:0:
36,192,41058,1,0,0:0:0:0:
402,192,41058,1,0,0:0:0:0:
475,192,41058,1,0,0:0:0:0:
109,192,41184,1,0,0:0:0:0:
182,192,41184,1,0,0:0:0:0:
256,192,41184,1,0,0:0:0:0:
329,192,41184,1,0,0:0:0:0:
402,192,41184,1,0,0:0:0:0:
329,192,41310,1,0,0:0:0:0:
475,192,41310,1,0,0:0:0:0:
109,192,41310,1,0,0:0:0:0:
182,192,41310,1,0,0:0:0:0:
36,192,41437,1,0,0:0:0:0:
182,192,41437,1,0,0:0:0:0:
256,192,41437,1,0,0:0:0:0:
402,192,41437,1,0,0:0:0:0:
329,192,41563,1,0,0:0:0:0:
402,192,41563,1,0,0:0:0:0:
475,192,41563,1,0,0:0:0:0:
109,192,41563,1,0,0:0:0:0:
36,192,41563,1,0,0:0:0:0:
182,192,41626,1,0,0:0:0:0:
256,192,41626,1,0,0:0:0:0:
109,192,41689,1,0,0:0:0:0:
36,192,41689,1,0,0:0:0:0:
402,192,41689,1,0,0:0:0:0:
475,192,41689,1,0,0:0:0:0:
329,192,41752,1,0,0:0:0:0:
256,192,41752,1,0,0:0:0:0:
36,192,41816,1,0,0:0:0:0:
109,192,41847,1,0,0:0:0:0:
182,192,41879,1,0,0:0:0:0:
256,192,41910,1,0,0:0:0:0:
475,192,41942,1,0,0:0:0:0:
402,192,41974,1,0,0:0:0:0:
329,192,42005,1,0,0:0:0:0:
256,192,42037,1,0,0:0:0:0:
182,192,42068,1,0,0:0:0:0:
109,192,42068,1,0,0:0:0:0:
36,192,42068,1,0,0:0:0:0:
402,192,42068,1,0,0:0:0:0:
475,192,42068,1,0,0:0:0:0:
182,192,42195,1,0,0:0:0:0:
109,192,42195,1,0,0:0:0:0:
36,192,42195,1,0,0:0:0:0:
402,192,42195,1,0,0:0:0:0:
475,192,42195,1,0,0:0:0:0:
256,192,42321,1,0,0:0:0:0:
329,192,42352,1,0,0:0:0:0:
402,192,42384,1,0,0:0:0:0:
475,192,42416,1,0,0:0:0:0:
36,192,42447,1,0,0:0:0:0:
109,192,42479,1,0,0:0:0:0:
182,192,42510,1,0,0:0:0:0:
256,192,42542,1,0,0:0:0:0:
329,192,42574,1,0,0:0:0:0:
402,192,42574,1,0,0:0:0:0:
475,192,42574,1,0,0:0:0:0:
109,192,42574,1,0,0:0:0:0:
36,192,42574,1,0,0:0:0:0:
109,192,42700,1,0,0:0:0:0:
182,192,42700,1,0,0:0:0:0:
402,192,42700,1,0,0:0:0:0:
475,192,42700,1,0,0:0:0:0:
36,192,42826,1,0,0:0:0:0:
182,192,42826,1,0,0:0:0:0:
256,192,42826,1,0,0:0:0:0:
402,192,42826,1,0,0:0:0:0:
109,192,42952,1,0,0:0:0:0:
36,192,42952,1,0,0:0:0:0:
182,192,42952,1,0,0:0:0:0:
329,192,42952,1,0,0:0:0:0:
475,192,42952,1,0,0:0:0:0:
109,192,43079,1,0,0:0:0:0:
256,192,43079,1,0,0:0:0:0:
329,192,43079,1,0,0:0:0:0:
475,192,43079,1,0,0:0:0:0:
182,192,43205,1,0,0:0:0:0:
36,192,43205,1,0,0:0:0:0:
329,192,43205,1,0,0:0:0:0:
402,192,43205,1,0,0:0:0:0:
256,192,43331,1,0,0:0:0:0:
109,192,43331,1,0,0:0:0:0:
402,192,43331,1,0,0:0:0:0:
475,192,43331,1,0,0:0:0:0:
36,192,43331,1,0,0:0:0:0:
182,192,43395,1,0,0:0:0:0:
329,192,43395,1,0,0:0:0:0:
109,192,43458,1,0,0:0:0:0:
36,192,43458,1,0,0:0:0:0:
256,192,43458,1,0,0:0:0:0:
402,192,43458,1,0,0:0:0:0:
475,192,43521,1,0,0:0:0:0:
182,192,43521,1,0,0:0:0:0:
109,192,43584,1,0,0:0:0:0:
36,192,43584,1,0,0:0:0:0:
329,192,43584,1,0,0:0:0:0:
182,192,43647,1,0,0:0:0:0:
256,192,43647,1,0,0:0:0:0:
475,192,43647,1,0,0:0:0:0:
329,192,43710,1,0,0:0:0:0:
402,192,43710,1,0,0:0:0:0:
36,192,43710,1,0,0:0:0:0:
109,192,43774,1,0,0:0:0:0:
182,192,43774,1,0,0:0:0:0:
256,192,43774,1,0,0:0:0:0:
329,192,43837,1,0,0:0:0:0:
402,192,43837,1,0,0:0:0:0:
475,192,43837,1,0,0:0:0:0:
36,192,43837,1,0,0:0:0:0:
109,192,43963,1,0,0:0:0:0:
182,192,43963,1,0,0:0:0:0:
256,192,43963,1,0,0:0:0:0:
475,192,43963,1,0,0:0:0:0:
329,192,44089,1,0,0:0:0:0:
402,192,44089,1,0,0:0:0:0:
109,192,44089,1,0,0:0:0:0:
36,192,44089,1,0,0:0:0:0:
182,192,44152,1,0,0:0:0:0:
256,192,44152,1,0,0:0:0:0:
36,192,44216,1,0,0:0:0:0:
109,192,44216,1,0,0:0:0:0:
475,192,44216,1,0,0:0:0:0:
402,192,44216,1,0,0:0:0:0:
329,192,44279,1,0,0:0:0:0:
256,192,44279,1,0,0:0:0:0:
182,192,44342,1,0,0:0:0:0:
36,192,44342,1,0,0:0:0:0:
402,192,44342,1,0,0:0:0:0:
475,192,44342,1,0,0:0:0:0:
109,192,44468,1,0,0:0:0:0:
402,192,44468,1,0,0:0:0:0:
36,192,44468,1,0,0:0:0:0:
256,192,44468,1,0,0:0:0:0:
182,192,44531,1,0,0:0:0:0:
329,192,44531,1,0,0:0:0:0:
256,192,44595,1,0,0:0:0:0:
402,192,44595,1,0,0:0:0:0:
36,192,44658,1,0,0:0:0:0:
182,192,44658,1,0,0:0:0:0:
329,192,44721,1,0,0:0:0:0:
402,192,44721,1,0,0:0:0:0:
475,192,44721,1,0,0:0:0:0:
182,192,44784,1,0,0:0:0:0:
109,192,44784,1,0,0:0:0:0:
36,192,44784,1,0,0:0:0:0:
475,192,44847,1,0,0:0:0:0:
402,192,44879,1,0,0:0:0:0:
329,192,44910,1,0,0:0:0:0:
256,192,44942,1,0,0:0:0:0:
182,192,44974,1,0,0:0:0:0:
109,192,44974,1,0,0:0:0:0:
36,192,44974,1,0,0:0:0:0:
329,192,45037,1,0,0:0:0:0:
402,192,45037,1,0,0:0:0:0:
475,192,45037,1,0,0:0:0:0:
36,192,45100,1,0,0:0:0:0:
109,192,45131,1,0,0:0:0:0:
182,192,45163,1,0,0:0:0:0:
256,192,45195,1,0,0:0:0:0:
329,192,45226,1,0,0:0:0:0:
402,192,45226,1,0,0:0:0:0:
475,192,45226,1,0,0:0:0:0:
182,192,45289,1,0,0:0:0:0:
109,192,45289,1,0,0:0:0:0:
36,192,45289,1,0,0:0:0:0:
256,192,45352,1,0,0:0:0:0:
329,192,45384,1,0,0:0:0:0:
402,192,45416,1,0,0:0:0:0:
475,192,45447,1,0,0:0:0:0:
182,192,45479,1,0,0:0:0:0:
109,192,45479,1,0,0:0:0:0:
36,192,45479,1,0,0:0:0:0:
182,192,45542,1,0,0:0:0:0:
109,192,45542,1,0,0:0:0:0:
36,192,45542,1,0,0:0:0:0:
256,192,45605,1,0,0:0:0:0:
402,192,45605,1,0,0:0:0:0:
475,192,45605,1,0,0:0:0:0:
182,192,45668,1,0,0:0:0:0:
109,192,45668,1,0,0:0:0:0:
36,192,45668,1,0,0:0:0:0:
329,192,45731,1,0,0:0:0:0:
402,192,45731,1,0,0:0:0:0:
475,192,45731,1,0,0:0:0:0:
256,192,45795,1,0,0:0:0:0:
109,192,45795,1,0,0:0:0:0:
36,192,45795,1,0,0:0:0:0:
182,192,45858,1,0,0:0:0:0:
329,192,45858,1,0,0:0:0:0:
402,192,45858,1,0,0:0:0:0:
475,192,45858,1,0,0:0:0:0:
109,192,45984,1,0,0:0:0:0:
36,192,45984,1,0,0:0:0:0:
256,192,45984,1,0,0:0:0:0:
329,192,45984,1,0,0:0:0:0:
36,192,46110,1,0,0:0:0:0:
182,192,46110,1,0,0:0:0:0:
402,192,46110,1,0,0:0:0:0:
475,192,46110,1,0,0:0:0:0:
109,192,46174,1,0,0:0:0:0:
329,192,46174,1,0,0:0:0:0:
256,192,46174,1,0,0:0:0:0:
402,192,46237,1,0,0:0:0:0:
475,192,46237,1,0,0:0:0:0:
182,192,46237,1,0,0:0:0:0:
36,192,46237,1,0,0:0:0:0:
256,192,46300,1,0,0:0:0:0:
329,192,46300,1,0,0:0:0:0:
182,192,46363,1,0,0:0:0:0:
109,192,46363,1,0,0:0:0:0:
36,192,46363,1,0,0:0:0:0:
475,192,46363,1,0,0:0:0:0:
256,192,46426,1,0,0:0:0:0:
329,192,46426,1,0,0:0:0:0:
402,192,46426,1,0,0:0:0:0:
182,192,46489,1,0,0:0:0:0:
109,192,46489,1,0,0:0:0:0:
36,192,46489,1,0,0:0:0:0:
475,192,46489,1,0,0:0:0:0:
329,192,46552,1,0,0:0:0:0:
402,192,46552,1,0,0:0:0:0:
256,192,46552,1,0,0:0:0:0:
182,192,46616,1,0,0:0:0:0:
109,192,46616,1,0,0:0:0:0:
36,192,46616,1,0,0:0:0:0:
475,192,46616,1,0,0:0:0:0:
182,192,46742,1,0,0:0:0:0:
256,192,46742,1,0,0:0:0:0:
329,192,46742,1,0,0:0:0:0:
402,192,46742,1,0,0:0:0:0:
182,192,46868,1,0,0:0:0:0:
329,192,46868,1,0,0:0:0:0:
256,192,46868,1,0,0:0:0:0:
402,192,46868,1,0,0:0:0:0:
329,192,46995,1,0,0:0:0:0:
402,192,46995,1,0,0:0:0:0:
475,192,46995,1,0,0:0:0:0:
109,192,46995,1,0,0:0:0:0:
36,192,46995,1,0,0:0:0:0:
109,192,47121,1,0,0:0:0:0:
182,192,47121,1,0,0:0:0:0:
256,192,47121,1,0,0:0:0:0:
329,192,47121,1,0,0:0:0:0:
329,192,47247,1,0,0:0:0:0:
256,192,47247,1,0,0:0:0:0:
182,192,47247,1,0,0:0:0:0:
109,192,47247,1,0,0:0:0:0:
182,192,47374,1,0,0:0:0:0:
36,192,47374,1,0,0:0:0:0:
256,192,47374,1,0,0:0:0:0:
402,192,47374,1,0,0:0:0:0:
475,192,47374,1,0,0:0:0:0:
109,192,47500,1,0,0:0:0:0:
36,192,47500,1,0,0:0:0:0:
329,192,47500,1,0,0:0:0:0:
402,192,47500,1,0,0:0:0:0:
36,192,47626,1,0,0:0:0:0:
109,192,47626,1,0,0:0:0:0:
329,192,47626,1,0,0:0:0:0:
402,192,47626,1,0,0:0:0:0:
109,192,47752,1,0,0:0:0:0:
182,192,47752,1,0,0:0:0:0:
256,192,47752,1,0,0:0:0:0:
475,192,47752,1,0,0:0:0:0:
329,192,47752,1,0,0:0:0:0:
36,192,47879,1,0,0:0:0:0:
475,192,47879,1,0,0:0:0:0:
402,192,47879,1,0,0:0:0:0:
109,192,47942,1,0,0:0:0:0:
329,192,47942,1,0,0:0:0:0:
256,192,47942,1,0,0:0:0:0:
182,192,48005,1,0,0:0:0:0:
402,192,48005,1,0,0:0:0:0:
475,192,48005,1,0,0:0:0:0:
109,192,48068,1,0,0:0:0:0:
329,192,48068,1,0,0:0:0:0:
256,192,48068,1,0,0:0:0:0:
36,192,48131,1,0,0:0:0:0:
402,192,48131,1,0,0:0:0:0:
475,192,48131,1,0,0:0:0:0:
182,192,48131,1,0,0:0:0:0:
256,192,48258,1,0,0:0:0:0:
329,192,48258,1,0,0:0:0:0:
109,192,48258,1,0,0:0:0:0:
402,192,48258,1,0,0:0:0:0:
36,192,48384,1,0,0:0:0:0:
109,192,48384,1,0,0:0:0:0:
475,192,48384,1,0,0:0:0:0:
256,192,48447,1,0,0:0:0:0:
182,192,48447,1,0,0:0:0:0:
402,192,48447,1,0,0:0:0:0:
109,192,48510,1,0,0:0:0:0:
36,192,48510,1,0,0:0:0:0:
329,192,48510,1,0,0:0:0:0:
402,192,48574,1,0,0:0:0:0:
182,192,48574,1,0,0:0:0:0:
256,192,48574,1,0,0:0:0:0:
36,192,48637,1,0,0:0:0:0:
475,192,48637,1,0,0:0:0:0:
329,192,48637,1,0,0:0:0:0:
109,192,48637,1,0,0:0:0:0:
182,192,48763,1,0,0:0:0:0:
109,192,48763,1,0,0:0:0:0:
256,192,48763,1,0,0:0:0:0:
402,192,48763,1,0,0:0:0:0:
36,192,48889,1,0,0:0:0:0:
182,192,48889,1,0,0:0:0:0:
329,192,48889,1,0,0:0:0:0:
475,192,48889,1,0,0:0:0:0:
256,192,48889,1,0,0:0:0:0:
182,192,49016,1,0,0:0:0:0:
329,192,49016,1,0,0:0:0:0:
402,192,49016,1,0,0:0:0:0:
475,192,49016,1,0,0:0:0:0:
182,192,49142,1,0,0:0:0:0:
329,192,49142,1,0,0:0:0:0:
402,192,49142,1,0,0:0:0:0:
475,192,49142,1,0,0:0:0:0:
109,192,49174,1,0,0:0:0:0:
36,192,49205,1,0,0:0:0:0:
182,192,49268,1,0,0:0:0:0:
329,192,49268,1,0,0:0:0:0:
256,192,49268,1,0,0:0:0:0:
402,192,49300,1,0,0:0:0:0:
475,192,49331,1,0,0:0:0:0:
109,192,49395,1,0,0:0:0:0:
36,192,49395,1,0,0:0:0:0:
182,192,49395,1,0,0:0:0:0:
329,192,49395,1,0,0:0:0:0:
329,192,49521,1,0,0:0:0:0:
182,192,49521,1,0,0:0:0:0:
109,192,49521,1,0,0:0:0:0:
36,192,49521,1,0,0:0:0:0:
109,192,49647,1,0,0:0:0:0:
36,192,49647,1,0,0:0:0:0:
256,192,49647,1,0,0:0:0:0:
402,192,49647,1,0,0:0:0:0:
475,192,49647,1,0,0:0:0:0:
182,192,49774,1,0,0:0:0:0:
329,192,49774,1,0,0:0:0:0:
36,192,49900,1,0,0:0:0:0:
109,192,49900,1,0,0:0:0:0:
256,192,49900,1,0,0:0:0:0:
402,192,49900,1,0,0:0:0:0:
475,192,49900,1,0,0:0:0:0:
182,192,50026,1,0,0:0:0:0:
329,192,50026,1,0,0:0:0:0:
36,192,50152,1,0,0:0:0:0:
475,192,50152,1,0,0:0:0:0:
182,192,50152,1,0,0:0:0:0:
329,192,50152,1,0,0:0:0:0:
256,192,50152,1,0,0:0:0:0:
109,192,50279,1,0,0:0:0:0:
402,192,50279,1,0,0:0:0:0:
36,192,50405,1,0,0:0:0:0:
182,192,50405,1,0,0:0:0:0:
256,192,50405,1,0,0:0:0:0:
329,192,50405,1,0,0:0:0:0:
475,192,50405,1,0,0:0:0:0:
109,192,50531,1,0,0:0:0:0:
402,192,50531,1,0,0:0:0:0:
36,192,50658,1,0,0:0:0:0:
256,192,50658,1,0,0:0:0:0:
329,192,50658,1,0,0:0:0:0:
475,192,50658,1,0,0:0:0:0:
109,192,50721,1,0,0:0:0:0:
182,192,50721,1,0,0:0:0:0:
329,192,50784,1,0,0:0:0:0:
402,192,50784,1,0,0:0:0:0:
475,192,50784,1,0,0:0:0:0:
109,192,50847,1,0,0:0:0:0:
36,192,50847,1,0,0:0:0:0:
182,192,50910,1,0,0:0:0:0:
402,192,50910,1,0,0:0:0:0:
475,192,50910,1,0,0:0:0:0:
256,192,50974,1,0,0:0:0:0:
329,192,50974,1,0,0:0:0:0:
109,192,51037,1,0,0:0:0:0:
36,192,51037,1,0,0:0:0:0:
402,192,51037,1,0,0:0:0:0:
475,192,51037,1,0,0:0:0:0:
182,192,51100,1,0,0:0:0:0:
256,192,51100,1,0,0:0:0:0:
329,192,51163,1,0,0:0:0:0:
402,192,51163,1,0,0:0:0:0:
475,192,51163,1,0,0:0:0:0:
36,192,51226,1,0,0:0:0:0:
256,192,51226,1,0,0:0:0:0:
109,192,51289,1,0,0:0:0:0:
402,192,51289,1,0,0:0:0:0:
475,192,51289,1,0,0:0:0:0:
182,192,51352,1,0,0:0:0:0:
329,192,51352,1,0,0:0:0:0:
256,192,51416,1,0,0:0:0:0:
109,192,51416,1,0,0:0:0:0:
36,192,51416,1,0,0:0:0:0:
475,192,51416,1,0,0:0:0:0:
329,192,51479,1,0,0:0:0:0:
402,192,51479,1,0,0:0:0:0:
182,192,51542,1,0,0:0:0:0:
109,192,51542,1,0,0:0:0:0:
36,192,51542,1,0,0:0:0:0:
256,192,51605,1,0,0:0:0:0:
329,192,51605,1,0,0:0:0:0:
402,192,51668,1,0,0:0:0:0:
475,192,51668,1,0,0:0:0:0:
182,192,51668,1,0,0:0:0:0:
109,192,51731,1,0,0:0:0:0:
36,192,51731,1,0,0:0:0:0:
256,192,51795,1,0,0:0:0:0:
329,192,51795,1,0,0:0:0:0:
475,192,51795,1,0,0:0:0:0:
402,192,51795,1,0,0:0:0:0:
36,192,51858,1,0,0:0:0:0:
109,192,51858,1,0,0:0:0:0:
329,192,51921,1,0,0:0:0:0:
182,192,51921,1,0,0:0:0:0:
475,192,51921,1,0,0:0:0:0:
109,192,51984,1,0,0:0:0:0:
36,192,51984,1,0,0:0:0:0:
256,192,52047,1,0,0:0:0:0:
402,192,52047,1,0,0:0:0:0:
475,192,52047,1,0,0:0:0:0:
182,192,52110,1,0,0:0:0:0:
109,192,52110,1,0,0:0:0:0:
36,192,52174,1,0,0:0:0:0:
329,192,52174,1,0,0:0:0:0:
475,192,52174,1,0,0:0:0:0:
256,192,52174,1,0,0:0:0:0:
182,192,52237,1,0,0:0:0:0:
402,192,52237,1,0,0:0:0:0:
109,192,52300,1,0,0:0:0:0:
256,192,52300,1,0,0:0:0:0:
329,192,52300,1,0,0:0:0:0:
36,192,52363,1,0,0:0:0:0:
402,192,52363,1,0,0:0:0:0:
475,192,52426,1,0,0:0:0:0:
182,192,52426,1,0,0:0:0:0:
256,192,52426,1,0,0:0:0:0:
329,192,52489,1,0,0:0:0:0:
109,192,52489,1,0,0:0:0:0:
36,192,52552,1,0,0:0:0:0:
402,192,52552,1,0,0:0:0:0:
475,192,52552,1,0,0:0:0:0:
256,192,52552,1,0,0:0:0:0:
182,192,52616,1,0,0:0:0:0:
329,192,52616,1,0,0:0:0:0:
256,192,52679,1,0,0:0:0:0:
109,192,52679,1,0,0:0:0:0:
36,192,52679,1,0,0:0:0:0:
402,192,52742,1,0,0:0:0:0:
475,192,52742,1,0,0:0:0:0:
182,192,52805,1,0,0:0:0:0:
109,192,52805,1,0,0:0:0:0:
36,192,52805,1,0,0:0:0:0:
256,192,52868,1,0,0:0:0:0:
329,192,52868,1,0,0:0:0:0:
402,192,52931,1,0,0:0:0:0:
475,192,52931,1,0,0:0:0:0:
36,192,52931,1,0,0:0:0:0:
109,192,52931,1,0,0:0:0:0:
182,192,52995,1,0,0:0:0:0:
256,192,52995,1,0,0:0:0:0:
329,192,53058,1,0,0:0:0:0:
402,192,53058,1,0,0:0:0:0:
36,192,53058,1,0,0:0:0:0:
182,192,53121,1,0,0:0:0:0:
109,192,53121,1,0,0:0:0:0:
256,192,53184,1,0,0:0:0:0:
475,192,53184,1,0,0:0:0:0:
329,192,53184,1,0,0:0:0:0:
36,192,53247,1,0,0:0:0:0:
109,192,53247,1,0,0:0:0:0:
182,192,53310,1,0,0:0:0:0:
402,192,53310,1,0,0:0:0:0:
475,192,53310,1,0,0:0:0:0:
329,192,53310,1,0,0:0:0:0:
109,192,53374,1,0,0:0:0:0:
36,192,53374,1,0,0:0:0:0:
256,192,53437,1,0,0:0:0:0:
402,192,53437,1,0,0:0:0:0:
475,192,53437,1,0,0:0:0:0:
182,192,53500,1,0,0:0:0:0:
329,192,53500,1,0,0:0:0:0:
109,192,53563,1,0,0:0:0:0:
402,192,53563,1,0,0:0:0:0:
256,192,53563,1,0,0:0:0:0:
36,192,53626,1,0,0:0:0:0:
475,192,53626,1,0,0:0:0:0:
109,192,53689,1,0,0:0:0:0:
182,192,53689,1,0,0:0:0:0:
329,192,53689,1,0,0:0:0:0:
402,192,53689,1,0,0:0:0:0:
182,192,53816,1,0,0:0:0:0:
109,192,53816,1,0,0:0:0:0:
329,192,53816,1,0,0:0:0:0:
402,192,53816,1,0,0:0:0:0:
475,192,53879,128,0,54195:0:0:0:0:
36,192,53879,128,0,53942:0:0:0:0:
256,192,53942,1,0,0:0:0:0:
182,192,53974,1,0,0:0:0:0:
109,192,54005,1,0,0:0:0:0:
36,192,54037,1,0,0:0:0:0:
402,192,54068,1,0,0:0:0:0:
329,192,54100,1,0,0:0:0:0:
256,192,54131,1,0,0:0:0:0:
182,192,54163,1,0,0:0:0:0:
109,192,54195,1,0,0:0:0:0:
36,192,54195,1,0,0:0:0:0:
329,192,54195,1,0,0:0:0:0:
402,192,54195,1,0,0:0:0:0:
109,192,54321,1,0,0:0:0:0:
36,192,54321,1,0,0:0:0:0:
329,192,54321,1,0,0:0:0:0:
402,192,54321,1,0,0:0:0:0:
182,192,54384,128,0,54447:0:0:0:0:
475,192,54384,128,0,54700:0:0:0:0:
36,192,54447,1,0,0:0:0:0:
109,192,54447,1,0,0:0:0:0:
256,192,54447,1,0,0:0:0:0:
329,192,54447,1,0,0:0:0:0:
402,192,54447,1,0,0:0:0:0:
256,192,54574,1,0,0:0:0:0:
109,192,54700,1,0,0:0:0:0:
36,192,54700,1,0,0:0:0:0:
182,192,54700,1,0,0:0:0:0:
402,192,54700,1,0,0:0:0:0:
329,192,54700,1,0,0:0:0:0:
109,192,55079,1,0,0:0:0:0:
182,192,55079,1,0,0:0:0:0:
329,192,55079,1,0,0:0:0:0:
402,192,55079,1,0,0:0:0:0:
36,192,55079,1,0,0:0:0:0:
402,192,55458,1,0,0:0:0:0:
36,192,55458,1,0,0:0:0:0:
329,192,55458,1,0,0:0:0:0:
109,192,55458,1,0,0:0:0:0:
182,192,55458,1,0,0:0:0:0:
109,192,55837,1,0,0:0:0:0:
182,192,55837,1,0,0:0:0:0:
329,192,55837,1,0,0:0:0:0:
402,192,55837,1,0,0:0:0:0:
36,192,55837,1,0,0:0:0:0:
402,192,56216,1,0,0:0:0:0:
36,192,56216,1,0,0:0:0:0:
329,192,56216,1,0,0:0:0:0:
109,192,56216,1,0,0:0:0:0:
182,192,56216,1,0,0:0:0:0:
109,192,56595,1,0,0:0:0:0:
182,192,56595,1,0,0:0:0:0:
329,192,56595,1,0,0:0:0:0:
402,192,56595,1,0,0:0:0:0:
36,192,56595,1,0,0:0:0:0:
402,192,56974,1,0,0:0:0:0:
36,192,56974,1,0,0:0:0:0:
329,192,56974,1,0,0:0:0:0:
109,192,56974,1,0,0:0:0:0:
182,192,56974,1,0,0:0:0:0:
109,192,57352,1,0,0:0:0:0:
182,192,57352,1,0,0:0:0:0:
329,192,57352,1,0,0:0:0:0:
402,192,57352,1,0,0:0:0:0:
36,192,57352,1,0,0:0:0:0:
402,192,57668,1,0,0:0:0:0:
475,192,57731,1,0,0:0:0:0:
402,192,57795,1,0,0:0:0:0:
329,192,57858,1,0,0:0:0:0:
256,192,57921,1,0,0:0:0:0:
182,192,57984,1,0,0:0:0:0:
109,192,58047,1,0,0:0:0:0:
36,192,58110,1,0,0:0:0:0:
329,192,58110,1,0,0:0:0:0:
109,192,58237,1,0,0:0:0:0:
256,192,58237,1,0,0:0:0:0:
182,192,58363,1,0,0:0:0:0:
402,192,58363,1,0,0:0:0:0:
256,192,58489,1,0,0:0:0:0:
36,192,58489,1,0,0:0:0:0:
182,192,58616,1,0,0:0:0:0:
329,192,58616,1,0,0:0:0:0:
109,192,58742,1,0,0:0:0:0:
36,192,58742,1,0,0:0:0:0:
256,192,58742,1,0,0:0:0:0:
402,192,58742,1,0,0:0:0:0:
475,192,58742,1,0,0:0:0:0:
109,192,59121,1,0,0:0:0:0:
256,192,59121,1,0,0:0:0:0:
475,192,59121,1,0,0:0:0:0:
402,192,59121,1,0,0:0:0:0:
36,192,59121,1,0,0:0:0:0:
402,192,59500,1,0,0:0:0:0:
36,192,59500,1,0,0:0:0:0:
475,192,59500,1,0,0:0:0:0:
109,192,59500,1,0,0:0:0:0:
256,192,59500,1,0,0:0:0:0:
109,192,59879,1,0,0:0:0:0:
256,192,59879,1,0,0:0:0:0:
475,192,59879,1,0,0:0:0:0:
402,192,59879,1,0,0:0:0:0:
36,192,59879,1,0,0:0:0:0:
402,192,60258,1,0,0:0:0:0:
36,192,60258,1,0,0:0:0:0:
475,192,60258,1,0,0:0:0:0:
109,192,60258,1,0,0:0:0:0:
256,192,60258,1,0,0:0:0:0:
109,192,60637,1,0,0:0:0:0:
256,192,60637,1,0,0:0:0:0:
475,192,60637,1,0,0:0:0:0:
402,192,60637,1,0,0:0:0:0:
36,192,60637,1,0,0:0:0:0:
402,192,61016,1,0,0:0:0:0:
36,192,61016,1,0,0:0:0:0:
475,192,61016,1,0,0:0:0:0:
109,192,61016,1,0,0:0:0:0:
256,192,61016,1,0,0:0:0:0:
109,192,61395,1,0,0:0:0:0:
256,192,61395,1,0,0:0:0:0:
475,192,61395,1,0,0:0:0:0:
402,192,61395,1,0,0:0:0:0:
36,192,61395,1,0,0:0:0:0:
109,192,61774,1,0,0:0:0:0:
402,192,61774,1,0,0:0:0:0:
329,192,61900,1,0,0:0:0:0:
182,192,61900,1,0,0:0:0:0:
36,192,62026,1,0,0:0:0:0:
256,192,62026,1,0,0:0:0:0:
109,192,62152,1,0,0:0:0:0:
329,192,62152,1,0,0:0:0:0:
402,192,62216,1,0,0:0:0:0:
182,192,62279,1,0,0:0:0:0:
256,192,62342,1,0,0:0:0:0:
329,192,62405,1,0,0:0:0:0:
109,192,62468,1,0,0:0:0:0:
329,192,62531,1,0,0:0:0:0:
402,192,62595,1,0,0:0:0:0:
475,192,62658,1,0,0:0:0:0:
329,192,62784,1,0,0:0:0:0:
402,192,62784,1,0,0:0:0:0:
109,192,62784,1,0,0:0:0:0:
36,192,62784,1,0,0:0:0:0:
256,192,62784,1,0,0:0:0:0:
36,192,63163,1,0,0:0:0:0:
109,192,63163,1,0,0:0:0:0:
256,192,63163,1,0,0:0:0:0:
329,192,63163,1,0,0:0:0:0:
402,192,63163,1,0,0:0:0:0:
109,192,63542,1,0,0:0:0:0:
329,192,63542,1,0,0:0:0:0:
402,192,63542,1,0,0:0:0:0:
256,192,63542,1,0,0:0:0:0:
36,192,63542,1,0,0:0:0:0:
256,192,63921,1,0,0:0:0:0:
36,192,63921,1,0,0:0:0:0:
402,192,63921,1,0,0:0:0:0:
109,192,63921,1,0,0:0:0:0:
329,192,63921,1,0,0:0:0:0:
109,192,64300,1,0,0:0:0:0:
329,192,64300,1,0,0:0:0:0:
402,192,64300,1,0,0:0:0:0:
256,192,64300,1,0,0:0:0:0:
36,192,64300,1,0,0:0:0:0:
256,192,64679,1,0,0:0:0:0:
36,192,64679,1,0,0:0:0:0:
402,192,64679,1,0,0:0:0:0:
109,192,64679,1,0,0:0:0:0:
329,192,64679,1,0,0:0:0:0:
109,192,65058,1,0,0:0:0:0:
329,192,65058,1,0,0:0:0:0:
402,192,65058,1,0,0:0:0:0:
256,192,65058,1,0,0:0:0:0:
36,192,65058,1,0,0:0:0:0:
182,192,65310,1,0,0:0:0:0:
36,192,65437,1,0,0:0:0:0:
109,192,65437,1,0,0:0:0:0:
256,192,65437,1,0,0:0:0:0:
329,192,65437,1,0,0:0:0:0:
109,192,65816,1,0,0:0:0:0:
182,192,65816,1,0,0:0:0:0:
256,192,65816,1,0,0:0:0:0:
402,192,65816,1,0,0:0:0:0:
475,192,65816,1,0,0:0:0:0:
402,192,65942,1,0,0:0:0:0:
475,192,65942,1,0,0:0:0:0:
109,192,66068,1,0,0:0:0:0:
182,192,66068,1,0,0:0:0:0:
256,192,66068,1,0,0:0:0:0:
402,192,66068,1,0,0:0:0:0:
475,192,66068,1,0,0:0:0:0:
402,192,66195,1,0,0:0:0:0:
475,192,66195,1,0,0:0:0:0:
109,192,66321,1,0,0:0:0:0:
36,192,66321,1,0,0:0:0:0:
256,192,66384,1,0,0:0:0:0:
329,192,66384,1,0,0:0:0:0:
109,192,66447,1,0,0:0:0:0:
36,192,66447,1,0,0:0:0:0:
256,192,66510,1,0,0:0:0:0:
329,192,66510,1,0,0:0:0:0:
182,192,66574,1,0,0:0:0:0:
109,192,66574,1,0,0:0:0:0:
329,192,66637,1,0,0:0:0:0:
402,192,66637,1,0,0:0:0:0:
182,192,66700,1,0,0:0:0:0:
109,192,66700,1,0,0:0:0:0:
329,192,66763,1,0,0:0:0:0:
402,192,66763,1,0,0:0:0:0:
256,192,66826,1,0,0:0:0:0:
109,192,66826,1,0,0:0:0:0:
36,192,66826,1,0,0:0:0:0:
475,192,66826,1,0,0:0:0:0:
182,192,66889,1,0,0:0:0:0:
402,192,66889,1,0,0:0:0:0:
329,192,66889,1,0,0:0:0:0:
256,192,66952,1,0,0:0:0:0:
109,192,66952,1,0,0:0:0:0:
36,192,66952,1,0,0:0:0:0:
402,192,67016,1,0,0:0:0:0:
475,192,67016,1,0,0:0:0:0:
329,192,67079,1,0,0:0:0:0:
182,192,67079,1,0,0:0:0:0:
36,192,67079,1,0,0:0:0:0:
256,192,67142,1,0,0:0:0:0:
402,192,67142,1,0,0:0:0:0:
475,192,67142,1,0,0:0:0:0:
109,192,67205,1,0,0:0:0:0:
36,192,67205,1,0,0:0:0:0:
182,192,67205,1,0,0:0:0:0:
329,192,67268,1,0,0:0:0:0:
402,192,67268,1,0,0:0:0:0:
256,192,67331,1,0,0:0:0:0:
109,192,67331,1,0,0:0:0:0:
36,192,67331,1,0,0:0:0:0:
329,192,67395,1,0,0:0:0:0:
402,192,67395,1,0,0:0:0:0:
475,192,67395,1,0,0:0:0:0:
182,192,67458,1,0,0:0:0:0:
109,192,67458,1,0,0:0:0:0:
36,192,67458,1,0,0:0:0:0:
256,192,67521,1,0,0:0:0:0:
329,192,67521,1,0,0:0:0:0:
402,192,67584,1,0,0:0:0:0:
475,192,67584,1,0,0:0:0:0:
36,192,67584,1,0,0:0:0:0:
109,192,67647,1,0,0:0:0:0:
182,192,67647,1,0,0:0:0:0:
256,192,67647,1,0,0:0:0:0:
329,192,67710,1,0,0:0:0:0:
402,192,67710,1,0,0:0:0:0:
475,192,67710,1,0,0:0:0:0:
109,192,67774,1,0,0:0:0:0:
182,192,67774,1,0,0:0:0:0:
402,192,67837,1,0,0:0:0:0:
475,192,67837,1,0,0:0:0:0:
36,192,67837,1,0,0:0:0:0:
256,192,67900,1,0,0:0:0:0:
329,192,67900,1,0,0:0:0:0:
182,192,67900,1,0,0:0:0:0:
109,192,67963,1,0,0:0:0:0:
36,192,67963,1,0,0:0:0:0:
402,192,67963,1,0,0:0:0:0:
182,192,68026,1,0,0:0:0:0:
475,192,68026,1,0,0:0:0:0:
256,192,68089,1,0,0:0:0:0:
329,192,68089,1,0,0:0:0:0:
36,192,68089,1,0,0:0:0:0:
109,192,68152,1,0,0:0:0:0:
182,192,68152,1,0,0:0:0:0:
402,192,68152,1,0,0:0:0:0:
256,192,68216,1,0,0:0:0:0:
329,192,68216,1,0,0:0:0:0:
475,192,68216,1,0,0:0:0:0:
109,192,68279,1,0,0:0:0:0:
36,192,68279,1,0,0:0:0:0:
182,192,68342,1,0,0:0:0:0:
402,192,68342,1,0,0:0:0:0:
475,192,68342,1,0,0:0:0:0:
109,192,68405,1,0,0:0:0:0:
36,192,68405,1,0,0:0:0:0:
329,192,68405,1,0,0:0:0:0:
182,192,68468,1,0,0:0:0:0:
402,192,68468,1,0,0:0:0:0:
475,192,68468,1,0,0:0:0:0:
256,192,68531,1,0,0:0:0:0:
329,192,68531,1,0,0:0:0:0:
182,192,68595,1,0,0:0:0:0:
109,192,68595,1,0,0:0:0:0:
36,192,68595,1,0,0:0:0:0:
182,192,68658,1,0,0:0:0:0:
109,192,68658,1,0,0:0:0:0:
36,192,68658,1,0,0:0:0:0:
329,192,68721,1,0,0:0:0:0:
402,192,68721,1,0,0:0:0:0:
475,192,68721,1,0,0:0:0:0:
256,192,68784,1,0,0:0:0:0:
182,192,68784,1,0,0:0:0:0:
109,192,68847,1,0,0:0:0:0:
36,192,68847,1,0,0:0:0:0:
329,192,68847,1,0,0:0:0:0:
182,192,68910,1,0,0:0:0:0:
402,192,68910,1,0,0:0:0:0:
475,192,68910,1,0,0:0:0:0:
109,192,68974,1,0,0:0:0:0:
36,192,68974,1,0,0:0:0:0:
329,192,68974,1,0,0:0:0:0:
182,192,69037,1,0,0:0:0:0:
402,192,69037,1,0,0:0:0:0:
475,192,69037,1,0,0:0:0:0:
329,192,69100,1,0,0:0:0:0:
109,192,69100,1,0,0:0:0:0:
36,192,69100,1,0,0:0:0:0:
182,192,69163,1,0,0:0:0:0:
256,192,69163,1,0,0:0:0:0:
402,192,69163,1,0,0:0:0:0:
329,192,69226,1,0,0:0:0:0:
109,192,69226,1,0,0:0:0:0:
36,192,69226,1,0,0:0:0:0:
182,192,69289,1,0,0:0:0:0:
256,192,69289,1,0,0:0:0:0:
402,192,69289,1,0,0:0:0:0:
329,192,69352,1,0,0:0:0:0:
475,192,69352,1,0,0:0:0:0:
109,192,69352,1,0,0:0:0:0:
36,192,69352,1,0,0:0:0:0:
182,192,69416,1,0,0:0:0:0:
256,192,69416,1,0,0:0:0:0:
402,192,69479,1,0,0:0:0:0:
475,192,69479,1,0,0:0:0:0:
329,192,69542,1,0,0:0:0:0:
256,192,69542,1,0,0:0:0:0:
182,192,69605,1,0,0:0:0:0:
109,192,69605,1,0,0:0:0:0:
36,192,69605,1,0,0:0:0:0:
329,192,69668,1,0,0:0:0:0:
475,192,69668,1,0,0:0:0:0:
402,192,69731,1,0,0:0:0:0:
256,192,69731,1,0,0:0:0:0:
329,192,69795,1,0,0:0:0:0:
182,192,69795,1,0,0:0:0:0:
256,192,69858,1,0,0:0:0:0:
109,192,69858,1,0,0:0:0:0:
36,192,69858,1,0,0:0:0:0:
402,192,69858,1,0,0:0:0:0:
475,192,69858,1,0,0:0:0:0:
36,192,69984,1,0,0:0:0:0:
109,192,69984,1,0,0:0:0:0:
402,192,69984,1,0,0:0:0:0:
475,192,69984,1,0,0:0:0:0:
182,192,70110,1,0,0:0:0:0:
256,192,70142,1,0,0:0:0:0:
329,192,70174,1,0,0:0:0:0:
402,192,70205,1,0,0:0:0:0:
475,192,70237,1,0,0:0:0:0:
182,192,70268,1,0,0:0:0:0:
256,192,70300,1,0,0:0:0:0:
329,192,70331,1,0,0:0:0:0:
402,192,70363,1,0,0:0:0:0:
475,192,70363,1,0,0:0:0:0:
36,192,70395,128,0,70868:0:0:0:0:
109,192,70395,128,0,70868:0:0:0:0:
182,192,70868,1,0,0:0:0:0:
256,192,70868,1,0,0:0:0:0:
329,192,70868,1,0,0:0:0:0:
475,192,70868,1,0,0:0:0:0:
402,192,70868,1,0,0:0:0:0:
182,192,70995,1,0,0:0:0:0:
329,192,70995,1,0,0:0:0:0:
475,192,70995,1,0,0:0:0:0:
256,192,71121,1,0,0:0:0:0:
109,192,71121,1,0,0:0:0:0:
36,192,71121,1,0,0:0:0:0:
402,192,71121,1,0,0:0:0:0:
36,192,71247,1,0,0:0:0:0:
329,192,71247,1,0,0:0:0:0:
109,192,71247,1,0,0:0:0:0:
402,192,71279,1,0,0:0:0:0:
256,192,71310,1,0,0:0:0:0:
182,192,71342,1,0,0:0:0:0:
329,192,71374,1,0,0:0:0:0:
475,192,71374,1,0,0:0:0:0:
109,192,71374,1,0,0:0:0:0:
36,192,71374,1,0,0:0:0:0:
182,192,71500,1,0,0:0:0:0:
256,192,71500,1,0,0:0:0:0:
402,192,71500,1,0,0:0:0:0:
109,192,71626,1,0,0:0:0:0:
36,192,71626,1,0,0:0:0:0:
329,192,71626,1,0,0:0:0:0:
475,192,71626,1,0,0:0:0:0:
182,192,71752,1,0,0:0:0:0:
256,192,71752,1,0,0:0:0:0:
402,192,71752,1,0,0:0:0:0:
329,192,71879,1,0,0:0:0:0:
475,192,71879,1,0,0:0:0:0:
109,192,71879,1,0,0:0:0:0:
36,192,71879,1,0,0:0:0:0:
109,192,72005,1,0,0:0:0:0:
329,192,72005,1,0,0:0:0:0:
475,192,72005,1,0,0:0:0:0:
182,192,72037,1,0,0:0:0:0:
402,192,72068,1,0,0:0:0:0:
256,192,72100,1,0,0:0:0:0:
329,192,72131,1,0,0:0:0:0:
475,192,72131,1,0,0:0:0:0:
109,192,72131,1,0,0:0:0:0:
36,192,72131,1,0,0:0:0:0:
109,192,72258,1,0,0:0:0:0:
36,192,72258,1,0,0:0:0:0:
329,192,72258,1,0,0:0:0:0:
182,192,72384,1,0,0:0:0:0:
256,192,72384,1,0,0:0:0:0:
402,192,72384,1,0,0:0:0:0:
475,192,72384,1,0,0:0:0:0:
256,192,72510,1,0,0:0:0:0:
329,192,72510,1,0,0:0:0:0:
109,192,72510,1,0,0:0:0:0:
182,192,72637,1,0,0:0:0:0:
402,192,72637,1,0,0:0:0:0:
475,192,72637,1,0,0:0:0:0:
36,192,72637,1,0,0:0:0:0:
329,192,72700,1,0,0:0:0:0:
256,192,72700,1,0,0:0:0:0:
402,192,72763,1,0,0:0:0:0:
475,192,72763,1,0,0:0:0:0:
182,192,72763,1,0,0:0:0:0:
36,192,72763,1,0,0:0:0:0:
329,192,72826,1,0,0:0:0:0:
256,192,72826,1,0,0:0:0:0:
182,192,72889,1,0,0:0:0:0:
36,192,72889,1,0,0:0:0:0:
402,192,72889,1,0,0:0:0:0:
475,192,72889,1,0,0:0:0:0:
329,192,73016,1,0,0:0:0:0:
182,192,73016,1,0,0:0:0:0:
36,192,73016,1,0,0:0:0:0:
256,192,73142,1,0,0:0:0:0:
402,192,73142,1,0,0:0:0:0:
475,192,73142,1,0,0:0:0:0:
109,192,73142,1,0,0:0:0:0:
36,192,73142,1,0,0:0:0:0:
475,192,73268,1,0,0:0:0:0:
182,192,73268,1,0,0:0:0:0:
402,192,73268,1,0,0:0:0:0:
36,192,73395,1,0,0:0:0:0:
402,192,73395,1,0,0:0:0:0:
475,192,73395,1,0,0:0:0:0:
109,192,73395,1,0,0:0:0:0:
329,192,73521,1,0,0:0:0:0:
256,192,73521,1,0,0:0:0:0:
182,192,73521,1,0,0:0:0:0:
402,192,73647,1,0,0:0:0:0:
475,192,73647,1,0,0:0:0:0:
36,192,73647,1,0,0:0:0:0:
109,192,73647,1,0,0:0:0:0:
329,192,73774,1,0,0:0:0:0:
256,192,73774,1,0,0:0:0:0:
109,192,73774,1,0,0:0:0:0:
182,192,73900,1,0,0:0:0:0:
36,192,73900,1,0,0:0:0:0:
402,192,73900,1,0,0:0:0:0:
475,192,73900,1,0,0:0:0:0:
402,192,74026,1,0,0:0:0:0:
182,192,74026,1,0,0:0:0:0:
36,192,74026,1,0,0:0:0:0:
182,192,74152,1,0,0:0:0:0:
36,192,74152,1,0,0:0:0:0:
475,192,74152,1,0,0:0:0:0:
329,192,74152,1,0,0:0:0:0:
475,192,74279,1,0,0:0:0:0:
182,192,74279,1,0,0:0:0:0:
329,192,74279,1,0,0:0:0:0:
109,192,74405,1,0,0:0:0:0:
36,192,74405,1,0,0:0:0:0:
256,192,74405,1,0,0:0:0:0:
402,192,74405,1,0,0:0:0:0:
402,192,74531,1,0,0:0:0:0:
36,192,74531,1,0,0:0:0:0:
329,192,74531,1,0,0:0:0:0:
109,192,74563,1,0,0:0:0:0:
182,192,74595,1,0,0:0:0:0:
256,192,74626,1,0,0:0:0:0:
329,192,74658,1,0,0:0:0:0:
109,192,74658,1,0,0:0:0:0:
36,192,74658,1,0,0:0:0:0:
475,192,74658,1,0,0:0:0:0:
109,192,74784,1,0,0:0:0:0:
36,192,74784,1,0,0:0:0:0:
402,192,74784,1,0,0:0:0:0:
329,192,74816,1,0,0:0:0:0:
256,192,74847,1,0,0:0:0:0:
182,192,74879,1,0,0:0:0:0:
475,192,74910,1,0,0:0:0:0:
109,192,74910,1,0,0:0:0:0:
36,192,74910,1,0,0:0:0:0:
402,192,74910,1,0,0:0:0:0:
109,192,75037,1,0,0:0:0:0:
256,192,75037,1,0,0:0:0:0:
402,192,75037,1,0,0:0:0:0:
182,192,75163,1,0,0:0:0:0:
36,192,75163,1,0,0:0:0:0:
329,192,75163,1,0,0:0:0:0:
475,192,75163,1,0,0:0:0:0:
182,192,75289,1,0,0:0:0:0:
36,192,75289,1,0,0:0:0:0:
329,192,75289,1,0,0:0:0:0:
109,192,75416,1,0,0:0:0:0:
256,192,75416,1,0,0:0:0:0:
402,192,75416,1,0,0:0:0:0:
475,192,75416,1,0,0:0:0:0:
256,192,75542,1,0,0:0:0:0:
402,192,75542,1,0,0:0:0:0:
475,192,75542,1,0,0:0:0:0:
329,192,75668,1,0,0:0:0:0:
182,192,75668,1,0,0:0:0:0:
109,192,75668,1,0,0:0:0:0:
36,192,75668,1,0,0:0:0:0:
36,192,75795,1,0,0:0:0:0:
109,192,75795,1,0,0:0:0:0:
329,192,75795,1,0,0:0:0:0:
182,192,75921,1,0,0:0:0:0:
256,192,75921,1,0,0:0:0:0:
402,192,75921,1,0,0:0:0:0:
475,192,75921,1,0,0:0:0:0:
182,192,76047,1,0,0:0:0:0:
256,192,76047,1,0,0:0:0:0:
402,192,76047,1,0,0:0:0:0:
329,192,76174,1,0,0:0:0:0:
475,192,76174,1,0,0:0:0:0:
109,192,76174,1,0,0:0:0:0:
36,192,76174,1,0,0:0:0:0:
109,192,76300,1,0,0:0:0:0:
36,192,76300,1,0,0:0:0:0:
329,192,76300,1,0,0:0:0:0:
402,192,76426,1,0,0:0:0:0:
475,192,76426,1,0,0:0:0:0:
182,192,76426,1,0,0:0:0:0:
109,192,76489,1,0,0:0:0:0:
36,192,76489,1,0,0:0:0:0:
329,192,76489,1,0,0:0:0:0:
182,192,76552,1,0,0:0:0:0:
402,192,76552,1,0,0:0:0:0:
475,192,76552,1,0,0:0:0:0:
109,192,76616,1,0,0:0:0:0:
36,192,76616,1,0,0:0:0:0:
329,192,76616,1,0,0:0:0:0:
182,192,76679,1,0,0:0:0:0:
475,192,76679,1,0,0:0:0:0:
402,192,76679,1,0,0:0:0:0:
256,192,76679,1,0,0:0:0:0:
256,192,76805,1,0,0:0:0:0:
182,192,76805,1,0,0:0:0:0:
402,192,76805,1,0,0:0:0:0:
475,192,76805,1,0,0:0:0:0:
329,192,76931,1,0,0:0:0:0:
109,192,76931,1,0,0:0:0:0:
36,192,76931,1,0,0:0:0:0:
256,192,76931,1,0,0:0:0:0:
182,192,77058,1,0,0:0:0:0:
402,192,77058,1,0,0:0:0:0:
475,192,77058,1,0,0:0:0:0:
182,192,77184,1,0,0:0:0:0:
36,192,77184,1,0,0:0:0:0:
329,192,77184,1,0,0:0:0:0:
402,192,77184,1,0,0:0:0:0:
256,192,77310,1,0,0:0:0:0:
109,192,77310,1,0,0:0:0:0:
329,192,77310,1,0,0:0:0:0:
182,192,77437,1,0,0:0:0:0:
36,192,77437,1,0,0:0:0:0:
402,192,77437,1,0,0:0:0:0:
475,192,77437,1,0,0:0:0:0:
109,192,77563,1,0,0:0:0:0:
256,192,77563,1,0,0:0:0:0:
402,192,77563,1,0,0:0:0:0:
182,192,77689,1,0,0:0:0:0:
36,192,77689,1,0,0:0:0:0:
329,192,77689,1,0,0:0:0:0:
475,192,77689,1,0,0:0:0:0:
109,192,77816,1,0,0:0:0:0:
256,192,77816,1,0,0:0:0:0:
402,192,77816,1,0,0:0:0:0:
329,192,77942,1,0,0:0:0:0:
475,192,77942,1,0,0:0:0:0:
182,192,77942,1,0,0:0:0:0:
36,192,77942,1,0,0:0:0:0:
182,192,78068,1,0,0:0:0:0:
329,192,78068,1,0,0:0:0:0:
475,192,78068,1,0,0:0:0:0:
256,192,78195,1,0,0:0:0:0:
402,192,78195,1,0,0:0:0:0:
109,192,78195,1,0,0:0:0:0:
36,192,78195,1,0,0:0:0:0:
36,192,78321,1,0,0:0:0:0:
256,192,78321,1,0,0:0:0:0:
402,192,78321,1,0,0:0:0:0:
182,192,78447,1,0,0:0:0:0:
329,192,78447,1,0,0:0:0:0:
475,192,78447,1,0,0:0:0:0:
109,192,78447,1,0,0:0:0:0:
182,192,78574,1,0,0:0:0:0:
109,192,78574,1,0,0:0:0:0:
329,192,78574,1,0,0:0:0:0:
475,192,78574,1,0,0:0:0:0:
402,192,78700,1,0,0:0:0:0:
475,192,78700,1,0,0:0:0:0:
256,192,78700,1,0,0:0:0:0:
36,192,78700,1,0,0:0:0:0:
256,192,78826,1,0,0:0:0:0:
36,192,78826,1,0,0:0:0:0:
475,192,78826,1,0,0:0:0:0:
402,192,78826,1,0,0:0:0:0:
36,192,78952,1,0,0:0:0:0:
109,192,78952,1,0,0:0:0:0:
182,192,78952,1,0,0:0:0:0:
329,192,78952,1,0,0:0:0:0:
475,192,78952,1,0,0:0:0:0:
475,192,79079,128,0,79205:0:0:0:0:
109,192,79079,1,0,0:0:0:0:
256,192,79079,1,0,0:0:0:0:
402,192,79079,128,0,79205:0:0:0:0:
329,192,79205,1,0,0:0:0:0:
182,192,79205,1,0,0:0:0:0:
36,192,79205,1,0,0:0:0:0:
475,192,79331,128,0,79458:0:0:0:0:
402,192,79331,128,0,79458:0:0:0:0:
36,192,79331,1,0,0:0:0:0:
256,192,79331,1,0,0:0:0:0:
329,192,79458,1,0,0:0:0:0:
109,192,79458,1,0,0:0:0:0:
182,192,79458,1,0,0:0:0:0:
475,192,79584,128,0,79710:0:0:0:0:
109,192,79584,1,0,0:0:0:0:
182,192,79584,1,0,0:0:0:0:
402,192,79584,128,0,79710:0:0:0:0:
329,192,79710,1,0,0:0:0:0:
36,192,79710,1,0,0:0:0:0:
256,192,79710,1,0,0:0:0:0:
475,192,79837,128,0,79963:0:0:0:0:
402,192,79837,128,0,79963:0:0:0:0:
36,192,79837,1,0,0:0:0:0:
182,192,79837,1,0,0:0:0:0:
109,192,79900,1,0,0:0:0:0:
256,192,79900,1,0,0:0:0:0:
329,192,79963,1,0,0:0:0:0:
182,192,79963,1,0,0:0:0:0:
36,192,79963,1,0,0:0:0:0:
109,192,80089,1,0,0:0:0:0:
256,192,80089,1,0,0:0:0:0:
402,192,80089,1,0,0:0:0:0:
329,192,80216,1,0,0:0:0:0:
475,192,80216,1,0,0:0:0:0:
182,192,80216,1,0,0:0:0:0:
36,192,80216,1,0,0:0:0:0:
182,192,80342,1,0,0:0:0:0:
329,192,80342,1,0,0:0:0:0:
475,192,80342,1,0,0:0:0:0:
109,192,80468,1,0,0:0:0:0:
36,192,80468,1,0,0:0:0:0:
402,192,80468,1,0,0:0:0:0:
256,192,80468,1,0,0:0:0:0:
182,192,80531,1,0,0:0:0:0:
329,192,80531,1,0,0:0:0:0:
475,192,80595,1,0,0:0:0:0:
36,192,80595,1,0,0:0:0:0:
402,192,80595,1,0,0:0:0:0:
256,192,80658,1,0,0:0:0:0:
109,192,80658,1,0,0:0:0:0:
182,192,80721,1,0,0:0:0:0:
329,192,80721,1,0,0:0:0:0:
402,192,80721,1,0,0:0:0:0:
475,192,80721,1,0,0:0:0:0:
182,192,80847,1,0,0:0:0:0:
109,192,80847,1,0,0:0:0:0:
36,192,80847,1,0,0:0:0:0:
329,192,80847,1,0,0:0:0:0:
109,192,80974,1,0,0:0:0:0:
36,192,80974,1,0,0:0:0:0:
256,192,80974,1,0,0:0:0:0:
402,192,80974,1,0,0:0:0:0:
475,192,80974,1,0,0:0:0:0:
329,192,81100,128,0,81226:0:0:0:0:
475,192,81100,128,0,81226:0:0:0:0:
182,192,81100,1,0,0:0:0:0:
36,192,81100,1,0,0:0:0:0:
402,192,81226,1,0,0:0:0:0:
109,192,81226,1,0,0:0:0:0:
256,192,81226,1,0,0:0:0:0:
329,192,81352,128,0,81479:0:0:0:0:
475,192,81352,128,0,81479:0:0:0:0:
36,192,81352,1,0,0:0:0:0:
109,192,81352,1,0,0:0:0:0:
402,192,81479,1,0,0:0:0:0:
36,192,81479,1,0,0:0:0:0:
182,192,81479,1,0,0:0:0:0:
329,192,81605,128,0,81731:0:0:0:0:
475,192,81605,128,0,81731:0:0:0:0:
109,192,81605,1,0,0:0:0:0:
256,192,81605,1,0,0:0:0:0:
402,192,81731,1,0,0:0:0:0:
256,192,81731,1,0,0:0:0:0:
36,192,81731,1,0,0:0:0:0:
329,192,81858,128,0,81984:0:0:0:0:
475,192,81858,128,0,81984:0:0:0:0:
109,192,81858,1,0,0:0:0:0:
182,192,81858,1,0,0:0:0:0:
402,192,81984,1,0,0:0:0:0:
36,192,81984,1,0,0:0:0:0:
256,192,81984,1,0,0:0:0:0:
329,192,82110,128,0,82237:0:0:0:0:
475,192,82110,128,0,82237:0:0:0:0:
36,192,82110,1,0,0:0:0:0:
109,192,82110,1,0,0:0:0:0:
402,192,82237,1,0,0:0:0:0:
182,192,82237,1,0,0:0:0:0:
256,192,82237,1,0,0:0:0:0:
109,192,82363,1,0,0:0:0:0:
36,192,82363,1,0,0:0:0:0:
182,192,82395,1,0,0:0:0:0:
256,192,82426,1,0,0:0:0:0:
329,192,82458,1,0,0:0:0:0:
402,192,82489,1,0,0:0:0:0:
475,192,82489,1,0,0:0:0:0:
109,192,82489,1,0,0:0:0:0:
36,192,82489,1,0,0:0:0:0:
182,192,82616,1,0,0:0:0:0:
329,192,82616,1,0,0:0:0:0:
475,192,82616,1,0,0:0:0:0:
256,192,82742,1,0,0:0:0:0:
109,192,82742,1,0,0:0:0:0:
36,192,82742,1,0,0:0:0:0:
402,192,82742,1,0,0:0:0:0:
329,192,82868,1,0,0:0:0:0:
475,192,82868,1,0,0:0:0:0:
256,192,82900,1,0,0:0:0:0:
182,192,82931,1,0,0:0:0:0:
109,192,82963,1,0,0:0:0:0:
36,192,82995,1,0,0:0:0:0:
329,192,82995,1,0,0:0:0:0:
402,192,82995,1,0,0:0:0:0:
475,192,82995,1,0,0:0:0:0:
109,192,83121,128,0,83247:0:0:0:0:
182,192,83121,128,0,83247:0:0:0:0:
256,192,83121,1,0,0:0:0:0:
402,192,83121,1,0,0:0:0:0:
36,192,83247,1,0,0:0:0:0:
329,192,83247,1,0,0:0:0:0:
475,192,83247,1,0,0:0:0:0:
109,192,83374,128,0,83500:0:0:0:0:
182,192,83374,128,0,83500:0:0:0:0:
329,192,83374,1,0,0:0:0:0:
475,192,83374,1,0,0:0:0:0:
36,192,83500,1,0,0:0:0:0:
256,192,83500,1,0,0:0:0:0:
402,192,83500,1,0,0:0:0:0:
475,192,83500,1,0,0:0:0:0:
256,192,83626,1,0,0:0:0:0:
329,192,83626,1,0,0:0:0:0:
109,192,83626,128,0,83752:0:0:0:0:
182,192,83626,128,0,83752:0:0:0:0:
329,192,83752,1,0,0:0:0:0:
402,192,83752,1,0,0:0:0:0:
36,192,83752,1,0,0:0:0:0:
402,192,83879,1,0,0:0:0:0:
475,192,83879,1,0,0:0:0:0:
109,192,83879,128,0,84005:0:0:0:0:
182,192,83879,128,0,84005:0:0:0:0:
329,192,83942,1,0,0:0:0:0:
256,192,83942,1,0,0:0:0:0:
475,192,84005,1,0,0:0:0:0:
402,192,84005,1,0,0:0:0:0:
36,192,84005,1,0,0:0:0:0:
109,192,84131,1,0,0:0:0:0:
256,192,84131,1,0,0:0:0:0:
329,192,84131,1,0,0:0:0:0:
182,192,84258,1,0,0:0:0:0:
36,192,84258,1,0,0:0:0:0:
402,192,84258,1,0,0:0:0:0:
475,192,84258,1,0,0:0:0:0:
182,192,84384,1,0,0:0:0:0:
402,192,84384,1,0,0:0:0:0:
36,192,84384,1,0,0:0:0:0:
329,192,84510,1,0,0:0:0:0:
256,192,84510,1,0,0:0:0:0:
109,192,84510,1,0,0:0:0:0:
182,192,84574,1,0,0:0:0:0:
402,192,84574,1,0,0:0:0:0:
475,192,84574,1,0,0:0:0:0:
109,192,84637,1,0,0:0:0:0:
36,192,84637,1,0,0:0:0:0:
329,192,84637,1,0,0:0:0:0:
182,192,84700,1,0,0:0:0:0:
402,192,84700,1,0,0:0:0:0:
475,192,84700,1,0,0:0:0:0:
256,192,84763,1,0,0:0:0:0:
329,192,84763,1,0,0:0:0:0:
109,192,84763,1,0,0:0:0:0:
36,192,84763,1,0,0:0:0:0:
109,192,84889,1,0,0:0:0:0:
36,192,84889,1,0,0:0:0:0:
402,192,84889,1,0,0:0:0:0:
475,192,84889,1,0,0:0:0:0:
182,192,85016,1,0,0:0:0:0:
256,192,85016,1,0,0:0:0:0:
402,192,85016,1,0,0:0:0:0:
475,192,85016,1,0,0:0:0:0:
36,192,85142,128,0,85268:0:0:0:0:
109,192,85142,128,0,85268:0:0:0:0:
256,192,85142,1,0,0:0:0:0:
329,192,85142,1,0,0:0:0:0:
182,192,85268,1,0,0:0:0:0:
329,192,85268,1,0,0:0:0:0:
475,192,85268,1,0,0:0:0:0:
36,192,85395,128,0,85521:0:0:0:0:
109,192,85395,128,0,85521:0:0:0:0:
256,192,85395,1,0,0:0:0:0:
402,192,85395,1,0,0:0:0:0:
182,192,85521,1,0,0:0:0:0:
329,192,85521,1,0,0:0:0:0:
475,192,85521,1,0,0:0:0:0:
36,192,85647,128,0,85774:0:0:0:0:
109,192,85647,128,0,85774:0:0:0:0:
329,192,85647,1,0,0:0:0:0:
475,192,85647,1,0,0:0:0:0:
182,192,85774,1,0,0:0:0:0:
256,192,85774,1,0,0:0:0:0:
402,192,85774,1,0,0:0:0:0:
36,192,85900,128,0,86026:0:0:0:0:
109,192,85900,128,0,86026:0:0:0:0:
329,192,85900,1,0,0:0:0:0:
475,192,85900,1,0,0:0:0:0:
182,192,86026,1,0,0:0:0:0:
256,192,86026,1,0,0:0:0:0:
402,192,86026,1,0,0:0:0:0:
329,192,86089,1,0,0:0:0:0:
475,192,86089,1,0,0:0:0:0:
402,192,86152,1,0,0:0:0:0:
256,192,86152,1,0,0:0:0:0:
36,192,86152,128,0,86279:0:0:0:0:
109,192,86152,128,0,86279:0:0:0:0:
182,192,86279,1,0,0:0:0:0:
329,192,86279,1,0,0:0:0:0:
475,192,86279,1,0,0:0:0:0:
182,192,86405,1,0,0:0:0:0:
329,192,86405,1,0,0:0:0:0:
475,192,86405,1,0,0:0:0:0:
256,192,86531,1,0,0:0:0:0:
402,192,86531,1,0,0:0:0:0:
475,192,86531,1,0,0:0:0:0:
109,192,86531,1,0,0:0:0:0:
36,192,86531,1,0,0:0:0:0:
36,192,86658,1,0,0:0:0:0:
109,192,86658,1,0,0:0:0:0:
256,192,86658,1,0,0:0:0:0:
475,192,86658,1,0,0:0:0:0:
402,192,86658,1,0,0:0:0:0:
109,192,86784,1,0,0:0:0:0:
182,192,86784,1,0,0:0:0:0:
256,192,86784,1,0,0:0:0:0:
329,192,86784,1,0,0:0:0:0:
402,192,86784,1,0,0:0:0:0:
109,192,86910,1,0,0:0:0:0:
182,192,86910,1,0,0:0:0:0:
256,192,86910,1,0,0:0:0:0:
329,192,86910,1,0,0:0:0:0:
402,192,86910,1,0,0:0:0:0:
109,192,87037,1,0,0:0:0:0:
182,192,87037,1,0,0:0:0:0:
329,192,87037,1,0,0:0:0:0:
402,192,87037,1,0,0:0:0:0:
36,192,87037,128,0,88047:0:0:0:0:
475,192,87037,128,0,88047:0:0:0:0:
109,192,87542,1,0,0:0:0:0:
182,192,87574,1,0,0:0:0:0:
402,192,87605,1,0,0:0:0:0:
329,192,87637,1,0,0:0:0:0:
109,192,87668,1,0,0:0:0:0:
182,192,87700,1,0,0:0:0:0:
402,192,87731,1,0,0:0:0:0:
329,192,87763,1,0,0:0:0:0:
109,192,87795,1,0,0:0:0:0:
182,192,87826,1,0,0:0:0:0:
402,192,87858,1,0,0:0:0:0:
329,192,87889,1,0,0:0:0:0:
109,192,87921,1,0,0:0:0:0:
182,192,87952,1,0,0:0:0:0:
402,192,87984,1,0,0:0:0:0:
329,192,88016,1,0,0:0:0:0:
182,192,88047,1,0,0:0:0:0:
109,192,88047,1,0,0:0:0:0:
256,192,88047,128,0,88300:0:0:0:0:
256,192,88426,128,0,88679:0:0:0:0:
109,192,88426,1,0,0:0:0:0:
182,192,88426,1,0,0:0:0:0:
329,192,88426,1,0,0:0:0:0:
402,192,88426,1,0,0:0:0:0:
256,192,88805,128,0,89058:0:0:0:0:
36,192,88805,1,0,0:0:0:0:
109,192,88805,1,0,0:0:0:0:
402,192,88805,1,0,0:0:0:0:
475,192,88805,1,0,0:0:0:0:
256,192,89310,128,0,90574:0:0:0:0:
182,192,89310,1,0,0:0:0:0:
109,192,89310,1,0,0:0:0:0:
36,192,89310,1,0,0:0:0:0:
329,192,89374,1,0,0:0:0:0:
402,192,89374,1,0,0:0:0:0:
475,192,89374,1,0,0:0:0:0:
182,192,89437,1,0,0:0:0:0:
109,192,89437,1,0,0:0:0:0:
36,192,89437,1,0,0:0:0:0:
329,192,89500,1,0,0:0:0:0:
475,192,89500,1,0,0:0:0:0:
402,192,89500,1,0,0:0:0:0:
182,192,89563,1,0,0:0:0:0:
109,192,89563,1,0,0:0:0:0:
36,192,89563,1,0,0:0:0:0:
329,192,89626,1,0,0:0:0:0:
402,192,89626,1,0,0:0:0:0:
475,192,89626,1,0,0:0:0:0:
109,192,89689,1,0,0:0:0:0:
36,192,89689,1,0,0:0:0:0:
182,192,89689,1,0,0:0:0:0:
402,192,89752,1,0,0:0:0:0:
475,192,89752,1,0,0:0:0:0:
329,192,89752,1,0,0:0:0:0:
36,192,89816,1,0,0:0:0:0:
109,192,89816,1,0,0:0:0:0:
182,192,89816,1,0,0:0:0:0:
475,192,89879,1,0,0:0:0:0:
402,192,89879,1,0,0:0:0:0:
329,192,89879,1,0,0:0:0:0:
182,192,89942,1,0,0:0:0:0:
36,192,89942,1,0,0:0:0:0:
109,192,89942,1,0,0:0:0:0:
329,192,90005,1,0,0:0:0:0:
475,192,90005,1,0,0:0:0:0:
402,192,90005,1,0,0:0:0:0:
182,192,90068,1,0,0:0:0:0:
109,192,90068,1,0,0:0:0:0:
36,192,90068,1,0,0:0:0:0:
329,192,90131,1,0,0:0:0:0:
402,192,90131,1,0,0:0:0:0:
475,192,90131,1,0,0:0:0:0:
109,192,90195,1,0,0:0:0:0:
36,192,90195,1,0,0:0:0:0:
182,192,90195,1,0,0:0:0:0:
402,192,90258,1,0,0:0:0:0:
475,192,90258,1,0,0:0:0:0:
329,192,90258,1,0,0:0:0:0:
36,192,90321,1,0,0:0:0:0:
109,192,90321,1,0,0:0:0:0:
182,192,90321,1,0,0:0:0:0:
475,192,90384,1,0,0:0:0:0:
402,192,90384,1,0,0:0:0:0:
329,192,90384,1,0,0:0:0:0:
182,192,90447,1,0,0:0:0:0:
36,192,90447,1,0,0:0:0:0:
109,192,90447,1,0,0:0:0:0:
329,192,90510,1,0,0:0:0:0:
475,192,90510,1,0,0:0:0:0:
402,192,90510,1,0,0:0:0:0:
36,192,90574,1,0,0:0:0:0:
109,192,90574,1,0,0:0:0:0:
182,192,90574,1,0,0:0:0:0:
329,192,90637,1,0,0:0:0:0:
475,192,90637,1,0,0:0:0:0:
402,192,90637,1,0,0:0:0:0:
36,192,90700,1,0,0:0:0:0:
109,192,90731,1,0,0:0:0:0:
182,192,90763,1,0,0:0:0:0:
256,192,90795,1,0,0:0:0:0:
402,192,90826,1,0,0:0:0:0:
475,192,90826,1,0,0:0:0:0:
329,192,90826,1,0,0:0:0:0:
182,192,90889,1,0,0:0:0:0:
109,192,90889,1,0,0:0:0:0:
36,192,90889,1,0,0:0:0:0:
475,192,90952,1,0,0:0:0:0:
402,192,90984,1,0,0:0:0:0:
329,192,91016,1,0,0:0:0:0:
256,192,91047,1,0,0:0:0:0:
182,192,91079,1,0,0:0:0:0:
36,192,91079,1,0,0:0:0:0:
109,192,91205,1,0,0:0:0:0:
256,192,91205,1,0,0:0:0:0:
182,192,91331,1,0,0:0:0:0:
329,192,91331,1,0,0:0:0:0:
402,192,91331,1,0,0:0:0:0:
475,192,91331,1,0,0:0:0:0:
36,192,91331,1,0,0:0:0:0:
109,192,91458,1,0,0:0:0:0:
256,192,91458,1,0,0:0:0:0:
475,192,91458,1,0,0:0:0:0:
182,192,91584,1,0,0:0:0:0:
329,192,91584,1,0,0:0:0:0:
402,192,91584,1,0,0:0:0:0:
36,192,91584,1,0,0:0:0:0:
109,192,91710,1,0,0:0:0:0:
256,192,91710,1,0,0:0:0:0:
475,192,91710,1,0,0:0:0:0:
402,192,91837,1,0,0:0:0:0:
475,192,91837,1,0,0:0:0:0:
36,192,91837,1,0,0:0:0:0:
182,192,91837,1,0,0:0:0:0:
256,192,91963,1,0,0:0:0:0:
329,192,91963,1,0,0:0:0:0:
109,192,91963,1,0,0:0:0:0:
182,192,92089,1,0,0:0:0:0:
36,192,92089,1,0,0:0:0:0:
256,192,92089,1,0,0:0:0:0:
475,192,92089,1,0,0:0:0:0:
329,192,92216,1,0,0:0:0:0:
402,192,92216,1,0,0:0:0:0:
182,192,92216,1,0,0:0:0:0:
256,192,92342,1,0,0:0:0:0:
109,192,92342,1,0,0:0:0:0:
36,192,92342,1,0,0:0:0:0:
475,192,92342,1,0,0:0:0:0:
182,192,92468,1,0,0:0:0:0:
402,192,92468,1,0,0:0:0:0:
329,192,92468,1,0,0:0:0:0:
109,192,92531,1,0,0:0:0:0:
256,192,92531,1,0,0:0:0:0:
182,192,92595,1,0,0:0:0:0:
36,192,92595,1,0,0:0:0:0:
402,192,92595,1,0,0:0:0:0:
475,192,92595,1,0,0:0:0:0:
329,192,92658,1,0,0:0:0:0:
256,192,92658,1,0,0:0:0:0:
402,192,92721,1,0,0:0:0:0:
475,192,92721,1,0,0:0:0:0:
109,192,92721,1,0,0:0:0:0:
182,192,92784,1,0,0:0:0:0:
256,192,92784,1,0,0:0:0:0:
109,192,92847,1,0,0:0:0:0:
36,192,92847,1,0,0:0:0:0:
329,192,92847,1,0,0:0:0:0:
475,192,92847,1,0,0:0:0:0:
182,192,92974,1,0,0:0:0:0:
256,192,92974,1,0,0:0:0:0:
402,192,92974,1,0,0:0:0:0:
329,192,93100,1,0,0:0:0:0:
182,192,93100,1,0,0:0:0:0:
109,192,93100,1,0,0:0:0:0:
36,192,93100,1,0,0:0:0:0:
475,192,93100,1,0,0:0:0:0:
402,192,93226,1,0,0:0:0:0:
256,192,93226,1,0,0:0:0:0:
36,192,93226,1,0,0:0:0:0:
329,192,93352,1,0,0:0:0:0:
182,192,93352,1,0,0:0:0:0:
109,192,93352,1,0,0:0:0:0:
475,192,93352,1,0,0:0:0:0:
402,192,93479,1,0,0:0:0:0:
256,192,93479,1,0,0:0:0:0:
36,192,93479,1,0,0:0:0:0:
109,192,93605,1,0,0:0:0:0:
36,192,93605,1,0,0:0:0:0:
475,192,93605,1,0,0:0:0:0:
329,192,93605,1,0,0:0:0:0:
256,192,93731,1,0,0:0:0:0:
182,192,93731,1,0,0:0:0:0:
402,192,93731,1,0,0:0:0:0:
329,192,93858,1,0,0:0:0:0:
475,192,93858,1,0,0:0:0:0:
256,192,93858,1,0,0:0:0:0:
36,192,93858,1,0,0:0:0:0:
182,192,93984,1,0,0:0:0:0:
109,192,93984,1,0,0:0:0:0:
329,192,93984,1,0,0:0:0:0:
256,192,94110,1,0,0:0:0:0:
402,192,94110,1,0,0:0:0:0:
475,192,94110,1,0,0:0:0:0:
36,192,94110,1,0,0:0:0:0:
329,192,94237,1,0,0:0:0:0:
109,192,94237,1,0,0:0:0:0:
182,192,94237,1,0,0:0:0:0:
329,192,94363,1,0,0:0:0:0:
475,192,94363,1,0,0:0:0:0:
109,192,94363,1,0,0:0:0:0:
36,192,94363,1,0,0:0:0:0:
109,192,94489,1,0,0:0:0:0:
256,192,94489,1,0,0:0:0:0:
402,192,94489,1,0,0:0:0:0:
402,192,94616,1,0,0:0:0:0:
475,192,94616,1,0,0:0:0:0:
182,192,94616,1,0,0:0:0:0:
36,192,94616,1,0,0:0:0:0:
36,192,94742,1,0,0:0:0:0:
182,192,94742,1,0,0:0:0:0:
402,192,94742,1,0,0:0:0:0:
475,192,94742,1,0,0:0:0:0:
109,192,94868,1,0,0:0:0:0:
256,192,94868,1,0,0:0:0:0:
329,192,94868,1,0,0:0:0:0:
475,192,94868,1,0,0:0:0:0:
475,192,94995,1,0,0:0:0:0:
329,192,94995,1,0,0:0:0:0:
256,192,94995,1,0,0:0:0:0:
109,192,94995,1,0,0:0:0:0:
182,192,95121,1,0,0:0:0:0:
36,192,95121,1,0,0:0:0:0:
329,192,95121,1,0,0:0:0:0:
402,192,95121,1,0,0:0:0:0:
475,192,95121,1,0,0:0:0:0:
109,192,95247,1,0,0:0:0:0:
256,192,95247,1,0,0:0:0:0:
402,192,95247,1,0,0:0:0:0:
36,192,95247,1,0,0:0:0:0:
182,192,95374,1,0,0:0:0:0:
329,192,95374,1,0,0:0:0:0:
475,192,95374,1,0,0:0:0:0:
109,192,95374,1,0,0:0:0:0:
109,192,95500,1,0,0:0:0:0:
182,192,95500,1,0,0:0:0:0:
329,192,95500,1,0,0:0:0:0:
475,192,95500,1,0,0:0:0:0:
256,192,95626,1,0,0:0:0:0:
402,192,95626,1,0,0:0:0:0:
475,192,95626,1,0,0:0:0:0:
109,192,95626,1,0,0:0:0:0:
36,192,95626,1,0,0:0:0:0:
36,192,95752,1,0,0:0:0:0:
256,192,95752,1,0,0:0:0:0:
402,192,95752,1,0,0:0:0:0:
475,192,95752,1,0,0:0:0:0:
109,192,95879,1,0,0:0:0:0:
182,192,95879,1,0,0:0:0:0:
329,192,95879,1,0,0:0:0:0:
402,192,95879,1,0,0:0:0:0:
402,192,96005,1,0,0:0:0:0:
329,192,96005,1,0,0:0:0:0:
109,192,96005,1,0,0:0:0:0:
182,192,96005,1,0,0:0:0:0:
256,192,96131,1,0,0:0:0:0:
329,192,96131,1,0,0:0:0:0:
109,192,96131,1,0,0:0:0:0:
36,192,96131,1,0,0:0:0:0:
36,192,96258,1,0,0:0:0:0:
109,192,96258,1,0,0:0:0:0:
256,192,96258,1,0,0:0:0:0:
329,192,96258,1,0,0:0:0:0:
182,192,96384,1,0,0:0:0:0:
475,192,96384,1,0,0:0:0:0:
402,192,96384,1,0,0:0:0:0:
109,192,96384,1,0,0:0:0:0:
329,192,96384,1,0,0:0:0:0:
182,192,96510,1,0,0:0:0:0:
109,192,96510,1,0,0:0:0:0:
402,192,96510,1,0,0:0:0:0:
475,192,96510,1,0,0:0:0:0:
36,192,96637,1,0,0:0:0:0:
475,192,96637,1,0,0:0:0:0:
256,192,96637,1,0,0:0:0:0:
182,192,96700,1,0,0:0:0:0:
329,192,96700,1,0,0:0:0:0:
36,192,96763,1,0,0:0:0:0:
475,192,96763,1,0,0:0:0:0:
402,192,96763,1,0,0:0:0:0:
109,192,96763,1,0,0:0:0:0:
182,192,96826,1,0,0:0:0:0:
329,192,96826,1,0,0:0:0:0:
36,192,96889,1,0,0:0:0:0:
475,192,96889,1,0,0:0:0:0:
109,192,96889,1,0,0:0:0:0:
402,192,96889,1,0,0:0:0:0:
182,192,96952,1,0,0:0:0:0:
256,192,96952,1,0,0:0:0:0:
329,192,96952,1,0,0:0:0:0:
109,192,97016,1,0,0:0:0:0:
36,192,97016,1,0,0:0:0:0:
402,192,97016,1,0,0:0:0:0:
475,192,97016,1,0,0:0:0:0:
109,192,97142,1,0,0:0:0:0:
36,192,97142,1,0,0:0:0:0:
256,192,97142,1,0,0:0:0:0:
182,192,97142,1,0,0:0:0:0:
256,192,97268,1,0,0:0:0:0:
182,192,97268,1,0,0:0:0:0:
36,192,97268,1,0,0:0:0:0:
109,192,97268,1,0,0:0:0:0:
256,192,97395,1,0,0:0:0:0:
329,192,97395,1,0,0:0:0:0:
402,192,97395,1,0,0:0:0:0:
475,192,97395,1,0,0:0:0:0:
256,192,97521,1,0,0:0:0:0:
329,192,97521,1,0,0:0:0:0:
402,192,97521,1,0,0:0:0:0:
475,192,97521,1,0,0:0:0:0:
182,192,97647,1,0,0:0:0:0:
109,192,97647,1,0,0:0:0:0:
36,192,97647,1,0,0:0:0:0:
329,192,97647,1,0,0:0:0:0:
475,192,97647,1,0,0:0:0:0:
182,192,97774,1,0,0:0:0:0:
329,192,97774,1,0,0:0:0:0:
109,192,97774,1,0,0:0:0:0:
36,192,97774,1,0,0:0:0:0:
182,192,97900,1,0,0:0:0:0:
329,192,97900,1,0,0:0:0:0:
402,192,97900,1,0,0:0:0:0:
475,192,97900,1,0,0:0:0:0:
329,192,98026,1,0,0:0:0:0:
402,192,98026,1,0,0:0:0:0:
475,192,98026,1,0,0:0:0:0:
182,192,98026,1,0,0:0:0:0:
256,192,98152,1,0,0:0:0:0:
402,192,98152,1,0,0:0:0:0:
109,192,98152,1,0,0:0:0:0:
36,192,98152,1,0,0:0:0:0:
36,192,98279,1,0,0:0:0:0:
109,192,98279,1,0,0:0:0:0:
256,192,98279,1,0,0:0:0:0:
402,192,98279,1,0,0:0:0:0:
329,192,98405,1,0,0:0:0:0:
475,192,98405,1,0,0:0:0:0:
182,192,98405,1,0,0:0:0:0:
109,192,98405,1,0,0:0:0:0:
109,192,98531,1,0,0:0:0:0:
182,192,98531,1,0,0:0:0:0:
329,192,98531,1,0,0:0:0:0:
475,192,98531,1,0,0:0:0:0:
36,192,98531,1,0,0:0:0:0:
256,192,98658,1,0,0:0:0:0:
36,192,98658,1,0,0:0:0:0:
402,192,98658,1,0,0:0:0:0:
475,192,98658,1,0,0:0:0:0:
109,192,98784,1,0,0:0:0:0:
182,192,98816,1,0,0:0:0:0:
329,192,98847,1,0,0:0:0:0:
402,192,98879,1,0,0:0:0:0:
256,192,98910,1,0,0:0:0:0:
109,192,98910,1,0,0:0:0:0:
36,192,98910,1,0,0:0:0:0:
475,192,98910,1,0,0:0:0:0:
402,192,99037,1,0,0:0:0:0:
329,192,99068,1,0,0:0:0:0:
182,192,99100,1,0,0:0:0:0:
109,192,99131,1,0,0:0:0:0:
256,192,99163,1,0,0:0:0:0:
36,192,99163,1,0,0:0:0:0:
475,192,99163,1,0,0:0:0:0:
402,192,99163,1,0,0:0:0:0:
182,192,99226,1,0,0:0:0:0:
329,192,99226,1,0,0:0:0:0:
109,192,99289,1,0,0:0:0:0:
36,192,99289,1,0,0:0:0:0:
402,192,99289,1,0,0:0:0:0:
256,192,99352,1,0,0:0:0:0:
475,192,99352,1,0,0:0:0:0:
182,192,99352,1,0,0:0:0:0:
109,192,99416,1,0,0:0:0:0:
36,192,99416,1,0,0:0:0:0:
329,192,99416,1,0,0:0:0:0:
256,192,99479,1,0,0:0:0:0:
402,192,99479,1,0,0:0:0:0:
182,192,99542,1,0,0:0:0:0:
109,192,99542,1,0,0:0:0:0:
475,192,99542,1,0,0:0:0:0:
36,192,99605,1,0,0:0:0:0:
329,192,99605,1,0,0:0:0:0:
402,192,99605,1,0,0:0:0:0:
109,192,99668,1,0,0:0:0:0:
182,192,99668,1,0,0:0:0:0:
475,192,99668,1,0,0:0:0:0:
256,192,99731,1,0,0:0:0:0:
329,192,99731,1,0,0:0:0:0:
402,192,99795,1,0,0:0:0:0:
475,192,99795,1,0,0:0:0:0:
182,192,99795,1,0,0:0:0:0:
109,192,99858,1,0,0:0:0:0:
36,192,99858,1,0,0:0:0:0:
329,192,99858,1,0,0:0:0:0:
182,192,99921,1,0,0:0:0:0:
402,192,99921,1,0,0:0:0:0:
475,192,99921,1,0,0:0:0:0:
256,192,99984,1,0,0:0:0:0:
329,192,99984,1,0,0:0:0:0:
36,192,100047,1,0,0:0:0:0:
109,192,100047,1,0,0:0:0:0:
475,192,100047,1,0,0:0:0:0:
182,192,100110,1,0,0:0:0:0:
329,192,100110,1,0,0:0:0:0:
402,192,100110,1,0,0:0:0:0:
475,192,100174,1,0,0:0:0:0:
109,192,100174,1,0,0:0:0:0:
36,192,100174,1,0,0:0:0:0:
256,192,100237,1,0,0:0:0:0:
329,192,100237,1,0,0:0:0:0:
182,192,100300,1,0,0:0:0:0:
109,192,100300,1,0,0:0:0:0:
36,192,100300,1,0,0:0:0:0:
329,192,100363,1,0,0:0:0:0:
402,192,100363,1,0,0:0:0:0:
475,192,100363,1,0,0:0:0:0:
182,192,100426,1,0,0:0:0:0:
109,192,100426,1,0,0:0:0:0:
36,192,100426,1,0,0:0:0:0:
256,192,100489,1,0,0:0:0:0:
402,192,100489,1,0,0:0:0:0:
109,192,100552,1,0,0:0:0:0:
182,192,100552,1,0,0:0:0:0:
329,192,100552,1,0,0:0:0:0:
402,192,100616,1,0,0:0:0:0:
475,192,100616,1,0,0:0:0:0:
36,192,100616,1,0,0:0:0:0:
109,192,100679,1,0,0:0:0:0:
182,192,100679,1,0,0:0:0:0:
329,192,100679,1,0,0:0:0:0:
256,192,100742,1,0,0:0:0:0:
402,192,100742,1,0,0:0:0:0:
109,192,100805,1,0,0:0:0:0:
475,192,100805,1,0,0:0:0:0:
36,192,100805,1,0,0:0:0:0:
182,192,100868,1,0,0:0:0:0:
256,192,100868,1,0,0:0:0:0:
402,192,100868,1,0,0:0:0:0:
329,192,100931,1,0,0:0:0:0:
109,192,100931,1,0,0:0:0:0:
36,192,100931,1,0,0:0:0:0:
182,192,100995,1,0,0:0:0:0:
256,192,100995,1,0,0:0:0:0:
475,192,100995,1,0,0:0:0:0:
109,192,101058,1,0,0:0:0:0:
402,192,101058,1,0,0:0:0:0:
329,192,101058,1,0,0:0:0:0:
256,192,101121,1,0,0:0:0:0:
182,192,101121,1,0,0:0:0:0:
36,192,101121,1,0,0:0:0:0:
109,192,101184,1,0,0:0:0:0:
329,192,101184,1,0,0:0:0:0:
402,192,101184,1,0,0:0:0:0:
475,192,101184,1,0,0:0:0:0:
182,192,101310,1,0,0:0:0:0:
329,192,101437,1,0,0:0:0:0:
109,192,101563,1,0,0:0:0:0:
182,192,101689,1,0,0:0:0:0:
329,192,101816,1,0,0:0:0:0:
109,192,101942,1,0,0:0:0:0:
256,192,102068,1,0,0:0:0:0:
109,192,102195,1,0,0:0:0:0:
182,192,102321,1,0,0:0:0:0:
329,192,102447,1,0,0:0:0:0:
36,192,102574,1,0,0:0:0:0:
182,192,102700,1,0,0:0:0:0:
109,192,102700,1,0,0:0:0:0:
329,192,102763,1,0,0:0:0:0:
402,192,102763,1,0,0:0:0:0:
182,192,102826,1,0,0:0:0:0:
109,192,102826,1,0,0:0:0:0:
329,192,102889,1,0,0:0:0:0:
402,192,102889,1,0,0:0:0:0:
182,192,102952,1,0,0:0:0:0:
109,192,102952,1,0,0:0:0:0:
36,192,102952,1,0,0:0:0:0:
402,192,103016,1,0,0:0:0:0:
329,192,103016,1,0,0:0:0:0:
475,192,103016,1,0,0:0:0:0:
182,192,103079,1,0,0:0:0:0:
109,192,103079,1,0,0:0:0:0:
36,192,103079,1,0,0:0:0:0:
329,192,103142,1,0,0:0:0:0:
402,192,103142,1,0,0:0:0:0:
475,192,103142,1,0,0:0:0:0:
256,192,103205,1,0,0:0:0:0:
182,192,103205,1,0,0:0:0:0:
36,192,103205,1,0,0:0:0:0:
109,192,103205,1,0,0:0:0:0:
402,192,103268,1,0,0:0:0:0:
475,192,103268,1,0,0:0:0:0:
329,192,103331,1,0,0:0:0:0:
182,192,103331,1,0,0:0:0:0:
36,192,103331,1,0,0:0:0:0:
402,192,103395,1,0,0:0:0:0:
256,192,103395,1,0,0:0:0:0:
329,192,103458,1,0,0:0:0:0:
475,192,103458,1,0,0:0:0:0:
109,192,103458,1,0,0:0:0:0:
182,192,103521,1,0,0:0:0:0:
256,192,103521,1,0,0:0:0:0:
36,192,103584,1,0,0:0:0:0:
402,192,103584,1,0,0:0:0:0:
475,192,103584,1,0,0:0:0:0:
109,192,103647,1,0,0:0:0:0:
329,192,103647,1,0,0:0:0:0:
182,192,103710,1,0,0:0:0:0:
256,192,103710,1,0,0:0:0:0:
475,192,103710,1,0,0:0:0:0:
109,192,103774,1,0,0:0:0:0:
329,192,103774,1,0,0:0:0:0:
402,192,103837,1,0,0:0:0:0:
36,192,103837,1,0,0:0:0:0:
475,192,103837,1,0,0:0:0:0:
182,192,103900,1,0,0:0:0:0:
329,192,103900,1,0,0:0:0:0:
256,192,103963,1,0,0:0:0:0:
475,192,103963,1,0,0:0:0:0:
109,192,103963,1,0,0:0:0:0:
182,192,104026,1,0,0:0:0:0:
36,192,104026,1,0,0:0:0:0:
329,192,104089,1,0,0:0:0:0:
402,192,104089,1,0,0:0:0:0:
475,192,104089,1,0,0:0:0:0:
109,192,104152,1,0,0:0:0:0:
256,192,104152,1,0,0:0:0:0:
402,192,104216,1,0,0:0:0:0:
329,192,104216,1,0,0:0:0:0:
36,192,104216,1,0,0:0:0:0:
182,192,104279,1,0,0:0:0:0:
475,192,104279,1,0,0:0:0:0:
256,192,104342,1,0,0:0:0:0:
329,192,104342,1,0,0:0:0:0:
109,192,104342,1,0,0:0:0:0:
182,192,104405,1,0,0:0:0:0:
402,192,104405,1,0,0:0:0:0:
329,192,104468,1,0,0:0:0:0:
475,192,104468,1,0,0:0:0:0:
36,192,104468,1,0,0:0:0:0:
256,192,104531,1,0,0:0:0:0:
109,192,104531,1,0,0:0:0:0:
36,192,104595,1,0,0:0:0:0:
402,192,104595,1,0,0:0:0:0:
182,192,104595,1,0,0:0:0:0:
256,192,104658,1,0,0:0:0:0:
329,192,104658,1,0,0:0:0:0:
109,192,104721,1,0,0:0:0:0:
402,192,104721,1,0,0:0:0:0:
475,192,104721,1,0,0:0:0:0:
36,192,104721,1,0,0:0:0:0:
182,192,104784,1,0,0:0:0:0:
256,192,104784,1,0,0:0:0:0:
329,192,104784,1,0,0:0:0:0:
109,192,104847,1,0,0:0:0:0:
36,192,104847,1,0,0:0:0:0:
402,192,104847,1,0,0:0:0:0:
475,192,104847,1,0,0:0:0:0:
182,192,104910,1,0,0:0:0:0:
256,192,104910,1,0,0:0:0:0:
329,192,104910,1,0,0:0:0:0:
109,192,104974,1,0,0:0:0:0:
36,192,104974,1,0,0:0:0:0:
475,192,104974,1,0,0:0:0:0:
402,192,104974,1,0,0:0:0:0:
109,192,105100,1,0,0:0:0:0:
182,192,105100,1,0,0:0:0:0:
256,192,105100,1,0,0:0:0:0:
402,192,105100,1,0,0:0:0:0:
329,192,105226,1,0,0:0:0:0:
475,192,105226,1,0,0:0:0:0:
36,192,105226,1,0,0:0:0:0:
182,192,105226,1,0,0:0:0:0:
256,192,105289,1,0,0:0:0:0:
109,192,105289,1,0,0:0:0:0:
182,192,105352,1,0,0:0:0:0:
329,192,105352,1,0,0:0:0:0:
402,192,105352,1,0,0:0:0:0:
36,192,105416,1,0,0:0:0:0:
109,192,105416,1,0,0:0:0:0:
256,192,105479,1,0,0:0:0:0:
402,192,105479,1,0,0:0:0:0:
475,192,105479,1,0,0:0:0:0:
182,192,105542,1,0,0:0:0:0:
329,192,105542,1,0,0:0:0:0:
256,192,105605,1,0,0:0:0:0:
109,192,105605,1,0,0:0:0:0:
36,192,105605,1,0,0:0:0:0:
329,192,105668,1,0,0:0:0:0:
402,192,105668,1,0,0:0:0:0:
182,192,105731,1,0,0:0:0:0:
109,192,105731,1,0,0:0:0:0:
36,192,105731,1,0,0:0:0:0:
256,192,105795,1,0,0:0:0:0:
475,192,105795,1,0,0:0:0:0:
329,192,105858,1,0,0:0:0:0:
402,192,105858,1,0,0:0:0:0:
182,192,105858,1,0,0:0:0:0:
109,192,105921,1,0,0:0:0:0:
475,192,105921,1,0,0:0:0:0:
256,192,105984,1,0,0:0:0:0:
329,192,105984,1,0,0:0:0:0:
36,192,105984,1,0,0:0:0:0:
182,192,106047,1,0,0:0:0:0:
402,192,106047,1,0,0:0:0:0:
109,192,106110,1,0,0:0:0:0:
329,192,106110,1,0,0:0:0:0:
475,192,106110,1,0,0:0:0:0:
36,192,106174,1,0,0:0:0:0:
256,192,106174,1,0,0:0:0:0:
182,192,106237,1,0,0:0:0:0:
402,192,106237,1,0,0:0:0:0:
475,192,106237,1,0,0:0:0:0:
109,192,106237,1,0,0:0:0:0:
36,192,106300,1,0,0:0:0:0:
256,192,106300,1,0,0:0:0:0:
329,192,106300,1,0,0:0:0:0:
182,192,106363,1,0,0:0:0:0:
109,192,106363,1,0,0:0:0:0:
402,192,106363,1,0,0:0:0:0:
475,192,106363,1,0,0:0:0:0:
329,192,106426,1,0,0:0:0:0:
256,192,106426,1,0,0:0:0:0:
36,192,106426,1,0,0:0:0:0:
109,192,106489,1,0,0:0:0:0:
182,192,106489,1,0,0:0:0:0:
402,192,106489,1,0,0:0:0:0:
475,192,106489,1,0,0:0:0:0:
256,192,106616,1,0,0:0:0:0:
329,192,106616,1,0,0:0:0:0:
182,192,106616,1,0,0:0:0:0:
256,192,106742,1,0,0:0:0:0:
36,192,106742,1,0,0:0:0:0:
109,192,106774,1,0,0:0:0:0:
182,192,106805,1,0,0:0:0:0:
329,192,106805,1,0,0:0:0:0:
402,192,106837,1,0,0:0:0:0:
475,192,106868,1,0,0:0:0:0:
256,192,106868,1,0,0:0:0:0:
36,192,106868,1,0,0:0:0:0:
109,192,106900,1,0,0:0:0:0:
182,192,106931,1,0,0:0:0:0:
329,192,106931,1,0,0:0:0:0:
402,192,106963,1,0,0:0:0:0:
475,192,106995,1,0,0:0:0:0:
256,192,106995,1,0,0:0:0:0:
36,192,106995,1,0,0:0:0:0:
109,192,106995,1,0,0:0:0:0:
182,192,107121,1,0,0:0:0:0:
329,192,107121,1,0,0:0:0:0:
256,192,107247,1,0,0:0:0:0:
475,192,107247,1,0,0:0:0:0:
402,192,107247,1,0,0:0:0:0:
109,192,107247,1,0,0:0:0:0:
256,192,107374,1,0,0:0:0:0:
402,192,107374,1,0,0:0:0:0:
475,192,107374,1,0,0:0:0:0:
109,192,107374,1,0,0:0:0:0:
329,192,107500,1,0,0:0:0:0:
475,192,107500,1,0,0:0:0:0:
109,192,107500,1,0,0:0:0:0:
36,192,107500,1,0,0:0:0:0:
182,192,107500,1,0,0:0:0:0:
256,192,107563,1,0,0:0:0:0:
402,192,107563,1,0,0:0:0:0:
182,192,107626,1,0,0:0:0:0:
36,192,107626,1,0,0:0:0:0:
329,192,107626,1,0,0:0:0:0:
109,192,107689,1,0,0:0:0:0:
402,192,107689,1,0,0:0:0:0:
256,192,107752,1,0,0:0:0:0:
475,192,107752,1,0,0:0:0:0:
182,192,107752,1,0,0:0:0:0:
36,192,107816,1,0,0:0:0:0:
329,192,107816,1,0,0:0:0:0:
109,192,107879,1,0,0:0:0:0:
182,192,107879,1,0,0:0:0:0:
402,192,107879,1,0,0:0:0:0:
256,192,107942,1,0,0:0:0:0:
329,192,107942,1,0,0:0:0:0:
402,192,108005,1,0,0:0:0:0:
475,192,108005,1,0,0:0:0:0:
36,192,108005,1,0,0:0:0:0:
109,192,108068,1,0,0:0:0:0:
329,192,108068,1,0,0:0:0:0:
182,192,108131,1,0,0:0:0:0:
402,192,108131,1,0,0:0:0:0:
36,192,108131,1,0,0:0:0:0:
256,192,108195,1,0,0:0:0:0:
475,192,108195,1,0,0:0:0:0:
109,192,108258,1,0,0:0:0:0:
329,192,108258,1,0,0:0:0:0:
402,192,108258,1,0,0:0:0:0:
182,192,108321,1,0,0:0:0:0:
256,192,108321,1,0,0:0:0:0:
109,192,108384,1,0,0:0:0:0:
402,192,108384,1,0,0:0:0:0:
475,192,108384,1,0,0:0:0:0:
256,192,108447,1,0,0:0:0:0:
182,192,108447,1,0,0:0:0:0:
109,192,108510,1,0,0:0:0:0:
36,192,108510,1,0,0:0:0:0:
402,192,108510,1,0,0:0:0:0:
256,192,108574,1,0,0:0:0:0:
329,192,108574,1,0,0:0:0:0:
36,192,108637,1,0,0:0:0:0:
182,192,108637,1,0,0:0:0:0:
402,192,108637,1,0,0:0:0:0:
109,192,108700,1,0,0:0:0:0:
475,192,108700,1,0,0:0:0:0:
329,192,108763,1,0,0:0:0:0:
256,192,108763,1,0,0:0:0:0:
36,192,108763,1,0,0:0:0:0:
402,192,108763,1,0,0:0:0:0:
36,192,108889,1,0,0:0:0:0:
256,192,108889,1,0,0:0:0:0:
329,192,108889,1,0,0:0:0:0:
402,192,108889,1,0,0:0:0:0:
182,192,109016,1,0,0:0:0:0:
109,192,109016,1,0,0:0:0:0:
402,192,109016,1,0,0:0:0:0:
475,192,109016,1,0,0:0:0:0:
109,192,109142,1,0,0:0:0:0:
182,192,109142,1,0,0:0:0:0:
475,192,109142,1,0,0:0:0:0:
402,192,109142,1,0,0:0:0:0:
329,192,109268,1,0,0:0:0:0:
256,192,109268,1,0,0:0:0:0:
475,192,109268,1,0,0:0:0:0:
109,192,109268,1,0,0:0:0:0:
36,192,109268,1,0,0:0:0:0:
182,192,109331,1,0,0:0:0:0:
402,192,109331,1,0,0:0:0:0:
109,192,109395,1,0,0:0:0:0:
36,192,109395,1,0,0:0:0:0:
329,192,109395,1,0,0:0:0:0:
256,192,109458,1,0,0:0:0:0:
402,192,109458,1,0,0:0:0:0:
475,192,109521,1,0,0:0:0:0:
182,192,109521,1,0,0:0:0:0:
36,192,109521,1,0,0:0:0:0:
329,192,109584,1,0,0:0:0:0:
402,192,109584,1,0,0:0:0:0:
475,192,109647,1,0,0:0:0:0:
256,192,109647,1,0,0:0:0:0:
109,192,109647,1,0,0:0:0:0:
182,192,109710,1,0,0:0:0:0:
329,192,109710,1,0,0:0:0:0:
256,192,109774,1,0,0:0:0:0:
402,192,109774,1,0,0:0:0:0:
36,192,109774,1,0,0:0:0:0:
109,192,109837,1,0,0:0:0:0:
475,192,109837,1,0,0:0:0:0:
182,192,109900,1,0,0:0:0:0:
329,192,109900,1,0,0:0:0:0:
402,192,109900,1,0,0:0:0:0:
256,192,109963,1,0,0:0:0:0:
109,192,109963,1,0,0:0:0:0:
182,192,110026,1,0,0:0:0:0:
36,192,110026,1,0,0:0:0:0:
475,192,110026,1,0,0:0:0:0:
329,192,110089,1,0,0:0:0:0:
402,192,110089,1,0,0:0:0:0:
256,192,110152,1,0,0:0:0:0:
109,192,110152,1,0,0:0:0:0:
36,192,110152,1,0,0:0:0:0:
182,192,110216,1,0,0:0:0:0:
329,192,110216,1,0,0:0:0:0:
256,192,110279,1,0,0:0:0:0:
402,192,110279,1,0,0:0:0:0:
475,192,110279,1,0,0:0:0:0:
109,192,110279,1,0,0:0:0:0:
36,192,110405,1,0,0:0:0:0:
109,192,110405,1,0,0:0:0:0:
329,192,110405,1,0,0:0:0:0:
402,192,110405,1,0,0:0:0:0:
256,192,110468,1,0,0:0:0:0:
182,192,110468,1,0,0:0:0:0:
475,192,110468,1,0,0:0:0:0:
109,192,110531,1,0,0:0:0:0:
36,192,110531,1,0,0:0:0:0:
329,192,110531,1,0,0:0:0:0:
402,192,110531,1,0,0:0:0:0:
256,192,110595,1,0,0:0:0:0:
182,192,110595,1,0,0:0:0:0:
475,192,110595,1,0,0:0:0:0:
402,192,110658,1,0,0:0:0:0:
109,192,110658,1,0,0:0:0:0:
36,192,110658,1,0,0:0:0:0:
256,192,110721,1,0,0:0:0:0:
329,192,110721,1,0,0:0:0:0:
475,192,110784,1,0,0:0:0:0:
402,192,110784,1,0,0:0:0:0:
182,192,110784,1,0,0:0:0:0:
109,192,110784,1,0,0:0:0:0:
329,192,110847,1,0,0:0:0:0:
256,192,110847,1,0,0:0:0:0:
36,192,110847,1,0,0:0:0:0:
109,192,110910,1,0,0:0:0:0:
402,192,110910,1,0,0:0:0:0:
475,192,110910,1,0,0:0:0:0:
182,192,110910,1,0,0:0:0:0:
329,192,110974,1,0,0:0:0:0:
256,192,110974,1,0,0:0:0:0:
36,192,110974,1,0,0:0:0:0:
109,192,111037,1,0,0:0:0:0:
402,192,111037,1,0,0:0:0:0:
475,192,111037,1,0,0:0:0:0:
182,192,111037,1,0,0:0:0:0:
329,192,111100,1,0,0:0:0:0:
36,192,111100,1,0,0:0:0:0:
256,192,111100,1,0,0:0:0:0:
109,192,111163,1,0,0:0:0:0:
182,192,111163,1,0,0:0:0:0:
402,192,111163,1,0,0:0:0:0:
475,192,111163,1,0,0:0:0:0:
329,192,111226,1,0,0:0:0:0:
256,192,111226,1,0,0:0:0:0:
109,192,111289,1,0,0:0:0:0:
36,192,111289,1,0,0:0:0:0:
402,192,111289,1,0,0:0:0:0:
475,192,111289,1,0,0:0:0:0:
182,192,111352,1,0,0:0:0:0:
256,192,111352,1,0,0:0:0:0:
329,192,111416,1,0,0:0:0:0:
475,192,111416,1,0,0:0:0:0:
402,192,111416,1,0,0:0:0:0:
36,192,111479,1,0,0:0:0:0:
256,192,111479,1,0,0:0:0:0:
109,192,111542,1,0,0:0:0:0:
402,192,111542,1,0,0:0:0:0:
475,192,111542,1,0,0:0:0:0:
182,192,111605,1,0,0:0:0:0:
329,192,111605,1,0,0:0:0:0:
256,192,111668,1,0,0:0:0:0:
109,192,111668,1,0,0:0:0:0:
36,192,111668,1,0,0:0:0:0:
402,192,111731,1,0,0:0:0:0:
475,192,111731,1,0,0:0:0:0:
329,192,111795,1,0,0:0:0:0:
182,192,111795,1,0,0:0:0:0:
109,192,111795,1,0,0:0:0:0:
36,192,111858,1,0,0:0:0:0:
256,192,111858,1,0,0:0:0:0:
182,192,111921,1,0,0:0:0:0:
402,192,111921,1,0,0:0:0:0:
475,192,111921,1,0,0:0:0:0:
329,192,111984,1,0,0:0:0:0:
109,192,111984,1,0,0:0:0:0:
256,192,112047,1,0,0:0:0:0:
36,192,112047,1,0,0:0:0:0:
475,192,112047,1,0,0:0:0:0:
182,192,112110,1,0,0:0:0:0:
329,192,112110,1,0,0:0:0:0:
402,192,112174,1,0,0:0:0:0:
109,192,112174,1,0,0:0:0:0:
36,192,112174,1,0,0:0:0:0:
182,192,112237,1,0,0:0:0:0:
475,192,112237,1,0,0:0:0:0:
256,192,112300,1,0,0:0:0:0:
329,192,112300,1,0,0:0:0:0:
109,192,112300,1,0,0:0:0:0:
182,192,112363,1,0,0:0:0:0:
402,192,112363,1,0,0:0:0:0:
256,192,112426,1,0,0:0:0:0:
475,192,112426,1,0,0:0:0:0:
36,192,112426,1,0,0:0:0:0:
109,192,112489,1,0,0:0:0:0:
329,192,112489,1,0,0:0:0:0:
182,192,112552,1,0,0:0:0:0:
402,192,112552,1,0,0:0:0:0:
475,192,112552,1,0,0:0:0:0:
109,192,112616,1,0,0:0:0:0:
256,192,112616,1,0,0:0:0:0:
36,192,112679,1,0,0:0:0:0:
329,192,112679,1,0,0:0:0:0:
402,192,112679,1,0,0:0:0:0:
182,192,112742,1,0,0:0:0:0:
475,192,112742,1,0,0:0:0:0:
256,192,112805,1,0,0:0:0:0:
329,192,112805,1,0,0:0:0:0:
109,192,112805,1,0,0:0:0:0:
36,192,112868,1,0,0:0:0:0:
402,192,112868,1,0,0:0:0:0:
256,192,112931,1,0,0:0:0:0:
109,192,112931,1,0,0:0:0:0:
475,192,112931,1,0,0:0:0:0:
182,192,112995,1,0,0:0:0:0:
402,192,112995,1,0,0:0:0:0:
109,192,113058,1,0,0:0:0:0:
329,192,113058,1,0,0:0:0:0:
256,192,113058,1,0,0:0:0:0:
36,192,113058,1,0,0:0:0:0:
402,192,113121,1,0,0:0:0:0:
475,192,113121,1,0,0:0:0:0:
329,192,113184,1,0,0:0:0:0:
256,192,113184,1,0,0:0:0:0:
109,192,113184,1,0,0:0:0:0:
36,192,113184,1,0,0:0:0:0:
402,192,113247,1,0,0:0:0:0:
475,192,113247,1,0,0:0:0:0:
109,192,113310,1,0,0:0:0:0:
36,192,113310,1,0,0:0:0:0:
182,192,113310,1,0,0:0:0:0:
329,192,113310,1,0,0:0:0:0:
256,192,113374,1,0,0:0:0:0:
402,192,113374,1,0,0:0:0:0:
329,192,113437,1,0,0:0:0:0:
475,192,113437,1,0,0:0:0:0:
182,192,113437,1,0,0:0:0:0:
36,192,113500,1,0,0:0:0:0:
256,192,113500,1,0,0:0:0:0:
109,192,113563,1,0,0:0:0:0:
329,192,113563,1,0,0:0:0:0:
402,192,113563,1,0,0:0:0:0:
182,192,113626,1,0,0:0:0:0:
475,192,113626,1,0,0:0:0:0:
256,192,113689,1,0,0:0:0:0:
329,192,113689,1,0,0:0:0:0:
36,192,113689,1,0,0:0:0:0:
182,192,113752,1,0,0:0:0:0:
402,192,113752,1,0,0:0:0:0:
329,192,113816,1,0,0:0:0:0:
475,192,113816,1,0,0:0:0:0:
109,192,113816,1,0,0:0:0:0:
256,192,113879,1,0,0:0:0:0:
36,192,113879,1,0,0:0:0:0:
182,192,113942,1,0,0:0:0:0:
402,192,113942,1,0,0:0:0:0:
475,192,113942,1,0,0:0:0:0:
109,192,114005,1,0,0:0:0:0:
329,192,114005,1,0,0:0:0:0:
256,192,114068,1,0,0:0:0:0:
36,192,114068,1,0,0:0:0:0:
402,192,114068,1,0,0:0:0:0:
182,192,114131,1,0,0:0:0:0:
475,192,114131,1,0,0:0:0:0:
329,192,114195,1,0,0:0:0:0:
109,192,114195,1,0,0:0:0:0:
36,192,114195,1,0,0:0:0:0:
256,192,114258,1,0,0:0:0:0:
402,192,114258,1,0,0:0:0:0:
182,192,114321,1,0,0:0:0:0:
475,192,114321,1,0,0:0:0:0:
109,192,114321,1,0,0:0:0:0:
256,192,114384,1,0,0:0:0:0:
402,192,114384,1,0,0:0:0:0:
329,192,114447,1,0,0:0:0:0:
36,192,114447,1,0,0:0:0:0:
109,192,114447,1,0,0:0:0:0:
402,192,114510,1,0,0:0:0:0:
256,192,114510,1,0,0:0:0:0:
182,192,114574,1,0,0:0:0:0:
475,192,114574,1,0,0:0:0:0:
36,192,114574,1,0,0:0:0:0:
329,192,114637,1,0,0:0:0:0:
256,192,114637,1,0,0:0:0:0:
109,192,114700,1,0,0:0:0:0:
402,192,114700,1,0,0:0:0:0:
36,192,114700,1,0,0:0:0:0:
182,192,114763,1,0,0:0:0:0:
256,192,114763,1,0,0:0:0:0:
109,192,114826,1,0,0:0:0:0:
329,192,114826,1,0,0:0:0:0:
475,192,114826,1,0,0:0:0:0:
36,192,114826,1,0,0:0:0:0:
182,192,114889,1,0,0:0:0:0:
256,192,114889,1,0,0:0:0:0:
402,192,114889,1,0,0:0:0:0:
109,192,114952,1,0,0:0:0:0:
36,192,114952,1,0,0:0:0:0:
329,192,114952,1,0,0:0:0:0:
182,192,115016,1,0,0:0:0:0:
402,192,115016,1,0,0:0:0:0:
475,192,115016,1,0,0:0:0:0:
256,192,115079,1,0,0:0:0:0:
329,192,115079,1,0,0:0:0:0:
109,192,115079,1,0,0:0:0:0:
36,192,115079,1,0,0:0:0:0:
109,192,115205,1,0,0:0:0:0:
36,192,115205,1,0,0:0:0:0:
329,192,115205,1,0,0:0:0:0:
256,192,115205,1,0,0:0:0:0:
109,192,115331,1,0,0:0:0:0:
36,192,115331,1,0,0:0:0:0:
182,192,115331,1,0,0:0:0:0:
402,192,115331,1,0,0:0:0:0:
329,192,115331,1,0,0:0:0:0:
475,192,115331,1,0,0:0:0:0:
182,192,115458,1,0,0:0:0:0:
329,192,115458,1,0,0:0:0:0:
256,192,115584,1,0,0:0:0:0:
402,192,115584,1,0,0:0:0:0:
36,192,115584,1,0,0:0:0:0:
182,192,115710,1,0,0:0:0:0:
329,192,115710,1,0,0:0:0:0:
256,192,115837,1,0,0:0:0:0:
402,192,115837,1,0,0:0:0:0:
475,192,115837,1,0,0:0:0:0:
36,192,115837,1,0,0:0:0:0:
109,192,115963,1,0,0:0:0:0:
329,192,115963,1,0,0:0:0:0:
182,192,116089,1,0,0:0:0:0:
402,192,116089,1,0,0:0:0:0:
329,192,116216,1,0,0:0:0:0:
109,192,116216,1,0,0:0:0:0:
256,192,116342,1,0,0:0:0:0:
182,192,116342,1,0,0:0:0:0:
36,192,116342,1,0,0:0:0:0:
329,192,116468,1,0,0:0:0:0:
475,192,116468,1,0,0:0:0:0:
256,192,116595,1,0,0:0:0:0:
402,192,116595,1,0,0:0:0:0:
109,192,116595,1,0,0:0:0:0:
36,192,116595,1,0,0:0:0:0:
182,192,116721,1,0,0:0:0:0:
329,192,116721,1,0,0:0:0:0:
256,192,116847,1,0,0:0:0:0:
402,192,116847,1,0,0:0:0:0:
475,192,116847,1,0,0:0:0:0:
36,192,116847,1,0,0:0:0:0:
182,192,116974,1,0,0:0:0:0:
329,192,116974,1,0,0:0:0:0:
109,192,117100,1,0,0:0:0:0:
256,192,117100,1,0,0:0:0:0:
475,192,117100,1,0,0:0:0:0:
36,192,117100,1,0,0:0:0:0:
402,192,117226,1,0,0:0:0:0:
329,192,117226,1,0,0:0:0:0:
256,192,117352,1,0,0:0:0:0:
182,192,117352,1,0,0:0:0:0:
109,192,117352,1,0,0:0:0:0:
36,192,117352,1,0,0:0:0:0:
402,192,117479,1,0,0:0:0:0:
475,192,117479,1,0,0:0:0:0:
329,192,117605,1,0,0:0:0:0:
182,192,117605,1,0,0:0:0:0:
36,192,117605,1,0,0:0:0:0:
109,192,117731,1,0,0:0:0:0:
402,192,117731,1,0,0:0:0:0:
182,192,117858,1,0,0:0:0:0:
329,192,117858,1,0,0:0:0:0:
475,192,117858,1,0,0:0:0:0:
36,192,117858,1,0,0:0:0:0:
256,192,117984,1,0,0:0:0:0:
402,192,117984,1,0,0:0:0:0:
329,192,118110,1,0,0:0:0:0:
109,192,118110,1,0,0:0:0:0:
36,192,118110,1,0,0:0:0:0:
182,192,118237,1,0,0:0:0:0:
402,192,118237,1,0,0:0:0:0:
256,192,118363,1,0,0:0:0:0:
475,192,118363,1,0,0:0:0:0:
329,192,118363,1,0,0:0:0:0:
36,192,118363,1,0,0:0:0:0:
109,192,118489,1,0,0:0:0:0:
329,192,118489,1,0,0:0:0:0:
402,192,118489,1,0,0:0:0:0:
182,192,118489,1,0,0:0:0:0:
256,192,118616,1,0,0:0:0:0:
475,192,118616,1,0,0:0:0:0:
36,192,118616,1,0,0:0:0:0:
109,192,118616,1,0,0:0:0:0:
182,192,118742,1,0,0:0:0:0:
329,192,118742,1,0,0:0:0:0:
109,192,118868,1,0,0:0:0:0:
36,192,118868,1,0,0:0:0:0:
256,192,118868,1,0,0:0:0:0:
402,192,118868,1,0,0:0:0:0:
475,192,118868,1,0,0:0:0:0:
256,192,118995,1,0,0:0:0:0:
182,192,119121,1,0,0:0:0:0:
109,192,119121,1,0,0:0:0:0:
329,192,119121,1,0,0:0:0:0:
402,192,119121,1,0,0:0:0:0:
182,192,119247,1,0,0:0:0:0:
329,192,119247,1,0,0:0:0:0:
329,192,119374,1,0,0:0:0:0:
402,192,119374,1,0,0:0:0:0:
475,192,119374,1,0,0:0:0:0:
182,192,119374,1,0,0:0:0:0:
109,192,119374,1,0,0:0:0:0:
36,192,119374,1,0,0:0:0:0:
256,192,119626,1,0,0:0:0:0:
329,192,119879,1,0,0:0:0:0:
402,192,120131,1,0,0:0:0:0:
475,192,120131,1,0,0:0:0:0:
182,192,120131,1,0,0:0:0:0:
109,192,120258,1,0,0:0:0:0:
36,192,120258,1,0,0:0:0:0:
329,192,120258,1,0,0:0:0:0:
182,192,120510,1,0,0:0:0:0:
109,192,120510,1,0,0:0:0:0:
256,192,120637,1,0,0:0:0:0:
329,192,120637,1,0,0:0:0:0:
402,192,120763,128,0,121395:0:0:0:0:
475,192,120763,128,0,121395:0:0:0:0:
109,192,121142,128,0,121395:0:0:0:0:
36,192,121142,128,0,121395:0:0:0:0:
182,192,121395,1,0,0:0:0:0:
329,192,121395,1,0,0:0:0:0:
256,192,121521,1,0,0:0:0:0:
329,192,121647,1,0,0:0:0:0:
475,192,121647,1,0,0:0:0:0:
256,192,121774,1,0,0:0:0:0:
182,192,121900,1,0,0:0:0:0:
36,192,121900,1,0,0:0:0:0:
256,192,122026,1,0,0:0:0:0:
329,192,122026,1,0,0:0:0:0:
109,192,122279,1,0,0:0:0:0:
402,192,122279,1,0,0:0:0:0:
475,192,122279,1,0,0:0:0:0:
182,192,122658,1,0,0:0:0:0:
256,192,122658,1,0,0:0:0:0:
109,192,122784,1,0,0:0:0:0:
329,192,122784,1,0,0:0:0:0:
402,192,122784,1,0,0:0:0:0:
182,192,123037,1,0,0:0:0:0:
109,192,123037,1,0,0:0:0:0:
36,192,123416,1,0,0:0:0:0:
256,192,123416,1,0,0:0:0:0:
329,192,123416,1,0,0:0:0:0:
182,192,123668,1,0,0:0:0:0:
109,192,123795,1,0,0:0:0:0:
329,192,123795,1,0,0:0:0:0:
475,192,123795,1,0,0:0:0:0:
182,192,124047,1,0,0:0:0:0:
256,192,124174,1,0,0:0:0:0:
329,192,124300,1,0,0:0:0:0:
182,192,124426,1,0,0:0:0:0:
109,192,124426,1,0,0:0:0:0:
402,192,124426,1,0,0:0:0:0:
329,192,124679,1,0,0:0:0:0:
256,192,124805,1,0,0:0:0:0:
475,192,124805,1,0,0:0:0:0:
109,192,124805,1,0,0:0:0:0:
182,192,125058,1,0,0:0:0:0:
256,192,125184,1,0,0:0:0:0:
329,192,125310,1,0,0:0:0:0:
402,192,125437,1,0,0:0:0:0:
182,192,125437,1,0,0:0:0:0:
36,192,125437,128,0,127458:0:0:0:0:
109,192,125437,1,0,0:0:0:0:
256,192,125689,1,0,0:0:0:0:
475,192,125689,1,0,0:0:0:0:
402,192,125816,1,0,0:0:0:0:
182,192,125816,1,0,0:0:0:0:
109,192,126068,1,0,0:0:0:0:
329,192,126068,1,0,0:0:0:0:
182,192,126195,1,0,0:0:0:0:
402,192,126195,1,0,0:0:0:0:
256,192,126321,1,0,0:0:0:0:
475,192,126321,1,0,0:0:0:0:
329,192,126447,1,0,0:0:0:0:
182,192,126447,1,0,0:0:0:0:
109,192,126447,1,0,0:0:0:0:
256,192,126700,1,0,0:0:0:0:
402,192,126700,1,0,0:0:0:0:
475,192,126826,1,0,0:0:0:0:
182,192,126826,1,0,0:0:0:0:
109,192,127079,1,0,0:0:0:0:
329,192,127079,1,0,0:0:0:0:
182,192,127205,1,0,0:0:0:0:
402,192,127205,1,0,0:0:0:0:
256,192,127331,1,0,0:0:0:0:
475,192,127331,1,0,0:0:0:0:
256,192,127458,1,0,0:0:0:0:
182,192,127458,1,0,0:0:0:0:
109,192,127458,1,0,0:0:0:0:
329,192,127458,1,0,0:0:0:0:
402,192,127458,1,0,0:0:0:0:
475,192,127458,1,0,0:0:0:0:
109,192,127710,128,0,127837:0:0:0:0:
329,192,127710,128,0,127837:0:0:0:0:
182,192,127837,128,0,128216:0:0:0:0:
402,192,127837,128,0,128216:0:0:0:0:
36,192,128089,1,0,0:0:0:0:
256,192,128089,1,0,0:0:0:0:
109,192,128216,1,0,0:0:0:0:
329,192,128216,1,0,0:0:0:0:
182,192,128342,1,0,0:0:0:0:
402,192,128342,1,0,0:0:0:0:
256,192,128468,128,0,128721:0:0:0:0:
329,192,128721,128,0,128847:0:0:0:0:
109,192,128721,128,0,128847:0:0:0:0:
402,192,128847,128,0,129226:0:0:0:0:
182,192,128847,128,0,129226:0:0:0:0:
36,192,129100,1,0,0:0:0:0:
256,192,129100,1,0,0:0:0:0:
109,192,129226,1,0,0:0:0:0:
329,192,129226,1,0,0:0:0:0:
402,192,129352,1,0,0:0:0:0:
182,192,129352,1,0,0:0:0:0:
256,192,129479,128,0,129731:0:0:0:0:
109,192,129731,128,0,129858:0:0:0:0:
329,192,129731,128,0,129858:0:0:0:0:
182,192,129858,128,0,130237:0:0:0:0:
402,192,129858,128,0,130237:0:0:0:0:
256,192,130110,1,0,0:0:0:0:
36,192,130110,1,0,0:0:0:0:
329,192,130237,1,0,0:0:0:0:
109,192,130237,1,0,0:0:0:0:
182,192,130363,1,0,0:0:0:0:
402,192,130363,1,0,0:0:0:0:
256,192,130489,128,0,130742:0:0:0:0:
329,192,130742,128,0,130868:0:0:0:0:
109,192,130742,128,0,130868:0:0:0:0:
402,192,130868,128,0,131247:0:0:0:0:
182,192,130868,128,0,131247:0:0:0:0:
36,192,131121,1,0,0:0:0:0:
256,192,131121,1,0,0:0:0:0:
109,192,131247,1,0,0:0:0:0:
329,192,131247,1,0,0:0:0:0:
402,192,131374,1,0,0:0:0:0:
182,192,131374,1,0,0:0:0:0:
256,192,131500,128,0,131752:0:0:0:0:
402,192,131752,128,0,131879:0:0:0:0:
182,192,131752,128,0,131879:0:0:0:0:
329,192,131879,128,0,132258:0:0:0:0:
109,192,131879,128,0,132258:0:0:0:0:
256,192,132131,1,0,0:0:0:0:
475,192,132131,1,0,0:0:0:0:
182,192,132258,1,0,0:0:0:0:
402,192,132258,1,0,0:0:0:0:
329,192,132384,1,0,0:0:0:0:
109,192,132384,1,0,0:0:0:0:
256,192,132510,128,0,132763:0:0:0:0:
402,192,132763,128,0,132889:0:0:0:0:
182,192,132763,128,0,132889:0:0:0:0:
329,192,132889,128,0,133268:0:0:0:0:
109,192,132889,128,0,133268:0:0:0:0:
475,192,133142,1,0,0:0:0:0:
256,192,133142,1,0,0:0:0:0:
402,192,133268,1,0,0:0:0:0:
182,192,133268,1,0,0:0:0:0:
329,192,133395,1,0,0:0:0:0:
109,192,133395,1,0,0:0:0:0:
256,192,133521,128,0,133774:0:0:0:0:
182,192,133774,128,0,133900:0:0:0:0:
402,192,133774,128,0,133900:0:0:0:0:
109,192,133900,128,0,134279:0:0:0:0:
329,192,133900,128,0,134279:0:0:0:0:
256,192,134152,1,0,0:0:0:0:
475,192,134152,1,0,0:0:0:0:
182,192,134279,1,0,0:0:0:0:
402,192,134279,1,0,0:0:0:0:
109,192,134405,1,0,0:0:0:0:
329,192,134405,1,0,0:0:0:0:
256,192,134531,128,0,134784:0:0:0:0:
402,192,134784,128,0,134910:0:0:0:0:
182,192,134784,128,0,134910:0:0:0:0:
329,192,134910,128,0,135289:0:0:0:0:
109,192,134910,128,0,135289:0:0:0:0:
475,192,135163,1,0,0:0:0:0:
256,192,135163,1,0,0:0:0:0:
402,192,135289,1,0,0:0:0:0:
182,192,135289,1,0,0:0:0:0:
329,192,135416,1,0,0:0:0:0:
109,192,135416,1,0,0:0:0:0:
36,192,135542,1,0,0:0:0:0:
182,192,135542,1,0,0:0:0:0:
256,192,135542,1,0,0:0:0:0:
402,192,135542,1,0,0:0:0:0:
475,192,135542,1,0,0:0:0:0:
