osu file format v14

[General]
AudioFilename: audio.mp3
AudioLeadIn: 0
PreviewTime: 67914
Countdown: 0
SampleSet: Normal
StackLeniency: 0.7
Mode: 1
LetterboxInBreaks: 0
WidescreenStoryboard: 1

[Editor]
Bookmarks: 39706,49306,58906,78106
DistanceSpacing: 1
BeatDivisor: 4
GridSize: 32
TimelineZoom: 2.400001

[Metadata]
Title:Black Lotus
TitleUnicode:Black Lotus
Artist:wa.
ArtistUnicode:wa.
Creator:komasy
Version:tasuke's Inner Oni
Source:BMS
Tags:BOFU2016 Legendary Again GrimReaper ノリと勢い tasuke912
BeatmapID:1345025
BeatmapSetID:605096

[Difficulty]
HPDrainRate:5
CircleSize:2
OverallDifficulty:6.5
ApproachRate:5
SliderMultiplier:1.4
SliderTickRate:1

[Events]
//Background and Video events
0,0,"BackGround.jpg",0,0
//Break Periods
//Storyboard Layer 0 (Background)
//Storyboard Layer 1 (Fail)
//Storyboard Layer 2 (Pass)
//Storyboard Layer 3 (Foreground)
//Storyboard Sound Samples

[TimingPoints]
114,300,4,1,0,95,1,0
10914,-100,4,1,0,95,0,1
20514,-100,4,1,0,95,0,0
68514,-100,4,1,0,95,0,1
87714,-100,4,1,0,95,0,0
106314,-100,4,1,0,50,0,0

[HitObjects]
256,192,1314,5,4,0:0:0:0:
256,192,1464,1,4,0:0:0:0:
256,192,3114,1,0,0:0:0:0:
256,192,3189,1,0,0:0:0:0:
256,192,3264,1,0,0:0:0:0:
256,192,3339,1,0,0:0:0:0:
256,192,3414,1,0,0:0:0:0:
256,192,3489,1,0,0:0:0:0:
256,192,3564,1,0,0:0:0:0:
256,192,3639,1,0,0:0:0:0:
256,192,3714,1,0,0:0:0:0:
256,192,6114,1,6,0:0:0:0:
256,192,6264,1,6,0:0:0:0:
256,192,7914,1,2,0:0:0:0:
256,192,7989,1,2,0:0:0:0:
256,192,8064,1,2,0:0:0:0:
256,192,8139,1,2,0:0:0:0:
256,192,8214,1,2,0:0:0:0:
256,192,8289,1,2,0:0:0:0:
256,192,8364,1,2,0:0:0:0:
256,192,8439,1,2,0:0:0:0:
256,192,8514,1,0,0:0:0:0:
256,192,8739,1,2,0:0:0:0:
256,192,8964,1,2,0:0:0:0:
256,192,9189,1,2,0:0:0:0:
256,192,9414,1,2,0:0:0:0:
256,192,9714,1,0,0:0:0:0:
256,192,9864,1,2,0:0:0:0:
256,192,10089,1,2,0:0:0:0:
256,192,10164,1,2,0:0:0:0:
256,192,10314,1,2,0:0:0:0:
256,192,10464,1,2,0:0:0:0:
256,192,10539,1,2,0:0:0:0:
256,192,10614,1,2,0:0:0:0:
256,192,10764,1,2,0:0:0:0:
256,192,10914,5,4,0:0:0:0:
256,192,11064,1,2,0:0:0:0:
256,192,11214,1,0,0:0:0:0:
256,192,11364,1,2,0:0:0:0:
256,192,11439,1,2,0:0:0:0:
256,192,11514,1,0,0:0:0:0:
256,192,11664,1,2,0:0:0:0:
256,192,11739,1,0,0:0:0:0:
256,192,11814,1,0,0:0:0:0:
256,192,11964,1,2,0:0:0:0:
256,192,12114,1,0,0:0:0:0:
256,192,12264,1,2,0:0:0:0:
256,192,12414,1,0,0:0:0:0:
256,192,12564,1,0,0:0:0:0:
256,192,12639,1,2,0:0:0:0:
256,192,12714,1,0,0:0:0:0:
256,192,12864,1,2,0:0:0:0:
256,192,13014,1,0,0:0:0:0:
256,192,13089,1,0,0:0:0:0:
256,192,13164,1,2,0:0:0:0:
256,192,13239,1,2,0:0:0:0:
256,192,13314,1,0,0:0:0:0:
256,192,13464,1,2,0:0:0:0:
256,192,13614,1,0,0:0:0:0:
256,192,13764,1,2,0:0:0:0:
256,192,13839,1,2,0:0:0:0:
256,192,13914,1,0,0:0:0:0:
256,192,14064,1,2,0:0:0:0:
256,192,14139,1,0,0:0:0:0:
256,192,14214,1,0,0:0:0:0:
256,192,14364,1,2,0:0:0:0:
256,192,14514,1,0,0:0:0:0:
256,192,14664,1,0,0:0:0:0:
256,192,14739,1,2,0:0:0:0:
256,192,14814,1,0,0:0:0:0:
256,192,14964,1,2,0:0:0:0:
256,192,15114,1,0,0:0:0:0:
256,192,15189,1,2,0:0:0:0:
256,192,15264,1,2,0:0:0:0:
256,192,15339,1,2,0:0:0:0:
256,192,15414,1,0,0:0:0:0:
256,192,15489,1,0,0:0:0:0:
256,192,15564,1,2,0:0:0:0:
256,192,15639,1,2,0:0:0:0:
256,192,15714,1,0,0:0:0:0:
256,192,15864,1,2,0:0:0:0:
256,192,16014,1,0,0:0:0:0:
256,192,16164,1,2,0:0:0:0:
256,192,16239,1,0,0:0:0:0:
256,192,16314,1,0,0:0:0:0:
256,192,16464,1,2,0:0:0:0:
256,192,16614,1,0,0:0:0:0:
256,192,16689,1,0,0:0:0:0:
256,192,16764,1,2,0:0:0:0:
256,192,16914,1,0,0:0:0:0:
256,192,17064,1,2,0:0:0:0:
256,192,17214,1,0,0:0:0:0:
256,192,17364,1,2,0:0:0:0:
256,192,17439,1,2,0:0:0:0:
256,192,17514,1,0,0:0:0:0:
256,192,17664,1,2,0:0:0:0:
256,192,17814,1,0,0:0:0:0:
256,192,17889,1,2,0:0:0:0:
256,192,17964,1,2,0:0:0:0:
256,192,18114,1,0,0:0:0:0:
256,192,18264,1,2,0:0:0:0:
256,192,18339,1,2,0:0:0:0:
256,192,18414,1,0,0:0:0:0:
256,192,18564,1,2,0:0:0:0:
256,192,18639,1,2,0:0:0:0:
256,192,18714,1,0,0:0:0:0:
256,192,18864,1,2,0:0:0:0:
256,192,18939,1,2,0:0:0:0:
256,192,19014,1,0,0:0:0:0:
256,192,19089,1,2,0:0:0:0:
256,192,19164,1,2,0:0:0:0:
256,192,19314,1,0,0:0:0:0:
256,192,19389,1,0,0:0:0:0:
256,192,19464,1,0,0:0:0:0:
256,192,19539,1,0,0:0:0:0:
256,192,19614,1,2,0:0:0:0:
256,192,19689,1,2,0:0:0:0:
256,192,19764,1,0,0:0:0:0:
256,192,19839,1,0,0:0:0:0:
256,192,19914,1,2,0:0:0:0:
256,192,19989,1,0,0:0:0:0:
256,192,20064,1,0,0:0:0:0:
256,192,20139,1,0,0:0:0:0:
256,192,20214,1,2,0:0:0:0:
256,192,20289,1,2,0:0:0:0:
256,192,20364,1,2,0:0:0:0:
256,192,20439,1,2,0:0:0:0:
256,192,20514,5,0,0:0:0:0:
256,192,20964,1,4,0:0:0:0:
256,192,22614,1,0,0:0:0:0:
256,192,22689,1,0,0:0:0:0:
256,192,22764,1,0,0:0:0:0:
256,192,22839,1,0,0:0:0:0:
256,192,22914,1,2,0:0:0:0:
256,192,22989,1,2,0:0:0:0:
256,192,23064,1,2,0:0:0:0:
256,192,23139,1,2,0:0:0:0:
256,192,23214,1,0,0:0:0:0:
256,192,23289,1,2,0:0:0:0:
256,192,23364,1,2,0:0:0:0:
256,192,23439,1,2,0:0:0:0:
256,192,23514,1,0,0:0:0:0:
256,192,23589,1,0,0:0:0:0:
256,192,23664,1,2,0:0:0:0:
256,192,23739,1,2,0:0:0:0:
256,192,23814,1,0,0:0:0:0:
256,192,23889,1,0,0:0:0:0:
256,192,23964,1,0,0:0:0:0:
256,192,24039,1,0,0:0:0:0:
256,192,24114,1,2,0:0:0:0:
256,192,24264,1,2,0:0:0:0:
256,192,24414,1,0,0:0:0:0:
256,192,24564,1,2,0:0:0:0:
256,192,24639,1,2,0:0:0:0:
256,192,24714,1,0,0:0:0:0:
256,192,25314,1,4,0:0:0:0:
256,192,25764,1,6,0:0:0:0:
256,192,26214,1,6,0:0:0:0:
256,192,26664,1,6,0:0:0:0:
256,192,27114,1,6,0:0:0:0:
256,192,27714,1,0,0:0:0:0:
256,192,28014,1,2,0:0:0:0:
256,192,28164,1,2,0:0:0:0:
256,192,28239,1,2,0:0:0:0:
256,192,28314,1,2,0:0:0:0:
256,192,28464,1,0,0:0:0:0:
256,192,28539,1,0,0:0:0:0:
256,192,28614,1,2,0:0:0:0:
256,192,28764,1,2,0:0:0:0:
256,192,28914,1,0,0:0:0:0:
256,192,29064,1,2,0:0:0:0:
256,192,29214,1,2,0:0:0:0:
256,192,29364,1,2,0:0:0:0:
256,192,29439,1,0,0:0:0:0:
256,192,29514,1,2,0:0:0:0:
256,192,29589,1,2,0:0:0:0:
256,192,29664,1,0,0:0:0:0:
256,192,29739,1,0,0:0:0:0:
256,192,29814,1,2,0:0:0:0:
256,192,29964,1,2,0:0:0:0:
256,192,30039,1,2,0:0:0:0:
256,192,30114,1,0,0:0:0:0:
256,192,30564,1,4,0:0:0:0:
256,192,32214,1,0,0:0:0:0:
256,192,32289,1,0,0:0:0:0:
256,192,32364,1,0,0:0:0:0:
256,192,32439,1,0,0:0:0:0:
256,192,32514,1,0,0:0:0:0:
256,192,32614,1,2,0:0:0:0:
256,192,32714,1,2,0:0:0:0:
256,192,32814,1,0,0:0:0:0:
256,192,32914,1,2,0:0:0:0:
256,192,33014,1,2,0:0:0:0:
256,192,33114,1,0,0:0:0:0:
256,192,33214,1,0,0:0:0:0:
256,192,33314,1,0,0:0:0:0:
256,192,33414,1,2,0:0:0:0:
256,192,33514,1,2,0:0:0:0:
256,192,33614,1,2,0:0:0:0:
256,192,33714,1,0,0:0:0:0:
256,192,33814,1,0,0:0:0:0:
256,192,33914,1,2,0:0:0:0:
256,192,34014,1,0,0:0:0:0:
256,192,34114,1,0,0:0:0:0:
256,192,34214,1,2,0:0:0:0:
256,192,34314,1,0,0:0:0:0:
256,192,34514,1,2,0:0:0:0:
256,192,34714,1,2,0:0:0:0:
256,192,34914,1,4,0:0:0:0:
256,192,35364,1,6,0:0:0:0:
256,192,35814,1,6,0:0:0:0:
256,192,36264,1,6,0:0:0:0:
256,192,36714,1,6,0:0:0:0:
256,192,37314,1,0,0:0:0:0:
256,192,37614,1,2,0:0:0:0:
256,192,37764,1,0,0:0:0:0:
256,192,37839,1,2,0:0:0:0:
256,192,37914,1,2,0:0:0:0:
256,192,38064,1,0,0:0:0:0:
256,192,38139,1,0,0:0:0:0:
256,192,38214,1,2,0:0:0:0:
256,192,38364,1,2,0:0:0:0:
256,192,38514,1,0,0:0:0:0:
256,192,38664,1,2,0:0:0:0:
256,192,38814,1,2,0:0:0:0:
256,192,38964,1,0,0:0:0:0:
256,192,39039,1,0,0:0:0:0:
256,192,39114,1,2,0:0:0:0:
256,192,39189,1,2,0:0:0:0:
256,192,39264,1,2,0:0:0:0:
256,192,39339,1,0,0:0:0:0:
256,192,39414,1,0,0:0:0:0:
256,192,39564,1,2,0:0:0:0:
256,192,39714,5,4,0:0:0:0:
256,192,40014,1,0,0:0:0:0:
256,192,40164,1,2,0:0:0:0:
256,192,40314,1,0,0:0:0:0:
256,192,40389,1,0,0:0:0:0:
256,192,40464,1,2,0:0:0:0:
256,192,40539,1,0,0:0:0:0:
256,192,40614,1,0,0:0:0:0:
256,192,40764,1,2,0:0:0:0:
256,192,40839,1,2,0:0:0:0:
256,192,40914,1,0,0:0:0:0:
256,192,41064,1,2,0:0:0:0:
256,192,41214,1,0,0:0:0:0:
256,192,41289,1,2,0:0:0:0:
256,192,41439,1,2,0:0:0:0:
256,192,41514,1,0,0:0:0:0:
256,192,41664,1,2,0:0:0:0:
256,192,41814,1,0,0:0:0:0:
256,192,41889,1,0,0:0:0:0:
256,192,41964,1,2,0:0:0:0:
256,192,42114,1,0,0:0:0:0:
256,192,42264,1,2,0:0:0:0:
256,192,42339,1,2,0:0:0:0:
256,192,42414,1,0,0:0:0:0:
256,192,42564,1,2,0:0:0:0:
256,192,42714,1,0,0:0:0:0:
256,192,42789,1,0,0:0:0:0:
256,192,42939,1,2,0:0:0:0:
256,192,43014,1,0,0:0:0:0:
256,192,43164,1,2,0:0:0:0:
256,192,43314,1,0,0:0:0:0:
256,192,43389,1,2,0:0:0:0:
256,192,43464,1,2,0:0:0:0:
256,192,43614,1,0,0:0:0:0:
256,192,43689,1,2,0:0:0:0:
256,192,43839,1,2,0:0:0:0:
256,192,43914,1,0,0:0:0:0:
256,192,44064,1,2,0:0:0:0:
256,192,44214,1,0,0:0:0:0:
256,192,44289,1,2,0:0:0:0:
256,192,44364,1,0,0:0:0:0:
256,192,44514,5,0,0:0:0:0:
256,192,44814,1,0,0:0:0:0:
256,192,44964,1,2,0:0:0:0:
256,192,45114,1,0,0:0:0:0:
256,192,45189,1,0,0:0:0:0:
256,192,45264,1,2,0:0:0:0:
256,192,45339,1,2,0:0:0:0:
256,192,45414,1,0,0:0:0:0:
256,192,45564,1,2,0:0:0:0:
256,192,45714,1,0,0:0:0:0:
256,192,45789,1,2,0:0:0:0:
256,192,45864,1,2,0:0:0:0:
256,192,46014,1,0,0:0:0:0:
256,192,46089,1,2,0:0:0:0:
256,192,46239,1,2,0:0:0:0:
256,192,46314,1,0,0:0:0:0:
256,192,46464,1,2,0:0:0:0:
256,192,46614,1,0,0:0:0:0:
256,192,46689,1,0,0:0:0:0:
256,192,46764,1,2,0:0:0:0:
256,192,46914,1,0,0:0:0:0:
256,192,47064,1,2,0:0:0:0:
256,192,47139,1,2,0:0:0:0:
256,192,47214,1,0,0:0:0:0:
256,192,47364,1,2,0:0:0:0:
256,192,47514,1,0,0:0:0:0:
256,192,47589,1,0,0:0:0:0:
256,192,47664,1,2,0:0:0:0:
256,192,47739,1,0,0:0:0:0:
256,192,47814,1,0,0:0:0:0:
256,192,47964,1,2,0:0:0:0:
256,192,48114,1,0,0:0:0:0:
256,192,48189,1,2,0:0:0:0:
256,192,48264,1,2,0:0:0:0:
256,192,48414,1,0,0:0:0:0:
256,192,48489,1,2,0:0:0:0:
256,192,48564,1,0,0:0:0:0:
256,192,48639,1,0,0:0:0:0:
256,192,48714,1,2,0:0:0:0:
256,192,48864,1,2,0:0:0:0:
256,192,49014,1,0,0:0:0:0:
256,192,49164,1,2,0:0:0:0:
256,192,49314,5,4,0:0:0:0:
256,192,49614,1,0,0:0:0:0:
256,192,49764,1,2,0:0:0:0:
256,192,49914,1,0,0:0:0:0:
256,192,49989,1,0,0:0:0:0:
256,192,50064,1,2,0:0:0:0:
256,192,50214,1,0,0:0:0:0:
256,192,50364,1,2,0:0:0:0:
256,192,50439,1,2,0:0:0:0:
256,192,50514,1,0,0:0:0:0:
256,192,50664,1,2,0:0:0:0:
256,192,50814,1,0,0:0:0:0:
256,192,50889,1,2,0:0:0:0:
256,192,51039,1,2,0:0:0:0:
256,192,51114,1,0,0:0:0:0:
256,192,51189,1,0,0:0:0:0:
256,192,51264,1,2,0:0:0:0:
256,192,51414,1,0,0:0:0:0:
256,192,51564,1,2,0:0:0:0:
256,192,51639,1,2,0:0:0:0:
256,192,51714,1,0,0:0:0:0:
256,192,51864,1,2,0:0:0:0:
256,192,52014,1,0,0:0:0:0:
256,192,52089,1,0,0:0:0:0:
256,192,52239,1,2,0:0:0:0:
256,192,52314,1,0,0:0:0:0:
256,192,52464,1,2,0:0:0:0:
256,192,52614,1,0,0:0:0:0:
256,192,52689,1,0,0:0:0:0:
256,192,52764,1,2,0:0:0:0:
256,192,52914,1,0,0:0:0:0:
256,192,52989,1,2,0:0:0:0:
256,192,53064,1,2,0:0:0:0:
256,192,53214,1,0,0:0:0:0:
256,192,53289,1,2,0:0:0:0:
256,192,53439,1,2,0:0:0:0:
256,192,53514,1,0,0:0:0:0:
256,192,53664,1,2,0:0:0:0:
256,192,53814,1,0,0:0:0:0:
256,192,53889,1,0,0:0:0:0:
256,192,53964,1,2,0:0:0:0:
256,192,54039,1,2,0:0:0:0:
256,192,54114,1,0,0:0:0:0:
256,192,54264,1,0,0:0:0:0:
256,192,54339,1,2,0:0:0:0:
256,192,54414,1,0,0:0:0:0:
256,192,54564,1,2,0:0:0:0:
256,192,54714,1,0,0:0:0:0:
256,192,54789,1,0,0:0:0:0:
256,192,54864,1,2,0:0:0:0:
256,192,54939,1,2,0:0:0:0:
256,192,55014,1,0,0:0:0:0:
256,192,55164,1,2,0:0:0:0:
256,192,55314,1,0,0:0:0:0:
256,192,55464,1,2,0:0:0:0:
256,192,55539,1,0,0:0:0:0:
256,192,55614,1,2,0:0:0:0:
256,192,55764,1,0,0:0:0:0:
256,192,55914,1,2,0:0:0:0:
256,192,55989,1,2,0:0:0:0:
256,192,56064,1,0,0:0:0:0:
256,192,56139,1,0,0:0:0:0:
256,192,56214,1,2,0:0:0:0:
256,192,56364,1,2,0:0:0:0:
256,192,56439,1,2,0:0:0:0:
256,192,56514,1,0,0:0:0:0:
256,192,56664,1,2,0:0:0:0:
256,192,56814,1,0,0:0:0:0:
256,192,56964,1,2,0:0:0:0:
256,192,57114,1,0,0:0:0:0:
256,192,57189,1,0,0:0:0:0:
256,192,57264,1,2,0:0:0:0:
256,192,57339,1,2,0:0:0:0:
256,192,57414,1,0,0:0:0:0:
256,192,57489,1,2,0:0:0:0:
256,192,57564,1,2,0:0:0:0:
256,192,57714,1,0,0:0:0:0:
256,192,57789,1,0,0:0:0:0:
256,192,57864,1,2,0:0:0:0:
256,192,57939,1,0,0:0:0:0:
256,192,58014,1,2,0:0:0:0:
256,192,58089,1,2,0:0:0:0:
256,192,58164,1,0,0:0:0:0:
256,192,58239,1,0,0:0:0:0:
256,192,58314,1,0,0:0:0:0:
256,192,58389,1,0,0:0:0:0:
256,192,58464,1,2,0:0:0:0:
256,192,58539,1,0,0:0:0:0:
256,192,58614,1,0,0:0:0:0:
256,192,58689,1,2,0:0:0:0:
256,192,58764,1,2,0:0:0:0:
256,192,58839,1,2,0:0:0:0:
256,192,58914,5,0,0:0:0:0:
256,192,59064,1,4,0:0:0:0:
256,192,59514,1,2,0:0:0:0:
256,192,60114,1,2,0:0:0:0:
256,192,60714,1,0,0:0:0:0:
256,192,60789,1,0,0:0:0:0:
256,192,60864,1,0,0:0:0:0:
256,192,60939,1,0,0:0:0:0:
256,192,61014,1,2,0:0:0:0:
256,192,61089,1,2,0:0:0:0:
256,192,61164,1,2,0:0:0:0:
256,192,61239,1,2,0:0:0:0:
256,192,61314,1,0,0:0:0:0:
256,192,61914,1,2,0:0:0:0:
256,192,62514,1,2,0:0:0:0:
256,192,63114,1,2,0:0:0:0:
256,192,63714,1,4,0:0:0:0:
256,192,63864,1,4,0:0:0:0:
256,192,64314,1,2,0:0:0:0:
256,192,64614,1,2,0:0:0:0:
256,192,64914,1,2,0:0:0:0:
256,192,65214,1,2,0:0:0:0:
256,192,65514,1,0,0:0:0:0:
256,192,65589,1,0,0:0:0:0:
256,192,65664,1,0,0:0:0:0:
256,192,65739,1,0,0:0:0:0:
256,192,65814,1,2,0:0:0:0:
256,192,65889,1,2,0:0:0:0:
256,192,65964,1,2,0:0:0:0:
256,192,66039,1,2,0:0:0:0:
256,192,66114,1,0,0:0:0:0:
256,192,66339,1,2,0:0:0:0:
256,192,66564,1,2,0:0:0:0:
256,192,66789,1,0,0:0:0:0:
256,192,67014,1,0,0:0:0:0:
256,192,67089,1,0,0:0:0:0:
256,192,67164,1,2,0:0:0:0:
256,192,67239,1,2,0:0:0:0:
256,192,67314,1,0,0:0:0:0:
256,192,67464,1,2,0:0:0:0:
256,192,67539,1,2,0:0:0:0:
256,192,67614,1,0,0:0:0:0:
256,192,67764,1,2,0:0:0:0:
256,192,67839,1,2,0:0:0:0:
256,192,67914,1,0,0:0:0:0:
256,192,68514,5,4,0:0:0:0:
256,192,68739,1,2,0:0:0:0:
256,192,68814,1,0,0:0:0:0:
256,192,68964,1,2,0:0:0:0:
256,192,69114,1,0,0:0:0:0:
256,192,69189,1,0,0:0:0:0:
256,192,69264,1,2,0:0:0:0:
256,192,69414,1,0,0:0:0:0:
256,192,69489,1,2,0:0:0:0:
256,192,69639,1,2,0:0:0:0:
256,192,69714,1,0,0:0:0:0:
256,192,69864,1,2,0:0:0:0:
256,192,69939,1,0,0:0:0:0:
256,192,70014,1,0,0:0:0:0:
256,192,70164,1,2,0:0:0:0:
256,192,70314,1,0,0:0:0:0:
256,192,70389,1,0,0:0:0:0:
256,192,70464,1,2,0:0:0:0:
256,192,70539,1,2,0:0:0:0:
256,192,70614,1,0,0:0:0:0:
256,192,70764,1,2,0:0:0:0:
256,192,70914,1,0,0:0:0:0:
256,192,70989,1,0,0:0:0:0:
256,192,71139,1,2,0:0:0:0:
256,192,71214,1,0,0:0:0:0:
256,192,71364,1,2,0:0:0:0:
256,192,71439,1,2,0:0:0:0:
256,192,71514,1,0,0:0:0:0:
256,192,71664,1,2,0:0:0:0:
256,192,71814,1,0,0:0:0:0:
256,192,71889,1,2,0:0:0:0:
256,192,72039,1,2,0:0:0:0:
256,192,72114,1,0,0:0:0:0:
256,192,72189,1,2,0:0:0:0:
256,192,72264,1,0,0:0:0:0:
256,192,72339,1,0,0:0:0:0:
256,192,72414,1,2,0:0:0:0:
256,192,72489,1,0,0:0:0:0:
256,192,72639,1,0,0:0:0:0:
256,192,72714,1,2,0:0:0:0:
256,192,72789,1,2,0:0:0:0:
256,192,72864,1,0,0:0:0:0:
256,192,73014,1,2,0:0:0:0:
256,192,73164,1,2,0:0:0:0:
256,192,73239,1,2,0:0:0:0:
256,192,73314,1,0,0:0:0:0:
256,192,73464,1,0,0:0:0:0:
256,192,73539,1,2,0:0:0:0:
256,192,73614,1,0,0:0:0:0:
256,192,73764,1,2,0:0:0:0:
256,192,73914,1,0,0:0:0:0:
256,192,73989,1,0,0:0:0:0:
256,192,74064,1,2,0:0:0:0:
256,192,74214,1,0,0:0:0:0:
256,192,74364,1,2,0:0:0:0:
256,192,74439,1,2,0:0:0:0:
256,192,74514,1,0,0:0:0:0:
256,192,74664,1,2,0:0:0:0:
256,192,74814,1,0,0:0:0:0:
256,192,74889,1,2,0:0:0:0:
256,192,75039,1,2,0:0:0:0:
256,192,75114,1,0,0:0:0:0:
256,192,75264,1,2,0:0:0:0:
256,192,75414,1,0,0:0:0:0:
256,192,75564,1,0,0:0:0:0:
256,192,75639,1,0,0:0:0:0:
256,192,75714,1,2,0:0:0:0:
256,192,75864,1,2,0:0:0:0:
256,192,76014,1,0,0:0:0:0:
256,192,76089,1,0,0:0:0:0:
256,192,76164,1,2,0:0:0:0:
256,192,76239,1,0,0:0:0:0:
256,192,76314,1,2,0:0:0:0:
256,192,76464,1,2,0:0:0:0:
256,192,76614,1,0,0:0:0:0:
256,192,76689,1,2,0:0:0:0:
256,192,76764,1,2,0:0:0:0:
256,192,76839,1,0,0:0:0:0:
256,192,76914,1,2,0:0:0:0:
256,192,77064,1,0,0:0:0:0:
256,192,77139,1,2,0:0:0:0:
256,192,77214,1,0,0:0:0:0:
256,192,77289,1,0,0:0:0:0:
256,192,77364,1,2,0:0:0:0:
256,192,77589,1,2,0:0:0:0:
256,192,77664,1,0,0:0:0:0:
256,192,77814,1,2,0:0:0:0:
256,192,77889,1,2,0:0:0:0:
256,192,77964,1,0,0:0:0:0:
256,192,78114,5,4,0:0:0:0:
256,192,78339,1,2,0:0:0:0:
256,192,78414,1,0,0:0:0:0:
256,192,78564,1,2,0:0:0:0:
256,192,78714,1,0,0:0:0:0:
256,192,78789,1,0,0:0:0:0:
256,192,78864,1,2,0:0:0:0:
256,192,79014,1,0,0:0:0:0:
256,192,79089,1,2,0:0:0:0:
256,192,79239,1,2,0:0:0:0:
256,192,79314,1,0,0:0:0:0:
256,192,79389,1,2,0:0:0:0:
256,192,79464,1,2,0:0:0:0:
256,192,79539,1,0,0:0:0:0:
256,192,79614,1,2,0:0:0:0:
256,192,79764,1,2,0:0:0:0:
256,192,79839,1,0,0:0:0:0:
256,192,79914,1,2,0:0:0:0:
256,192,79989,1,2,0:0:0:0:
256,192,80064,1,0,0:0:0:0:
256,192,80139,1,0,0:0:0:0:
256,192,80214,1,2,0:0:0:0:
256,192,80364,1,2,0:0:0:0:
256,192,80514,1,4,0:0:0:0:
256,192,80814,1,0,0:0:0:0:
256,192,80964,1,6,0:0:0:0:
256,192,81264,1,2,0:0:0:0:
256,192,81414,1,4,0:0:0:0:
256,192,81564,1,0,0:0:0:0:
256,192,81639,1,0,0:0:0:0:
256,192,81714,1,0,0:0:0:0:
256,192,81864,1,6,0:0:0:0:
256,192,82014,1,0,0:0:0:0:
256,192,82164,1,0,0:0:0:0:
256,192,82314,1,6,0:0:0:0:
256,192,82464,1,0,0:0:0:0:
256,192,82614,1,2,0:0:0:0:
256,192,82689,1,2,0:0:0:0:
256,192,82764,1,2,0:0:0:0:
256,192,82839,1,2,0:0:0:0:
256,192,82914,1,0,0:0:0:0:
256,192,83064,1,0,0:0:0:0:
256,192,83139,1,2,0:0:0:0:
256,192,83214,1,0,0:0:0:0:
256,192,83364,1,2,0:0:0:0:
256,192,83514,1,0,0:0:0:0:
256,192,83589,1,0,0:0:0:0:
256,192,83664,1,2,0:0:0:0:
256,192,83814,1,0,0:0:0:0:
256,192,83889,1,0,0:0:0:0:
256,192,83964,1,2,0:0:0:0:
256,192,84039,1,2,0:0:0:0:
256,192,84114,1,0,0:0:0:0:
256,192,84264,1,2,0:0:0:0:
256,192,84414,1,0,0:0:0:0:
256,192,84564,1,0,0:0:0:0:
256,192,84639,1,2,0:0:0:0:
256,192,84714,1,0,0:0:0:0:
256,192,84864,1,2,0:0:0:0:
256,192,85014,1,0,0:0:0:0:
256,192,85089,1,0,0:0:0:0:
256,192,85164,1,0,0:0:0:0:
256,192,85239,1,0,0:0:0:0:
256,192,85314,1,0,0:0:0:0:
256,192,85464,1,2,0:0:0:0:
256,192,85539,1,2,0:0:0:0:
256,192,85614,1,0,0:0:0:0:
256,192,85764,1,2,0:0:0:0:
256,192,85839,1,2,0:0:0:0:
256,192,85914,1,0,0:0:0:0:
256,192,86064,1,2,0:0:0:0:
256,192,86139,1,2,0:0:0:0:
256,192,86214,1,0,0:0:0:0:
256,192,86364,1,2,0:0:0:0:
256,192,86439,1,2,0:0:0:0:
256,192,86514,1,0,0:0:0:0:
256,192,86814,1,2,0:0:0:0:
256,192,87114,1,0,0:0:0:0:
256,192,87189,1,0,0:0:0:0:
256,192,87264,1,0,0:0:0:0:
256,192,87339,1,0,0:0:0:0:
256,192,87414,1,0,0:0:0:0:
256,192,87489,1,0,0:0:0:0:
256,192,87564,1,0,0:0:0:0:
256,192,87639,1,0,0:0:0:0:
256,192,87714,1,0,0:0:0:0:
256,192,88164,1,4,0:0:0:0:
256,192,89814,1,0,0:0:0:0:
256,192,89889,1,0,0:0:0:0:
256,192,89964,1,0,0:0:0:0:
256,192,90039,1,0,0:0:0:0:
256,192,90114,1,2,0:0:0:0:
256,192,90189,1,2,0:0:0:0:
256,192,90264,1,2,0:0:0:0:
256,192,90339,1,2,0:0:0:0:
256,192,90414,1,0,0:0:0:0:
256,192,90489,1,2,0:0:0:0:
256,192,90564,1,2,0:0:0:0:
256,192,90639,1,2,0:0:0:0:
256,192,90714,1,0,0:0:0:0:
256,192,90789,1,0,0:0:0:0:
256,192,90864,1,2,0:0:0:0:
256,192,90939,1,2,0:0:0:0:
256,192,91014,1,0,0:0:0:0:
256,192,91089,1,0,0:0:0:0:
256,192,91164,1,2,0:0:0:0:
256,192,91239,1,0,0:0:0:0:
256,192,91314,1,2,0:0:0:0:
256,192,91389,1,2,0:0:0:0:
256,192,91464,1,2,0:0:0:0:
256,192,91539,1,2,0:0:0:0:
256,192,91614,1,0,0:0:0:0:
256,192,91689,1,0,0:0:0:0:
256,192,91764,1,2,0:0:0:0:
256,192,91839,1,2,0:0:0:0:
256,192,91914,1,0,0:0:0:0:
256,192,92514,1,4,0:0:0:0:
256,192,92964,1,6,0:0:0:0:
256,192,93414,1,6,0:0:0:0:
256,192,93864,1,6,0:0:0:0:
256,192,94314,1,6,0:0:0:0:
256,192,94914,1,0,0:0:0:0:
256,192,95214,1,2,0:0:0:0:
256,192,95364,1,2,0:0:0:0:
256,192,95439,1,2,0:0:0:0:
256,192,95514,1,2,0:0:0:0:
256,192,95664,1,0,0:0:0:0:
256,192,95814,1,2,0:0:0:0:
256,192,95964,1,2,0:0:0:0:
256,192,96039,1,2,0:0:0:0:
256,192,96114,1,0,0:0:0:0:
256,192,96264,1,0,0:0:0:0:
256,192,96414,1,2,0:0:0:0:
256,192,96564,1,2,0:0:0:0:
256,192,96639,1,2,0:0:0:0:
256,192,96714,1,0,0:0:0:0:
256,192,96789,1,2,0:0:0:0:
256,192,96864,1,2,0:0:0:0:
256,192,96939,1,2,0:0:0:0:
256,192,97014,1,0,0:0:0:0:
256,192,97089,1,0,0:0:0:0:
256,192,97164,1,2,0:0:0:0:
256,192,97314,1,4,0:0:0:0:
256,192,97764,1,4,0:0:0:0:
256,192,99414,1,0,0:0:0:0:
256,192,99489,1,0,0:0:0:0:
256,192,99564,1,0,0:0:0:0:
256,192,99639,1,0,0:0:0:0:
256,192,99714,1,2,0:0:0:0:
256,192,99814,1,2,0:0:0:0:
256,192,99914,1,2,0:0:0:0:
256,192,100014,1,0,0:0:0:0:
256,192,100114,1,2,0:0:0:0:
256,192,100214,1,2,0:0:0:0:
256,192,100314,1,0,0:0:0:0:
256,192,100414,1,0,0:0:0:0:
256,192,100514,1,0,0:0:0:0:
256,192,100614,1,2,0:0:0:0:
256,192,100714,1,2,0:0:0:0:
256,192,100814,1,2,0:0:0:0:
256,192,100914,1,0,0:0:0:0:
256,192,101014,1,0,0:0:0:0:
256,192,101114,1,2,0:0:0:0:
256,192,101214,1,0,0:0:0:0:
256,192,101314,1,2,0:0:0:0:
256,192,101414,1,2,0:0:0:0:
256,192,101514,1,0,0:0:0:0:
256,192,101714,1,2,0:0:0:0:
256,192,101914,1,2,0:0:0:0:
256,192,102114,1,4,0:0:0:0:
256,192,102564,1,6,0:0:0:0:
256,192,103014,1,6,0:0:0:0:
256,192,103464,1,6,0:0:0:0:
256,192,103914,1,6,0:0:0:0:
256,192,104514,1,0,0:0:0:0:
256,192,104814,1,2,0:0:0:0:
256,192,104964,1,2,0:0:0:0:
256,192,105039,1,2,0:0:0:0:
256,192,105114,1,2,0:0:0:0:
256,192,105189,1,2,0:0:0:0:
256,192,105264,1,0,0:0:0:0:
256,192,105339,1,0,0:0:0:0:
256,192,105414,1,2,0:0:0:0:
256,192,105564,1,2,0:0:0:0:
256,192,105639,1,2,0:0:0:0:
256,192,105714,1,0,0:0:0:0:
256,192,105864,1,2,0:0:0:0:
256,192,105939,1,0,0:0:0:0:
256,192,106014,1,2,0:0:0:0:
256,192,106164,1,0,0:0:0:0:
256,192,106239,1,2,0:0:0:0:
256,192,106314,1,0,0:0:0:0:
256,192,106464,1,0,0:0:0:0:
256,192,106614,1,2,0:0:0:0:
256,192,106764,1,2,0:0:0:0:
