osu file format v14

[General]
AudioFilename: audio.mp3
AudioLeadIn: 0
PreviewTime: 67914
Countdown: 0
SampleSet: Normal
StackLeniency: 0.7
Mode: 1
LetterboxInBreaks: 0
WidescreenStoryboard: 0

[Editor]
DistanceSpacing: 1
BeatDivisor: 12
GridSize: 32
TimelineZoom: 2.7

[Metadata]
Title:Black Lotus
TitleUnicode:Black Lotus
Artist:wa.
ArtistUnicode:wa.
Creator:komasy
Version:Oni
Source:BMS
Tags:BOFU2016 Legendary Again GrimReaper ノリと勢い tasuke912
BeatmapID:1278551
BeatmapSetID:605096

[Difficulty]
HPDrainRate:6
CircleSize:2
OverallDifficulty:6
ApproachRate:5
SliderMultiplier:1.4
SliderTickRate:1

[Events]
//Background and Video events
0,0,"BackGround.jpg",0,0
//Break Periods
//Storyboard Layer 0 (Background)
//Storyboard Layer 1 (Fail)
//Storyboard Layer 2 (Pass)
//Storyboard Layer 3 (Foreground)
//Storyboard Sound Samples

[TimingPoints]
114,300,4,1,0,85,1,0
10839,-100,4,1,0,95,0,0
10914,-100,4,1,0,95,0,1
20514,-100,4,1,0,95,0,0
20589,-100,4,1,0,85,0,0
68439,-100,4,1,0,95,0,0
68514,-100,4,1,0,95,0,1
87714,-100,4,1,0,95,0,0
87789,-100,4,1,0,85,0,0

[HitObjects]
288,160,1314,5,4,0:0:0:0:
352,160,1464,1,4,0:0:0:0:
320,192,3114,5,0,0:0:0:0:
352,192,3189,1,0,0:0:0:0:
352,192,3264,1,0,0:0:0:0:
352,192,3339,1,0,0:0:0:0:
320,224,3414,1,0,0:0:0:0:
320,224,3564,1,0,0:0:0:0:
352,192,3639,1,0,0:0:0:0:
352,160,3714,1,0,0:0:0:0:
384,160,5064,1,8,0:0:0:0:
384,160,5364,1,8,0:0:0:0:
416,224,5514,1,8,0:0:0:0:
384,160,5814,1,8,0:0:0:0:
384,160,5964,1,8,0:0:0:0:
352,96,6114,1,4,0:0:0:0:
416,160,6264,1,4,0:0:0:0:
288,96,7914,5,0,0:0:0:0:
288,96,7989,1,0,0:0:0:0:
320,96,8064,1,0,0:0:0:0:
288,96,8139,1,0,0:0:0:0:
320,96,8214,1,0,0:0:0:0:
288,96,8364,1,0,0:0:0:0:
288,96,8439,1,0,0:0:0:0:
288,96,8514,1,0,0:0:0:0:
384,128,8739,1,0,0:0:0:0:
384,96,8964,1,0,0:0:0:0:
352,128,9189,1,0,0:0:0:0:
352,128,9414,1,0,0:0:0:0:
256,192,9714,1,0,0:0:0:0:
320,160,9864,1,8,0:0:0:0:
352,128,10014,1,0,0:0:0:0:
352,128,10164,1,0,0:0:0:0:
352,128,10314,1,8,0:0:0:0:
416,160,10614,1,8,0:0:0:0:
352,96,10764,1,8,0:0:0:0:
288,64,10914,1,4,0:0:0:0:
416,96,11214,1,0,0:0:0:0:
352,96,11364,1,8,0:0:0:0:
288,32,11514,1,0,0:0:0:0:
352,96,11739,1,8,0:0:0:0:
416,96,11814,1,0,0:0:0:0:
352,96,11964,1,8,0:0:0:0:
288,32,12114,1,0,0:0:0:0:
416,96,12414,1,0,0:0:0:0:
352,96,12564,1,8,0:0:0:0:
288,32,12714,1,0,0:0:0:0:
256,64,12864,1,8,0:0:0:0:
256,64,12939,1,8,0:0:0:0:
384,96,13014,1,0,0:0:0:0:
384,64,13314,1,0,0:0:0:0:
384,64,13614,1,0,0:0:0:0:
352,128,13764,1,8,0:0:0:0:
384,64,13914,1,0,0:0:0:0:
320,96,14139,1,8,0:0:0:0:
384,64,14214,1,0,0:0:0:0:
320,64,14364,1,8,0:0:0:0:
384,64,14514,1,0,0:0:0:0:
320,96,14814,1,0,0:0:0:0:
384,64,14964,1,8,0:0:0:0:
256,64,15114,1,0,0:0:0:0:
320,64,15189,1,8,0:0:0:0:
320,64,15264,1,8,0:0:0:0:
320,96,15339,1,8,0:0:0:0:
320,96,15414,1,0,0:0:0:0:
320,96,15564,1,0,0:0:0:0:
384,128,15714,1,0,0:0:0:0:
224,96,16014,1,0,0:0:0:0:
416,64,16164,1,8,0:0:0:0:
352,128,16314,1,0,0:0:0:0:
384,96,16464,1,8,0:0:0:0:
256,64,16614,1,0,0:0:0:0:
288,64,16689,1,8,0:0:0:0:
320,64,16764,1,8,0:0:0:0:
384,128,16914,1,0,0:0:0:0:
256,96,17214,1,0,0:0:0:0:
448,64,17364,1,8,0:0:0:0:
384,128,17514,1,0,0:0:0:0:
448,64,17664,1,8,0:0:0:0:
256,96,17814,1,0,0:0:0:0:
448,64,17889,1,0,0:0:0:0:
416,96,17964,1,8,0:0:0:0:
384,128,18114,1,0,0:0:0:0:
320,128,18264,1,8,0:0:0:0:
288,128,18564,1,8,0:0:0:0:
352,128,18639,1,8,0:0:0:0:
352,128,18714,1,0,0:0:0:0:
352,128,18864,1,8,0:0:0:0:
416,128,19164,1,8,0:0:0:0:
352,160,19314,1,0,0:0:0:0:
384,192,19389,1,0,0:0:0:0:
384,192,19464,1,0,0:0:0:0:
384,192,19614,1,8,0:0:0:0:
384,192,19689,1,8,0:0:0:0:
384,192,19764,1,8,0:0:0:0:
384,192,19914,1,0,0:0:0:0:
352,160,19989,1,0,0:0:0:0:
320,128,20064,1,0,0:0:0:0:
384,192,20139,1,0,0:0:0:0:
384,192,20214,1,8,0:0:0:0:
384,192,20364,1,0,0:0:0:0:
384,192,20514,1,12,0:0:0:0:
512,384,20964,2,4,L|320:192,2,245
384,128,22614,5,0,0:0:0:0:
384,128,22689,1,0,0:0:0:0:
373,126,22764,1,0,0:0:0:0:
330,121,22839,1,0,0:0:0:0:
416,96,22914,1,0,0:0:0:0:
335,101,23064,1,8,0:0:0:0:
320,96,23214,1,0,0:0:0:0:
320,128,23289,1,0,0:0:0:0:
352,160,23364,1,0,0:0:0:0:
416,64,23514,1,0,0:0:0:0:
352,160,23664,1,8,0:0:0:0:
448,96,23814,1,0,0:0:0:0:
379,120,23889,1,0,0:0:0:0:
384,128,23964,1,0,0:0:0:0:
416,128,24114,1,0,0:0:0:0:
384,160,24264,1,8,0:0:0:0:
320,160,24414,1,0,0:0:0:0:
352,160,24489,1,8,0:0:0:0:
352,160,24564,1,8,0:0:0:0:
416,160,24714,1,4,0:0:0:0:
480,320,25314,1,12,0:0:0:0:
384,128,25764,1,12,0:0:0:0:
384,96,26064,1,0,0:0:0:0:
384,128,26214,1,12,0:0:0:0:
384,96,26514,1,0,0:0:0:0:
384,128,26664,1,12,0:0:0:0:
384,96,26814,1,0,0:0:0:0:
384,96,26889,1,0,0:0:0:0:
384,96,26964,1,0,0:0:0:0:
384,96,27114,1,12,0:0:0:0:
416,192,27714,1,0,0:0:0:0:
480,128,28014,1,8,0:0:0:0:
512,160,28164,1,0,0:0:0:0:
448,128,28314,1,8,0:0:0:0:
384,128,28389,1,0,0:0:0:0:
384,128,28464,1,8,0:0:0:0:
320,96,28614,1,8,0:0:0:0:
288,96,28764,1,8,0:0:0:0:
224,96,28914,1,0,0:0:0:0:
256,96,28989,1,8,0:0:0:0:
288,128,29064,1,0,0:0:0:0:
352,128,29214,1,8,0:0:0:0:
416,128,29364,1,8,0:0:0:0:
448,128,29439,1,8,0:0:0:0:
480,128,29514,1,0,0:0:0:0:
480,128,29664,1,0,0:0:0:0:
480,128,29814,1,8,0:0:0:0:
416,128,29964,1,0,0:0:0:0:
384,192,30114,1,12,0:0:0:0:
448,352,30564,2,4,L|288:128,2,245
320,128,32214,1,0,0:0:0:0:
320,160,32289,1,0,0:0:0:0:
352,160,32364,1,0,0:0:0:0:
384,160,32514,1,0,0:0:0:0:
416,128,32614,1,0,0:0:0:0:
416,128,32714,1,0,0:0:0:0:
389,97,32814,1,8,0:0:0:0:
416,128,33114,1,8,0:0:0:0:
416,128,33214,1,0,0:0:0:0:
416,128,33314,1,0,0:0:0:0:
416,128,33414,1,8,0:0:0:0:
416,128,33714,1,0,0:0:0:0:
384,128,33814,1,8,0:0:0:0:
384,128,33914,1,8,0:0:0:0:
384,128,34014,1,0,0:0:0:0:
384,128,34214,1,8,0:0:0:0:
384,128,34314,1,0,0:0:0:0:
448,64,34514,1,0,0:0:0:0:
352,128,34714,1,0,0:0:0:0:
384,192,34914,1,12,0:0:0:0:
384,192,35364,1,12,0:0:0:0:
384,64,35664,1,0,0:0:0:0:
384,192,35814,1,12,0:0:0:0:
384,64,36114,1,0,0:0:0:0:
384,192,36264,1,12,0:0:0:0:
384,128,36414,1,0,0:0:0:0:
384,96,36489,1,0,0:0:0:0:
384,64,36564,1,0,0:0:0:0:
384,192,36714,1,12,0:0:0:0:
352,128,37314,1,0,0:0:0:0:
352,128,37614,1,8,0:0:0:0:
352,128,37764,1,0,0:0:0:0:
352,128,37914,1,8,0:0:0:0:
352,128,37989,1,0,0:0:0:0:
352,128,38064,1,8,0:0:0:0:
416,160,38214,1,8,0:0:0:0:
416,160,38364,1,8,0:0:0:0:
416,96,38514,1,0,0:0:0:0:
448,160,38664,1,8,0:0:0:0:
448,128,38739,1,8,0:0:0:0:
480,128,38814,1,0,0:0:0:0:
480,128,38964,1,0,0:0:0:0:
448,128,39114,1,8,0:0:0:0:
192,32,39714,1,4,0:0:0:0:
224,160,40014,1,0,0:0:0:0:
256,160,40089,1,0,0:0:0:0:
288,160,40164,1,8,0:0:0:0:
224,160,40314,1,0,0:0:0:0:
224,160,40614,1,0,0:0:0:0:
288,160,40764,1,8,0:0:0:0:
224,160,40914,1,0,0:0:0:0:
288,160,41064,1,8,0:0:0:0:
352,160,41214,1,0,0:0:0:0:
288,128,41289,1,8,0:0:0:0:
256,128,41364,1,8,0:0:0:0:
224,160,41514,1,0,0:0:0:0:
224,160,41814,1,8,0:0:0:0:
224,160,42114,1,0,0:0:0:0:
224,160,42414,1,0,0:0:0:0:
256,160,42489,1,0,0:0:0:0:
288,160,42564,1,8,0:0:0:0:
224,160,42714,1,0,0:0:0:0:
224,160,43014,1,0,0:0:0:0:
288,160,43164,1,8,0:0:0:0:
224,160,43314,1,0,0:0:0:0:
288,160,43464,1,8,0:0:0:0:
352,160,43614,1,0,0:0:0:0:
256,128,43689,1,8,0:0:0:0:
288,128,43839,1,8,0:0:0:0:
224,160,43914,1,0,0:0:0:0:
288,128,44064,1,0,0:0:0:0:
224,160,44214,1,8,0:0:0:0:
256,96,44364,1,0,0:0:0:0:
288,32,44514,1,0,0:0:0:0:
224,160,44814,1,0,0:0:0:0:
256,160,44889,1,0,0:0:0:0:
288,160,44964,1,8,0:0:0:0:
224,160,45114,1,0,0:0:0:0:
224,160,45414,1,0,0:0:0:0:
288,160,45564,1,8,0:0:0:0:
224,160,45714,1,0,0:0:0:0:
288,160,45864,1,8,0:0:0:0:
352,160,46014,1,0,0:0:0:0:
256,128,46089,1,8,0:0:0:0:
288,128,46164,1,8,0:0:0:0:
224,160,46314,1,0,0:0:0:0:
224,160,46614,1,8,0:0:0:0:
192,32,46914,1,0,0:0:0:0:
224,160,47214,1,0,0:0:0:0:
256,160,47289,1,0,0:0:0:0:
288,160,47364,1,8,0:0:0:0:
224,160,47514,1,0,0:0:0:0:
224,160,47814,1,0,0:0:0:0:
288,160,47964,1,8,0:0:0:0:
224,160,48114,1,0,0:0:0:0:
288,160,48264,1,8,0:0:0:0:
352,160,48414,1,0,0:0:0:0:
256,128,48489,1,8,0:0:0:0:
288,128,48639,1,8,0:0:0:0:
224,160,48714,1,0,0:0:0:0:
288,128,48864,1,8,0:0:0:0:
320,128,48939,1,8,0:0:0:0:
224,160,49014,1,8,0:0:0:0:
384,64,49164,1,8,0:0:0:0:
352,96,49314,1,4,0:0:0:0:
224,160,49614,1,0,0:0:0:0:
256,160,49689,1,0,0:0:0:0:
288,160,49764,1,8,0:0:0:0:
224,160,49914,1,0,0:0:0:0:
256,128,50064,1,0,0:0:0:0:
224,160,50214,1,8,0:0:0:0:
288,160,50364,1,8,0:0:0:0:
224,160,50514,1,0,0:0:0:0:
288,160,50664,1,8,0:0:0:0:
352,160,50814,1,0,0:0:0:0:
288,128,50889,1,8,0:0:0:0:
256,128,50964,1,8,0:0:0:0:
224,160,51114,1,0,0:0:0:0:
224,160,51414,1,8,0:0:0:0:
256,32,51714,1,0,0:0:0:0:
224,160,52014,1,0,0:0:0:0:
256,160,52089,1,0,0:0:0:0:
288,160,52164,1,8,0:0:0:0:
224,160,52314,1,0,0:0:0:0:
256,160,52464,1,0,0:0:0:0:
352,160,52614,1,8,0:0:0:0:
288,160,52764,1,8,0:0:0:0:
224,160,52914,1,0,0:0:0:0:
288,160,53064,1,8,0:0:0:0:
352,160,53214,1,0,0:0:0:0:
288,128,53289,1,8,0:0:0:0:
256,128,53439,1,8,0:0:0:0:
224,160,53514,1,0,0:0:0:0:
256,96,53664,1,0,0:0:0:0:
224,160,53814,1,8,0:0:0:0:
320,64,54114,1,4,0:0:0:0:
224,160,54414,1,0,0:0:0:0:
256,160,54489,1,0,0:0:0:0:
288,160,54564,1,8,0:0:0:0:
224,160,54714,1,0,0:0:0:0:
160,128,54864,1,0,0:0:0:0:
224,160,55014,1,8,0:0:0:0:
288,160,55164,1,0,0:0:0:0:
224,160,55314,1,0,0:0:0:0:
288,160,55464,1,8,0:0:0:0:
352,160,55614,1,0,0:0:0:0:
288,128,55689,1,8,0:0:0:0:
256,128,55764,1,8,0:0:0:0:
224,160,55914,1,0,0:0:0:0:
256,160,55989,1,0,0:0:0:0:
288,192,56064,1,0,0:0:0:0:
224,160,56214,1,8,0:0:0:0:
224,32,56514,1,0,0:0:0:0:
320,32,56664,1,8,0:0:0:0:
320,32,56964,1,8,0:0:0:0:
320,32,57114,1,0,0:0:0:0:
320,32,57264,1,8,0:0:0:0:
320,64,57339,1,8,0:0:0:0:
352,64,57414,1,0,0:0:0:0:
416,64,57564,1,8,0:0:0:0:
448,96,57714,1,0,0:0:0:0:
352,160,57789,1,0,0:0:0:0:
352,160,57864,1,0,0:0:0:0:
352,160,58014,1,8,0:0:0:0:
352,160,58089,1,8,0:0:0:0:
352,160,58164,1,8,0:0:0:0:
352,160,58314,1,0,0:0:0:0:
352,160,58389,1,0,0:0:0:0:
352,160,58464,1,0,0:0:0:0:
352,160,58539,1,0,0:0:0:0:
352,160,58614,1,8,0:0:0:0:
288,160,58764,1,8,0:0:0:0:
224,128,58914,1,4,0:0:0:0:
256,192,59064,1,4,0:0:0:0:
320,160,59514,1,8,0:0:0:0:
320,160,60114,1,8,0:0:0:0:
288,96,60564,1,8,0:0:0:0:
320,128,60714,1,0,0:0:0:0:
352,96,60789,1,0,0:0:0:0:
352,96,60864,1,0,0:0:0:0:
352,96,60939,1,0,0:0:0:0:
352,96,61014,1,0,0:0:0:0:
352,96,61164,1,0,0:0:0:0:
352,96,61239,1,0,0:0:0:0:
352,96,61314,1,0,0:0:0:0:
288,224,61614,1,8,0:0:0:0:
352,160,61814,1,8,0:0:0:0:
320,160,61914,1,8,0:0:0:0:
320,160,62214,1,8,0:0:0:0:
320,160,62414,1,8,0:0:0:0:
320,160,62514,1,8,0:0:0:0:
448,224,62814,1,8,0:0:0:0:
384,192,62914,1,8,0:0:0:0:
416,160,63014,1,8,0:0:0:0:
384,128,63114,1,8,0:0:0:0:
448,224,63414,1,8,0:0:0:0:
384,128,63714,1,4,0:0:0:0:
384,128,63864,1,4,0:0:0:0:
320,96,64014,1,8,0:0:0:0:
160,128,64314,1,8,0:0:0:0:
288,96,64614,1,8,0:0:0:0:
288,32,64914,1,8,0:0:0:0:
288,32,65214,1,8,0:0:0:0:
352,32,65364,1,8,0:0:0:0:
352,96,65514,1,0,0:0:0:0:
352,96,65589,1,0,0:0:0:0:
352,96,65664,1,0,0:0:0:0:
352,96,65739,1,0,0:0:0:0:
352,96,65814,1,0,0:0:0:0:
352,96,65964,1,0,0:0:0:0:
352,96,66039,1,0,0:0:0:0:
352,96,66114,1,0,0:0:0:0:
256,96,66339,1,0,0:0:0:0:
256,96,66564,1,0,0:0:0:0:
256,96,66789,1,0,0:0:0:0:
256,96,67014,1,0,0:0:0:0:
256,96,67089,1,0,0:0:0:0:
256,96,67164,1,8,0:0:0:0:
256,96,67239,1,8,0:0:0:0:
288,96,67314,1,0,0:0:0:0:
224,96,67464,1,8,0:0:0:0:
256,96,67539,1,8,0:0:0:0:
256,96,67614,1,0,0:0:0:0:
256,96,67764,1,8,0:0:0:0:
256,96,67839,1,0,0:0:0:0:
288,96,67914,1,8,0:0:0:0:
64,160,68514,1,4,0:0:0:0:
224,160,68814,1,0,0:0:0:0:
288,128,68964,1,8,0:0:0:0:
352,128,69114,1,0,0:0:0:0:
352,128,69189,1,0,0:0:0:0:
384,64,69264,1,0,0:0:0:0:
448,96,69414,1,8,0:0:0:0:
416,128,69714,1,0,0:0:0:0:
416,64,69864,1,8,0:0:0:0:
288,128,69939,1,8,0:0:0:0:
288,128,70014,1,0,0:0:0:0:
288,128,70164,1,8,0:0:0:0:
288,128,70314,1,0,0:0:0:0:
288,96,70389,1,0,0:0:0:0:
288,96,70464,1,0,0:0:0:0:
288,128,70614,1,8,0:0:0:0:
288,128,70764,1,8,0:0:0:0:
288,128,70914,1,0,0:0:0:0:
384,96,71214,1,0,0:0:0:0:
352,64,71364,1,8,0:0:0:0:
352,64,71514,1,0,0:0:0:0:
320,64,71589,1,0,0:0:0:0:
320,64,71664,1,0,0:0:0:0:
352,64,71814,1,8,0:0:0:0:
352,64,72114,1,0,0:0:0:0:
384,128,72264,1,8,0:0:0:0:
384,160,72339,1,8,0:0:0:0:
416,32,72414,1,0,0:0:0:0:
352,64,72564,1,8,0:0:0:0:
416,32,72714,1,0,0:0:0:0:
384,32,72789,1,0,0:0:0:0:
384,32,72864,1,8,0:0:0:0:
416,32,73014,1,0,0:0:0:0:
416,32,73164,1,0,0:0:0:0:
416,32,73239,1,8,0:0:0:0:
384,32,73314,1,0,0:0:0:0:
512,96,73614,1,0,0:0:0:0:
448,64,73764,1,8,0:0:0:0:
384,64,73914,1,0,0:0:0:0:
352,64,73989,1,0,0:0:0:0:
320,64,74064,1,8,0:0:0:0:
448,32,74214,1,8,0:0:0:0:
384,64,74514,1,0,0:0:0:0:
320,96,74664,1,0,0:0:0:0:
320,96,74814,1,8,0:0:0:0:
352,160,74964,1,0,0:0:0:0:
352,192,75114,1,8,0:0:0:0:
352,192,75189,1,8,0:0:0:0:
352,192,75264,1,0,0:0:0:0:
352,192,75414,1,8,0:0:0:0:
352,160,75714,1,8,0:0:0:0:
352,160,75864,1,8,0:0:0:0:
352,160,76014,1,0,0:0:0:0:
352,160,76089,1,0,0:0:0:0:
352,160,76164,1,0,0:0:0:0:
352,160,76314,1,8,0:0:0:0:
352,160,76464,1,8,0:0:0:0:
288,128,76614,1,0,0:0:0:0:
256,128,76689,1,0,0:0:0:0:
224,128,76764,1,0,0:0:0:0:
256,128,76914,1,8,0:0:0:0:
384,128,77214,1,0,0:0:0:0:
416,128,77289,1,0,0:0:0:0:
448,128,77364,1,8,0:0:0:0:
480,128,77664,1,0,0:0:0:0:
480,128,77739,1,0,0:0:0:0:
480,128,77814,1,8,0:0:0:0:
480,128,77889,1,8,0:0:0:0:
480,128,77964,1,8,0:0:0:0:
480,128,78039,1,8,0:0:0:0:
480,128,78114,1,0,0:0:0:0:
352,64,78414,1,0,0:0:0:0:
416,64,78564,1,8,0:0:0:0:
416,64,78714,1,0,0:0:0:0:
384,32,78789,1,0,0:0:0:0:
352,64,78864,1,8,0:0:0:0:
384,32,79014,1,0,0:0:0:0:
320,0,79164,1,8,0:0:0:0:
320,0,79314,1,0,0:0:0:0:
320,32,79614,1,0,0:0:0:0:
384,32,79764,1,8,0:0:0:0:
416,0,79914,1,0,0:0:0:0:
480,32,80064,1,8,0:0:0:0:
448,64,80139,1,8,0:0:0:0:
480,32,80214,1,0,0:0:0:0:
448,32,80364,1,0,0:0:0:0:
384,64,80514,1,12,0:0:0:0:
288,160,80814,1,0,0:0:0:0:
416,96,80964,1,12,0:0:0:0:
320,128,81264,1,0,0:0:0:0:
416,96,81414,1,12,0:0:0:0:
320,128,81714,1,0,0:0:0:0:
416,96,81864,1,12,0:0:0:0:
384,160,82164,1,0,0:0:0:0:
416,96,82314,1,12,0:0:0:0:
480,128,82464,1,0,0:0:0:0:
320,128,82614,1,0,0:0:0:0:
384,160,82689,1,0,0:0:0:0:
320,128,82764,1,0,0:0:0:0:
320,128,82914,1,12,0:0:0:0:
256,96,83064,1,0,0:0:0:0:
256,96,83214,1,0,0:0:0:0:
256,96,83364,1,0,0:0:0:0:
256,96,83514,1,0,0:0:0:0:
320,96,83664,1,0,0:0:0:0:
288,96,83739,1,8,0:0:0:0:
256,96,83814,1,0,0:0:0:0:
256,96,83964,1,0,0:0:0:0:
256,96,84114,1,12,0:0:0:0:
256,96,84264,1,0,0:0:0:0:
256,96,84414,1,0,0:0:0:0:
256,96,84564,1,0,0:0:0:0:
256,96,84714,1,0,0:0:0:0:
192,128,84864,1,8,0:0:0:0:
192,128,84939,1,8,0:0:0:0:
256,96,85014,1,0,0:0:0:0:
256,96,85164,1,8,0:0:0:0:
256,128,85314,1,0,0:0:0:0:
224,128,85464,1,8,0:0:0:0:
224,128,85539,1,0,0:0:0:0:
224,128,85614,1,0,0:0:0:0:
256,128,85689,1,0,0:0:0:0:
160,96,85764,1,8,0:0:0:0:
224,96,85914,1,0,0:0:0:0:
320,96,86064,1,8,0:0:0:0:
416,64,86139,1,8,0:0:0:0:
384,32,86214,1,0,0:0:0:0:
416,64,86289,1,0,0:0:0:0:
416,32,86364,1,8,0:0:0:0:
448,32,86514,1,0,0:0:0:0:
352,128,86814,1,8,0:0:0:0:
320,192,86964,1,8,0:0:0:0:
288,256,87114,1,0,0:0:0:0:
320,224,87189,1,0,0:0:0:0:
352,192,87264,1,0,0:0:0:0:
352,160,87414,1,0,0:0:0:0:
352,192,87489,1,0,0:0:0:0:
352,160,87564,1,0,0:0:0:0:
352,160,87639,1,0,0:0:0:0:
352,160,87714,1,8,0:0:0:0:
448,160,88164,2,4,L|192:192,2,245
384,128,89814,5,0,0:0:0:0:
384,128,89889,1,0,0:0:0:0:
384,128,89964,1,0,0:0:0:0:
384,128,90039,1,0,0:0:0:0:
416,96,90114,1,0,0:0:0:0:
320,96,90264,1,8,0:0:0:0:
320,96,90414,1,0,0:0:0:0:
352,128,90489,1,0,0:0:0:0:
318,133,90564,1,0,0:0:0:0:
416,64,90714,1,0,0:0:0:0:
384,64,90864,1,8,0:0:0:0:
448,96,91014,1,0,0:0:0:0:
448,96,91089,1,0,0:0:0:0:
405,106,91164,1,0,0:0:0:0:
416,128,91314,1,0,0:0:0:0:
384,128,91464,1,8,0:0:0:0:
352,96,91614,1,0,0:0:0:0:
320,64,91689,1,8,0:0:0:0:
320,64,91764,1,8,0:0:0:0:
320,64,91914,1,4,0:0:0:0:
480,320,92514,1,12,0:0:0:0:
384,128,92964,1,12,0:0:0:0:
256,128,93264,1,0,0:0:0:0:
384,128,93414,1,12,0:0:0:0:
256,128,93714,1,0,0:0:0:0:
384,128,93864,1,12,0:0:0:0:
320,128,94014,1,0,0:0:0:0:
352,128,94089,1,0,0:0:0:0:
384,128,94164,1,0,0:0:0:0:
384,96,94314,1,12,0:0:0:0:
416,192,94914,1,0,0:0:0:0:
480,128,95214,1,8,0:0:0:0:
512,160,95364,1,0,0:0:0:0:
448,128,95514,1,8,0:0:0:0:
384,128,95589,1,0,0:0:0:0:
384,128,95664,1,8,0:0:0:0:
320,96,95814,1,8,0:0:0:0:
288,96,95964,1,8,0:0:0:0:
224,96,96114,1,0,0:0:0:0:
256,96,96189,1,8,0:0:0:0:
288,128,96264,1,0,0:0:0:0:
352,128,96414,1,8,0:0:0:0:
416,128,96564,1,8,0:0:0:0:
448,128,96639,1,8,0:0:0:0:
480,128,96714,1,0,0:0:0:0:
480,128,96864,1,0,0:0:0:0:
480,128,97014,1,8,0:0:0:0:
416,128,97164,1,0,0:0:0:0:
384,192,97314,1,12,0:0:0:0:
448,352,97764,2,4,L|288:128,2,245
320,128,99414,1,0,0:0:0:0:
320,160,99489,1,0,0:0:0:0:
352,160,99564,1,0,0:0:0:0:
384,160,99714,1,0,0:0:0:0:
416,128,99814,1,0,0:0:0:0:
416,128,99914,1,0,0:0:0:0:
416,128,100014,1,8,0:0:0:0:
416,128,100314,1,8,0:0:0:0:
416,128,100414,1,0,0:0:0:0:
416,128,100514,1,0,0:0:0:0:
416,128,100614,1,8,0:0:0:0:
416,128,100914,1,0,0:0:0:0:
384,128,101014,1,8,0:0:0:0:
384,128,101114,1,8,0:0:0:0:
384,128,101214,1,0,0:0:0:0:
384,128,101414,1,8,0:0:0:0:
384,128,101514,1,0,0:0:0:0:
448,64,101714,1,0,0:0:0:0:
352,128,101914,1,0,0:0:0:0:
384,192,102114,1,12,0:0:0:0:
384,192,102564,1,12,0:0:0:0:
256,192,102864,1,0,0:0:0:0:
384,192,103014,1,12,0:0:0:0:
256,192,103314,1,0,0:0:0:0:
384,192,103464,1,12,0:0:0:0:
320,192,103614,1,0,0:0:0:0:
320,192,103689,1,0,0:0:0:0:
320,192,103764,1,0,0:0:0:0:
384,192,103914,1,12,0:0:0:0:
352,128,104514,1,0,0:0:0:0:
352,128,104814,1,8,0:0:0:0:
352,128,104964,1,0,0:0:0:0:
352,128,105114,1,8,0:0:0:0:
352,128,105189,1,0,0:0:0:0:
352,128,105264,1,8,0:0:0:0:
416,160,105414,1,0,0:0:0:0:
416,160,105564,1,8,0:0:0:0:
416,96,105714,1,0,0:0:0:0:
384,96,105789,1,0,0:0:0:0:
448,160,105864,1,8,0:0:0:0:
448,128,105939,1,8,0:0:0:0:
480,128,106014,1,0,0:0:0:0:
480,128,106164,1,8,0:0:0:0:
480,128,106239,1,8,0:0:0:0:
