osu file format v14

[General]
AudioFilename: audio.mp3
AudioLeadIn: 0
PreviewTime: 67914
Countdown: 0
SampleSet: Normal
StackLeniency: 0.7
Mode: 1
LetterboxInBreaks: 0
WidescreenStoryboard: 0

[Editor]
DistanceSpacing: 1
BeatDivisor: 12
GridSize: 32
TimelineZoom: 1.900001

[Metadata]
Title:Black Lotus
TitleUnicode:Black Lotus
Artist:wa.
ArtistUnicode:wa.
Creator:komasy
Version:Kantan
Source:BMS
Tags:BOFU2016 Legendary Again GrimReaper ノリと勢い tasuke912
BeatmapID:1279210
BeatmapSetID:605096

[Difficulty]
HPDrainRate:8
CircleSize:5
OverallDifficulty:3
ApproachRate:5
SliderMultiplier:1.2
SliderTickRate:1

[Events]
//Background and Video events
0,0,"BackGround.jpg",0,0
//Break Periods
//Storyboard Layer 0 (Background)
//Storyboard Layer 1 (Fail)
//Storyboard Layer 2 (Pass)
//Storyboard Layer 3 (Foreground)
//Storyboard Sound Samples

[TimingPoints]
114,300,4,1,0,85,1,0
10839,-100,4,1,0,95,0,0
10914,-100,4,1,0,95,0,1
20514,-100,4,1,0,95,0,0
20589,-100,4,1,0,85,0,0
68439,-100,4,1,0,95,0,0
68514,-100,4,1,0,95,0,1
87714,-100,4,1,0,95,0,0
87789,-100,4,1,0,85,0,0

[HitObjects]
288,160,1314,5,4,0:0:0:0:
320,192,3114,5,0,0:0:0:0:
320,224,3414,1,0,0:0:0:0:
352,160,3714,1,0,0:0:0:0:
352,96,6114,5,4,0:0:0:0:
288,96,7914,5,0,0:0:0:0:
320,96,8214,1,0,0:0:0:0:
288,96,8514,1,0,0:0:0:0:
384,96,8964,1,0,0:0:0:0:
352,128,9414,1,0,0:0:0:0:
288,64,10914,5,4,0:0:0:0:
288,32,11514,1,0,0:0:0:0:
288,32,12114,1,0,0:0:0:0:
416,128,13314,5,8,0:0:0:0:
416,128,13914,1,8,0:0:0:0:
416,128,14514,1,8,0:0:0:0:
384,128,15714,5,0,0:0:0:0:
352,128,16314,1,8,0:0:0:0:
352,32,16914,1,0,0:0:0:0:
384,128,18114,5,0,0:0:0:0:
384,128,18414,1,0,0:0:0:0:
288,128,18714,1,0,0:0:0:0:
384,192,19314,1,8,0:0:0:0:
384,192,20514,5,12,0:0:0:0:
192,96,20964,1,12,0:0:0:0:
384,128,22614,5,0,0:0:0:0:
416,96,22914,1,0,0:0:0:0:
285,97,23514,1,0,0:0:0:0:
416,128,24114,5,0,0:0:0:0:
136,150,24414,1,8,0:0:0:0:
288,128,24714,1,4,0:0:0:0:
480,320,25314,5,12,0:0:0:0:
384,128,26214,1,12,0:0:0:0:
384,96,27114,1,12,0:0:0:0:
416,192,27714,5,0,0:0:0:0:
224,96,28914,5,0,0:0:0:0:
480,128,29514,1,0,0:0:0:0:
384,192,30114,5,12,0:0:0:0:
192,128,30564,1,12,0:0:0:0:
320,128,32214,5,0,0:0:0:0:
384,160,32514,5,0,0:0:0:0:
416,128,33114,1,0,0:0:0:0:
416,128,33714,5,0,0:0:0:0:
160,64,34314,1,8,0:0:0:0:
384,192,34914,5,12,0:0:0:0:
384,192,35814,1,12,0:0:0:0:
384,192,36714,1,12,0:0:0:0:
352,128,37314,5,0,0:0:0:0:
416,96,38514,1,0,0:0:0:0:
320,352,39114,1,8,0:0:0:0:
192,32,39714,5,4,0:0:0:0:
224,160,40914,1,0,0:0:0:0:
224,160,41514,1,8,0:0:0:0:
352,160,41814,1,8,0:0:0:0:
224,160,42114,5,0,0:0:0:0:
224,160,43314,1,8,0:0:0:0:
288,32,44514,5,0,0:0:0:0:
128,224,45114,1,8,0:0:0:0:
224,160,45714,1,0,0:0:0:0:
224,160,46314,1,0,0:0:0:0:
256,128,46614,1,8,0:0:0:0:
192,32,46914,5,8,0:0:0:0:
224,160,48114,1,8,0:0:0:0:
352,96,49314,5,4,0:0:0:0:
64,96,49914,1,8,0:0:0:0:
224,160,50514,1,0,0:0:0:0:
224,160,51114,1,8,0:0:0:0:
224,160,51414,1,8,0:0:0:0:
256,32,51714,5,0,0:0:0:0:
224,160,53514,1,8,0:0:0:0:
320,64,54114,5,4,0:0:0:0:
224,160,54714,1,0,0:0:0:0:
224,160,55314,1,8,0:0:0:0:
224,160,55914,1,8,0:0:0:0:
224,32,56514,5,0,0:0:0:0:
320,32,57114,1,0,0:0:0:0:
320,64,57414,1,8,0:0:0:0:
448,96,57714,1,0,0:0:0:0:
224,128,58914,5,4,0:0:0:0:
320,128,60714,5,0,0:0:0:0:
352,96,61014,1,0,0:0:0:0:
352,96,61314,1,0,0:0:0:0:
384,128,63714,5,4,0:0:0:0:
288,32,65514,5,0,0:0:0:0:
352,96,65814,1,0,0:0:0:0:
256,192,66114,12,0,67914,0:0:0:0:
64,160,68514,5,4,0:0:0:0:
320,64,69114,1,8,0:0:0:0:
416,128,69714,1,0,0:0:0:0:
288,128,70014,1,8,0:0:0:0:
288,128,70314,1,8,0:0:0:0:
288,128,70914,5,0,0:0:0:0:
352,64,71514,1,8,0:0:0:0:
352,64,72114,1,0,0:0:0:0:
416,32,72414,1,0,0:0:0:0:
416,32,72714,1,8,0:0:0:0:
384,32,73314,5,0,0:0:0:0:
384,64,74514,1,8,0:0:0:0:
256,64,74814,1,0,0:0:0:0:
352,192,75114,1,8,0:0:0:0:
352,160,75714,5,12,0:0:0:0:
352,160,76314,1,12,0:0:0:0:
256,128,76914,1,12,0:0:0:0:
416,64,78114,5,4,0:0:0:0:
480,128,78714,1,0,0:0:0:0:
256,64,79314,1,8,0:0:0:0:
256,64,79914,1,0,0:0:0:0:
384,64,80514,5,12,0:0:0:0:
416,96,81414,1,12,0:0:0:0:
416,96,82314,1,12,0:0:0:0:
320,128,82914,5,12,0:0:0:0:
256,96,84114,1,12,0:0:0:0:
192,128,84714,1,8,0:0:0:0:
256,128,85314,5,0,0:0:0:0:
256,128,85914,1,0,0:0:0:0:
128,128,86214,1,0,0:0:0:0:
448,32,86514,1,8,0:0:0:0:
352,160,87714,5,12,0:0:0:0:
160,160,88164,1,12,0:0:0:0:
384,128,89814,5,0,0:0:0:0:
416,96,90114,5,0,0:0:0:0:
285,97,90714,1,0,0:0:0:0:
416,128,91314,1,0,0:0:0:0:
136,150,91614,1,8,0:0:0:0:
288,160,91914,1,4,0:0:0:0:
480,320,92514,5,12,0:0:0:0:
384,128,93414,1,12,0:0:0:0:
384,96,94314,1,12,0:0:0:0:
416,192,94914,5,0,0:0:0:0:
224,96,96114,1,0,0:0:0:0:
480,128,96714,1,0,0:0:0:0:
384,192,97314,5,12,0:0:0:0:
192,128,97764,1,12,0:0:0:0:
320,128,99414,1,0,0:0:0:0:
384,160,99714,5,0,0:0:0:0:
416,128,100314,1,0,0:0:0:0:
416,128,100914,1,0,0:0:0:0:
384,128,101514,1,8,0:0:0:0:
384,192,102114,5,12,0:0:0:0:
384,192,103014,1,12,0:0:0:0:
384,192,103914,1,12,0:0:0:0:
352,128,104514,5,0,0:0:0:0:
352,128,105114,1,8,0:0:0:0:
416,96,105714,1,0,0:0:0:0:
288,128,106014,1,8,0:0:0:0:
