osu file format v14

[General]
AudioFilename: audio.mp3
AudioLeadIn: 0
PreviewTime: 67914
Countdown: 0
SampleSet: Normal
StackLeniency: 0.7
Mode: 1
LetterboxInBreaks: 0
WidescreenStoryboard: 0

[Editor]
DistanceSpacing: 1
BeatDivisor: 12
GridSize: 32
TimelineZoom: 1.100001

[Metadata]
Title:Black Lotus
TitleUnicode:Black Lotus
Artist:wa.
ArtistUnicode:wa.
Creator:komasy
Version:Futsuu
Source:BMS
Tags:BOFU2016 Legendary Again GrimReaper ノリと勢い tasuke912
BeatmapID:1279193
BeatmapSetID:605096

[Difficulty]
HPDrainRate:7
CircleSize:2
OverallDifficulty:4
ApproachRate:5
SliderMultiplier:1.4
SliderTickRate:1

[Events]
//Background and Video events
0,0,"BackGround.jpg",0,0
//Break Periods
//Storyboard Layer 0 (Background)
//Storyboard Layer 1 (Fail)
//Storyboard Layer 2 (Pass)
//Storyboard Layer 3 (Foreground)
//Storyboard Sound Samples

[TimingPoints]
114,300,4,1,0,85,1,0
10839,-100,4,1,0,95,0,0
10914,-100,4,1,0,95,0,1
20514,-100,4,1,0,95,0,0
20589,-100,4,1,0,85,0,0
68439,-100,4,1,0,95,0,0
68514,-100,4,1,0,95,0,1
87714,-100,4,1,0,95,0,0
87789,-100,4,1,0,85,0,0

[HitObjects]
288,160,1314,5,4,0:0:0:0:
224,160,1464,1,4,0:0:0:0:
320,192,3114,5,0,0:0:0:0:
352,192,3264,1,0,0:0:0:0:
320,224,3414,1,0,0:0:0:0:
352,160,3714,1,0,0:0:0:0:
384,160,5064,1,8,0:0:0:0:
416,224,5514,1,8,0:0:0:0:
352,96,6114,5,4,0:0:0:0:
352,160,6264,1,4,0:0:0:0:
288,96,7914,5,0,0:0:0:0:
320,96,8064,1,0,0:0:0:0:
320,96,8214,1,0,0:0:0:0:
288,96,8514,1,0,0:0:0:0:
384,96,8964,1,0,0:0:0:0:
352,128,9414,1,0,0:0:0:0:
256,192,9714,5,0,0:0:0:0:
320,160,9864,1,8,0:0:0:0:
352,128,10014,1,0,0:0:0:0:
352,128,10314,1,8,0:0:0:0:
288,64,10914,5,4,0:0:0:0:
416,96,11214,1,0,0:0:0:0:
288,32,11514,1,8,0:0:0:0:
416,96,11814,1,8,0:0:0:0:
288,32,12114,1,0,0:0:0:0:
288,32,12264,1,0,0:0:0:0:
416,96,12414,1,0,0:0:0:0:
256,64,12714,1,0,0:0:0:0:
384,64,13314,5,8,0:0:0:0:
384,64,13614,1,8,0:0:0:0:
384,64,13914,1,0,0:0:0:0:
384,64,14214,1,0,0:0:0:0:
384,64,14514,1,8,0:0:0:0:
320,96,14814,1,8,0:0:0:0:
256,64,15114,1,8,0:0:0:0:
224,96,15264,1,8,0:0:0:0:
288,128,15414,1,8,0:0:0:0:
384,128,15714,5,0,0:0:0:0:
352,128,16314,1,0,0:0:0:0:
256,64,16614,1,8,0:0:0:0:
384,128,16914,1,0,0:0:0:0:
384,128,17214,1,8,0:0:0:0:
256,96,17514,1,0,0:0:0:0:
384,128,18114,5,0,0:0:0:0:
320,128,18264,1,8,0:0:0:0:
288,128,18564,1,8,0:0:0:0:
352,128,18864,1,8,0:0:0:0:
416,128,19164,1,8,0:0:0:0:
352,160,19314,1,0,0:0:0:0:
384,192,19614,1,0,0:0:0:0:
352,192,19914,1,0,0:0:0:0:
288,224,20064,1,0,0:0:0:0:
384,192,20214,1,0,0:0:0:0:
384,192,20514,5,12,0:0:0:0:
192,96,20964,1,12,0:0:0:0:
384,128,22614,5,0,0:0:0:0:
384,128,22764,1,0,0:0:0:0:
416,96,22914,1,0,0:0:0:0:
320,96,23214,1,0,0:0:0:0:
416,64,23514,1,0,0:0:0:0:
320,96,24114,1,0,0:0:0:0:
320,96,24264,1,0,0:0:0:0:
320,160,24414,1,8,0:0:0:0:
416,160,24714,1,4,0:0:0:0:
480,320,25314,5,12,0:0:0:0:
384,128,25764,1,12,0:0:0:0:
384,128,26214,1,12,0:0:0:0:
384,128,26664,1,12,0:0:0:0:
384,96,27114,1,12,0:0:0:0:
416,192,27714,5,0,0:0:0:0:
480,128,28014,1,8,0:0:0:0:
448,128,28314,1,8,0:0:0:0:
384,128,28464,1,8,0:0:0:0:
320,96,28614,1,8,0:0:0:0:
224,96,28914,1,0,0:0:0:0:
320,192,29214,1,8,0:0:0:0:
480,128,29514,1,0,0:0:0:0:
384,192,30114,5,12,0:0:0:0:
192,128,30564,1,12,0:0:0:0:
320,128,32214,1,0,0:0:0:0:
352,160,32364,1,0,0:0:0:0:
384,160,32514,1,0,0:0:0:0:
416,128,32814,5,8,0:0:0:0:
384,128,33114,1,0,0:0:0:0:
416,128,33414,1,8,0:0:0:0:
416,128,33714,1,0,0:0:0:0:
384,128,34314,1,0,0:0:0:0:
448,64,34514,1,0,0:0:0:0:
352,96,34714,1,0,0:0:0:0:
384,192,34914,5,12,0:0:0:0:
384,192,35364,1,12,0:0:0:0:
384,192,35814,1,12,0:0:0:0:
384,192,36264,1,12,0:0:0:0:
384,192,36714,1,12,0:0:0:0:
352,128,37314,5,0,0:0:0:0:
352,128,37614,1,8,0:0:0:0:
352,128,37914,1,8,0:0:0:0:
352,128,38064,1,8,0:0:0:0:
320,96,38214,1,8,0:0:0:0:
416,96,38514,1,0,0:0:0:0:
480,128,38814,1,0,0:0:0:0:
448,128,39114,1,8,0:0:0:0:
192,32,39714,5,4,0:0:0:0:
224,160,40014,1,8,0:0:0:0:
224,160,40314,1,0,0:0:0:0:
224,160,40914,1,0,0:0:0:0:
352,160,41214,1,0,0:0:0:0:
224,160,41514,1,8,0:0:0:0:
224,160,41814,1,8,0:0:0:0:
224,160,42114,5,0,0:0:0:0:
224,160,42414,1,8,0:0:0:0:
224,160,42714,1,0,0:0:0:0:
224,160,43314,1,0,0:0:0:0:
256,64,43614,1,8,0:0:0:0:
224,160,43914,1,8,0:0:0:0:
224,160,44214,1,0,0:0:0:0:
288,32,44514,5,0,0:0:0:0:
224,160,44814,1,8,0:0:0:0:
224,160,45114,1,0,0:0:0:0:
224,160,45714,1,0,0:0:0:0:
256,128,46014,1,0,0:0:0:0:
224,160,46314,1,8,0:0:0:0:
224,160,46614,1,8,0:0:0:0:
192,32,46914,5,0,0:0:0:0:
224,160,47214,1,8,0:0:0:0:
224,160,47514,1,0,0:0:0:0:
224,160,48114,1,8,0:0:0:0:
224,32,48414,1,0,0:0:0:0:
512,192,48714,1,0,0:0:0:0:
448,192,48864,1,8,0:0:0:0:
480,224,49164,1,8,0:0:0:0:
352,96,49314,5,4,0:0:0:0:
128,32,49614,1,8,0:0:0:0:
224,160,49914,1,0,0:0:0:0:
224,160,50514,1,0,0:0:0:0:
224,160,50814,1,0,0:0:0:0:
256,128,51114,1,8,0:0:0:0:
224,160,51414,1,8,0:0:0:0:
256,32,51714,5,0,0:0:0:0:
192,128,52014,1,8,0:0:0:0:
288,64,52314,1,0,0:0:0:0:
224,160,52914,1,0,0:0:0:0:
288,160,53064,1,0,0:0:0:0:
352,160,53214,1,0,0:0:0:0:
224,160,53514,1,8,0:0:0:0:
320,64,54114,5,4,0:0:0:0:
224,160,54414,1,0,0:0:0:0:
288,160,54714,1,8,0:0:0:0:
224,160,55314,1,8,0:0:0:0:
352,128,55614,1,0,0:0:0:0:
224,160,55914,1,8,0:0:0:0:
224,32,56514,5,0,0:0:0:0:
288,160,57114,1,0,0:0:0:0:
320,32,57264,1,8,0:0:0:0:
320,64,57414,1,8,0:0:0:0:
448,96,57714,1,0,0:0:0:0:
352,160,58314,1,0,0:0:0:0:
224,128,58914,5,4,0:0:0:0:
256,192,59064,1,4,0:0:0:0:
320,128,60714,1,0,0:0:0:0:
352,96,60864,1,0,0:0:0:0:
352,96,61014,1,0,0:0:0:0:
352,96,61314,5,0,0:0:0:0:
320,160,61914,1,8,0:0:0:0:
384,128,63114,1,8,0:0:0:0:
384,128,63714,5,4,0:0:0:0:
384,128,63864,1,4,0:0:0:0:
160,128,64314,1,8,0:0:0:0:
416,96,64914,1,8,0:0:0:0:
352,96,65514,1,0,0:0:0:0:
352,96,65664,1,0,0:0:0:0:
352,96,65814,1,0,0:0:0:0:
352,96,66114,5,0,0:0:0:0:
256,96,66564,1,0,0:0:0:0:
256,96,67014,1,0,0:0:0:0:
288,96,67314,1,0,0:0:0:0:
256,96,67614,1,0,0:0:0:0:
288,96,67914,1,8,0:0:0:0:
64,160,68514,5,4,0:0:0:0:
224,160,68814,1,0,0:0:0:0:
288,128,68964,1,8,0:0:0:0:
352,128,69114,1,0,0:0:0:0:
416,128,69714,1,8,0:0:0:0:
288,128,70014,1,8,0:0:0:0:
288,128,70164,1,8,0:0:0:0:
288,128,70314,1,0,0:0:0:0:
288,128,70914,5,0,0:0:0:0:
384,96,71214,1,0,0:0:0:0:
352,64,71364,1,8,0:0:0:0:
352,64,71514,1,8,0:0:0:0:
352,64,72114,1,0,0:0:0:0:
288,64,72414,1,0,0:0:0:0:
416,32,72564,1,8,0:0:0:0:
352,64,72714,1,0,0:0:0:0:
384,32,73314,5,0,0:0:0:0:
448,64,73614,1,8,0:0:0:0:
320,96,73914,1,0,0:0:0:0:
384,64,74514,1,0,0:0:0:0:
320,96,74814,1,8,0:0:0:0:
352,160,74964,1,0,0:0:0:0:
352,192,75114,1,8,0:0:0:0:
352,192,75414,1,0,0:0:0:0:
352,160,75714,5,12,0:0:0:0:
352,160,75864,1,12,0:0:0:0:
352,160,76314,1,12,0:0:0:0:
352,160,76464,1,12,0:0:0:0:
256,128,76914,1,12,0:0:0:0:
448,128,77364,1,8,0:0:0:0:
256,32,77814,1,8,0:0:0:0:
480,128,78114,5,4,0:0:0:0:
416,64,78714,1,8,0:0:0:0:
288,160,79014,1,0,0:0:0:0:
256,64,79314,1,8,0:0:0:0:
480,32,79614,1,8,0:0:0:0:
416,0,79764,1,8,0:0:0:0:
384,32,79914,1,0,0:0:0:0:
480,32,80214,1,0,0:0:0:0:
384,64,80514,5,12,0:0:0:0:
416,96,80964,1,12,0:0:0:0:
416,96,81414,1,12,0:0:0:0:
416,96,81864,1,12,0:0:0:0:
416,96,82314,1,12,0:0:0:0:
320,128,82914,5,12,0:0:0:0:
256,96,83514,1,0,0:0:0:0:
192,128,83664,1,0,0:0:0:0:
256,96,83814,1,0,0:0:0:0:
256,96,84114,1,12,0:0:0:0:
256,96,84714,1,8,0:0:0:0:
320,96,84864,1,8,0:0:0:0:
320,96,85014,1,8,0:0:0:0:
256,128,85314,5,0,0:0:0:0:
384,64,85464,1,8,0:0:0:0:
256,96,85764,1,8,0:0:0:0:
416,32,86064,1,8,0:0:0:0:
448,160,86364,1,8,0:0:0:0:
448,32,86514,1,0,0:0:0:0:
288,256,87114,1,0,0:0:0:0:
352,192,87264,1,0,0:0:0:0:
352,160,87414,1,0,0:0:0:0:
352,160,87714,5,12,0:0:0:0:
160,160,88164,1,12,0:0:0:0:
384,128,89814,5,0,0:0:0:0:
384,128,89964,1,0,0:0:0:0:
416,96,90114,5,0,0:0:0:0:
320,96,90414,1,0,0:0:0:0:
416,64,90714,1,0,0:0:0:0:
416,128,91314,1,0,0:0:0:0:
352,96,91464,1,0,0:0:0:0:
320,160,91614,1,8,0:0:0:0:
416,160,91914,1,4,0:0:0:0:
480,320,92514,5,12,0:0:0:0:
384,128,92964,1,12,0:0:0:0:
384,128,93414,1,12,0:0:0:0:
384,128,93864,1,12,0:0:0:0:
384,96,94314,1,12,0:0:0:0:
416,192,94914,5,0,0:0:0:0:
480,128,95214,1,8,0:0:0:0:
448,128,95514,1,8,0:0:0:0:
384,128,95664,1,8,0:0:0:0:
320,96,95814,1,8,0:0:0:0:
224,96,96114,1,0,0:0:0:0:
352,128,96414,1,8,0:0:0:0:
480,128,96714,1,0,0:0:0:0:
384,192,97314,5,12,0:0:0:0:
192,128,97764,1,12,0:0:0:0:
320,128,99414,1,0,0:0:0:0:
352,160,99564,1,0,0:0:0:0:
384,160,99714,5,0,0:0:0:0:
384,128,100014,1,8,0:0:0:0:
416,128,100314,1,0,0:0:0:0:
416,128,100614,1,8,0:0:0:0:
416,128,100914,1,0,0:0:0:0:
384,128,101514,1,0,0:0:0:0:
448,64,101714,1,0,0:0:0:0:
352,96,101914,1,0,0:0:0:0:
384,192,102114,5,12,0:0:0:0:
384,192,102564,1,12,0:0:0:0:
384,192,103014,1,12,0:0:0:0:
384,192,103464,1,12,0:0:0:0:
384,192,103914,1,12,0:0:0:0:
352,128,104514,5,0,0:0:0:0:
352,128,104814,1,8,0:0:0:0:
352,128,105114,1,8,0:0:0:0:
352,128,105264,1,8,0:0:0:0:
320,96,105414,1,8,0:0:0:0:
416,96,105714,1,0,0:0:0:0:
480,128,106014,1,0,0:0:0:0:
480,128,106164,1,8,0:0:0:0:
