osu file format v14

[General]
AudioFilename: audio.mp3
AudioLeadIn: 0
PreviewTime: 67835
Countdown: 0
SampleSet: Soft
StackLeniency: 0.7
Mode: 2
LetterboxInBreaks: 0
WidescreenStoryboard: 1

[Editor]
DistanceSpacing: 1.1
BeatDivisor: 4
GridSize: 8
TimelineZoom: 2

[Metadata]
Title:Black Lotus
TitleUnicode:Black Lotus
Artist:wa.
ArtistUnicode:wa.
Creator:Roxy Migurdia
Version:Rain
Source:
Tags:CHUNITHM CRYSTAL Arcaea SOUND VOLTEX VIVID WAVE sdvx BMS OF FIGHTERS ULTIMATE 2016 Legendary Again bofu wa. black lotus rocma electronic instrumental video game
BeatmapID:2966149
BeatmapSetID:1441882

[Difficulty]
HPDrainRate:5
CircleSize:3.8
OverallDifficulty:9
ApproachRate:9
SliderMultiplier:1.92
SliderTickRate:1

[Events]
//Background and Video events
0,0,"123.jpg",0,0
//Break Periods
//Storyboard Layer 0 (Background)
//Storyboard Layer 1 (Fail)
//Storyboard Layer 2 (Pass)
//Storyboard Layer 3 (Foreground)
//Storyboard Layer 4 (Overlay)
//Storyboard Sound Samples

[TimingPoints]
1310,300,4,2,3,80,1,0
1385,-100,4,2,3,60,0,0
3710,-100,4,2,3,60,0,0
6110,-100,4,2,3,80,0,0
6185,-100,4,2,3,60,0,0
10910,-100,4,2,3,70,0,0
20510,-100,4,2,3,80,0,0
20585,-100,4,2,3,60,0,0
25310,-100,4,2,3,80,0,0
25385,-100,4,2,3,60,0,0
30110,-100,4,2,3,80,0,0
30185,-100,4,2,3,60,0,0
34910,-100,4,2,3,80,0,0
34985,-100,4,2,3,60,0,0
39710,-100,4,2,3,80,0,0
59060,-100,4,2,3,60,0,0
63710,-100,4,2,3,80,0,0
63785,-100,4,2,3,60,0,0
66110,-100,4,2,3,70,0,0
68510,-100,4,2,3,80,0,1
87710,-100,4,2,3,80,0,0
87785,-100,4,2,3,60,0,0
92510,-100,4,2,3,80,0,0
92585,-100,4,2,3,60,0,0
97310,-100,4,2,3,80,0,0
97385,-100,4,2,3,60,0,0
102110,-100,4,2,3,80,0,0
102185,-100,4,2,3,60,0,0
106310,-100,4,2,3,60,0,0
106385,-100,4,2,3,45,0,0
106535,-100,4,2,3,30,0,0
106685,-100,4,2,3,15,0,0

[Colours]
Combo1 : 128,128,128
Combo2 : 128,0,128

[HitObjects]
128,208,1310,5,8,0:1:0:0:
272,208,1460,2,0,B|399:351|399:351|272:207|272:207|415:76|415:76|272:207|272:207|256:88,1,864,0|0,0:0|0:0,0:0:0:0:
328,232,3110,5,2,0:0:0:0:
376,208,3185,1,0,0:0:0:0:
374,162,3260,1,0,0:0:0:0:
324,143,3335,1,0,0:0:0:0:
240,136,3410,1,0,0:0:0:0:
194,104,3485,1,0,0:0:0:0:
196,58,3560,1,0,0:0:0:0:
245,39,3635,1,0,0:0:0:0:
344,40,3710,5,2,0:0:0:0:
440,104,3860,1,0,0:0:0:0:
456,168,4010,1,0,0:0:0:0:
432,224,4160,1,0,0:0:0:0:
344,40,4310,5,0,0:0:0:0:
440,104,4460,1,0,0:0:0:0:
456,168,4610,1,0,0:0:0:0:
432,224,4760,1,0,0:0:0:0:
312,160,4910,5,0,0:0:0:0:
216,224,5060,1,0,0:0:0:0:
200,288,5210,1,0,0:0:0:0:
224,344,5360,1,0,0:0:0:0:
312,160,5510,5,0,0:0:0:0:
216,224,5660,1,0,0:0:0:0:
200,288,5810,1,0,0:0:0:0:
240,344,5960,1,0,0:0:0:0:
496,168,6110,5,8,0:1:0:0:
352,168,6260,2,0,B|225:311|225:311|352:167|352:167|209:36|209:36|352:167|352:167|242:165,1,864,0|0,0:0|0:0,0:0:0:0:
384,344,7910,5,2,0:0:0:0:
424,312,7985,1,0,0:0:0:0:
384,264,8060,1,0,0:0:0:0:
336,264,8135,1,0,0:0:0:0:
312,224,8210,1,0,0:0:0:0:
336,192,8285,1,0,0:0:0:0:
384,176,8360,1,0,0:0:0:0:
424,136,8435,1,0,0:0:0:0:
384,88,8510,6,0,L|224:80,3,144,2|2|2|2,0:0|0:0|0:0|0:0,0:0:0:0:
40,160,9410,6,0,L|240:136,1,192,2|2,0:0|0:0,0:0:0:0:
368,128,9860,1,0,0:0:0:0:
256,176,10010,2,0,L|248:280,1,96,0|0,0:0|0:0,0:0:0:0:
128,240,10310,1,2,0:0:0:0:
240,200,10460,1,0,0:0:0:0:
248,136,10610,1,2,0:0:0:0:
184,80,10760,1,0,0:0:0:0:
432,200,10910,6,0,L|448:96,1,96,2|0,0:0|0:0,0:0:0:0:
336,192,11210,2,0,L|320:88,1,96,8|0,0:0|0:0,0:0:0:0:
440,248,11510,2,0,L|456:144,1,96,0|0,0:0|0:0,0:0:0:0:
344,240,11810,2,0,L|328:136,1,96,8|0,0:0|0:0,0:0:0:0:
104,104,12110,6,0,L|208:104,1,96,0|0,0:0|0:0,0:0:0:0:
104,104,12410,2,0,L|208:104,1,96,8|0,0:0|0:0,0:0:0:0:
416,112,12710,2,0,L|312:112,1,96,0|0,0:0|0:0,0:0:0:0:
416,112,13010,2,0,L|312:112,1,96,8|0,0:0|0:0,0:0:0:0:
80,232,13310,6,0,L|88:120,1,96,2|0,0:0|0:0,0:0:0:0:
216,160,13610,2,0,L|320:160,1,96,8|0,0:0|0:0,0:0:0:0:
200,128,13910,2,0,L|208:16,1,96,0|0,0:0|0:0,0:0:0:0:
336,56,14210,2,0,L|440:56,1,96,8|0,0:0|0:0,0:0:0:0:
208,208,14510,5,0,0:0:0:0:
160,120,14660,1,0,0:0:0:0:
224,40,14810,1,8,0:0:0:0:
360,16,14960,1,0,0:0:0:0:
78,296,15110,1,0,0:0:0:0:
40,264,15185,1,0,0:0:0:0:
56,224,15260,1,0,0:0:0:0:
107,208,15335,1,0,0:0:0:0:
180,199,15410,1,8,0:0:0:0:
232,184,15485,1,0,0:0:0:0:
254,141,15560,1,0,0:0:0:0:
232,98,15635,1,0,0:0:0:0:
56,64,15710,6,0,P|32:144|120:224,1,192,2|8,0:0|0:0,0:0:0:0:
200,200,16160,1,0,0:0:0:0:
320,160,16310,2,0,L|328:64,1,96,0|0,0:0|0:0,0:0:0:0:
208,128,16610,2,0,L|200:32,1,96,8|0,0:0|0:0,0:0:0:0:
360,248,16910,6,0,L|368:152,1,96,0|0,0:0|0:0,0:0:0:0:
256,216,17210,2,0,L|248:120,1,96,8|0,0:0|0:0,0:0:0:0:
368,88,17510,2,0,L|256:88,3,96,0|0|8|0,0:0|0:0|0:0|0:0,0:0:0:0:
32,80,18110,5,2,0:0:0:0:
160,120,18260,2,0,L|168:72,2,48,8|0|0,0:0|0:0|0:0,0:0:0:0:
56,80,18560,6,0,L|48:32,2,48,8|0|0,0:0|0:0|0:0,0:0:0:0:
152,136,18860,2,0,L|208:136,1,48,8|0,0:0|0:0,0:0:0:0:
152,184,19010,5,0,0:0:0:0:
128,224,19085,1,0,0:0:0:0:
160,264,19160,1,8,0:0:0:0:
432,208,19310,5,2,0:0:0:0:
464,168,19385,1,0,0:0:0:0:
448,128,19460,1,0,0:0:0:0:
404,116,19535,1,0,0:0:0:0:
360,112,19610,5,0,0:0:0:0:
328,80,19685,1,0,0:0:0:0:
336,32,19760,1,0,0:0:0:0:
372,20,19835,1,0,0:0:0:0:
424,24,19910,6,0,L|456:64,2,48,2|0|0,0:0|0:0|0:0,0:0:0:0:
368,128,20135,2,0,L|328:176,2,48,0|2|0,0:0|0:0|0:0,0:0:0:0:
424,112,20360,2,0,L|464:168,1,48,0|0,0:0|0:0,0:0:0:0:
256,120,20510,6,0,L|152:120,1,96,8|0,0:1|0:0,0:0:0:0:
352,344,20960,6,0,B|232:344|136:304|110:192|136:96|232:24|360:32|360:32|160:256,1,864,2|0,0:0|0:0,0:0:0:0:
336,136,22610,2,0,L|344:192,1,48,0|0,0:0|0:0,0:0:0:0:
272,184,22760,2,0,L|264:256,1,48,0|0,0:0|0:0,0:0:0:0:
432,272,22910,6,0,L|480:272,2,48,2|0|0,0:0|0:0|0:0,0:0:0:0:
336,272,23210,1,0,0:0:0:0:
384,272,23285,1,0,0:0:0:0:
432,272,23360,1,0,0:0:0:0:
184,208,23510,6,0,L|136:208,2,48,2|0|0,0:0|0:0|0:0,0:0:0:0:
280,208,23810,1,0,0:0:0:0:
232,208,23885,1,0,0:0:0:0:
184,208,23960,1,0,0:0:0:0:
320,152,24110,2,0,L|328:48,1,96,2|0,0:0|0:0,0:0:0:0:
208,200,24410,1,0,0:0:0:0:
112,200,24560,1,0,0:0:0:0:
376,256,24710,6,0,L|384:144,1,96,2|0,0:0|0:0,0:0:0:0:
272,112,25010,2,0,L|278:207,1,96,0|0,0:0|0:0,0:0:0:0:
64,176,25310,2,0,P|26:107|120:56,1,192,8|0,0:1|0:0,0:0:0:0:
328,64,25760,2,0,P|366:133|272:184,1,192,2|0,0:0|0:0,0:0:0:0:
56,160,26210,2,0,L|256:160,1,192,8|0,0:1|0:0,0:0:0:0:
472,160,26660,2,0,L|272:160,1,192,2|0,0:0|0:0,0:0:0:0:
40,288,27110,6,0,B|24:224|128:192|128:192|128:24|128:24|56:24,1,384,8|2,0:1|0:0,0:0:0:0:
160,24,27860,1,0,0:0:0:0:
256,80,28010,2,0,L|160:80,1,96,8|0,0:0|0:0,0:0:0:0:
256,184,28310,5,0,0:0:0:0:
360,184,28460,1,2,0:0:0:0:
240,128,28610,2,0,L|232:56,2,48,8|0|0,0:0|0:0|0:0,0:0:0:0:
368,256,28910,6,0,L|376:128,1,96,2|0,0:0|0:0,0:0:0:0:
246,158,29210,2,0,L|238:94,2,48,8|0|0,0:0|0:0|0:0,0:0:0:0:
352,80,29510,6,0,L|456:80,3,96,0|2|8|0,0:0|0:0|0:0|0:0,0:0:0:0:
165,225,30110,6,0,P|112:144|200:128,1,192,8|0,0:1|0:0,0:0:0:0:
400,216,30560,2,0,B|259:343|259:343|400:216|400:216|254:83|254:83|400:215|400:215|384:120,1,864,2|0,0:0|0:0,0:0:0:0:
136,168,32210,2,0,L|112:104,1,48,2|0,0:0|0:0,0:0:0:0:
136,168,32360,2,0,L|184:168,1,48,0|0,0:0|0:0,0:0:0:0:
384,200,32510,6,0,L|432:128,2,64,2|0|0,0:0|0:0|0:0,0:0:0:0:
288,200,32810,2,0,L|240:128,2,64,2|0|0,0:0|0:0|0:0,0:0:0:0:
384,112,33110,6,0,L|464:112,2,64,2|0|0,0:0|0:0|0:0,0:0:0:0:
288,216,33410,2,0,L|216:216,2,64,2|0|0,0:0|0:0|0:0,0:0:0:0:
384,216,33710,6,0,L|384:136,2,64,2|0|0,0:0|0:0|0:0,0:0:0:0:
288,48,34010,2,0,L|288:112,2,64,2|0|0,0:0|0:0|0:0,0:0:0:0:
384,120,34310,6,0,L|392:216,1,96,8|0,0:0|0:0,0:0:0:0:
280,216,34610,1,0,0:0:0:0:
136,224,34760,1,8,0:0:0:0:
368,208,34910,6,0,P|431:158|360:96,1,192,8|0,0:1|0:0,0:0:0:0:
144,208,35360,2,0,P|81:158|152:96,1,192,2|0,0:0|0:0,0:0:0:0:
368,136,35810,2,0,L|168:136,1,192,8|0,0:1|0:0,0:0:0:0:
400,96,36260,2,0,L|200:96,1,192,2|0,0:0|0:0,0:0:0:0:
448,256,36710,6,0,B|256:256|256:256|256:64|256:64,1,384,8|0,0:1|0:0,0:0:0:0:
136,64,37460,1,0,0:0:0:0:
264,96,37610,2,0,L|136:96,1,96,8|0,0:0|0:0,0:0:0:0:
280,168,37910,5,2,0:0:0:0:
280,168,38060,1,0,0:0:0:0:
160,152,38210,2,0,L|152:80,2,48,8|0|0,0:0|0:0|0:0,0:0:0:0:
288,104,38510,6,0,L|192:104,1,96,0|2,0:0|0:0,0:0:0:0:
88,136,38810,1,8,0:0:0:0:
90,88,38885,1,0,0:0:0:0:
118,50,38960,1,0,0:0:0:0:
368,152,39110,6,0,L|376:88,2,48,2|0|0,0:0|0:0|0:0,0:0:0:0:
264,104,39410,2,0,L|160:104,1,96,0|0,0:0|0:0,0:0:0:0:
440,208,39710,6,0,L|312:208,1,96,2|0,0:0|0:0,0:0:0:0:
208,176,40010,2,0,L|200:120,2,48,8|0|0,0:0|0:0|0:0,0:0:0:0:
312,80,40310,2,0,L|408:80,1,96,0|0,0:0|0:0,0:0:0:0:
312,80,40610,2,0,L|408:80,1,96,8|0,0:0|0:0,0:0:0:0:
136,208,40910,6,0,L|264:208,1,96,2|0,0:0|0:0,0:0:0:0:
368,176,41210,2,0,L|376:120,2,48,8|0|0,0:0|0:0|0:0,0:0:0:0:
264,80,41510,2,0,L|168:80,1,96,0|0,0:0|0:0,0:0:0:0:
264,80,41810,2,0,L|168:80,1,96,8|0,0:0|0:0,0:0:0:0:
384,184,42110,6,0,L|488:184,1,96,2|0,0:0|0:0,0:0:0:0:
360,136,42410,2,0,L|352:80,2,48,8|0|0,0:0|0:0|0:0,0:0:0:0:
248,72,42710,2,0,L|144:72,1,96,0|0,0:0|0:0,0:0:0:0:
264,32,43010,2,0,L|360:32,1,96,8|0,0:0|0:0,0:0:0:0:
80,128,43310,6,0,L|72:224,1,96,2|0,0:0|0:0,0:0:0:0:
200,224,43610,2,0,L|208:160,2,48,8|0|0,0:0|0:0|0:0,0:0:0:0:
80,136,43910,2,0,L|192:136,1,96,0|2,0:0|0:0,0:0:0:0:
312,96,44210,1,8,0:0:0:0:
312,96,44360,1,0,0:0:0:0:
72,208,44510,6,0,L|200:208,1,96,2|0,0:0|0:0,0:0:0:0:
304,176,44810,2,0,L|312:120,2,48,8|0|0,0:0|0:0|0:0,0:0:0:0:
200,80,45110,2,0,L|104:80,1,96,0|0,0:0|0:0,0:0:0:0:
200,80,45410,2,0,L|104:80,1,96,8|0,0:0|0:0,0:0:0:0:
376,208,45710,6,0,L|248:208,1,96,2|0,0:0|0:0,0:0:0:0:
144,176,46010,2,0,L|136:120,2,48,8|0|0,0:0|0:0|0:0,0:0:0:0:
248,80,46310,2,0,L|344:80,1,96,0|2,0:0|0:0,0:0:0:0:
248,80,46610,2,0,L|344:80,1,96,8|0,0:0|0:0,0:0:0:0:
128,184,46910,6,0,L|24:184,1,96,2|0,0:0|0:0,0:0:0:0:
152,136,47210,2,0,L|160:80,2,48,8|0|0,0:0|0:0|0:0,0:0:0:0:
264,72,47510,2,0,L|368:72,1,96,0|0,0:0|0:0,0:0:0:0:
248,32,47810,2,0,L|152:32,1,96,8|0,0:0|0:0,0:0:0:0:
432,128,48110,6,0,L|440:224,1,96,2|0,0:0|0:0,0:0:0:0:
312,224,48410,2,0,L|304:160,2,48,8|0|0,0:0|0:0|0:0,0:0:0:0:
192,160,48710,1,0,0:0:0:0:
80,224,48860,1,2,0:0:0:0:
128,192,48935,1,0,0:0:0:0:
176,152,49010,2,0,L|80:152,1,96,8|0,0:0|0:0,0:0:0:0:
320,208,49310,6,0,L|328:104,1,96,2|0,0:0|0:0,0:0:0:0:
224,96,49610,1,8,0:0:0:0:
447,269,49760,2,0,P|493:192|403:162,1,192,0|2,0:0|0:0,0:0:0:0:
320,96,50210,2,0,L|312:32,2,48,8|0|0,0:0|0:0|0:0,0:0:0:0:
432,88,50510,2,0,L|336:88,1,96,2|0,0:0|0:0,0:0:0:0:
440,32,50810,2,0,L|448:88,2,48,8|0|0,0:0|0:0|0:0,0:0:0:0:
216,192,51110,2,0,P|234:103|354:95,1,192,0|8,0:0|0:0,0:0:0:0:
432,72,51560,1,0,0:0:0:0:
200,120,51710,5,2,0:0:0:0:
296,72,51860,1,0,0:0:0:0:
168,72,52010,2,0,L|120:72,2,48,8|0|0,0:0|0:0|0:0,0:0:0:0:
272,160,52310,2,0,L|368:160,1,96,0|0,0:0|0:0,0:0:0:0:
264,112,52610,1,8,0:0:0:0:
216,104,52685,1,0,0:0:0:0:
168,96,52760,1,0,0:0:0:0:
400,96,52910,6,0,L|416:0,1,96,2|0,0:0|0:0,0:0:0:0:
272,128,53210,2,0,L|264:200,2,48,8|0|0,0:0|0:0|0:0,0:0:0:0:
48,184,53510,2,0,L|168:184,1,96,0|0,0:0|0:0,0:0:0:0:
48,120,53810,2,0,L|160:120,1,96,8|0,0:0|0:0,0:0:0:0:
368,200,54110,6,0,L|272:200,1,96,2|0,0:0|0:0,0:0:0:0:
144,200,54410,2,0,L|136:104,1,96,8|0,0:0|0:0,0:0:0:0:
368,104,54710,2,0,L|376:32,2,48,0|0|2,0:0|0:0|0:0,0:0:0:0:
248,104,55010,2,0,L|240:32,2,48,8|0|0,0:0|0:0|0:0,0:0:0:0:
16,200,55310,6,0,L|112:200,1,96,2|0,0:0|0:0,0:0:0:0:
232,199,55610,2,0,L|344:200,1,96,8|0,0:0|0:0,0:0:0:0:
112,104,55910,2,0,L|104:32,2,48,0|0|2,0:0|0:0|0:0,0:0:0:0:
240,104,56210,2,0,L|248:32,2,48,8|0|8,0:0|0:0|0:0,0:0:0:0:
456,192,56510,5,2,0:0:0:0:
344,144,56660,2,0,L|330:85,2,48,8|0|0,0:0|0:0|0:0,0:0:0:0:
232,112,56960,2,0,L|215:44,2,48,8|0|0,0:0|0:0|0:0,0:0:0:0:
456,136,57260,1,8,0:0:0:0:
476,182,57335,1,0,0:0:0:0:
456,229,57410,1,0,0:0:0:0:
404,258,57485,1,0,0:0:0:0:
328,264,57560,2,0,L|264:264,1,48,8|0,0:0|0:0,0:0:0:0:
464,64,57710,6,0,L|472:128,1,48,2|0,0:0|0:0,0:0:0:0:
398,147,57860,2,0,L|390:203,1,48,0|0,0:0|0:0,0:0:0:0:
464,64,58010,2,0,L|472:128,1,48,8|0,0:0|0:0,0:0:0:0:
398,147,58160,2,0,L|326:147,1,48,0|0,0:0|0:0,0:0:0:0:
176,216,58310,5,0,0:0:0:0:
128,200,58385,1,0,0:0:0:0:
130,155,58460,1,2,0:0:0:0:
184,128,58535,1,0,0:0:0:0:
320,112,58610,1,8,0:0:0:0:
368,96,58685,1,0,0:0:0:0:
366,51,58760,1,0,0:0:0:0:
312,24,58835,1,0,0:0:0:0:
152,80,58910,5,8,0:1:0:0:
264,128,59060,2,0,P|329:83|240:48,1,192,0|0,0:0|0:0,0:0:0:0:
155,71,59510,6,0,L|368:72,1,192,0|0,0:0|0:0,0:0:0:0:
232,120,59960,1,0,0:0:0:0:
360,104,60110,2,0,L|168:104,1,192,0|0,0:0|0:0,0:0:0:0:
280,64,60560,1,0,0:0:0:0:
64,168,60710,6,0,L|56:120,1,48,2|0,0:0|0:0,0:0:0:0:
120,104,60860,2,0,L|128:56,1,48,0|0,0:0|0:0,0:0:0:0:
64,168,61010,2,0,L|56:120,1,48,0|0,0:0|0:0,0:0:0:0:
120,104,61160,2,0,L|176:104,1,48,0|0,0:0|0:0,0:0:0:0:
323,182,61310,6,0,P|330:106|227:68,1,192,2|0,0:0|3:0,0:0:0:0:
128,256,61710,1,0,3:0:0:0:
128,256,61810,1,0,3:0:0:0:
240,256,61910,1,2,3:0:0:0:
128,256,62210,5,0,3:0:0:0:
128,256,62310,1,0,3:0:0:0:
128,256,62410,1,0,3:0:0:0:
240,256,62510,1,2,3:0:0:0:
72,168,62810,6,0,L|72:104,3,48,0|0|0|0,3:0|3:0|3:0|3:0,0:0:0:0:
160,104,63110,1,2,3:0:0:0:
384,176,63410,6,0,L|384:112,3,48,0|0|0|0,3:0|3:0|3:0|3:0,0:0:0:0:
224,112,63710,5,8,0:1:0:0:
112,112,63860,1,0,0:0:0:0:
240,184,64010,1,0,0:0:0:0:
432,192,64310,1,2,0:0:0:0:
240,184,64610,1,0,0:0:0:0:
48,120,64910,1,2,0:0:0:0:
200,120,65210,1,0,0:0:0:0:
472,168,65510,6,0,L|480:120,1,48,2|0,0:0|0:0,0:0:0:0:
416,104,65660,2,0,L|408:56,1,48,0|0,0:0|0:0,0:0:0:0:
472,168,65810,2,0,L|480:120,1,48,0|0,0:0|0:0,0:0:0:0:
416,104,65960,2,0,L|408:56,1,48,0|0,0:0|0:0,0:0:0:0:
216,136,66110,6,0,L|72:136,1,144,2|2,0:0|0:0,0:0:0:0:
240,64,66560,2,0,L|384:64,1,144,2|2,0:0|0:0,0:0:0:0:
80,216,67010,1,2,0:0:0:0:
36,197,67085,1,0,0:0:0:0:
19,154,67160,1,0,0:0:0:0:
38,111,67235,1,0,0:0:0:0:
81,94,67310,1,2,0:0:0:0:
352,144,67460,2,0,L|360:96,2,48,8|0|0,0:0|0:0|0:0,0:0:0:0:
256,104,67760,2,0,L|248:48,1,48,8|0,0:0|0:0,0:0:0:0:
320,288,67910,5,0,0:0:0:0:
432,264,68060,1,0,0:0:0:0:
448,184,68210,1,0,0:0:0:0:
432,128,68360,1,0,0:0:0:0:
192,192,68510,6,0,L|72:192,1,96,4|0,0:1|0:0,0:0:0:0:
56,192,68735,1,0,0:0:0:0:
96,192,68810,1,8,0:0:0:0:
344,144,68960,1,0,0:0:0:0:
232,96,69110,2,0,L|136:96,1,96,0|2,0:0|0:0,0:0:0:0:
40,48,69410,2,0,L|136:48,1,96,8|0,0:0|0:0,0:0:0:0:
352,176,69710,6,0,L|472:176,1,96,2|0,0:0|0:0,0:0:0:0:
488,176,69935,1,0,0:0:0:0:
448,176,70010,1,8,0:0:0:0:
200,168,70160,1,0,0:0:0:0:
312,120,70310,2,0,L|408:120,1,96,0|2,0:0|0:0,0:0:0:0:
504,72,70610,2,0,L|408:72,1,96,8|0,0:0|0:0,0:0:0:0:
184,184,70910,6,0,L|72:184,1,96,2|0,0:0|0:0,0:0:0:0:
136,184,71135,1,0,0:0:0:0:
184,184,71210,1,8,0:0:0:0:
408,128,71360,1,0,0:0:0:0:
296,96,71510,2,0,L|408:96,1,96,0|2,0:0|0:0,0:0:0:0:
264,48,71810,2,0,L|360:48,1,96,8|0,0:0|0:0,0:0:0:0:
88,168,72110,6,0,L|184:168,1,96,2|0,0:0|0:0,0:0:0:0:
232,168,72335,1,0,0:0:0:0:
280,168,72410,1,8,0:0:0:0:
56,240,72560,5,0,0:0:0:0:
152,240,72710,2,0,L|168:128,1,96,0|2,0:0|0:0,0:0:0:0:
392,104,73010,1,8,0:0:0:0:
288,104,73160,1,0,0:0:0:0:
64,208,73310,6,0,L|184:208,1,96,2|0,0:0|0:0,0:0:0:0:
208,208,73535,1,0,0:0:0:0:
256,208,73610,1,8,0:0:0:0:
32,144,73760,1,0,0:0:0:0:
128,144,73910,2,0,L|136:40,1,96,0|2,0:0|0:0,0:0:0:0:
240,40,74210,1,8,0:0:0:0:
144,40,74360,1,0,0:0:0:0:
376,176,74510,6,0,L|272:176,1,96,2|0,0:0|0:0,0:0:0:0:
232,176,74735,1,0,0:0:0:0:
184,176,74810,1,8,0:0:0:0:
72,160,74960,1,2,0:0:0:0:
168,160,75110,2,0,L|264:160,1,96,0|2,0:0|0:0,0:0:0:0:
360,96,75410,2,0,L|264:96,1,96,8|0,0:0|0:0,0:0:0:0:
40,192,75710,6,0,L|144:192,1,96,2|2,0:0|0:0,0:0:0:0:
248,264,76010,1,0,0:0:0:0:
200,264,76085,1,0,0:0:0:0:
152,264,76160,1,0,0:0:0:0:
400,248,76310,2,0,L|408:152,1,96,2|2,0:0|0:0,0:0:0:0:
272,128,76610,1,0,0:0:0:0:
320,128,76685,1,0,0:0:0:0:
368,128,76760,1,0,0:0:0:0:
208,264,76910,6,0,P|166:221|248:152,1,192,2|0,0:0|0:0,0:0:0:0:
304,168,77285,1,0,0:0:0:0:
464,232,77360,2,0,B|488:144|488:144|392:104,1,192,2|0,0:0|0:0,0:0:0:0:
352,88,77735,1,0,0:0:0:0:
160,192,77810,1,2,0:0:0:0:
104,168,77885,1,0,0:0:0:0:
104,122,77960,1,0,0:0:0:0:
161,101,78035,1,0,0:0:0:0:
320,192,78110,6,0,L|440:192,1,96,2|0,0:0|0:0,0:0:0:0:
456,192,78335,1,0,0:0:0:0:
416,192,78410,1,8,0:0:0:0:
176,176,78560,1,0,0:0:0:0:
80,176,78710,2,0,L|66:81,1,96,0|2,0:0|0:0,0:0:0:0:
168,80,79010,1,8,0:0:0:0:
64,80,79160,1,0,0:0:0:0:
288,176,79310,6,0,L|176:176,1,96,2|0,0:0|0:0,0:0:0:0:
152,176,79535,1,0,0:0:0:0:
192,176,79610,1,8,0:0:0:0:
432,184,79760,1,0,0:0:0:0:
336,128,79910,2,0,L|232:128,1,96,0|2,0:0|0:0,0:0:0:0:
464,248,80210,1,8,0:0:0:0:
352,248,80360,1,0,0:0:0:0:
472,144,80510,6,0,L|264:144,1,192,2|0,0:0|0:0,0:0:0:0:
56,144,80960,2,0,L|264:144,1,192,8|0,0:0|0:0,0:0:0:0:
464,144,81410,6,0,L|256:144,1,192,2|0,0:0|0:0,0:0:0:0:
488,224,81860,2,0,L|280:224,1,192,8|0,0:0|0:0,0:0:0:0:
64,168,82310,5,2,0:0:0:0:
64,176,82460,1,2,0:0:0:0:
192,152,82610,1,8,0:0:0:0:
240,128,82685,1,0,0:0:0:0:
232,80,82760,1,0,0:0:0:0:
184,64,82835,1,0,0:0:0:0:
344,192,82910,6,0,L|448:192,1,96,2|0,0:0|0:0,0:0:0:0:
216,208,83210,2,0,L|96:208,1,96,8|0,0:0|0:0,0:0:0:0:
240,120,83510,5,0,0:0:0:0:
136,120,83660,1,2,0:0:0:0:
94,141,83735,1,0,0:0:0:0:
79,186,83810,1,8,0:0:0:0:
99,228,83885,1,0,0:0:0:0:
143,245,83960,1,0,0:0:0:0:
368,224,84110,6,0,L|376:120,1,96,2|0,0:0|0:0,0:0:0:0:
160,224,84410,2,0,L|152:120,1,96,8|0,0:0|0:0,0:0:0:0:
368,96,84710,5,0,0:0:0:0:
288,248,84860,2,0,L|280:184,1,48,2|0,0:0|0:0,0:0:0:0:
360,184,85010,1,8,0:0:0:0:
408,160,85085,1,0,0:0:0:0:
432,128,85160,1,0,0:0:0:0:
408,104,85235,1,0,0:0:0:0:
208,176,85310,5,2,0:0:0:0:
304,232,85460,2,0,L|328:184,2,48,8|0|0,0:0|0:0|0:0,0:0:0:0:
88,144,85760,2,0,L|64:96,2,48,8|0|0,0:0|0:0|0:0,0:0:0:0:
216,96,86060,2,0,L|240:48,2,48,8|0|0,0:0|0:0|0:0,0:0:0:0:
128,96,86360,2,0,L|80:96,1,48,8|0,0:0|0:0,0:0:0:0:
312,216,86510,6,0,P|376:168|296:112,1,192,2|0,0:0|0:0,0:0:0:0:
200,112,86960,1,0,0:0:0:0:
313,187,87110,6,0,L|321:123,1,48,2|0,0:0|0:0,0:0:0:0:
248,128,87260,2,0,L|240:80,1,48,0|0,0:0|0:0,0:0:0:0:
313,187,87410,2,0,L|321:123,1,48,2|0,0:0|0:0,0:0:0:0:
248,128,87560,2,0,L|240:80,1,48,0|0,0:0|0:0,0:0:0:0:
384,144,87710,6,0,L|384:48,1,96,8|0,0:1|0:0,0:0:0:0:
160,344,88160,6,0,B|280:344|376:304|402:192|376:96|280:24|152:32|152:32|352:256,1,864,2|0,0:0|0:0,0:0:0:0:
176,136,89810,2,0,L|168:192,1,48,0|0,0:0|0:0,0:0:0:0:
240,184,89960,2,0,L|248:256,1,48,0|0,0:0|0:0,0:0:0:0:
80,272,90110,6,0,L|32:272,2,48,2|0|0,0:0|0:0|0:0,0:0:0:0:
176,272,90410,1,0,0:0:0:0:
128,272,90485,1,0,0:0:0:0:
80,272,90560,1,0,0:0:0:0:
328,208,90710,6,0,L|376:208,2,48,2|0|0,0:0|0:0|0:0,0:0:0:0:
232,208,91010,1,0,0:0:0:0:
280,208,91085,1,0,0:0:0:0:
328,208,91160,1,0,0:0:0:0:
192,152,91310,2,0,L|184:48,1,96,2|0,0:0|0:0,0:0:0:0:
304,200,91610,1,0,0:0:0:0:
400,200,91760,1,0,0:0:0:0:
136,256,91910,6,0,L|128:144,1,96,2|0,0:0|0:0,0:0:0:0:
240,112,92210,2,0,L|234:207,1,96,0|0,0:0|0:0,0:0:0:0:
448,176,92510,2,0,P|486:107|392:56,1,192,8|0,0:1|0:0,0:0:0:0:
184,64,92960,2,0,P|146:133|240:184,1,192,2|0,0:0|0:0,0:0:0:0:
456,160,93410,2,0,L|256:160,1,192,8|0,0:1|0:0,0:0:0:0:
40,160,93860,2,0,L|240:160,1,192,2|0,0:0|0:0,0:0:0:0:
472,288,94310,6,0,B|488:224|384:192|384:192|384:24|384:24|456:24,1,384,8|2,0:1|0:0,0:0:0:0:
360,24,95060,1,0,0:0:0:0:
264,120,95210,2,0,L|392:120,1,96,8|0,0:0|0:0,0:0:0:0:
256,184,95510,5,0,0:0:0:0:
152,184,95660,1,2,0:0:0:0:
272,128,95810,2,0,L|280:56,2,48,8|0|0,0:0|0:0|0:0,0:0:0:0:
144,256,96110,6,0,L|136:128,1,96,2|0,0:0|0:0,0:0:0:0:
264,160,96410,2,0,L|272:96,2,48,8|0|0,0:0|0:0|0:0,0:0:0:0:
152,80,96710,6,0,L|48:80,3,96,0|2|8|0,0:0|0:0|0:0|0:0,0:0:0:0:
336,224,97310,6,0,P|389:143|301:127,1,192,8|0,0:1|0:0,0:0:0:0:
96,208,97760,2,0,B|237:335|237:335|96:208|96:208|242:75|242:75|96:207|96:207|112:112,1,864,2|0,0:0|0:0,0:0:0:0:
368,168,99410,2,0,L|392:104,1,48,2|0,0:0|0:0,0:0:0:0:
368,168,99560,2,0,L|320:168,1,48,0|0,0:0|0:0,0:0:0:0:
128,200,99710,6,0,L|80:128,2,64,2|0|0,0:0|0:0|0:0,0:0:0:0:
224,200,100010,2,0,L|272:128,2,64,2|0|0,0:0|0:0|0:0,0:0:0:0:
128,112,100310,6,0,L|48:112,2,64,2|0|0,0:0|0:0|0:0,0:0:0:0:
224,216,100610,2,0,L|296:216,2,64,2|0|0,0:0|0:0|0:0,0:0:0:0:
128,216,100910,6,0,L|128:136,2,64,2|0|0,0:0|0:0|0:0,0:0:0:0:
224,48,101210,2,0,L|224:112,2,64,2|0|0,0:0|0:0|0:0,0:0:0:0:
128,120,101510,6,0,L|120:216,1,96,8|0,0:0|0:0,0:0:0:0:
232,216,101810,1,0,0:0:0:0:
376,224,101960,1,8,0:0:0:0:
144,208,102110,6,0,P|81:158|152:96,1,192,8|0,0:1|0:0,0:0:0:0:
368,208,102560,2,0,P|431:158|360:96,1,192,2|0,0:0|0:0,0:0:0:0:
144,136,103010,2,0,L|344:136,1,192,8|0,0:1|0:0,0:0:0:0:
112,96,103460,2,0,L|312:96,1,192,2|0,0:0|0:0,0:0:0:0:
64,256,103910,6,0,B|256:256|256:256|256:64|256:64,1,384,8|2,0:1|0:0,0:0:0:0:
376,64,104660,1,0,0:0:0:0:
248,96,104810,2,0,L|376:96,1,96,8|0,0:0|0:0,0:0:0:0:
232,168,105110,5,0,0:0:0:0:
232,168,105260,1,2,0:0:0:0:
352,152,105410,2,0,L|360:80,2,48,8|0|0,0:0|0:0|0:0,0:0:0:0:
224,104,105710,6,0,L|320:104,1,96,2|0,0:0|0:0,0:0:0:0:
424,136,106010,1,8,0:0:0:0:
422,88,106085,1,0,0:0:0:0:
394,50,106160,1,0,0:0:0:0:
160,200,106310,5,4,0:1:0:0:
272,152,106460,1,0,0:0:0:0:
312,88,106610,1,0,0:0:0:0:
168,48,106760,1,0,0:0:0:0:
