osu file format v14

[General]
AudioFilename: audio.mp3
AudioLeadIn: 0
PreviewTime: 67900
Countdown: 0
SampleSet: Soft
StackLeniency: 0.5
Mode: 0
LetterboxInBreaks: 0
WidescreenStoryboard: 0

[Editor]
DistanceSpacing: 0.5
BeatDivisor: 6
GridSize: 4
TimelineZoom: 2.2

[Metadata]
Title:Black Lotus
TitleUnicode:Black Lotus
Artist:wa.
ArtistUnicode:wa.
Creator:Frostings
Version:Insane
Source:
Tags:bofu2016 of fighters ultimate legendary again BMS instrumental electronic
BeatmapID:1235392
BeatmapSetID:582024

[Difficulty]
HPDrainRate:6.6
CircleSize:4
OverallDifficulty:8
ApproachRate:9
SliderMultiplier:1.7
SliderTickRate:1

[Events]
//Background and Video events
0,0,"bg.png",0,0
//Break Periods
2,3900,5500
//Storyboard Layer 0 (Background)
//Storyboard Layer 1 (Fail)
//Storyboard Layer 2 (Pass)
//Storyboard Layer 3 (Foreground)
//Storyboard Layer 4 (Overlay)
//Storyboard Sound Samples

[TimingPoints]
100,300,4,2,1,80,1,0
1450,-400,4,2,1,80,0,0
7900,-100,4,2,1,80,0,0
9400,-133.333333333333,4,2,1,80,0,0
10900,-111.111111111111,4,2,1,80,0,0
27100,-200,4,2,1,80,0,0
30550,-333.333333333333,4,2,1,80,0,0
32500,-111.111111111111,4,2,1,80,0,0
59050,-400,4,2,1,80,0,0
61600,-133.333333333333,4,2,1,80,0,0
63850,-400,4,2,1,80,0,0
67000,-133.333333333333,4,2,1,80,0,0
68500,-100,4,2,1,80,0,1
80500,-133.333333333333,4,2,1,80,0,1
82300,-100,4,2,1,80,0,1
87700,-100,4,2,1,80,0,0
94300,-222.222222222222,4,2,1,80,0,0
99700,-133.333333333333,4,2,1,80,0,0
102250,-111.111111111111,4,2,1,80,0,0
106300,-111.111111111111,4,2,1,30,0,0

[Colours]
Combo1 : 100,100,179
Combo2 : 60,0,119
Combo3 : 0,185,0
Combo4 : 75,67,233
Combo5 : 7,122,207
Combo6 : 7,211,222

[HitObjects]
140,176,1300,37,0,1:0:0:0:
263,297,1450,6,0,L|248:86,1,212.5,0|0,1:0|0:0,0:0:0:0:
376,148,3100,5,0,1:0:0:0:
371,163,3175,1,0,1:0:0:0:
367,178,3250,1,0,1:0:0:0:
364,194,3325,1,0,1:0:0:0:
362,210,3400,1,0,1:0:0:0:
361,226,3475,1,0,1:0:0:0:
361,241,3550,1,0,1:0:0:0:
361,257,3625,1,0,1:0:0:0:
363,273,3700,1,4,1:0:0:0:
249,87,6100,5,0,1:0:0:0:
156,200,6250,38,0,B|260:247|251:136|355:183,1,212.5,0|0,1:0|0:0,0:0:0:0:
263,297,7900,5,0,1:0:0:0:
261,271,7975,1,0,1:0:0:0:
259,244,8050,1,0,1:0:0:0:
257,218,8125,1,0,1:0:0:0:
255,191,8200,1,0,1:0:0:0:
254,165,8275,1,0,1:0:0:0:
252,138,8350,1,0,1:0:0:0:
250,112,8425,1,0,1:0:0:0:
248,85,8500,1,0,1:0:0:0:
144,104,8725,5,0,1:0:0:0:
352,188,8950,5,0,1:0:0:0:
180,296,9175,37,0,1:0:0:0:
324,344,9400,5,4,1:0:0:0:
256,192,9700,6,0,L|248:104,1,63.7500024318696,2|0,0:0|0:0,0:0:0:0:
248,96,10000,1,0,0:0:0:0:
364,200,10150,1,0,0:0:0:0:
416,104,10300,2,0,P|364:100|340:92,1,63.7500024318696,2|0,0:0|0:0,0:0:0:0:
148,56,10600,1,2,0:0:0:0:
148,56,10675,1,0,0:0:0:0:
148,56,10750,2,0,L|152:116,1,31.8750012159348
60,16,10900,5,6,1:0:0:0:
232,168,11050,1,0,0:0:0:0:
48,208,11200,2,0,L|60:96,1,76.4999976654053,2|0,1:0|0:0,0:0:0:0:
156,244,11500,2,0,L|164:320,1,76.4999976654053,2|0,1:0|0:0,0:0:0:0:
268,236,11800,1,2,1:0:0:0:
269,216,11875,1,0,0:0:0:0:
270,197,11950,1,0,0:0:0:0:
284,88,12100,37,2,1:0:0:0:
368,252,12250,1,0,0:0:0:0:
456,156,12400,1,2,1:0:0:0:
364,160,12550,1,0,0:0:0:0:
456,288,12700,2,0,L|460:232,2,38.2499988327027,2|0|0,1:0|0:0|0:0,0:0:0:0:
269,216,13000,2,0,L|277:280,2,38.2499988327027,2|0|0,1:0|0:0|0:0,0:0:0:0:
384,124,13300,6,0,L|373:213,1,76.4999976654053,2|0,1:0|0:0,0:0:0:0:
152,112,13600,2,0,L|161:187,1,76.4999976654053,2|0,1:0|0:0,0:0:0:0:
272,44,13900,1,2,1:0:0:0:
269,216,14050,1,0,0:0:0:0:
464,144,14200,2,0,P|384:160|328:132,1,114.749996498108,2|0,1:0|0:0,0:0:0:0:
336,128,14500,1,2,1:0:0:0:
388,36,14650,1,0,0:0:0:0:
384,328,14800,2,0,P|373:263|357:236,1,76.4999976654053,2|0,1:0|0:0,0:0:0:0:
128,236,15100,5,2,0:1:0:0:
144,245,15175,1,0,0:0:0:0:
162,251,15250,1,0,0:0:0:0:
181,254,15325,1,0,0:0:0:0:
200,252,15400,1,0,1:0:0:0:
218,246,15475,1,0,0:0:0:0:
235,237,15550,1,0,0:0:0:0:
249,224,15625,1,0,0:0:0:0:
260,209,15700,1,0,1:0:0:0:
280,96,15850,5,0,0:0:0:0:
335,372,16000,2,0,P|314:340|304:304,1,76.4999976654053,0|0,1:0|0:0,0:0:0:0:
452,115,16300,2,0,P|473:147|484:184,1,76.4999976654053,0|0,1:0|0:0,0:0:0:0:
420,296,16600,1,0,1:0:0:0:
352,160,16750,1,0,0:0:0:0:
268,240,16900,38,0,P|222:256|166:246,1,76.4999976654053,0|0,1:0|0:0,0:0:0:0:
80,144,17200,2,0,P|125:160|181:150,1,76.4999976654053,0|0,1:0|0:0,0:0:0:0:
216,80,17500,1,0,1:0:0:0:
112,324,17650,1,0,0:0:0:0:
112,324,17725,1,0,0:0:0:0:
112,324,17800,2,0,L|100:228,1,76.4999976654053,0|0,1:0|0:0,0:0:0:0:
224,348,18100,1,0,1:0:0:0:
320,260,18250,6,0,L|320:292,4,19.1249994163513,0|0|0|0|0,1:0|1:0|1:0|1:0|1:0,1:0:0:0:
184,168,18550,2,0,L|184:200,4,19.1249994163513,0|0|0|0|0,1:0|1:0|1:0|1:0|1:0,1:0:0:0:
332,112,18850,2,0,L|332:144,4,19.1249994163513,0|0|0|0|0,1:0|1:0|1:0|1:0|1:0,1:0:0:0:
256,52,19150,5,0,1:0:0:0:
256,52,19225,1,0,1:0:0:0:
256,52,19300,1,0,1:0:0:0:
274,85,19375,1,0,1:0:0:0:
283,122,19450,1,0,1:0:0:0:
275,159,19525,1,0,1:0:0:0:
256,191,19600,1,0,1:0:0:0:
236,224,19675,1,0,1:0:0:0:
228,261,19750,1,0,1:0:0:0:
237,298,19825,1,0,1:0:0:0:
255,331,19900,2,0,L|260:268,3,38.2499988327027,0|0|0|0,1:0|1:0|1:0|1:0,1:0:0:0:
260,212,20200,6,0,L|253:148,3,38.2499988327027,0|0|0|0,1:0|1:0|1:0|1:0,1:0:0:0:
248,84,20500,37,2,1:3:0:0:
264,300,20950,1,4,1:0:0:0:
84,44,22600,6,0,L|127:-3,3,38.2499988327027,0|0|0|0,1:0|1:0|1:0|1:0,1:0:0:0:
151,100,22900,2,0,L|208:70,3,38.2499988327027,0|0|0|0,1:0|1:0|1:0|1:0,1:0:0:0:
194,176,23200,2,0,L|258:168,3,38.2499988327027,0|0|0|0,1:0|1:0|1:0|1:0,1:0:0:0:
208,262,23500,2,0,L|270:276,3,38.2499988327027,0|0|0|0,1:0|1:0|1:0|1:0,1:0:0:0:
193,348,23800,2,0,L|247:383,3,38.2499988327027,0|0|0|0,1:0|1:0|1:0|1:0,1:0:0:0:
116,292,24100,6,0,L|84:300,16,19.1249994163513,0|0|0|0|0|0|0|0|0|0|0|0|0|0|0|0|4,1:0|1:0|1:0|1:0|1:0|1:0|1:0|1:0|1:0|1:0|1:0|1:0|1:0|1:0|1:0|1:0|1:0,1:0:0:0:
412,68,25300,5,0,1:0:0:0:
316,48,25450,1,2,3:3:0:0:
104,128,25750,37,0,1:0:0:0:
200,108,25900,1,2,3:3:0:0:
408,228,26200,5,0,1:0:0:0:
312,208,26350,1,2,3:3:0:0:
104,304,26650,5,0,1:0:0:0:
200,284,26800,1,2,3:3:0:0:
256,360,27100,6,0,B|272:328|304:292|304:292|244:240|244:240|272:200|272:200|256:164|256:108,1,297.5,0|0,1:0|0:0,0:0:0:0:
256,192,28300,12,0,29800,0:0:0:0:
240,88,30100,37,0,1:0:0:0:
272,296,30250,1,0,1:0:0:0:
148,201,30550,6,0,B|261:255|250:128|363:182,1,229.499992996216,4|0,1:0|0:0,0:0:0:0:
212,48,32200,5,0,0:0:0:0:
212,48,32275,1,0,1:0:0:0:
212,48,32350,1,0,1:0:0:0:
212,48,32425,1,0,1:0:0:0:
212,48,32500,2,0,L|152:40,2,50.9999984436036,0|0|0,1:0|1:0|1:0,1:0:0:0:
304,84,32800,6,0,L|364:76,2,50.9999984436036,0|0|0,1:0|1:0|1:0,1:0:0:0:
208,160,33100,38,0,L|148:152,2,50.9999984436036,0|0|0,1:0|1:0|1:0,1:0:0:0:
312,208,33400,6,0,L|372:200,2,50.9999984436036,0|0|0,1:0|1:0|1:0,1:0:0:0:
200,276,33700,6,0,L|140:268,2,50.9999984436036,0|0|0,1:0|1:0|1:0,1:0:0:0:
316,316,34000,6,0,L|376:308,2,50.9999984436036,0|0|0,1:0|1:0|1:0,1:0:0:0:
256,384,34300,37,0,0:0:0:0:
200,276,34500,1,0,0:0:0:0:
312,208,34700,1,0,0:0:0:0:
108,84,34900,5,0,1:0:0:0:
64,236,35050,2,0,L|52:136,1,76.4999976654053,2|0,3:3|0:0,0:0:0:0:
240,272,35350,5,0,1:0:0:0:
196,120,35500,2,0,L|186:195,1,76.4999976654053,2|0,3:3|0:0,0:0:0:0:
360,52,35800,5,0,1:0:0:0:
316,204,35950,2,0,L|304:104,1,76.4999976654053,2|0,3:3|0:0,0:0:0:0:
492,240,36250,37,0,1:0:0:0:
448,88,36400,2,0,L|438:163,1,76.4999976654053,2|0,3:3|0:0,0:0:0:0:
256,192,36700,37,0,1:0:0:0:
256,192,36850,12,0,38950,0:0:0:0:
444,220,39700,69,4,1:0:0:0:
352,108,39850,1,0,0:0:0:0:
340,276,40000,2,0,L|344:184,1,76.4999976654053,2|0,1:0|0:0,0:0:0:0:
228,136,40300,1,0,1:0:0:0:
236,236,40450,1,0,0:0:0:0:
128,144,40600,2,0,L|120:104,2,38.2499988327027,0|0|0,1:0|1:0|1:0,1:0:0:0:
48,248,40900,6,0,P|108:236|180:276,1,114.749996498108,0|0,1:0|0:0,0:0:0:0:
176,280,41200,1,2,1:0:0:0:
248,152,41350,1,0,0:0:0:0:
376,264,41500,2,0,P|376:224|359:175,1,76.4999976654053,2|0,0:2|0:0,0:0:0:0:
176,280,41800,2,0,P|175:319|192:368,1,76.4999976654053,2|0,1:2|0:0,0:0:0:0:
352,360,42100,37,0,0:0:0:0:
268,216,42250,1,0,0:0:0:0:
268,216,42325,1,0,0:0:0:0:
268,216,42400,2,0,L|280:296,1,76.4999976654053,2|0,1:0|0:0,0:0:0:0:
366,189,42700,1,0,1:0:0:0:
176,280,42850,1,0,0:0:0:0:
100,208,43000,2,0,L|88:133,1,76.4999976654053,0|0,1:0|0:0,0:0:0:0:
276,80,43300,5,0,1:0:0:0:
176,280,43450,1,0,1:0:0:0:
176,280,43525,1,0,1:0:0:0:
176,280,43600,1,2,1:0:0:0:
188,156,43750,1,0,0:0:0:0:
340,220,43900,2,0,P|292:224|252:212,1,76.4999976654053,0|0,1:0|0:0,0:0:0:0:
8,269,44200,2,0,P|56:265|96:277,1,76.4999976654053,0|0,1:0|0:0,0:0:0:0:
176,280,44425,5,0,1:0:0:0:
176,280,44500,2,0,L|160:140,1,114.749996498108,0|0,1:0|0:0,0:0:0:0:
83,271,44800,2,0,L|75:363,1,76.4999976654053,2|0,1:0|0:0,0:0:0:0:
24,196,45100,1,0,1:0:0:0:
164,372,45250,1,0,1:0:0:0:
164,372,45325,1,0,1:0:0:0:
164,372,45400,1,0,1:0:0:0:
268,300,45550,1,0,0:0:0:0:
376,344,45700,6,0,L|384:260,1,76.4999976654053,0|0,1:0|0:0,0:0:0:0:
168,192,46000,2,0,L|175:268,1,76.4999976654053,2|0,1:0|0:0,0:0:0:0:
292,164,46300,2,0,L|296:112,3,38.2499988327027,2|0|0|0,0:2|0:0|0:0|0:0,0:0:0:0:
284,288,46600,2,0,L|281:249,3,38.2499988327027,2|0|0|0,1:2|0:0|0:0|0:0,0:0:0:0:
376,344,46900,37,2,0:0:0:0:
120,264,47050,1,0,1:0:0:0:
120,264,47125,1,0,1:0:0:0:
120,264,47200,2,0,P|174:261|224:231,1,76.4999976654053,2|0,1:0|0:0,0:0:0:0:
208,56,47500,2,0,P|176:35|139:26,1,76.4999976654053,0|0,1:0|0:0,0:0:0:0:
0,168,47800,6,0,P|101:169|142:120,1,152.999995330811,0|0,1:0|1:0,0:0:0:0:
52,76,48250,1,0,0:0:0:0:
265,230,48400,2,0,P|209:224|176:206,1,76.4999976654053,2|0,1:0|0:0,0:0:0:0:
228,120,48700,1,0,1:0:0:0:
102,270,48850,2,0,L|100:252,4,19.1249994163513,0|0|0|0|0,1:0|1:0|1:0|1:0|1:0,1:0:0:0:
172,352,49150,2,0,L|174:333,2,19.1249994163513,0|0|0,1:0|1:0|1:0,1:0:0:0:
360,296,49300,6,0,P|349:219|337:197,1,76.4999976654053,4|0,1:0|0:0,0:0:0:0:
228,120,49600,2,0,P|304:132|372:76,1,152.999995330811,2|0,1:0|1:0,0:0:0:0:
228,28,50050,1,0,0:0:0:0:
120,92,50200,2,0,P|132:156|128:200,1,76.4999976654053,0|0,1:0|0:0,0:0:0:0:
236,304,50500,2,0,P|224:240|228:196,1,76.4999976654053,0|0,1:0|0:0,0:0:0:0:
440,144,50800,2,0,P|378:185|304:173,1,152.999995330811,2|2,1:0|1:2,0:0:0:0:
272,84,51250,1,0,0:0:0:0:
332,276,51400,2,0,P|328:314|317:350,1,76.4999976654053,2|0,1:2|0:0,0:0:0:0:
116,256,51700,5,2,1:2:0:0:
224,228,51850,1,0,1:0:0:0:
224,228,51925,1,0,1:0:0:0:
224,228,52000,2,0,P|223:189|208:144,1,76.4999976654053,2|0,1:0|0:0,0:0:0:0:
16,248,52300,2,0,P|16:286|32:332,1,76.4999976654053,0|0,1:0|0:0,0:0:0:0:
168,344,52600,1,0,1:0:0:0:
168,344,52675,1,0,1:0:0:0:
168,344,52750,1,0,1:0:0:0:
104,168,52900,38,0,P|100:93|128:36,1,114.749996498108,0|0,1:0|0:0,0:0:0:0:
132,36,53200,1,2,1:0:0:0:
216,96,53350,1,0,0:0:0:0:
296,44,53500,2,0,P|349:56|388:52,2,76.4999976654053,0|0|0,1:0|0:0|1:0,0:0:0:0:
216,0,53950,1,0,0:0:0:0:
268,184,54100,6,0,P|344:192|412:136,1,152.999995330811,2|2,1:2|1:0,0:0:0:0:
370,55,54550,1,0,0:0:0:0:
500,144,54700,2,0,P|501:182|495:220,1,76.4999976654053,0|0,1:0|0:0,0:0:0:0:
276,92,55000,2,0,P|275:53|281:16,1,76.4999976654053,0|0,1:0|0:0,0:0:0:0:
380,136,55300,6,0,P|384:232|349:307,1,152.999995330811,0|2,1:0|1:0,0:0:0:0:
268,312,55750,1,0,0:0:0:0:
92,172,55900,1,0,1:0:0:0:
180,264,56050,2,0,L|176:220,2,38.2499988327027,0|0|0,1:0|1:0|1:0,1:0:0:0:
92,332,56350,1,0,0:0:0:0:
260,172,56500,5,2,1:2:0:0:
344,260,56650,2,0,L|348:224,4,19.1249994163513,0|0|0|0|0,1:0|1:0|1:0|1:0|1:0,1:0:0:0:
440,328,56950,2,0,L|436:292,4,19.1249994163513,0|0|0|0|0,1:0|1:0|1:0|1:0|1:0,1:0:0:0:
512,248,57250,2,0,L|504:200,5,38.2499988327027,0|0|0|0|0|0,1:0|1:0|1:0|1:0|1:0|1:0,1:0:0:0:
366,131,57700,37,0,1:0:0:0:
349,139,57775,1,0,1:0:0:0:
330,144,57850,1,0,1:0:0:0:
311,144,57925,1,0,1:0:0:0:
292,142,58000,1,0,1:0:0:0:
274,136,58075,1,0,1:0:0:0:
257,126,58150,1,0,1:0:0:0:
243,114,58225,1,0,1:0:0:0:
232,100,58300,2,0,L|236:156,3,38.2499988327027,0|0|0|0,1:0|1:0|1:0|1:0,1:0:0:0:
145,102,58600,2,0,L|148:64,3,38.2499988327027,0|0|0|0,1:0|1:0|1:0|1:0,1:0:0:0:
24,40,58900,5,0,1:0:0:0:
72,340,59050,6,0,L|60:128,1,212.5,4|0,1:1|0:0,0:0:0:0:
184,184,60700,5,0,1:0:0:0:
179,199,60775,1,0,1:0:0:0:
175,214,60850,1,0,1:0:0:0:
172,230,60925,1,0,1:0:0:0:
170,246,61000,1,0,1:0:0:0:
169,262,61075,1,0,1:0:0:0:
169,277,61150,1,0,1:0:0:0:
170,293,61225,1,0,1:0:0:0:
172,309,61300,1,0,1:0:0:0:
336,352,61600,38,0,L|340:300,3,42.5000016212464
172,272,62200,2,0,L|168:220,3,42.5000016212464
344,196,62800,2,0,L|346:159,6,21.2500008106232
168,128,63400,2,0,L|164:92,3,21.2500008106232
256,40,63700,5,0,1:0:0:0:
260,328,63850,6,0,L|256:132,1,191.25,4|0,1:0|0:0,0:0:0:0:
168,232,65500,5,0,1:0:0:0:
188,243,65575,1,0,1:0:0:0:
211,249,65650,1,0,1:0:0:0:
235,244,65725,1,0,1:0:0:0:
255,232,65800,1,0,1:0:0:0:
276,219,65875,1,0,1:0:0:0:
299,214,65950,1,0,1:0:0:0:
322,219,66025,1,0,1:0:0:0:
343,231,66100,1,0,1:0:0:0:
404,308,66325,37,0,1:0:0:0:
448,216,66550,5,0,1:0:0:0:
364,132,66775,5,0,1:0:0:0:
468,79,67000,6,0,L|472:48,5,31.8750012159348,0|0|0|0|0|0,1:0|1:0|1:0|1:0|1:0|1:0,1:0:0:0:
355,34,67450,2,0,L|354:10,10,15.9375006079674,0|0|0|0|0|0|0|0|0|0|0,1:0|1:0|1:0|1:0|1:0|1:0|1:0|1:0|1:0|1:0|1:0,1:0:0:0:
272,104,67900,1,0,1:0:0:0:
60,304,68500,38,0,P|117:326|149:323,1,85,2|0,1:0|0:0,0:0:0:0:
240,296,68800,1,0,1:0:0:0:
208,200,68950,2,0,P|150:222|118:219,1,85,2|0,0:1|1:0,0:0:0:0:
40,168,69250,1,0,0:0:0:0:
100,12,69400,2,0,P|182:20|236:88,1,170,0|2,1:0|1:0,0:0:0:0:
128,221,69850,5,0,0:0:0:0:
148,120,70000,1,0,1:0:0:0:
224,184,70150,1,2,0:1:0:0:
312,144,70300,2,0,P|311:186|324:232,1,85,0|0,1:0|0:0,0:0:0:0:
512,152,70600,2,0,P|513:110|500:64,1,85,0|0,1:0|0:0,0:0:0:0:
412,136,70900,6,0,L|432:332,1,170,2|0,1:0|1:0,0:0:0:0:
332,332,71350,1,2,0:1:0:0:
268,32,71500,2,0,P|308:43|342:68,1,85,0|0,1:0|0:0,0:0:0:0:
329,216,71800,2,0,P|290:231|248:232,1,85,0|0,1:0|0:0,0:0:0:0:
188,140,72100,5,2,1:0:0:0:
32,112,72250,1,0,0:0:0:0:
32,112,72325,1,0,0:0:0:0:
32,112,72400,2,0,P|87:100|129:64,1,85,0|2,1:0|0:1,0:0:0:0:
112,196,72700,2,0,L|122:281,1,85,0|0,1:0|0:0,0:0:0:0:
16,208,73000,1,0,1:0:0:0:
212,308,73150,1,0,1:0:0:0:
312,256,73300,38,0,L|318:86,2,170,2|0|0,1:0|1:0|1:0,0:0:0:0:
384,328,74050,1,2,0:1:0:0:
224,192,74200,2,0,P|185:174|143:171,1,85,0|0,1:0|0:0,0:0:0:0:
156,380,74500,2,0,P|197:373|234:352,1,85,0|0,1:0|0:0,0:0:0:0:
280,268,74800,1,0,1:0:0:0:
116,284,74950,2,0,P|48:274|14:251,1,85,2|0,0:1|1:0,0:0:0:0:
40,88,75250,1,0,0:0:0:0:
92,180,75400,2,0,P|159:170|193:147,1,85,2|0,1:0|0:0,0:0:0:0:
216,68,75700,5,2,1:0:0:0:
192,268,75850,1,0,1:0:0:0:
312,208,76000,1,0,1:0:0:0:
312,208,76075,1,0,1:0:0:0:
312,208,76150,2,0,L|252:200,2,42.5,0|0|0,1:0|1:0|1:0,1:0:0:0:
404,156,76450,6,0,L|416:256,1,85,0|0,1:0|1:0,1:0:0:0:
436,244,76675,1,0,1:0:0:0:
457,247,76750,1,0,1:0:0:0:
472,72,76900,2,0,L|304:48,1,170,0|0,1:0|1:0,1:0:0:0:
200,104,77275,1,0,1:0:0:0:
216,92,77350,2,0,L|208:-8,1,85,0|0,1:0|0:0,0:0:0:0:
120,128,77650,2,0,L|116:184,4,42.5,0|0|0|0|0,1:0|1:0|1:0|1:0|1:0,1:0:0:0:
12,48,78100,6,0,P|79:40|120:8,1,85,2|0,1:0|0:0,0:0:0:0:
280,208,78400,1,0,1:0:0:0:
280,208,78550,2,0,P|212:200|172:168,1,85,2|0,0:1|1:0,0:0:0:0:
216,92,78850,1,0,0:0:0:0:
108,264,79000,2,0,L|96:116,1,127.5,0|0,1:0|0:0,0:0:0:0:
96,112,79300,37,2,1:0:0:0:
204,288,79450,1,0,0:0:0:0:
204,288,79525,1,0,0:0:0:0:
204,288,79600,1,0,1:0:0:0:
280,208,79750,1,2,0:1:0:0:
396,260,79900,2,0,L|384:164,1,85,0|0,1:0|0:0,0:0:0:0:
488,292,80200,1,0,1:0:0:0:
512,180,80350,1,0,1:0:0:0:
432,48,80500,54,0,P|336:80|292:60,1,127.500004863739,2|0,1:0|0:0,0:0:0:0:
72,132,80950,2,0,P|172:146|211:119,1,127.500004863739,2|0,1:0|0:0,0:0:0:0:
432,264,81400,2,0,P|332:243|304:204,1,127.500004863739,2|0,1:0|0:0,0:0:0:0:
100,324,81850,2,0,P|194:286|214:243,1,127.500004863739,2|0,1:0|0:0,0:0:0:0:
260,144,82300,6,0,P|251:103|254:61,1,85,2|0,1:0|1:0,0:0:0:0:
464,160,82600,5,0,1:0:0:0:
450,179,82675,1,0,1:0:0:0:
429,191,82750,1,0,1:0:0:0:
406,194,82825,1,0,1:0:0:0:
383,188,82900,1,2,1:0:0:0:
340,96,83050,5,0,1:0:0:0:
300,264,83200,2,0,P|292:196|268:152,1,85,0|0,1:0|1:0,0:0:0:0:
188,144,83500,1,0,1:0:0:0:
84,272,83650,1,0,1:0:0:0:
84,272,83725,1,0,1:0:0:0:
84,272,83800,2,0,P|91:339|116:384,1,85,0|0,1:0|1:0,1:0:0:0:
232,384,84100,2,0,P|224:316|200:272,1,85,0|0,1:0|1:0,1:0:0:0:
40,164,84400,5,0,1:0:0:0:
168,224,84550,1,0,1:0:0:0:
268,148,84700,1,2,1:1:0:0:
356,232,84850,2,0,L|356:204,4,21.25,0|0|0|0|0,1:0|1:0|1:0|1:0|1:0,1:0:0:0:
444,168,85150,1,0,1:0:0:0:
504,256,85300,1,2,1:0:0:0:
268,169,85450,6,0,L|268:145,4,21.25,0|0|0|0|0,1:0|1:0|1:0|1:0|1:0,1:0:0:0:
168,264,85750,2,0,L|168:285,4,21.25,0|0|0|0|0,1:0|1:0|1:0|1:0|1:0,1:0:0:0:
80,176,86050,2,0,L|76:148,4,21.25,0|0|0|0|0,1:0|1:0|1:0|1:0|1:0,1:0:0:0:
4,272,86350,2,0,L|8:292,2,21.25,0|0|0,1:0|1:0|1:0,1:0:0:0:
92,348,86500,37,2,1:0:0:0:
392,96,87100,5,0,0:0:0:0:
388,114,87175,1,0,1:0:0:0:
386,132,87250,1,0,1:0:0:0:
384,151,87325,1,0,1:0:0:0:
383,169,87400,1,0,1:0:0:0:
383,188,87475,1,0,1:0:0:0:
383,207,87550,1,0,1:0:0:0:
384,225,87625,1,0,1:0:0:0:
386,244,87700,1,2,0:3:0:0:
136,76,88150,5,4,1:0:0:0:
164,372,89800,6,0,L|228:364,3,42.5,0|0|0|0,1:0|1:0|1:0|1:0,1:0:0:0:
348,320,90100,2,0,L|284:312,3,42.5,0|0|0|0,1:0|1:0|1:0|1:0,1:0:0:0:
168,256,90400,2,0,L|232:248,3,42.5,0|0|0|0,1:0|1:0|1:0|1:0,1:0:0:0:
348,192,90700,2,0,L|284:184,3,42.5,0|0|0|0,1:0|1:0|1:0|1:0,1:0:0:0:
172,124,91000,2,0,L|236:116,3,42.5,0|0|0|0,1:0|1:0|1:0|1:0,1:0:0:0:
329,58,91300,38,0,L|308:56,16,21.25,0|0|0|0|0|0|0|0|0|0|0|0|0|0|0|0|0,1:0|1:0|1:0|1:0|1:0|1:0|1:0|1:0|1:0|1:0|1:0|1:0|1:0|1:0|1:0|1:0|1:0,1:0:0:0:
352,200,92500,5,0,1:0:0:0:
444,184,92650,1,2,3:3:0:0:
184,132,92950,5,0,1:0:0:0:
92,116,93100,1,2,3:3:0:0:
332,328,93400,5,0,1:0:0:0:
424,312,93550,1,2,3:3:0:0:
196,216,93850,37,0,1:0:0:0:
104,200,94000,1,2,3:3:0:0:
256,317,94300,6,0,B|326:192|185:192|256:66,1,267.749991828919,0|0,1:0|0:0,0:0:0:0:
256,192,95650,12,0,97000,0:0:0:0:
288,296,97300,5,0,1:0:0:0:
224,88,97450,1,2,0:3:0:0:
138,192,97750,6,0,B|228:219|228:219|283:164|283:164|373:192,1,267.749991828919,4|0,1:0|0:0,0:0:0:0:
328,320,99400,37,0,1:0:0:0:
328,320,99475,1,0,1:0:0:0:
328,320,99550,1,0,1:0:0:0:
328,320,99625,1,0,1:0:0:0:
328,320,99700,2,0,L|320:252,2,42.5000016212464,0|0|0,1:0|1:0|1:0,1:0:0:0:
328,64,100000,6,0,L|320:132,2,42.5000016212464,0|0|0,1:0|1:0|1:0,1:0:0:0:
216,312,100300,6,0,L|208:244,2,42.5000016212464,0|0|0,1:0|1:0|1:0,1:0:0:0:
216,72,100600,6,0,L|208:140,2,42.5000016212464,0|0|0,1:0|1:0|1:0,1:0:0:0:
116,296,100900,38,0,L|108:228,2,42.5000016212464,0|0|0,1:0|1:0|1:0,1:0:0:0:
116,88,101200,6,0,L|108:156,2,42.5000016212464,0|0|0,1:0|1:0|1:0,1:0:0:0:
32,192,101500,5,0,1:0:0:0:
196,160,101700,1,0,0:0:0:0:
336,240,101900,1,0,0:0:0:0:
428,104,102100,5,0,1:0:0:0:
352,32,102250,2,0,P|296:16|252:24,1,76.4999976654053,2|0,3:3|0:0,0:0:0:0:
72,168,102550,37,0,1:0:0:0:
159,110,102700,2,0,P|216:103|258:119,1,76.4999976654053,2|0,3:3|0:0,0:0:0:0:
404,248,103000,5,0,1:0:0:0:
308,205,103150,2,0,P|249:209|211:231,1,76.4999976654053,2|0,3:3|0:0,0:0:0:0:
100,348,103450,5,0,1:0:0:0:
201,323,103600,2,0,P|257:337|291:366,1,76.4999976654053,2|0,3:3|0:0,0:0:0:0:
256,192,103900,5,0,1:0:0:0:
256,192,104050,12,2,106300,0:0:0:0:
