osu file format v14

[General]
AudioFilename: audio.mp3
AudioLeadIn: 0
PreviewTime: 67900
Countdown: 0
SampleSet: Soft
StackLeniency: 0.5
Mode: 0
LetterboxInBreaks: 0
WidescreenStoryboard: 0

[Editor]
DistanceSpacing: 0.5
BeatDivisor: 8
GridSize: 4
TimelineZoom: 2.799999

[Metadata]
Title:Black Lotus
TitleUnicode:Black Lotus
Artist:wa.
ArtistUnicode:wa.
Creator:Frostings
Version:Hard
Source:
Tags:bofu2016 of fighters ultimate legendary again BMS instrumental electronic
BeatmapID:1244469
BeatmapSetID:582024

[Difficulty]
HPDrainRate:5
CircleSize:3.7
OverallDifficulty:7
ApproachRate:8
SliderMultiplier:1.3
SliderTickRate:1

[Events]
//Background and Video events
0,0,"bg.png",0,0
//Break Periods
2,3899,5350
2,61499,62950
//Storyboard Layer 0 (Background)
//Storyboard Layer 1 (Fail)
//Storyboard Layer 2 (Pass)
//Storyboard Layer 3 (Foreground)
//Storyboard Layer 4 (Overlay)
//Storyboard Sound Samples

[TimingPoints]
100,300,4,2,1,80,1,0
1450,-250,4,2,1,80,0,0
3100,-133.333333333333,4,2,1,80,0,0
6250,-250,4,2,1,80,0,0
7900,-133.333333333333,4,2,1,80,0,0
9700,-153.846153846154,4,2,1,80,0,0
10900,-133.333333333333,4,2,1,80,0,0
18250,-100,4,2,1,80,0,0
19150,-133.333333333333,4,2,1,80,0,0
19900,-100,4,2,1,80,0,0
30550,-200,4,2,1,80,0,0
32200,-100,4,2,1,80,0,0
36850,-250,4,2,1,80,0,0
39850,-100,4,2,1,80,0,0
57550,-111.111111111111,4,2,1,80,0,0
63850,-200,4,2,1,80,0,0
65500,-133.333333333333,4,2,1,80,0,0
68500,-100,4,2,1,80,0,1
80500,-80,4,2,1,80,0,1
82300,-100,4,2,1,80,0,1
87700,-100,4,2,1,80,0,0
106300,-100,4,2,1,30,0,0

[Colours]
Combo1 : 100,100,179
Combo2 : 60,0,119
Combo3 : 0,185,0
Combo4 : 75,67,233
Combo5 : 7,122,207
Combo6 : 7,211,222

[HitObjects]
132,202,1300,37,0,1:0:0:0:
132,202,1450,2,0,B|261:259|250:124|379:181,1,260,4|0,0:3|0:0,0:0:0:0:
324,288,3100,2,0,L|328:320,8,24.3750009298325,0|0|0|0|0|0|0|0|4,1:0|1:0|1:0|1:0|1:0|1:0|1:0|1:0|1:0,1:0:0:0:
374,192,6100,5,0,1:0:0:0:
374,192,6250,2,0,B|283:215|283:215|228:168|228:168|137:192,1,260,4|0,0:3|0:0,0:0:0:0:
48,212,7900,2,0,L|44:176,8,24.3750009298325,0|0|0|0|0|0|0|0|0,1:0|1:0|1:0|1:0|1:0|1:0|1:0|1:0|1:0,1:0:0:0:
120,280,8725,2,0,L|116:368,2,73.1250027894975,0|0|0,1:0|1:0|1:0,1:0:0:0:
216,244,9400,1,4,1:0:0:0:
400,176,9700,6,0,B|274:229|286:101|160:155,1,253.499988395691
72,204,10900,6,0,P|60:140|52:124,1,73.1250027894975,6|0,1:0|0:0,0:0:0:0:
36,100,11200,2,0,P|92:104|104:104,1,48.750001859665,2|0,1:0|0:0,0:0:0:0:
172,212,11500,2,0,P|165:283|165:331,1,97.50000371933,2|2,1:0|1:0,0:0:0:0:
376,300,12100,2,0,P|372:240|364:212,1,73.1250027894975,2|0,1:0|0:0,0:0:0:0:
360,200,12400,1,2,1:0:0:0:
312,100,12700,2,0,P|376:112|424:100,1,97.50000371933,2|2,1:0|1:0,0:0:0:0:
476,32,13300,37,2,1:0:0:0:
456,200,13600,1,2,1:0:0:0:
312,100,13900,2,0,P|248:88|200:100,1,97.50000371933,2|2,1:0|1:0,0:0:0:0:
144,296,14500,2,0,P|208:308|256:296,1,97.50000371933,2|2,1:0|1:0,0:0:0:0:
412,216,15100,2,0,B|315:252|323:163|226:199,1,195.00000743866,2|0,1:1|1:0,0:0:0:0:
104,280,16000,6,0,L|108:220,1,48.750001859665,0|0,1:0|0:0,0:0:0:0:
20,144,16300,2,0,L|24:212,1,48.750001859665,0|0,1:0|0:0,0:0:0:0:
116,140,16600,2,0,L|232:128,1,97.50000371933,0|0,1:0|1:0,0:0:0:0:
328,289,17200,2,0,L|280:284,1,48.750001859665,0|0,1:0|0:0,0:0:0:0:
320,184,17500,2,0,L|368:179,1,48.750001859665,0|0,1:0|0:0,0:0:0:0:
428,316,17800,2,0,L|420:248,1,48.750001859665,0|0,1:0|0:0,0:0:0:0:
504,216,18100,5,0,1:0:0:0:
444,124,18250,2,0,L|444:108,4,16.25,0|0|0|0|0,1:0|1:0|1:0|1:0|1:0,1:0:0:0:
352,76,18550,2,0,L|348:60,4,16.25,0|0|0|0|0,1:0|1:0|1:0|1:0|1:0,1:0:0:0:
252,84,18850,2,0,L|243:70,4,16.25,0|0|0|0|0,1:0|1:0|1:0|1:0|1:0,1:0:0:0:
152,201,19150,6,0,B|260:247|251:136|359:182,1,219.375008368492,0|0,1:0|0:0,0:0:0:0:
432,208,19900,2,0,L|440:148,3,32.5
496,256,20200,2,0,L|514:198,3,32.5
512,332,20500,1,2,1:3:0:0:
256,192,20950,37,4,1:0:0:0:
88,188,22600,6,0,L|84:144,3,32.5,0|0|0|0,1:0|1:0|1:0|1:0,1:0:0:0:
164,228,22900,2,0,L|161:260,3,32.5,0|0|0|0,1:0|1:0|1:0|1:0,1:0:0:0:
228,176,23200,2,0,L|224:132,3,32.5,0|0|0|0,1:0|1:0|1:0|1:0,1:0:0:0:
304,220,23500,2,0,L|301:252,3,32.5,0|0|0|0,1:0|1:0|1:0|1:0,1:0:0:0:
372,172,23800,2,0,L|368:124,3,32.5,0|0|0|0,1:0|1:0|1:0|1:0,1:0:0:0:
436,224,24100,6,0,L|433:254,16,16.25,0|0|0|0|0|0|0|0|0|0|0|0|0|0|0|0|0,1:0|1:0|1:0|1:0|1:0|1:0|1:0|1:0|1:0|1:0|1:0|1:0|1:0|1:0|1:0|1:0|1:0,1:0:0:0:
104,308,25300,6,0,L|168:296,1,65,0|2,1:0|3:3,0:0:0:0:
408,308,25750,2,0,L|343:296,1,65,0|2,1:0|3:3,0:0:0:0:
104,88,26200,2,0,L|166:106,1,65,0|2,1:0|3:3,0:0:0:0:
408,88,26650,2,0,L|345:106,1,65,0|2,1:0|3:3,0:0:0:0:
256,192,27100,37,4,1:0:0:0:
256,192,27250,12,0,29800,0:0:0:0:
256,192,30100,5,0,1:0:0:0:
252,78,30550,6,0,L|258:304,1,227.5,4|0,1:0|0:0,0:0:0:0:
452,32,32200,6,0,L|508:44,3,32.5,0|0|0|0,1:0|1:0|1:0|1:0,1:0:0:0:
384,80,32500,2,0,L|328:92,2,43.3333333333333,0|0|0,1:0|1:0|1:0,1:0:0:0:
440,140,32800,2,0,L|496:152,2,43.3333333333333,0|0|0,1:0|1:0|1:0,1:0:0:0:
372,184,33100,2,0,L|316:196,2,43.3333333333333,0|0|0,1:0|1:0|1:0,1:0:0:0:
432,236,33400,2,0,L|488:248,2,43.3333333333333,0|0|0,1:0|1:0|1:0,1:0:0:0:
376,292,33700,2,0,L|320:304,2,43.3333333333333,0|0|0,1:0|1:0|1:0,1:0:0:0:
436,348,34000,2,0,L|492:360,2,43.3333333333333,0|0|0,1:0|1:0|1:0,1:0:0:0:
364,384,34300,37,0,1:0:0:0:
172,128,34900,5,0,1:0:0:0:
172,128,35050,1,2,3:3:0:0:
340,256,35350,1,0,1:0:0:0:
340,256,35500,1,2,3:3:0:0:
320,108,35800,1,0,1:0:0:0:
320,108,35950,1,2,3:3:0:0:
192,276,36250,1,0,1:0:0:0:
192,276,36400,1,2,3:3:0:0:
256,192,36700,5,4,1:0:0:0:
256,192,36850,2,0,B|245:137|245:137|266:97|266:97|256:43,1,156,2|0,0:3|0:0,0:0:0:0:
256,192,38050,12,2,39100,0:0:0:0:
348,84,39700,5,4,1:0:0:0:
348,84,39850,1,0,0:0:0:0:
420,136,40000,2,0,L|412:220,1,65,2|0,1:0|0:0,0:0:0:0:
264,228,40300,2,0,L|252:88,2,130,0|0|0,1:0|1:0|1:0,0:0:0:0:
340,296,41050,1,0,0:0:0:0:
172,264,41200,2,0,L|96:252,1,65,2|0,1:0|0:0,0:0:0:0:
36,160,41500,2,0,L|112:148,1,65,0|0,1:0|0:0,0:0:0:0:
204,104,41800,2,0,L|196:196,1,65,0|0,1:0|0:0,0:0:0:0:
296,272,42100,38,0,L|292:124,2,130,0|2|0,1:0|1:0|1:0,0:0:0:0:
476,328,43000,2,0,L|488:248,1,65,0|0,1:0|0:0,0:0:0:0:
512,164,43300,2,0,P|466:180|379:150,1,130,0|2,1:0|1:0,0:0:0:0:
232,72,43900,2,0,L|244:152,1,65,0|0,1:0|0:0,0:0:0:0:
148,196,44200,2,0,L|152:152,2,32.5,0|0|0,1:0|1:0|1:0,0:0:0:0:
44,88,44500,6,0,L|56:240,1,130,0|2,1:0|1:0,0:0:0:0:
8,308,44950,1,0,0:0:0:0:
112,304,45100,2,0,L|109:344,2,32.5,0|0|0,1:0|1:0|1:0,1:0:0:0:
208,368,45400,2,0,L|206:335,2,32.5,0|0|0,1:0|1:0|1:0,1:0:0:0:
292,304,45700,2,0,P|348:316|420:276,1,130,0|2,1:0|1:0,0:0:0:0:
480,108,46300,2,0,P|440:120|408:116,1,65,2|0,1:2|0:0,0:0:0:0:
288,36,46600,2,0,P|328:48|360:44,1,65,2|0,1:2|0:0,0:0:0:0:
440,16,46900,5,0,1:0:0:0:
348,272,47200,2,0,P|340:192|320:132,1,130,2|0,1:0|1:0,0:0:0:0:
228,124,47650,1,0,0:0:0:0:
156,196,47800,2,0,P|100:204|64:200,1,65,0|0,1:0|0:0,0:0:0:0:
52,40,48100,2,0,P|116:24|192:56,1,130,2|2,1:2|1:0,0:0:0:0:
256,248,48700,1,0,1:0:0:0:
352,228,48850,2,0,L|356:252,12,16.25,0|0|0|0|0|0|0|0|0|0|0|0|4,1:0|1:0|1:0|1:0|3:0|0:0|0:0|0:0|1:0|1:0|1:0|1:0|1:0,1:0:0:0:
460,92,49600,6,0,L|448:232,1,130,2|0,1:0|1:0,0:0:0:0:
504,304,50050,1,0,0:0:0:0:
352,228,50200,2,0,L|272:224,1,65,0|0,1:0|0:0,0:0:0:0:
168,136,50500,2,0,L|248:132,1,65,0|0,1:0|0:0,0:0:0:0:
140,236,50800,2,0,L|152:372,1,130,2|2,1:0|1:2,0:0:0:0:
48,268,51250,1,0,0:0:0:0:
243,293,51400,2,0,L|247:217,1,65,2|0,1:2|0:0,0:0:0:0:
340,288,51700,38,0,P|390:308|468:283,1,130,2|2,1:2|1:0,0:0:0:0:
500,196,52150,1,0,0:0:0:0:
404,168,52300,2,0,P|360:188|336:192,1,65,0|0,1:0|0:0,0:0:0:0:
264,96,52600,2,0,P|312:100|336:96,1,65,0|0,1:0|0:0,0:0:0:0:
244,196,52900,2,0,P|260:272|256:340,1,130,0|2,1:0|1:0,0:0:0:0:
156,356,53350,1,0,0:0:0:0:
68,292,53500,2,0,P|76:232|88:208,2,65,0|0|0,1:0|0:0|1:0,0:0:0:0:
184,248,53950,1,0,0:0:0:0:
258,323,54100,6,0,P|330:343|394:319,1,130,0|2,1:0|1:2,0:0:0:0:
224,192,54700,2,0,P|152:212|88:188,1,130,0|0,1:0|1:0,0:0:0:0:
312,120,55300,2,0,P|384:140|448:116,1,130,0|2,1:0|1:0,0:0:0:0:
208,44,55900,2,0,P|136:64|72:40,1,130,0|0,1:0|1:0,0:0:0:0:
256,132,56500,5,0,1:0:0:0:
256,132,56650,2,0,L|259:164,2,32.5,0|0|2,1:0|1:0|1:0,1:0:0:0:
264,240,56950,2,0,L|260:272,2,32.5,0|0|0,1:0|1:0|1:0,1:0:0:0:
260,348,57250,2,0,L|263:380,4,32.5,0|0|0|0|0,1:0|1:0|1:0|1:0|1:0,1:0:0:0:
172,198,57700,6,0,B|258:232|252:150|338:184,1,175.499994644165,0|0,1:0|0:0,0:0:0:0:
420,192,58300,2,0,L|415:143,3,29.2499991073609
376,288,58600,2,0,L|371:239,3,29.2499991073609
444,336,58900,37,0,1:0:0:0:
444,336,59050,1,4,1:0:0:0:
72,232,60700,6,0,L|68:200,8,29.2499991073609,0|0|0|0|0|0|0|0|4,0:0|0:0|0:0|0:0|1:0|0:0|0:0|0:0|0:1,0:0:0:0:
224,64,63700,5,0,1:0:0:0:
224,64,63850,2,0,B|280:104|280:104|240:152|240:152|268:196|268:196|252:232|252:232|256:304,1,292.5,4|0,1:0|0:0,0:0:0:0:
376,240,65500,2,0,L|380:212,8,24.3750009298325,0|0|0|0|0|0|0|0|0,1:0|1:0|1:0|1:0|1:0|1:0|1:0|1:0|1:0,1:0:0:0:
440,320,66325,5,0,1:0:0:0:
284,192,66550,1,0,1:0:0:0:
196,304,66775,1,0,1:0:0:0:
84,236,67000,2,0,L|88:264,8,24.3750009298325,0|0|0|0|0|0|0|0|0,1:0|1:0|1:0|1:0|1:0|1:0|1:0|1:0|1:0,1:0:0:0:
8,180,67750,1,0,1:0:0:0:
8,180,67825,1,0,1:0:0:0:
8,180,67900,1,0,1:0:0:0:
100,132,68500,38,0,P|152:144|192:136,1,65,6|0,1:0|0:0,0:0:0:0:
240,88,68800,1,0,1:0:0:0:
328,124,68950,2,0,L|336:44,2,65,2|0|0,0:1|1:0|0:0,0:0:0:0:
416,160,69400,2,0,L|428:312,1,130,0|2,1:0|1:0,0:0:0:0:
512,320,69850,1,0,0:0:0:0:
348,332,70000,2,0,L|271:356,1,65,0|2,1:0|0:1,0:0:0:0:
216,248,70300,2,0,L|284:251,1,65,0|0,1:0|0:0,0:0:0:0:
180,352,70600,1,0,1:0:0:0:
128,92,70900,6,0,P|209:123|275:104,1,130,2|0,1:0|1:0,0:0:0:0:
352,68,71350,2,0,P|344:124|344:156,1,65,2|0,0:1|1:0,0:0:0:0:
424,188,71650,1,0,0:0:0:0:
296,272,71800,2,0,P|293:239|287:207,1,65,0|0,1:0|0:0,0:0:0:0:
72,244,72100,6,0,P|127:209|201:221,1,130,2|0,1:0|1:0,0:0:0:0:
204,316,72550,2,0,L|208:380,1,65,2|0,0:1|1:0,0:0:0:0:
296,272,72850,1,0,0:0:0:0:
388,376,73000,2,0,L|392:296,1,65,0|0,1:0|1:0,0:0:0:0:
508,184,73300,6,0,P|466:211|371:193,1,130,2|0,1:0|1:0,0:0:0:0:
344,116,73750,1,0,0:0:0:0:
296,272,73900,2,0,P|292:220|280:180,1,65,0|0,1:0|0:0,0:0:0:0:
104,280,74200,2,0,P|108:332|120:372,1,65,0|0,1:0|0:0,0:0:0:0:
200,284,74500,38,0,P|185:201|156:136,1,130,0|0,1:0|1:0,0:0:0:0:
144,64,74950,2,0,P|192:76|232:72,1,65,2|0,0:1|1:0,0:0:0:0:
280,24,75250,1,0,0:0:0:0:
332,144,75400,2,0,P|300:153|268:154,1,65,2|0,1:0|0:0,0:0:0:0:
184,232,75700,5,2,1:0:0:0:
184,232,75850,1,0,0:0:0:0:
88,248,76000,1,0,1:0:0:0:
88,248,76075,1,0,1:0:0:0:
88,248,76150,2,0,L|80:192,2,32.5
256,300,76450,1,0,1:0:0:0:
352,256,76600,2,0,L|348:316,3,32.5,0|0|0|0,1:0|1:0|1:0|1:0,1:0:0:0:
452,320,76900,6,0,L|444:176,1,130,0|0,1:0|1:0,0:0:0:0:
444,190,77275,1,0,1:0:0:0:
444,190,77350,2,0,P|405:181|368:160,1,65
256,300,77650,2,0,P|164:324|104:304,1,130,0|0,1:0|0:0,0:0:0:0:
32,336,78100,6,0,P|40:284|40:248,1,65,2|0,1:0|0:0,0:0:0:0:
52,168,78400,1,0,1:0:0:0:
52,168,78550,2,0,P|81:182|140:188,1,65,2|0,0:1|1:0,0:0:0:0:
188,128,78850,1,0,0:0:0:0:
284,164,79000,2,0,L|276:36,1,97.5,0|0,1:0|0:0,0:0:0:0:
276,36,79300,37,2,1:0:0:0:
384,116,79450,2,0,L|380:200,2,65,0|0|2,0:0|1:0|0:1,0:0:0:0:
480,164,79900,2,0,L|488:248,1,65,0|0,1:0|0:0,0:0:0:0:
277,228,80200,2,0,L|283:163,1,65,0|0,1:0|1:0,0:0:0:0:
372,284,80500,54,0,B|404:260|404:260|416:400,1,162.5,2|0,1:0|0:0,0:0:0:0:
128,328,80950,2,0,B|180:340|180:340|228:315|228:315|281:328,1,162.5,2|0,1:0|0:0,0:0:0:0:
336,160,81400,2,0,B|294:230|294:230|242:168,1,162.5,2|0,1:0|0:0,0:0:0:0:
152,228,81850,2,0,L|132:56,1,162.5,2|0,1:0|0:0,0:0:0:0:
256,16,82300,6,0,P|252:48|256:96,1,65,2|0,1:0|1:0,0:0:0:0:
356,116,82600,6,0,L|364:56,4,32.5,0|0|0|0|2,1:0|1:0|1:0|1:0|1:0,1:0:0:0:
288,196,83050,2,0,L|208:234,2,65,0|0|0,1:0|1:0|0:0,0:0:0:0:
392,208,83500,2,0,L|465:257,1,65,0|0,1:0|1:0,0:0:0:0:
268,372,83800,2,0,L|244:282,1,65,0|0,1:0|1:0,0:0:0:0:
396,356,84100,5,0,1:0:0:0:
312,244,84250,1,0,1:0:0:0:
160,200,84400,2,0,P|192:199|224:196,1,65,0|0,1:0|1:0,0:0:0:0:
144,292,84700,2,0,P|111:288|79:288,1,65,2|0,1:0|1:0,0:0:0:0:
80,108,85000,2,0,P|112:108|145:105,1,65,0|0,1:0|1:0,0:0:0:0:
200,32,85300,5,2,1:0:0:0:
322,222,85450,2,0,L|319:198,4,16.25,0|0|0|0|0,1:0|1:0|1:0|1:0|1:0,1:0:0:0:
196,192,85750,2,0,L|199:167,4,16.25,0|0|0|0|0,1:0|1:0|1:0|1:0|1:0,1:0:0:0:
308,112,86050,2,0,L|305:94,4,16.25,0|0|0|0|0,1:0|1:0|1:0|1:0|1:0,1:0:0:0:
248,12,86350,1,0,1:0:0:0:
256,192,86500,5,2,1:0:0:0:
104,88,87100,2,0,L|108:132,6,32.5,0|0|0|0|0|0|0,1:0|1:0|1:0|1:0|1:0|1:0|1:0,1:0:0:0:
20,40,87700,37,0,1:0:0:0:
224,248,88150,5,4,1:0:0:0:
367,122,89800,6,0,L|336:116,3,32.5,0|0|0|0,1:0|1:0|1:0|1:0,1:0:0:0:
284,52,90100,2,0,L|244:60,3,32.5,0|0|0|0,1:0|1:0|1:0|1:0,1:0:0:0:
232,136,90400,2,0,L|200:129,3,32.5,0|0|0|0,1:0|1:0|1:0|1:0,1:0:0:0:
152,64,90700,2,0,L|112:72,3,32.5,0|0|0|0,1:0|1:0|1:0|1:0,1:0:0:0:
84,144,91000,2,0,L|52:137,3,32.5,0|0|0|0,1:0|1:0|1:0|1:0,1:0:0:0:
32,60,91300,6,0,L|28:36,16,16.25,0|0|0|0|0|0|0|0|0|0|0|0|0|0|0|0|0,1:0|1:0|1:0|1:0|1:0|1:0|1:0|1:0|1:0|1:0|1:0|1:0|1:0|1:0|1:0|1:0|1:0,1:0:0:0:
144,332,92500,38,0,L|132:256,1,65,0|2,1:0|3:3,0:0:0:0:
360,296,92950,2,0,L|372:220,1,65,0|2,1:0|3:3,0:0:0:0:
176,168,93400,2,0,L|164:92,1,65,0|2,1:0|3:3,0:0:0:0:
328,128,93850,2,0,L|340:52,1,65,0|2,1:0|3:3,0:0:0:0:
256,192,94300,5,4,1:0:0:0:
256,192,94450,12,0,97000,0:0:0:0:
144,168,97300,5,0,1:0:0:0:
368,216,97750,1,4,1:0:0:0:
192,16,99400,6,0,L|224:20,3,32.5,0|0|0|0,1:0|1:0|1:0|1:0,1:0:0:0:
328,72,99700,2,0,L|280:80,2,43.3333333333333,0|0|0,1:0|1:0|1:0,1:0:0:0:
184,132,100000,2,0,L|232:140,2,43.3333333333333,0|0|0,1:0|1:0|1:0,1:0:0:0:
336,180,100300,2,0,L|288:188,2,43.3333333333333,0|0|0,1:0|1:0|1:0,1:0:0:0:
184,232,100600,2,0,L|232:240,2,43.3333333333333,0|0|0,1:0|1:0|1:0,1:0:0:0:
340,284,100900,2,0,L|292:292,2,43.3333333333333,0|0|0,1:0|1:0|1:0,1:0:0:0:
176,332,101200,2,0,L|224:340,2,43.3333333333333,0|0|0,1:0|1:0|1:0,1:0:0:0:
304,384,101500,37,0,1:0:0:0:
96,96,102100,5,0,1:0:0:0:
96,96,102250,2,0,L|104:176,1,65,2|0,3:3|0:0,0:0:0:0:
200,220,102550,5,0,1:0:0:0:
200,220,102700,2,0,L|208:140,1,65,2|0,3:3|0:0,0:0:0:0:
296,84,103000,5,0,1:0:0:0:
296,84,103150,2,0,L|304:164,1,65,2|0,3:3|0:0,0:0:0:0:
400,208,103450,37,0,1:0:0:0:
400,208,103600,2,0,L|408:128,1,65,2|0,3:3|0:0,0:0:0:0:
256,192,103900,5,4,1:0:0:0:
256,192,104050,12,2,106300,0:0:0:0:
